osu file format v14

[General]
AudioFilename: audio.mp3
AudioLeadIn: 0
PreviewTime: 55803
Countdown: 0
SampleSet: Soft
StackLeniency: 0.3
Mode: 0
LetterboxInBreaks: 0
EpilepsyWarning: 1
WidescreenStoryboard: 0

[Editor]
Bookmarks: 151,14064,27984,41890,55810,69723,83636,97549,111462,125375,139288,153201,167114,181027,194940,208853,222766,236679,250592,264505,278418,292331,306244,313201
DistanceSpacing: 1.4
BeatDivisor: 4
GridSize: 4
TimelineZoom: 1.6

[Metadata]
Title:Bad Apple!!
TitleUnicode:Bad Apple!!
Artist:Masayoshi Minoshima ft. nomico
ArtistUnicode:簑島 正佳 ft. nomico
Creator:Cosmolade
Version:Monochrome
Source:東方Project
Tags:touhou
BeatmapID:1173313
BeatmapSetID:554190

[Difficulty]
HPDrainRate:6
CircleSize:4
OverallDifficulty:7
ApproachRate:9
SliderMultiplier:1.4
SliderTickRate:1

[Events]
//Background and Video events
0,0,"BG.jpg",0,0
//Break Periods
2,55857,69116
2,139481,166507
2,236654,249985
2,264481,277811
//Storyboard Layer 0 (Background)
//Storyboard Layer 1 (Fail)
//Storyboard Layer 2 (Pass)
//Storyboard Layer 3 (Foreground)
//Storyboard Sound Samples

[TimingPoints]
151,434.782608695652,4,2,1,50,1,0
41890,-111.111111111111,4,2,1,50,0,0
42759,-133.333333333333,4,2,1,50,0,0
43194,-111.111111111111,4,2,1,50,0,0
44498,-133.333333333333,4,2,1,50,0,0
44933,-111.111111111111,4,2,1,50,0,0
46237,-133.333333333333,4,2,1,50,0,0
46672,-111.111111111111,4,2,1,50,0,0
47977,-133.333333333333,4,2,1,50,0,0
48411,-111.111111111111,4,2,1,50,0,0
49716,-133.333333333333,4,2,1,50,0,0
50150,-111.111111111111,4,2,1,50,0,0
51455,-133.333333333333,4,2,1,50,0,0
51890,-111.111111111111,4,2,1,50,0,0
53194,-133.333333333333,4,2,1,50,0,0
53629,-111.111111111111,4,2,1,50,0,0
54933,-100,4,2,1,50,0,0
83629,-83.3333333333333,4,2,1,50,0,0
111455,-133.333333333333,4,2,1,50,0,0
138411,-83.3333333333333,4,2,1,50,0,1
138737,-83.3333333333333,4,2,1,10,0,0
138846,-83.3333333333333,4,2,1,50,0,1
139172,-83.3333333333333,4,2,1,10,0,0
139281,-100,4,2,1,50,0,0
167107,-90.9090909090909,4,2,1,50,0,0
193194,434.782608695652,4,2,1,50,1,0
193194,-71.4285714285714,4,2,1,50,0,0
193520,-71.4285714285714,4,2,1,5,0,0
193628,-71.4285714285714,4,2,1,50,0,0
193954,-71.4285714285714,4,2,1,5,0,0
194063,-71.4285714285714,4,2,1,50,0,0
194389,-71.4285714285714,4,2,1,5,0,0
194498,-71.4285714285714,4,2,1,50,0,0
194824,-71.4285714285714,4,2,1,5,0,0
194933,-90.9090909090909,4,2,1,50,0,0
208846,-62.5,4,2,1,50,0,1
221890,-200,4,2,1,50,0,0
222759,-111.111111111111,4,2,1,50,0,0
250585,-83.3333333333333,4,2,1,50,0,1
278411,-133.333333333333,4,2,1,50,0,0
291455,-86.9565217391303,4,2,1,50,0,0
291890,-74.0740740740741,4,2,1,50,0,0

[Colours]
Combo1 : 204,66,0
Combo2 : 191,191,191
Combo3 : 102,102,102
Combo4 : 176,0,0

[HitObjects]
96,152,151,6,0,L|120:64,1,70,4|0,0:0|0:0,0:0:0:0:
212,84,585,2,0,L|230:151,1,70,8|0,0:0|0:0,0:0:0:0:
284,236,1020,2,0,P|316:204|328:164,1,70,8|0,0:0|0:0,0:0:0:0:
192,240,1455,1,8,2:0:0:0:
192,240,1564,1,8,2:0:0:0:
192,240,1672,1,8,2:0:0:0:
192,240,1781,1,8,2:0:0:0:
192,240,1890,6,0,L|204:332,1,70,8|0,0:0|0:0,0:0:0:0:
296,284,2324,2,0,L|308:376,1,70,8|0,0:0|0:0,0:0:0:0:
396,312,2759,2,0,L|408:404,1,70,8|0,0:0|0:0,0:0:0:0:
368,188,3194,1,2,0:0:0:0:
296,284,3411,1,8,0:0:0:0:
260,112,3629,38,0,P|216:92|180:92,1,70,8|0,0:0|0:0,0:0:0:0:
135,167,4064,2,0,P|166:184|201:189,1,70,8|0,0:0|0:0,0:0:0:0:
194,90,4498,2,0,L|152:20,1,70,8|0,0:0|0:0,0:0:0:0:
201,189,4933,1,8,0:0:0:0:
201,189,5042,1,8,0:0:0:0:
201,189,5150,1,8,0:0:0:0:
201,189,5259,1,8,0:0:0:0:
201,189,5368,6,0,P|248:176|272:152,1,70,8|0,0:0|0:0,0:0:0:0:
120,152,5803,2,0,L|80:236,1,70,8|0,0:0|0:0,0:0:0:0:
124,328,6237,2,0,L|154:264,1,70,8|0,0:0|0:0,0:0:0:0:
208,132,6672,1,2,0:0:0:0:
256,280,6890,1,8,0:0:0:0:
304,132,7107,38,0,B|340:140|340:140|392:128,1,70,8|0,0:0|0:0,0:0:0:0:
376,36,7542,2,0,B|340:28|340:28|288:40,1,70,8|0,0:0|0:0,0:0:0:0:
224,84,7977,2,0,L|136:56,1,70,8|0,0:0|0:0,0:0:0:0:
28,24,8411,1,8,0:0:0:0:
28,24,8520,1,8,0:0:0:0:
28,24,8629,1,8,0:0:0:0:
28,24,8737,1,8,0:0:0:0:
28,24,8846,6,0,P|40:64|16:116,1,70,8|0,0:0|0:0,0:0:0:0:
16,188,9281,2,0,P|10:222|22:254,1,70,8|0,0:0|0:0,0:0:0:0:
120,256,9716,2,0,P|132:223|126:189,1,70,8|0,0:0|0:0,0:0:0:0:
22,254,10150,1,2,0:0:0:0:
124,352,10368,1,8,0:0:0:0:
204,240,10585,38,0,B|216:228|216:228|272:228,1,70,8|0,0:0|0:0,0:0:0:0:
320,312,11020,2,0,B|308:324|308:324|252:324,1,70,8|0,0:0|0:0,0:0:0:0:
269,228,11455,2,0,P|260:188|276:148,1,70,8|0,0:0|0:0,0:0:0:0:
380,80,11890,1,8,0:0:0:0:
380,80,11998,1,8,0:0:0:0:
380,80,12107,1,8,0:0:0:0:
380,80,12216,1,8,0:0:0:0:
380,80,12324,6,0,P|332:72|288:44,1,70,8|0,0:0|0:0,0:0:0:0:
198,63,12759,2,0,P|166:76|132:80,1,70,8|0,0:0|0:0,0:0:0:0:
236,188,13194,2,0,P|263:224|254:180,1,105,8|0,0:0|0:0,0:0:0:0:
256,144,13629,1,4,0:0:0:0:
380,296,14064,6,0,P|351:313|292:306,1,70,4|0,0:0|0:0,0:0:0:0:
281,285,14390,2,0,L|294:253,1,35,0|8,0:0|0:0,0:0:0:0:
239,310,14607,2,0,L|208:296,2,35,0|2|0,0:0|0:0|0:0,0:0:0:0:
228,228,14933,2,0,P|188:225|146:254,1,70,8|0,0:0|0:0,0:0:0:0:
130,273,15259,2,0,L|137:307,1,35,0|8,0:0|0:0,0:0:0:0:
92,247,15477,2,0,L|46:257,2,35,0|2|0,0:0|0:0|0:0,0:0:0:0:
122,181,15803,6,0,P|125:145|99:118,1,70,8|0,0:0|0:0,0:0:0:0:
58,114,16129,2,0,L|32:137,1,35,0|8,0:0|0:0,0:0:0:0:
91,53,16346,2,0,L|121:27,2,35,0|2|0,0:0|0:0|0:0,0:0:0:0:
165,83,16672,2,0,L|247:80,1,70,8|2,0:0|3:0,0:0:0:0:
280,79,16998,1,2,3:0:0:0:
280,79,17107,1,2,3:0:0:0:
328,155,17324,1,0,0:0:0:0:
278,231,17542,6,0,P|274:266|288:296,1,70,4|0,0:0|0:0,0:0:0:0:
326,322,17868,2,0,L|371:327,1,35,0|8,0:0|0:0,0:0:0:0:
344,254,18085,2,0,L|369:205,2,35,0|2|0,0:0|0:0|0:0,0:0:0:0:
412,276,18411,2,0,L|445:212,1,70,8|0,0:0|0:0,0:0:0:0:
440,168,18737,2,0,L|418:126,1,35,0|8,0:0|0:0,0:0:0:0:
357,153,18955,2,0,L|337:115,2,35,0|2|0,0:0|0:0|0:0,0:0:0:0:
388,70,19281,6,0,P|357:52|315:57,1,70,8|0,0:0|0:0,0:0:0:0:
283,73,19607,2,0,L|256:117,1,35,0|8,0:0|0:0,0:0:0:0:
211,54,19824,2,0,L|162:41,2,35,2|0|0,0:0|0:0|0:0,0:0:0:0:
197,125,20150,2,0,P|170:148|128:156,1,70,8|2,0:0|3:0,0:0:0:0:
76,191,20476,1,2,3:0:0:0:
137,227,20585,2,0,P|170:236|197:259,1,70,2|0,3:0|0:0,0:0:0:0:
209,329,20911,1,0,3:0:0:0:
278,339,21020,6,0,P|309:325|339:274,1,70,4|0,0:0|0:0,0:0:0:0:
328,252,21346,2,0,L|294:244,1,35,0|8,0:0|0:0,0:0:0:0:
374,234,21563,2,0,L|383:192,2,35,0|2|0,0:0|0:0|0:0,0:0:0:0:
433,156,21889,2,0,P|401:131|348:144,1,70,8|0,0:0|0:0,0:0:0:0:
327,133,22215,2,0,L|319:168,1,35,0|8,0:0|0:0,0:0:0:0:
295,101,22433,2,0,L|249:89,2,35,0|2|0,0:0|0:0|0:0,0:0:0:0:
237,160,22759,6,0,P|203:166|165:150,1,70,8|0,0:0|0:0,0:0:0:0:
166,108,23085,2,0,L|178:65,1,35,0|8,0:0|0:0,0:0:0:0:
114,89,23302,2,0,L|80:56,2,35,0|2|0,0:0|0:0|0:0,0:0:0:0:
102,158,23628,2,2,P|88:192|59:219,1,70,10|2,0:0|3:0,0:0:0:0:
28,242,23954,1,2,3:0:0:0:
28,242,24064,1,2,3:0:0:0:
81,327,24280,1,2,3:0:0:0:
81,327,24390,1,2,3:0:0:0:
81,327,24498,6,0,P|113:339|146:334,1,70,4|0,0:0|0:0,0:0:0:0:
188,309,24824,2,0,L|205:266,1,35,0|8,0:0|0:0,0:0:0:0:
227,345,25041,2,0,L|251:368,2,35,0|2|0,0:0|0:0|0:0,0:0:0:0:
270,291,25367,2,0,P|270:252|234:212,1,70,8|0,0:0|0:0,0:0:0:0:
228,188,25693,6,0,L|185:201,1,35,0|8,0:0|0:0,0:0:0:0:
240,135,25911,2,0,L|227:92,2,35,0|2|0,0:0|0:0|0:0,0:0:0:0:
309,134,26237,6,0,P|339:124|365:91,1,70,8|0,0:0|0:0,0:0:0:0:
401,70,26564,2,0,L|437:90,1,35,0|8,0:0|0:0,0:0:0:0:
409,152,26781,2,0,L|419:188,2,35,0|2|0,0:0|0:0|0:0,0:0:0:0:
348,200,27107,6,0,L|368:269,2,46.6666666666667,4|8|8,0:0|0:0|0:0,0:0:0:0:
271,81,27542,6,0,L|291:4,2,46.6666666666667,4|8|8,0:0|0:0|0:0,0:0:0:0:
129,75,27977,6,0,L|141:223,1,140,4|8,0:0|0:0,0:0:0:0:
152,311,28629,1,2,0:0:0:0:
249,206,28846,2,0,L|255:291,1,70,8|2,0:0|0:0,0:0:0:0:
264,373,29280,1,8,0:0:0:0:
345,317,29498,1,0,0:0:0:0:
328,171,29716,6,0,P|300:133|251:112,1,70,8|2,0:0|0:0,0:0:0:0:
186,97,30150,1,8,0:0:0:0:
189,195,30368,1,2,0:0:0:0:
100,290,30585,1,8,0:0:0:0:
44,181,30803,1,2,3:0:0:0:
40,171,30911,1,0,3:0:0:0:
35,161,31020,1,12,3:0:0:0:
114,75,31237,1,2,3:0:0:0:
118,84,31346,1,0,3:0:0:0:
122,93,31455,6,0,L|160:158,1,70,4|2,0:0|0:0,0:0:0:0:
210,236,31890,1,8,0:0:0:0:
268,314,32107,1,0,0:0:0:0:
361,202,32324,2,0,P|374:170|379:135,1,70,8|2,0:0|0:0,0:0:0:0:
378,126,32650,1,0,0:0:0:0:
376,116,32758,1,8,0:0:0:0:
331,28,32976,1,0,0:0:0:0:
232,133,33194,6,0,P|189:137|138:127,1,70,8|2,0:0|0:0,0:0:0:0:
152,131,33520,1,0,0:0:0:0:
142,127,33628,1,8,0:0:0:0:
61,70,33846,1,2,0:0:0:0:
64,216,34063,1,8,0:0:0:0:
101,306,34281,1,2,3:0:0:0:
105,316,34389,1,0,3:0:0:0:
110,326,34498,1,12,3:0:0:0:
220,348,34715,1,2,3:0:0:0:
225,338,34824,1,0,3:0:0:0:
229,328,34933,6,0,P|255:291|285:271,1,70,4|2,0:0|0:0,0:0:0:0:
284,273,35259,1,0,0:0:0:0:
294,270,35368,1,8,0:0:0:0:
390,251,35585,1,0,0:0:0:0:
386,104,35802,2,0,P|351:106|318:117,1,70,8|2,0:0|0:0,0:0:0:0:
310,125,36129,1,0,0:0:0:0:
302,133,36236,1,8,0:0:0:0:
241,210,36454,1,0,0:0:0:0:
154,329,36672,6,0,L|154:241,1,70,8|2,0:0|0:0,0:0:0:0:
154,248,36998,1,0,0:0:0:0:
154,237,37106,1,8,0:0:0:0:
157,159,37324,1,2,0:0:0:0:
66,44,37541,1,8,0:0:0:0:
37,115,37759,1,2,3:0:0:0:
33,125,37867,1,0,3:0:0:0:
28,135,37976,1,12,3:0:0:0:
123,190,38193,1,2,3:0:0:0:
127,199,38302,1,0,3:0:0:0:
131,208,38411,6,0,L|162:283,1,70,4|2,0:0|0:0,0:0:0:0:
163,282,38737,1,0,0:0:0:0:
168,291,38846,1,8,0:0:0:0:
212,378,39063,1,0,0:0:0:0:
294,256,39280,2,0,P|310:220|318:168,1,70,8|2,0:0|0:0,0:0:0:0:
318,180,39607,1,0,0:0:0:0:
318,169,39714,1,8,0:0:0:0:
304,71,39932,1,0,0:0:0:0:
415,167,40150,6,0,P|436:202|439:249,1,70,8|2,0:0|0:0,0:0:0:0:
440,241,40476,1,0,0:0:0:0:
439,251,40584,1,8,0:0:0:0:
417,346,40802,1,2,0:0:0:0:
331,297,41020,5,8,0:0:0:0:
276,260,41165,1,8,0:0:0:0:
223,299,41310,5,8,0:0:0:0:
170,260,41455,1,8,0:0:0:0:
119,301,41600,1,8,0:0:0:0:
70,256,41745,1,8,0:0:0:0:
76,60,41890,6,0,P|92:124|80:184,1,125.999996154785,4|8,0:0|0:0,0:0:0:0:
128,256,42542,1,0,0:0:0:0:
200,204,42759,6,0,B|252:192|252:192|304:204,1,105.000004005432,2|8,0:0|0:0,0:0:0:0:
393,204,43411,1,0,0:0:0:0:
444,132,43629,2,0,P|476:176|468:252,1,125.999996154785,8|2,0:0|0:0,0:0:0:0:
300,308,44498,6,0,L|180:308,1,105.000004005432,2|8,0:0|0:0,0:0:0:0:
116,268,45150,1,0,0:0:0:0:
92,184,45368,2,0,P|48:212|32:292,1,125.999996154785,8|8,0:0|0:0,0:0:0:0:
28,84,46237,6,0,L|132:100,1,105.000004005432,2|8,0:0|0:0,0:0:0:0:
220,116,46890,1,0,0:0:0:0:
292,64,47107,2,0,P|352:52|416:64,1,125.999996154785,8|2,0:0|0:0,0:0:0:0:
352,272,47977,6,0,L|356:152,1,105.000004005432,2|8,0:0|0:0,0:0:0:0:
428,116,48629,1,0,0:0:0:0:
356,68,48846,2,0,P|408:32|476:44,1,125.999996154785,8|8,0:0|0:0,0:0:0:0:
276,168,49716,6,0,L|152:160,1,105.000004005432,2|8,0:0|0:0,0:0:0:0:
100,214,50368,1,0,0:0:0:0:
140,292,50585,2,0,P|188:320|256:308,1,125.999996154785,8|2,0:0|0:0,0:0:0:0:
388,192,51455,6,0,L|376:84,1,105.000004005432,2|8,0:0|0:0,0:0:0:0:
304,40,52107,1,0,0:0:0:0:
244,104,52324,2,0,P|184:120|120:108,1,125.999996154785,8|8,0:0|0:0,0:0:0:0:
304,40,53194,6,0,P|328:88|312:160,1,105.000004005432,2|8,0:0|0:0,0:0:0:0:
292,220,53846,1,0,0:0:0:0:
224,276,54064,2,0,L|156:288,1,62.9999980773926,8|0,0:0|0:0,0:0:0:0:
108,204,54498,2,0,L|170:193,1,62.9999980773926,2|0,0:0|0:0,0:0:0:0:
236,120,54933,2,8,L|224:64,2,46.6666666666667
328,152,55368,2,8,L|337:197,2,46.6666666666667
368,152,69716,5,6,0:0:0:0:
288,204,69933,1,0,0:0:0:0:
268,92,70150,2,0,L|188:88,1,70,8|0,0:0|0:0,0:0:0:0:
80,192,70585,2,0,L|192:184,1,105,2|0,0:0|0:0,0:0:0:0:
208,172,71020,2,0,P|216:212|212:248,1,70,8|0,0:0|0:0,0:0:0:0:
148,296,71455,6,0,B|180:276|216:292|216:292|256:308|284:284,1,140,2|8,0:0|0:0,0:0:0:0:
352,232,72107,1,0,0:0:0:0:
424,284,72324,2,0,P|428:320|424:356,1,70,2|0,0:0|0:0,0:0:0:0:
352,232,72759,2,0,P|348:196|352:160,1,70,8|0,0:0|0:0,0:0:0:0:
416,108,73194,5,6,0:0:0:0:
416,108,73411,1,0,0:0:0:0:
324,80,73629,1,8,0:0:0:0:
480,36,73846,1,0,0:0:0:0:
456,196,74064,2,0,L|336:188,1,105,2|0,0:0|0:0,0:0:0:0:
332,176,74498,2,0,P|336:220|332:248,1,70,8|0,0:0|0:0,0:0:0:0:
272,304,74933,5,2,0:0:0:0:
184,280,75150,1,0,0:0:0:0:
332,245,75368,1,8,0:0:0:0:
292,384,75585,1,0,0:0:0:0:
200,360,75803,1,8,0:0:0:0:
248,216,76020,1,8,0:0:0:0:
360,328,76237,2,0,L|448:320,1,70,8|0,0:0|0:0,0:0:0:0:
492,240,76672,6,0,L|404:232,1,70,6|0,0:0|0:0,0:0:0:0:
360,168,77107,1,8,0:0:0:0:
429,321,77324,1,0,0:0:0:0:
428,124,77542,2,0,P|390:92|334:92,1,105,2|0,0:0|0:0,0:0:0:0:
308,104,77977,2,0,L|300:32,1,70,8|0,0:0|0:0,0:0:0:0:
224,120,78411,6,0,L|216:189,1,70,2|0,0:0|0:0,0:0:0:0:
152,244,78846,2,0,B|184:224|220:240|220:240|260:256|288:232,1,140,8|2,0:0|0:0,0:0:0:0:
360,168,79498,1,0,0:0:0:0:
439,230,79716,2,0,P|443:270|439:302,1,70,8|0,0:0|0:0,0:0:0:0:
348,384,80150,5,6,0:0:0:0:
264,208,80368,1,0,0:0:0:0:
228,332,80585,1,8,0:0:0:0:
440,300,80803,1,0,0:0:0:0:
384,196,81020,1,2,0:0:0:0:
336,284,81237,1,0,0:0:0:0:
336,108,81455,1,8,0:0:0:0:
488,196,81672,1,0,0:0:0:0:
328,360,81890,5,6,0:0:0:0:
432,112,82324,1,6,0:0:0:0:
176,152,82759,1,6,0:0:0:0:
311,223,83194,5,6,0:0:0:0:
332,146,83629,6,0,P|311:182|312:224,1,83.9999974365235,4|0,0:0|0:0,0:0:0:0:
200,224,84064,2,0,P|200:180|176:144,1,83.9999974365235,2|0,0:0|0:0,0:0:0:0:
124,240,84498,2,0,P|144:280|188:300,1,83.9999974365235,8|0,0:0|0:0,0:0:0:0:
334,298,84933,2,0,P|370:277|388:240,1,83.9999974365235,8|0,0:0|0:0,0:0:0:0:
256,76,85368,5,2,0:0:0:0:
312,224,85585,1,0,0:0:0:0:
188,124,85803,1,8,0:0:0:0:
312,224,86020,1,0,0:0:0:0:
120,176,86237,2,0,P|104:128|124:72,1,83.9999974365235,2|0,0:0|0:0,0:0:0:0:
308,104,86672,5,8,0:0:0:0:
208,276,86890,1,0,0:0:0:0:
228,96,87107,22,0,P|244:52|288:28,1,83.9999974365235,4|0,0:0|0:0,0:0:0:0:
380,64,87542,2,0,P|390:104|380:144,1,83.9999974365235,2|0,0:0|0:0,0:0:0:0:
332,244,87977,2,0,B|381:141|381:141|396:224,1,167.999994873047,8|2,0:0|0:0,0:0:0:0:
420,300,88629,1,0,0:0:0:0:
332,244,88846,6,0,P|288:228|240:256,1,83.9999974365235,8|0,0:0|0:0,0:0:0:0:
124,359,89281,1,8,0:0:0:0:
160,186,89498,1,0,0:0:0:0:
232,348,89716,1,2,0:0:0:0:
79,260,89933,1,8,0:0:0:0:
79,260,90042,1,0,0:0:0:0:
79,260,90150,2,0,P|56:212|68:152,1,83.9999974365235,2|0,0:0|0:0,0:0:0:0:
208,156,90585,38,0,L|124:212,1,83.9999974365235,4|0,0:0|0:0,0:0:0:0:
280,112,91020,1,8,0:0:0:0:
300,292,91237,1,0,0:0:0:0:
138,202,91455,2,0,P|122:158|138:106,1,83.9999974365235,2|0,0:0|0:0,0:0:0:0:
270,32,91890,2,0,P|286:76|270:128,1,83.9999974365235,8|0,0:0|0:0,0:0:0:0:
136,204,92324,5,2,0:0:0:0:
328,172,92542,1,0,0:0:0:0:
204,156,92759,1,8,0:0:0:0:
396,220,92977,1,0,0:0:0:0:
279,111,93194,2,0,P|289:67|337:34,1,83.9999974365235,10|0,0:0|0:0,0:0:0:0:
396,220,93629,5,8,0:0:0:0:
204,156,93846,1,0,0:0:0:0:
443,279,94064,22,0,P|459:327|443:375,1,83.9999974365235,4|0,0:0|0:0,0:0:0:0:
372,246,94498,2,0,P|424:258|452:298,1,83.9999974365235,2|0,0:0|0:0,0:0:0:0:
307,293,94933,2,0,P|337:258|389:246,1,83.9999974365235,8|0,0:0|0:0,0:0:0:0:
276,368,95368,1,8,0:0:0:0:
288,196,95585,1,0,0:0:0:0:
104,100,95803,6,0,P|72:136|80:188,1,83.9999974365235,8|0,0:0|0:0,0:0:0:0:
177,129,96237,2,0,P|141:101|89:105,1,83.9999974365235,2|0,0:0|0:0,0:0:0:0:
216,200,96672,6,0,L|252:260,2,55.9999982910157,8|8|8,0:0|0:0|0:0,0:0:0:0:
280,92,97107,6,0,L|248:45,2,55.9999982910157,8|8|8,0:0|0:0|0:0,0:0:0:0:
332,180,97542,5,4,0:0:0:0:
404,220,97759,1,0,0:0:0:0:
400,136,97977,1,4,0:0:0:0:
332,180,98194,1,0,0:0:0:0:
336,264,98411,2,0,P|368:296|412:300,1,83.9999974365235,4|0,0:0|0:0,0:0:0:0:
264,220,98846,2,0,P|221:204|179:219,1,83.9999974365235,4|0,0:0|0:0,0:0:0:0:
76,340,99281,5,4,0:0:0:0:
168,300,99498,1,0,0:0:0:0:
88,236,99716,1,4,0:0:0:0:
76,340,99933,1,0,0:0:0:0:
168,300,100150,2,0,L|220:224,1,83.9999974365235,4|0,0:0|0:0,0:0:0:0:
344,84,100585,2,0,L|292:160,1,83.9999974365235,2|8,0:0|0:0,0:0:0:0:
168,300,101020,5,4,0:0:0:0:
352,140,101237,1,0,0:0:0:0:
160,244,101455,1,4,0:0:0:0:
360,196,101672,1,0,0:0:0:0:
152,188,101890,2,0,P|100:176|68:184,1,83.9999974365235,4|0,0:0|0:0,0:0:0:0:
168,300,102324,2,0,P|220:312|252:304,1,83.9999974365235,4|0,0:0|0:0,0:0:0:0:
408,192,102759,5,4,0:0:0:0:
272,336,102977,1,0,0:0:0:0:
360,128,103194,1,4,0:0:0:0:
396,352,103411,1,0,0:0:0:0:
208,232,103629,1,4,0:0:0:0:
64,324,103846,1,0,0:0:0:0:
64,324,103955,1,0,0:0:0:0:
64,324,104064,1,2,0:0:0:0:
160,148,104281,1,2,0:0:0:0:
288,308,104498,5,4,0:0:0:0:
384,132,104715,1,0,0:0:0:0:
424,332,104933,1,4,0:0:0:0:
272,180,105150,1,0,0:0:0:0:
476,220,105368,2,0,L|392:248,1,83.9999974365235,4|0,0:0|0:0,0:0:0:0:
184,324,105803,2,0,L|92:300,1,83.9999974365235,8|0,0:0|0:0,0:0:0:0:
32,192,106237,5,4,0:0:0:0:
100,24,106455,1,0,0:0:0:0:
60,216,106672,1,4,0:0:0:0:
76,12,106890,1,0,0:0:0:0:
84,236,107107,2,0,B|108:216|108:216|132:168,1,83.9999974365235,4|0,0:0|0:0,0:0:0:0:
204,16,107542,2,0,L|236:112,1,83.9999974365235,8|8,0:0|0:0,0:0:0:0:
396,180,107977,6,0,L|478:196,1,83.9999974365235,4|0,0:0|0:0,0:0:0:0:
320,208,108411,2,0,L|264:270,1,83.9999974365235,4|0,0:0|0:0,0:0:0:0:
332,132,108846,2,0,L|305:52,1,83.9999974365235,4|0,0:0|0:0,0:0:0:0:
260,156,109281,1,8,0:0:0:0:
380,260,109498,1,0,0:0:0:0:
404,96,109716,1,4,0:0:0:0:
320,164,109933,1,0,0:0:0:0:
364,204,110150,1,4,0:0:0:0:
372,152,110368,1,0,0:0:0:0:
282,47,110585,6,0,P|296:23|316:4,2,55.9999982910157,4|8|8,0:0|0:0|0:0,0:0:0:0:
299,131,111020,6,0,P|271:133|244:128,2,55.9999982910157,4|8|8,0:0|0:0|0:0,0:0:0:0:
360,72,111455,5,4,0:0:0:0:
360,72,112324,22,0,B|356:91|356:91|360:104|360:104|352:120|352:120|356:132|350:143|350:143|336:152|340:184,1,105.000004005432,2|0,0:0|0:0,0:0:0:0:
152,312,113194,37,2,0:0:0:0:
152,312,114063,6,0,B|155:292|155:292|152:280|152:280|160:264|160:264|156:252|161:240|161:240|176:232|172:200,1,105.000004005432,2|0,0:0|0:0,0:0:0:0:
208,144,114716,1,0,0:0:0:0:
248,212,114933,22,0,P|188:220|132:120,1,183.750007009506,2|0,0:0|0:0,0:0:0:0:
144,96,115803,38,0,B|164:80|164:80|176:80|184:72|184:72|196:72|200:64|200:64|216:64|216:64|232:48,1,105.000004005432,2|0,0:0|0:0,0:0:0:0:
256,320,116672,21,2,0:0:0:0:
256,104,117107,21,2,0:0:0:0:
256,240,117542,1,0,0:0:0:0:
256,28,117977,5,2,0:0:0:0:
432,248,118411,6,0,B|396:228|384:200|384:200|408:240|388:300|348:304,1,183.750007009506,2|0,0:0|0:0,0:0:0:0:
320,240,119281,22,0,B|331:221|325:212|325:212|332:206|327:195|327:195|335:186|330:175|330:175|339:165|348:139,1,105.000004005432,2|0,0:0|0:0,0:0:0:0:
80,248,120150,22,0,B|116:228|128:200|128:200|104:240|124:300|164:304,1,183.750007009506,2|0,0:0|0:0,0:0:0:0:
192,240,121020,22,0,B|180:221|186:212|186:212|179:206|184:195|184:195|176:186|181:175|181:175|172:165|163:139,1,105.000004005432,2|0,0:0|0:0,0:0:0:0:
256,348,121890,5,2,0:0:0:0:
256,356,122759,38,0,B|256:332|248:312|248:312|256:300|256:300|248:280|260:248,1,105.000004005432,2|0,0:0|0:0,0:0:0:0:
256,40,123629,21,2,0:0:0:0:
304,212,124064,22,0,B|272:212|256:192|256:192|240:212|204:212,1,105.000004005432,8|2,0:0|0:0,0:0:0:0:
256,40,124933,5,8,0:0:0:0:
256,116,125150,1,0,0:0:0:0:
256,192,125368,6,0,L|328:184,1,52.5000020027161,6|0,0:0|0:0,0:0:0:0:
392,272,125803,2,0,L|339:266,1,52.5000020027161,8|0,0:0|0:0,0:0:0:0:
288,336,126237,2,0,B|267:329|267:329|248:333|248:333|232:329|232:329|220:333|220:333|204:333|204:333|187:341,1,105.000004005432,2|8,0:0|0:0,0:0:0:0:
104,364,126890,1,0,0:0:0:0:
44,308,127107,6,0,L|40:244,1,52.5000020027161,2|0,0:0|0:0,0:0:0:0:
133,200,127542,2,0,L|129:252,1,52.5000020027161,8|0,0:0|0:0,0:0:0:0:
200,304,127977,2,0,B|220:310|220:310|239:306|239:306|255:310|255:310|267:306|267:306|283:306|283:306|300:298,1,105.000004005432,2|8,0:0|0:0,0:0:0:0:
372,240,128629,1,0,0:0:0:0:
440,296,128846,6,0,P|444:328|440:352,1,52.5000020027161,2|0,0:0|0:0,0:0:0:0:
372,240,129281,2,0,P|368:208|372:184,1,52.5000020027161,8|0,0:0|0:0,0:0:0:0:
414,129,129716,2,0,B|397:137|397:137|381:137|381:137|369:141|369:141|353:137|353:137|334:141|334:141|310:133,1,105.000004005432,2|8,0:0|0:0,0:0:0:0:
218,103,130368,1,0,0:0:0:0:
138,175,130585,5,2,0:0:0:0:
206,11,130803,1,0,0:0:0:0:
314,135,131020,1,8,0:0:0:0:
118,71,131237,1,0,0:0:0:0:
296,48,131455,2,0,B|313:40|313:40|329:40|329:40|341:36|341:36|357:40|357:40|376:36|376:36|400:44,1,105.000004005432,2|8,0:0|0:0,0:0:0:0:
234,207,132107,1,0,0:0:0:0:
168,160,132324,6,0,L|176:96,1,52.5000020027161,6|0,0:0|0:0,0:0:0:0:
80,152,132759,2,0,L|86:204,1,52.5000020027161,8|0,0:0|0:0,0:0:0:0:
40,268,133194,2,0,B|57:260|57:260|73:260|73:260|85:256|85:256|101:260|101:260|120:256|120:256|144:264,1,105.000004005432,2|8,0:0|0:0,0:0:0:0:
208,320,133846,1,0,0:0:0:0:
264,252,134064,6,0,L|260:188,1,52.5000020027161,2|0,0:0|0:0,0:0:0:0:
352,144,134498,2,0,L|348:196,1,52.5000020027161,8|0,0:0|0:0,0:0:0:0:
400,84,134933,2,0,B|383:92|383:92|367:92|367:92|355:96|355:96|339:92|339:92|320:96|320:96|296:88,1,105.000004005432,2|8,0:0|0:0,0:0:0:0:
232,40,135585,1,0,0:0:0:0:
256,196,135803,5,2,0:0:0:0:
344,224,136020,1,0,0:0:0:0:
244,116,136237,1,8,0:0:0:0:
184,260,136455,1,0,0:0:0:0:
328,140,136672,1,2,0:0:0:0:
172,176,136890,1,0,0:0:0:0:
272,280,137107,1,8,0:0:0:0:
256,196,137324,1,0,0:0:0:0:
312,348,137542,6,0,P|352:324|372:308,1,52.5000020027161,2|0,0:0|0:0,0:0:0:0:
192,324,137977,2,0,P|213:338|236:351,1,52.5000020027161,2|0,0:0|0:0,0:0:0:0:
336,240,138411,6,0,P|284:224|216:248,1,125.999996154785,6|0,0:0|0:0,0:0:0:0:
224,328,138846,6,0,P|283:343|341:321,1,125.999996154785,6|0,0:0|0:0,0:0:0:0:
408,276,139281,5,6,0:0:0:0:
76,56,167107,6,0,L|168:72,1,77.0000023498536,4|0,0:0|0:0,0:0:0:0:
200,156,167542,2,0,L|124:169,1,77.0000023498536,2|0,0:0|0:0,0:0:0:0:
260,80,167977,2,0,P|288:116|276:220,1,154.000004699707,8|2,0:0|0:0,0:0:0:0:
336,316,168629,5,0,0:0:0:0:
404,228,168846,2,0,L|492:220,1,77.0000023498536,8|0,0:0|0:0,0:0:0:0:
379,130,169281,2,0,L|456:124,1,77.0000023498536,2|0,0:0|0:0,0:0:0:0:
272,68,169716,5,8,0:0:0:0:
232,240,169933,1,0,0:0:0:0:
124,104,170150,2,0,L|48:100,1,77.0000023498536,2|8,0:0|0:0,0:0:0:0:
96,199,170585,6,0,L|20:196,1,77.0000023498536,4|0,0:0|0:0,0:0:0:0:
60,324,171020,1,8,0:0:0:0:
232,240,171237,1,2,0:0:0:0:
124,104,171455,1,8,0:0:0:0:
140,280,171672,1,0,0:0:0:0:
315,247,171890,6,0,P|310:209|280:172,1,77.0000023498536,10|0,0:0|0:0,0:0:0:0:
216,108,172324,2,0,P|193:139|189:176,1,77.0000023498536,8|0,0:0|0:0,0:0:0:0:
344,244,172759,2,0,P|339:206|309:169,1,77.0000023498536,2|0,0:0|0:0,0:0:0:0:
188,96,173194,6,0,P|165:127|161:164,1,77.0000023498536,8|0,0:0|0:0,0:0:0:0:
256,288,173629,2,0,L|344:280,1,77.0000023498536,2|0,0:0|0:0,0:0:0:0:
168,244,174064,6,0,P|156:284|168:336,1,77.0000023498536,4|0,0:0|0:0,0:0:0:0:
236,156,174498,2,0,L|312:128,2,77.0000023498536,8|0|2,0:0|0:0|0:0,0:0:0:0:
172,80,175150,1,0,0:0:0:0:
360,72,175368,6,0,P|380:100|384:144,1,77.0000023498536,8|0,0:0|0:0,0:0:0:0:
332,224,175803,2,0,L|244:232,1,77.0000023498536,2|0,0:0|0:0,0:0:0:0:
372,300,176237,2,0,L|460:308,1,77.0000023498536,8|0,0:0|0:0,0:0:0:0:
255,230,176672,5,8,0:0:0:0:
216,52,176890,1,2,0:0:0:0:
208,232,177107,1,8,0:0:0:0:
256,52,177324,1,2,0:0:0:0:
144,192,177542,6,0,P|132:228|140:268,1,77.0000023498536,8|0,0:0|0:0,0:0:0:0:
333,265,177977,2,0,P|340:228|328:192,1,77.0000023498536,2|0,0:0|0:0,0:0:0:0:
216,52,178411,2,0,L|132:48,1,77.0000023498536,8|0,0:0|0:0,0:0:0:0:
268,120,178846,6,0,L|352:116,1,77.0000023498536,2|0,0:0|0:0,0:0:0:0:
448,256,179281,1,8,0:0:0:0:
64,256,179716,1,2,0:0:0:0:
448,256,180150,6,8,L|464:184,2,51.3333348999024,4|8|8,0:0|0:0|0:0,0:0:0:0:
372,196,180585,2,8,L|383:145,2,51.3333348999024,4|8|8,0:0|0:0|0:0,0:0:0:0:
435,356,181020,5,4,1:2:0:0:
256,288,181237,1,2,3:2:0:0:
387,204,181455,1,0,1:0:0:0:
244,293,181672,1,2,3:2:0:0:
385,121,181890,2,0,P|392:159|398:211,1,77.0000023498536,0|2,1:0|3:2,0:3:0:0:
322,366,182324,1,0,1:0:0:0:
445,273,182541,1,2,3:2:0:0:
311,176,182759,6,0,P|272:181|234:188,1,77.0000023498536,0|2,1:0|3:2,0:3:0:0:
40,89,183194,2,0,P|79:94|117:101,1,77.0000023498536,0|2,1:0|3:2,0:3:0:0:
235,188,183629,1,0,1:0:0:0:
321,63,183846,1,2,3:2:0:0:
234,203,184064,1,0,1:0:0:0:
162,18,184281,1,0,1:0:0:0:
305,151,184498,5,0,1:0:0:0:
148,188,184716,1,2,3:2:0:0:
260,64,184933,1,0,1:0:0:0:
417,101,185151,1,2,3:2:0:0:
307,218,185368,1,0,1:0:0:0:
307,218,185803,1,0,1:0:0:0:
417,101,186020,1,2,3:2:0:0:
260,64,186237,5,0,1:0:0:0:
432,105,186455,1,2,3:2:0:0:
241,68,186672,1,0,1:0:0:0:
450,100,186890,1,2,3:2:0:0:
246,172,187107,1,0,1:0:0:0:
355,34,187324,1,0,1:0:0:0:
421,198,187542,1,0,1:0:0:0:
267,73,187759,1,2,3:2:0:0:
330,288,187977,5,4,1:2:0:0:
157,244,188194,1,2,3:2:0:0:
311,206,188411,1,0,1:0:0:0:
182,330,188628,1,2,3:2:0:0:
236,167,188846,2,0,P|231:128|224:90,1,77.0000023498536,0|2,1:0|3:2,0:3:0:0:
157,244,189281,1,0,1:0:0:0:
266,127,189498,1,2,3:2:0:0:
102,53,189716,6,0,P|95:90|90:129,1,77.0000023498536,0|2,1:0|3:2,0:3:0:0:
254,293,190150,2,0,P|249:254|242:216,1,77.0000023498536,0|2,1:0|3:2,0:3:0:0:
79,164,190585,1,0,1:0:0:0:
35,293,190802,1,2,3:2:0:0:
167,266,191020,1,0,1:0:0:0:
0,209,191237,1,0,1:0:0:0:
143,349,191455,5,0,1:0:0:0:
198,186,191672,1,2,3:2:0:0:
231,382,191890,1,0,1:0:0:0:
205,173,192107,1,2,3:2:0:0:
53,309,192324,1,0,1:0:0:0:
53,309,192759,1,0,1:0:0:0:
248,277,192977,1,2,3:2:0:0:
106,79,193194,6,0,P|53:127|44:199,1,146.999995513916,4|0,1:2|0:0,0:0:0:0:
203,85,193628,6,0,P|132:69|69:104,1,146.999995513916,4|0,1:2|0:0,0:0:0:0:
256,168,194063,6,0,P|226:102|161:70,1,146.999995513916,4|0,1:2|0:0,0:0:0:0:
218,257,194497,6,0,P|255:195|243:124,1,146.999995513916,4|0,1:2|0:0,0:0:0:0:
180,332,194933,6,0,L|200:256,1,77.0000023498536,4|0,0:0|0:0,0:0:0:0:
256,76,195368,1,8,0:0:0:0:
148,200,195585,1,0,0:0:0:0:
316,124,195803,2,0,L|392:132,1,77.0000023498536,2|0,0:0|0:0,0:0:0:0:
428,236,196237,1,8,0:0:0:0:
405,233,196345,1,0,0:0:0:0:
382,231,196454,1,2,0:0:0:0:
359,228,196563,1,0,0:0:0:0:
340,226,196672,6,0,P|344:268|368:304,1,77.0000023498536,2|0,0:0|0:0,0:0:0:0:
428,236,197107,1,8,0:0:0:0:
320,144,197324,1,0,0:0:0:0:
256,272,197542,2,0,L|268:360,1,77.0000023498536,2|0,0:0|0:0,0:0:0:0:
361,297,197977,1,8,0:0:0:0:
168,256,198194,1,0,0:0:0:0:
88,124,198411,6,0,L|98:200,1,77.0000023498536,4|0,0:0|0:0,0:0:0:0:
168,256,198846,1,8,0:0:0:0:
112,332,199064,1,0,0:0:0:0:
224,188,199281,2,0,P|268:184|300:204,1,77.0000023498536,2|0,0:0|0:0,0:0:0:0:
360,264,199716,1,8,0:0:0:0:
380,356,199933,1,0,0:0:0:0:
425,195,200150,6,0,L|408:120,1,77.0000023498536,2|0,0:0|0:0,0:0:0:0:
380,32,200585,1,8,0:0:0:0:
472,52,200803,1,0,0:0:0:0:
320,100,201020,2,0,L|232:120,1,77.0000023498536,2|0,0:0|0:0,0:0:0:0:
260,264,201455,2,0,L|286:177,1,77.0000023498536,8|0,0:0|0:0,0:0:0:0:
144,124,201890,6,0,L|205:190,1,77.0000023498536,4|0,0:0|0:0,0:0:0:0:
260,264,202325,1,8,0:0:0:0:
168,192,202542,1,0,0:0:0:0:
232,280,202759,2,0,L|293:346,1,77.0000023498536,2|0,0:0|0:0,0:0:0:0:
372,252,203194,1,8,0:0:0:0:
386,234,203302,1,0,0:0:0:0:
405,221,203411,1,2,0:0:0:0:
427,213,203520,1,0,0:0:0:0:
451,214,203629,6,0,P|471:174|471:134,1,77.0000023498536,2|0,0:0|0:0,0:0:0:0:
460,52,204064,1,8,0:0:0:0:
392,148,204281,1,0,0:0:0:0:
444,40,204499,2,0,L|348:56,1,77.0000023498536,2|0,0:0|0:0,0:0:0:0:
276,124,204933,1,8,0:0:0:0:
152,80,205150,1,0,0:0:0:0:
268,224,205368,6,0,P|306:220|341:204,1,77.0000023498536,4|0,0:0|0:0,0:0:0:0:
316,32,205803,1,8,0:0:0:0:
376,120,206021,1,0,0:0:0:0:
229,36,206237,2,0,P|190:40|156:56,1,77.0000023498536,2|0,0:0|0:0,0:0:0:0:
160,196,206673,1,8,0:0:0:0:
132,76,206890,1,0,0:0:0:0:
160,196,207107,6,0,L|180:284,1,77.0000023498536,2|0,0:0|0:0,0:0:0:0:
372,292,207542,1,8,0:0:0:0:
188,320,207760,1,0,0:0:0:0:
364,252,207977,2,8,L|353:201,2,51.3333348999024,8|0|8,0:0|0:0|0:0,0:0:0:0:
236,192,208412,6,8,L|248:120,2,51.3333348999024
172,52,208846,5,4,0:0:0:0:
224,200,209064,1,0,0:0:0:0:
92,116,209281,1,4,0:0:0:0:
248,104,209498,1,0,0:0:0:0:
132,208,209716,2,0,L|136:320,1,112,4|2,0:0|0:0,0:0:0:0:
140,328,210042,1,0,0:0:0:0:
144,336,210150,1,4,0:0:0:0:
40,220,210368,1,0,0:0:0:0:
256,320,210585,5,4,0:0:0:0:
384,232,210803,1,0,0:0:0:0:
340,80,211020,1,4,0:0:0:0:
172,80,211237,1,0,0:0:0:0:
128,232,211454,1,4,0:0:0:0:
256,324,211672,1,2,0:0:0:0:
264,320,211781,1,0,0:0:0:0:
272,316,211890,2,0,L|384:320,1,112,8|8,0:0|0:0,0:0:0:0:
184,192,212324,6,0,L|72:188,1,112,4|2,0:0|0:0,0:0:0:0:
200,292,212759,1,4,0:0:0:0:
160,96,212977,1,0,0:0:0:0:
64,280,213194,1,4,0:0:0:0:
256,188,213411,1,0,0:0:0:0:
56,160,213629,1,4,0:0:0:0:
136,336,213846,1,0,0:0:0:0:
256,188,214064,6,0,L|252:76,1,112,4|2,0:0|0:0,0:0:0:0:
360,192,214498,2,0,L|364:304,1,112,4|2,0:0|0:0,0:0:0:0:
256,188,214933,1,4,0:0:0:0:
452,256,215150,1,8,0:0:0:0:
456,248,215259,1,0,0:0:0:0:
460,240,215368,1,4,0:0:0:0:
424,56,215585,1,2,0:0:0:0:
420,64,215694,1,0,0:0:0:0:
416,72,215803,6,0,L|304:68,1,112,4|2,0:0|0:0,0:0:0:0:
144,136,216237,2,0,L|256:132,1,112,4|0,0:0|0:0,0:0:0:0:
92,84,216672,2,0,P|68:140|92:192,1,112,4|2,0:0|0:0,0:0:0:0:
96,196,216998,1,0,0:0:0:0:
104,204,217107,1,4,0:0:0:0:
255,132,217324,1,2,0:0:0:0:
144,136,217542,5,4,0:0:0:0:
200,268,217759,1,0,0:0:0:0:
255,132,217977,1,4,0:0:0:0:
104,204,218194,1,0,0:0:0:0:
288,208,218411,2,0,L|400:200,1,112,4|2,0:0|0:0,0:0:0:0:
412,192,218737,1,0,0:0:0:0:
420,184,218846,2,0,P|404:236|428:292,1,112,2|2,0:0|0:0,0:0:0:0:
240,364,219281,6,0,P|256:312|232:256,1,112,4|2,0:0|0:0,0:0:0:0:
92,196,219716,1,4,0:0:0:0:
112,352,219933,1,0,0:0:0:0:
208,192,220150,2,0,L|208:80,1,112,4|0,0:0|0:0,0:0:0:0:
196,64,220477,1,0,0:0:0:0:
188,52,220585,1,4,0:0:0:0:
296,164,220803,1,2,0:0:0:0:
132,240,221020,6,0,P|76:256|24:240,1,112,4|0,0:0|0:0,0:0:0:0:
296,164,221455,2,0,P|352:148|404:164,1,112,4|0,0:0|0:0,0:0:0:0:
252,344,221890,6,0,L|240:272,1,70,2|8,0:0|0:0,0:0:0:0:
224,200,222542,1,0,0:0:0:0:
160,241,222759,6,0,P|131:253|100:253,1,62.9999980773926,4|0,0:0|0:0,0:0:0:0:
25,240,223194,1,2,0:0:0:0:
37,165,223411,1,0,0:0:0:0:
134,88,223629,2,0,B|165:85|182:105|182:105|205:88|205:88|219:105|266:121,1,125.999996154785,2|0,0:0|0:0,0:0:0:0:
315,128,224281,1,0,0:0:0:0:
384,98,224498,5,2,0:0:0:0:
442,145,224716,1,0,0:0:0:0:
458,218,224933,1,8,0:0:0:0:
440,291,225150,1,0,0:0:0:0:
314,262,225368,2,0,B|245:240|250:289|175:253,1,125.999996154785,2|0,0:0|0:0,0:0:0:0:
125,222,226020,1,0,0:0:0:0:
88,288,226237,6,0,P|91:325|113:356,1,62.9999980773926,4|0,0:0|0:0,0:0:0:0:
172,378,226672,1,2,0:0:0:0:
231,331,226889,1,0,0:0:0:0:
332,247,227107,2,0,B|371:232|371:232|392:238|409:253|409:253|464:214,1,125.999996154785,2|0,0:0|0:0,0:0:0:0:
497,177,227759,1,0,0:0:0:0:
497,101,227977,5,2,0:0:0:0:
458,36,228194,1,0,0:0:0:0:
383,23,228411,1,8,0:0:0:0:
310,43,228629,1,0,0:0:0:0:
241,157,228846,2,0,B|211:216|260:211|238:280,1,125.999996154785,2|0,0:0|0:0,0:0:0:0:
210,349,229498,1,0,0:0:0:0:
110,319,229716,6,0,L|80:243,1,62.9999980773926,4|0,0:0|0:0,0:0:0:0:
63,188,230151,1,2,0:0:0:0:
81,114,230368,1,0,0:0:0:0:
197,50,230585,2,0,B|233:41|256:64|256:64|283:38|336:60,1,125.999996154785,2|0,0:0|0:0,0:0:0:0:
394,73,231238,1,0,0:0:0:0:
347,140,231455,5,2,0:0:0:0:
354,221,231673,1,0,0:0:0:0:
427,256,231890,1,8,0:0:0:0:
492,207,232107,1,0,0:0:0:0:
453,80,232324,2,0,P|410:35|350:15,1,125.999996154785,2|0,0:0|0:0,0:0:0:0:
268,9,232977,1,0,0:0:0:0:
185,17,233194,5,6,0:0:0:0:
126,74,233411,1,0,0:0:0:0:
112,155,233629,1,2,0:0:0:0:
133,233,233846,1,0,0:0:0:0:
251,296,234064,2,0,B|282:299|299:279|299:279|322:296|322:296|336:279|383:263,1,125.999996154785,2|0,0:0|0:0,0:0:0:0:
445,234,234716,1,0,0:0:0:0:
406,147,234934,5,2,0:0:0:0:
347,73,235151,1,0,0:0:0:0:
256,44,235369,1,2,0:0:0:0:
165,73,235585,1,0,0:0:0:0:
106,147,235803,1,2,0:0:0:0:
256,314,236237,6,0,L|256:251,1,62.9999980773926,2|0,0:0|0:0,0:0:0:0:
326,306,250585,6,0,L|407:330,1,83.9999974365235,4|0,0:0|0:0,0:0:0:0:
294,228,251020,1,8,0:0:0:0:
276,377,251237,1,0,0:0:0:0:
486,302,251455,1,2,0:0:0:0:
383,190,251672,2,0,L|411:138,1,41.9999987182618
412,111,251890,1,8,0:0:0:0:
393,73,251998,1,8,0:0:0:0:
355,53,252107,1,8,0:0:0:0:
313,57,252216,1,8,0:0:0:0:
277,79,252324,6,0,L|191:42,1,83.9999974365235,2|0,0:0|0:0,0:0:0:0:
299,160,252759,1,8,0:0:0:0:
149,132,252977,1,0,0:0:0:0:
149,132,253085,1,0,0:0:0:0:
149,132,253194,2,0,L|63:95,1,83.9999974365235,2|0,0:0|0:0,0:0:0:0:
161,221,253629,1,8,0:0:0:0:
299,160,253846,1,8,0:0:0:0:
284,310,254064,6,0,P|264:348|195:369,1,83.9999974365235,8|0,0:0|0:0,0:0:0:0:
147,348,254498,2,0,L|116:311,2,41.9999987182618,8|0|0,0:0|0:0|0:0,0:0:0:0:
205,291,254933,1,2,0:0:0:0:
242,215,255150,1,0,0:0:0:0:
217,134,255368,1,8,0:0:0:0:
183,108,255477,1,8,0:0:0:0:
142,99,255585,1,8,0:0:0:0:
100,107,255694,1,8,0:0:0:0:
64,129,255803,6,0,P|39:164|33:211,2,83.9999974365235,2|0|8,0:0|0:0|0:0,0:0:0:0:
117,194,256455,1,0,0:0:0:0:
258,141,256672,2,0,P|292:117|318:64,1,83.9999974365235,2|0,0:0|0:0,0:0:0:0:
325,40,256998,1,0,0:0:0:0:
309,0,257107,1,8,0:0:0:0:
375,207,257324,1,0,0:0:0:0:
164,267,257542,6,0,L|74:242,1,83.9999974365235,4|0,0:0|0:0,0:0:0:0:
228,201,257977,2,0,L|294:181,2,41.9999987182618,8|0|0,0:0|0:0|0:0,0:0:0:0:
84,153,258411,1,2,0:0:0:0:
10,285,258629,1,0,0:0:0:0:
154,328,258846,1,8,0:0:0:0:
186,300,258955,1,8,0:0:0:0:
227,295,259064,1,8,0:0:0:0:
266,308,259172,1,8,0:0:0:0:
293,339,259281,6,0,P|335:344|395:313,1,83.9999974365235,2|0,0:0|0:0,0:0:0:0:
447,198,259716,2,0,P|430:159|373:122,1,83.9999974365235,8|0,0:0|0:0,0:0:0:0:
248,135,260150,2,0,P|222:168|219:236,1,83.9999974365235,2|0,0:0|0:0,0:0:0:0:
227,295,260585,2,0,L|273:313,2,41.9999987182618,8|0|8,0:0|0:0|0:0,0:0:0:0:
186,300,260911,1,0,0:0:0:0:
154,328,261020,6,0,P|103:306|80:268,1,83.9999974365235,2|0,0:0|0:0,0:0:0:0:
56,205,261455,2,0,P|29:192|16:168,2,41.9999987182618,8|0|0,0:0|0:0|0:0,0:0:0:0:
77,123,261890,1,2,0:0:0:0:
142,71,262107,1,0,0:0:0:0:
216,108,262324,1,8,0:0:0:0:
235,145,262433,1,8,0:0:0:0:
273,161,262542,1,8,0:0:0:0:
314,156,262650,1,8,0:0:0:0:
353,142,262759,6,0,P|384:174|388:241,1,83.9999974365235,2|0,0:0|0:0,0:0:0:0:
379,250,263085,1,0,0:0:0:0:
344,274,263194,2,0,P|297:278|247:247,1,83.9999974365235,8|0,0:0|0:0,0:0:0:0:
193,309,263629,2,0,L|175:391,2,55.9999982910157,8|0|0,0:0|0:0|0:0,0:0:0:0:
283,354,264064,1,8,0:0:0:0:
192,233,264281,1,2,0:0:0:0:
92,88,278411,6,0,L|144:92,1,52.5000020027161,4|0,0:0|0:0,0:0:0:0:
148,88,278737,1,0,0:0:0:0:
152,84,278846,2,0,P|148:116|156:144,1,52.5000020027161,2|0,0:0|0:0,0:0:0:0:
196,200,279281,1,2,0:0:0:0:
200,200,279390,1,0,0:0:0:0:
204,200,279498,1,0,0:0:0:0:
208,200,279607,1,0,0:0:0:0:
212,200,279716,2,0,L|268:208,1,52.5000020027161,2|0,0:0|0:0,0:0:0:0:
448,148,280150,6,0,L|396:140,1,52.5000020027161,2|0,0:0|0:0,0:0:0:0:
392,136,280477,1,0,0:0:0:0:
388,132,280585,2,0,P|392:160|388:184,1,52.5000020027161,2|0,0:0|0:0,0:0:0:0:
348,252,281020,1,2,0:0:0:0:
348,256,281129,1,0,0:0:0:0:
348,260,281237,1,0,0:0:0:0:
348,264,281346,1,0,0:0:0:0:
348,268,281455,2,0,L|400:268,1,52.5000020027161,2|0,0:0|0:0,0:0:0:0:
404,272,281781,1,0,0:0:0:0:
408,276,281890,6,0,P|412:304|408:328,1,52.5000020027161,2|0,0:0|0:0,0:0:0:0:
404,332,282216,1,0,0:0:0:0:
400,336,282324,2,0,L|336:336,1,52.5000020027161,2|0,0:0|0:0,0:0:0:0:
288,284,282759,1,2,0:0:0:0:
284,284,282868,1,0,0:0:0:0:
280,284,282977,1,0,0:0:0:0:
276,284,283085,1,0,0:0:0:0:
272,284,283194,2,0,L|236:284,1,26.2500010013581,2|0,0:0|0:0,0:0:0:0:
240,280,283411,2,0,L|204:280,1,26.2500010013581
212,276,283629,6,0,P|208:248|212:224,1,52.5000020027161,2|0,0:0|0:0,0:0:0:0:
216,220,283955,1,0,0:0:0:0:
220,216,284064,1,2,0:0:0:0:
204,140,284281,1,0,0:0:0:0:
208,136,284390,1,0,0:0:0:0:
212,132,284498,2,0,L|248:132,3,26.2500010013581,2|0|0|0,0:0|0:0|0:0|0:0,0:0:0:0:
368,92,284933,2,0,L|341:92,3,26.2500010013581,2|0|0|0,0:0|0:0|0:0|0:0,0:0:0:0:
340,96,285368,6,0,P|336:124|340:148,1,52.5000020027161,2|0,0:0|0:0,0:0:0:0:
344,152,285694,1,0,0:0:0:0:
348,156,285803,2,0,L|348:212,1,52.5000020027161,2|0,0:0|0:0,0:0:0:0:
348,288,286237,1,2,0:0:0:0:
344,288,286346,1,0,0:0:0:0:
340,288,286455,1,0,0:0:0:0:
336,288,286564,1,0,0:0:0:0:
332,288,286672,2,0,L|280:296,1,52.5000020027161,2|0,0:0|0:0,0:0:0:0:
276,292,286998,1,0,0:0:0:0:
272,288,287107,6,0,P|268:260|272:232,1,52.5000020027161,2|0,0:0|0:0,0:0:0:0:
272,232,287433,1,0,0:0:0:0:
276,228,287542,2,0,L|224:232,1,52.5000020027161,2|0,0:0|0:0,0:0:0:0:
156,192,287977,1,2,0:0:0:0:
156,188,288085,1,0,0:0:0:0:
156,184,288194,1,0,0:0:0:0:
156,180,288303,1,0,0:0:0:0:
156,176,288411,2,0,L|156:124,1,52.5000020027161,2|0,0:0|0:0,0:0:0:0:
160,120,288737,1,0,0:0:0:0:
164,116,288846,6,0,P|132:120|108:116,1,52.5000020027161,2|0,0:0|0:0,0:0:0:0:
108,112,289172,1,0,0:0:0:0:
104,108,289281,1,2,0:0:0:0:
40,152,289498,1,0,0:0:0:0:
72,224,289716,2,0,L|72:256,1,26.2500010013581,2|0,0:0|0:0,0:0:0:0:
76,256,289933,2,0,L|76:288,1,26.2500010013581
80,288,290150,1,2,0:0:0:0:
140,336,290368,1,0,0:0:0:0:
216,312,290585,6,0,P|240:308|272:312,1,52.5000020027161,2|0,0:0|0:0,0:0:0:0:
272,316,290911,1,0,0:0:0:0:
276,320,291020,2,0,L|360:320,1,78.7500030040742,2|0,0:0|0:0,0:0:0:0:
416,276,291455,6,2,P|420:248|416:224,2,53.6666676902771,8|8|8,0:0|0:0|0:0,0:0:0:0:
360,168,291890,6,0,P|356:136|360:104,2,63.0000002403259,8|0|2,0:0|0:0|0:0,0:0:0:0:
392,28,292324,5,4,0:0:0:0:
