osu file format v14

[General]
AudioFilename: DREAMS OF LOST - Alstroemeria Records.mp3
AudioLeadIn: 0
PreviewTime: 105467
Countdown: 1
SampleSet: Soft
StackLeniency: 0.7
Mode: 0
LetterboxInBreaks: 1
WidescreenStoryboard: 0

[Editor]
Bookmarks: 15936,120942
DistanceSpacing: 0.8
BeatDivisor: 4
GridSize: 4
TimelineZoom: 1

[Metadata]
Title:DREAMS OF LOST
TitleUnicode:DREAMS OF LOST
Artist:Masayoshi Minoshima ft. ayame
ArtistUnicode:Masayoshi Minoshima ft. ayame
Creator:Ayakura Mei
Version:Collab
Source:Touhou
Tags:C85 Alstroemeria Record FLASHLIGHT Progressive House
BeatmapID:1011652
BeatmapSetID:473437

[Difficulty]
HPDrainRate:6
CircleSize:5
OverallDifficulty:7
ApproachRate:8
SliderMultiplier:1.8
SliderTickRate:1

[Events]
//Background and Video events
0,0,"bg.jpg",0,0
//Break Periods
//Storyboard Layer 0 (Background)
//Storyboard Layer 1 (Fail)
//Storyboard Layer 2 (Pass)
//Storyboard Layer 3 (Foreground)
//Storyboard Sound Samples

[TimingPoints]
942,468.75,4,2,1,35,1,0
30824,-100,4,1,1,60,0,0
75356,-100,4,2,1,80,0,0
75590,-100,4,1,1,60,0,0
79803,-100,4,2,1,60,0,0
81443,-100,4,1,1,60,0,0
81795,-100,4,2,1,60,0,0
83318,-100,4,1,1,60,0,0
87303,-100,4,2,1,60,0,0
88943,-100,4,1,1,60,0,0
89295,-100,4,2,1,60,0,0
90818,-100,4,1,1,60,0,0
94920,-100,4,2,1,60,0,0
96443,-100,4,1,1,60,0,0
96795,-100,4,2,1,60,0,0
98318,-100,4,1,1,60,0,0
102068,-100,4,2,1,80,0,0
103943,-100,4,2,1,80,0,0
104184,-100,4,1,1,60,0,0
104881,-100,4,1,1,55,0,0
105115,-100,4,1,1,59,0,0
105232,-100,4,1,1,63,0,0
105350,-100,4,1,1,67,0,0
105467,-100,4,1,1,71,0,0
105584,-100,4,1,1,75,0,0
105701,-100,4,1,1,79,0,0
105818,-100,4,1,1,83,0,0
105936,-100,4,2,2,80,0,0
127152,-100,4,1,1,60,0,0
127856,-100,4,2,2,80,0,0
128090,-100,4,1,1,60,0,0
128442,-100,4,2,2,80,0,0
134301,-166.666666666667,4,2,2,80,0,0
135707,-100,4,2,2,80,0,0
136527,-100,4,2,3,80,0,0
137113,-100,4,2,2,80,0,0
138402,-100,4,2,3,80,0,0
139106,-100,4,2,2,80,0,0
140277,-100,4,2,3,80,0,0
140981,-100,4,2,2,80,0,0
144027,-100,4,2,3,80,0,0
144731,-100,4,2,2,80,0,0
145902,-100,4,2,3,80,0,0
146606,-100,4,2,2,80,0,0
147777,-100,4,2,3,80,0,0
148481,-100,4,2,2,80,0,0
149770,-166.666666666667,4,2,2,80,0,0
151176,-166.666666666667,4,2,10,80,0,0
151410,-166.666666666667,4,2,11,80,0,0
151645,-166.666666666667,4,2,12,80,0,0
152113,-166.666666666667,4,2,10,80,0,0
152348,-166.666666666667,4,2,12,80,0,0
152582,-166.666666666667,4,2,11,80,0,0
153051,-166.666666666667,4,2,10,80,0,0
153285,-166.666666666667,4,2,11,80,0,0
153520,-166.666666666667,4,2,12,80,0,0
153988,-166.666666666667,4,2,10,80,0,0
154223,-166.666666666667,4,2,12,80,0,0
154457,-166.666666666667,4,2,11,80,0,0
154926,-166.666666666667,4,2,10,80,0,0
155160,-166.666666666667,4,2,11,80,0,0
155395,-166.666666666667,4,2,12,80,0,0
155863,-166.666666666667,4,2,10,80,0,0
156098,-166.666666666667,4,2,12,80,0,0
156332,-166.666666666667,4,2,11,80,0,0
156801,-166.666666666667,4,2,10,80,0,0
157035,-166.666666666667,4,2,12,80,0,0
157270,-166.666666666667,4,2,13,80,0,0
157738,-166.666666666667,4,2,10,80,0,0
157973,-166.666666666667,4,2,14,80,0,0
158207,-166.666666666667,4,2,13,80,0,0
158676,-166.666666666667,4,2,10,80,0,0
158910,-166.666666666667,4,2,11,80,0,0
159145,-166.666666666667,4,2,12,80,0,0
159613,-166.666666666667,4,2,10,80,0,0
159848,-166.666666666667,4,2,12,80,0,0
160082,-166.666666666667,4,2,11,80,0,0
160551,-166.666666666667,4,2,10,80,0,0
160785,-166.666666666667,4,2,11,80,0,0
161020,-166.666666666667,4,2,12,80,0,0
161488,-166.666666666667,4,2,10,80,0,0
161723,-166.666666666667,4,2,12,80,0,0
161957,-166.666666666667,4,2,11,80,0,0
162426,-166.666666666667,4,2,10,80,0,0
162660,-166.666666666667,4,2,11,80,0,0
162895,-166.666666666667,4,2,12,80,0,0
163363,-166.666666666667,4,2,10,80,0,0
163598,-166.666666666667,4,2,12,80,0,0
163832,-166.666666666667,4,2,11,80,0,0
164301,-166.666666666667,4,2,10,80,0,0
164535,-166.666666666667,4,2,12,80,0,0
164770,-166.666666666667,4,2,13,80,0,0
165238,-166.666666666667,4,2,10,80,0,0
165473,-166.666666666667,4,2,14,80,0,0
165707,-166.666666666667,4,2,13,80,0,0
165942,-200,4,2,1,35,0,0
180942,-200,4,2,1,60,0,0

[HitObjects]
256,192,14067,12,0,15708,0:0:0:0:
476,80,15942,5,4,0:0:0:0:
344,108,16177,2,0,L|296:100,1,45
244,60,16411,2,0,B|228:104|228:104|232:148,1,90,8|4,0:0|0:0,0:0:0:0:
272,208,16763,2,0,B|212:236|212:236|144:228,1,135,0|0,0:0|0:0,0:0:0:0:
92,172,17231,1,0,0:0:0:0:
92,172,17349,2,0,B|80:128|80:128|88:84,1,90,8|4,0:0|0:0,0:0:0:0:
180,56,17700,2,0,B|204:96|204:96|200:156,1,90
184,208,18052,5,2,0:0:0:0:
164,212,18169,1,2,0:0:0:0:
144,216,18286,1,8,0:0:0:0:
296,276,18520,5,2,0:0:0:0:
280,272,18638,1,2,0:0:0:0:
264,268,18755,1,0,0:0:0:0:
412,204,18989,5,2,0:0:0:0:
396,208,19106,1,2,0:0:0:0:
380,212,19224,1,8,0:0:0:0:
248,140,19458,2,0,L|292:148,1,45,2|0,0:0|0:0,0:0:0:0:
360,128,19692,6,0,P|372:84|364:40,1,90,4|0,0:0|0:0,0:0:0:0:
328,24,20044,1,0,0:0:0:0:
288,36,20161,2,0,P|276:80|288:136,1,90,8|4,0:0|0:0,0:0:0:0:
316,192,20513,2,0,B|380:176|380:176|452:188,1,135,0|0,0:0|0:0,0:0:0:0:
488,252,20981,1,0,0:0:0:0:
488,252,21099,2,0,L|480:352,1,90,8|4,0:0|0:0,0:0:0:0:
392,336,21450,2,0,B|380:292|380:292|388:244,1,90
408,180,21802,5,2,0:0:0:0:
432,172,21919,1,2,0:0:0:0:
456,164,22036,1,8,0:0:0:0:
336,96,22270,5,2,0:0:0:0:
320,100,22388,1,2,0:0:0:0:
300,104,22505,2,0,L|256:96,1,45,0|2,0:0|0:0,0:0:0:0:
136,56,22856,2,0,L|44:80,1,90,2|0,0:0|0:0,0:0:0:0:
28,148,23208,1,2,0:0:0:0:
36,168,23325,1,2,0:0:0:0:
44,184,23442,6,0,L|36:280,1,90,4|0,0:0|0:0,0:0:0:0:
56,344,23794,1,0,0:0:0:0:
56,344,23911,2,0,B|100:352|100:352|160:348,1,90,8|4,0:0|0:0,0:0:0:0:
220,304,24263,2,0,P|280:288|352:304,1,135
372,320,24731,1,0,0:0:0:0:
432,288,24849,2,0,B|444:244|444:244|436:192,1,90,8|4,0:0|0:0,0:0:0:0:
396,136,25200,2,0,B|352:148|352:148|308:140,1,90
236,116,25552,6,0,L|240:72,1,45,2|2,0:0|0:0,0:0:0:0:
242,50,25786,1,8,0:0:0:0:
148,180,26020,6,0,L|144:136,1,45,2|2,0:0|0:0,0:0:0:0:
142,114,26255,1,0,0:0:0:0:
280,272,26489,6,0,L|284:228,1,45,2|2,0:0|0:0,0:0:0:0:
286,206,26724,1,8,0:0:0:0:
384,120,26958,5,2,0:0:0:0:
256,192,27192,12,0,30708,0:0:0:0:
384,92,30942,6,2,L|288:84,1,90
200,124,31411,1,8,0:0:0:0:
76,72,31645,2,2,P|68:136|76:256,1,180
168,344,32349,2,0,P|212:340|264:340,1,90,8|2,0:0|0:0,0:0:0:0:
392,332,32817,6,0,P|392:272|400:188,1,135,0|0,0:0|0:0,0:0:0:0:
432,132,33286,2,0,L|476:128,2,45,8|8|0,0:0|0:0|0:0,0:0:0:0:
312,92,33755,1,0,0:0:0:0:
312,92,33872,2,0,P|268:88|220:88,1,90,8|8,0:0|0:0,0:0:0:0:
152,112,34224,2,0,P|156:160|156:216,1,90,0|8,0:0|0:0,0:0:0:0:
40,280,34692,6,2,P|44:236|44:184,1,90
24,72,35161,1,8,0:0:0:0:
148,128,35395,2,2,P|216:136|332:124,1,180
448,80,36099,2,0,P|452:120|452:176,1,90,8|2,0:0|0:0,0:0:0:0:
408,296,36567,5,0,0:0:0:0:
288,256,36802,2,0,P|244:256|188:264,1,90,8|8,0:0|0:0,0:0:0:0:
72,208,37270,1,0,0:0:0:0:
72,208,37388,2,0,L|60:116,1,90,8|8,0:0|0:0,0:0:0:0:
192,64,37856,1,8,0:0:0:0:
192,64,37974,2,0,L|184:160,1,90,0|8,0:0|0:0,0:0:0:0:
8,292,38442,6,2,P|56:292|104:280,1,90
196,220,38911,1,8,0:0:0:0:
304,272,39145,2,2,P|352:280|484:272,1,180
508,172,39849,2,0,L|516:80,1,90,8|2,0:0|0:0,0:0:0:0:
372,36,40317,6,0,P|384:100|384:180,1,135
364,256,40786,2,0,L|384:312,2,45,8|8|0,0:0|0:0|0:0,0:0:0:0:
232,212,41255,1,8,0:0:0:0:
232,212,41372,2,0,P|236:168|236:120,1,90,8|0,0:0|0:0,0:0:0:0:
200,48,41724,2,0,P|156:52|104:52,1,90,0|8,0:0|0:0,0:0:0:0:
44,148,42192,6,2,P|40:188|40:240,1,90
92,352,42661,1,8,0:0:0:0:
220,320,42895,2,2,P|268:312|400:312,1,180
484,216,43599,2,0,P|440:208|388:208,1,90,8|2,0:0|0:0,0:0:0:0:
264,240,44067,6,0,L|224:260,2,45,0|8|0,0:0|0:0|0:0,0:0:0:0:
336,140,44536,1,0,0:0:0:0:
336,140,44653,1,8,0:0:0:0:
336,140,44770,2,0,L|340:92,1,45,0|8,0:0|0:0,0:0:0:0:
264,132,45005,2,0,L|272:72,1,45,0|8,0:0|0:0,0:0:0:0:
192,120,45239,2,0,P|144:116|100:120,1,90,0|8,0:0|0:0,0:0:0:0:
8,192,45708,1,0,0:0:0:0:
88,280,45942,6,0,P|132:300|224:216,1,180,0|8,0:0|0:0,0:0:0:0:
224,112,46645,1,0,0:0:0:0:
320,36,46880,2,0,P|400:68|424:160,1,180,0|8,0:0|0:0,0:0:0:0:
392,280,47583,1,0,0:0:0:0:
276,344,47817,2,0,P|196:308|96:316,1,180,0|8,0:0|0:0,0:0:0:0:
24,216,48520,1,0,0:0:0:0:
148,104,48755,2,0,P|104:92|48:96,1,90
208,180,49224,2,0,P|252:172|296:148,1,90,8|0,0:0|0:0,0:0:0:0:
468,220,49692,6,0,P|400:204|328:284,1,180,0|8,0:0|0:0,0:0:0:0:
244,356,50395,1,0,0:0:0:0:
80,272,50630,2,0,P|160:288|224:212,1,180,0|8,0:0|0:0,0:0:0:0:
216,104,51333,1,0,0:0:0:0:
304,24,51567,2,0,L|488:40,2,180,0|8|0,0:0|0:0|0:0,0:0:0:0:
216,104,52739,1,8,0:0:0:0:
284,212,52974,1,8,0:0:0:0:
236,324,53208,1,0,0:0:0:0:
224,336,53325,1,0,0:0:0:0:
212,348,53442,6,0,P|120:356|64:284,1,180,0|8,0:0|0:0,0:0:0:0:
52,148,54145,1,0,0:0:0:0:
136,20,54380,2,0,P|192:72|192:176,1,180,0|8,0:0|0:0,0:0:0:0:
164,288,55083,1,0,0:0:0:0:
276,356,55317,2,0,P|360:328|376:240,1,180,0|8,0:0|0:0,0:0:0:0:
300,120,56020,1,0,0:0:0:0:
200,216,56255,2,0,P|152:208|100:216,1,90
280,288,56724,2,0,P|320:280|376:284,1,90,8|0,0:0|0:0,0:0:0:0:
464,208,57192,6,0,P|456:140|360:84,1,180,0|8,0:0|0:0,0:0:0:0:
232,84,57895,1,0,0:0:0:0:
124,156,58130,2,0,L|148:340,1,180,0|8,0:0|0:0,0:0:0:0:
256,368,58833,1,0,0:0:0:0:
364,334,59067,2,0,L|388:156,2,180,0|8|0,0:0|0:0|0:0,0:0:0:0:
256,368,60239,1,8,0:0:0:0:
224,248,60474,1,8,0:0:0:0:
276,116,60708,1,0,0:0:0:0:
288,108,60825,1,0,0:0:0:0:
300,100,60942,6,0,P|388:96|448:168,1,180,4|8,0:0|0:0,0:0:0:0:
456,284,61645,1,0,0:0:0:0:
340,344,61880,2,0,P|260:332|152:332,1,180,0|8,0:0|0:0,0:0:0:0:
32,260,62583,1,0,0:0:0:0:
20,108,62817,2,0,P|80:44|164:60,1,180,0|8,0:0|0:0,0:0:0:0:
244,168,63520,1,0,0:0:0:0:
320,300,63755,2,0,P|364:308|416:304,1,90
224,244,64223,2,0,P|180:232|128:232,1,90,8|0,0:0|0:0,0:0:0:0:
348,204,64692,6,0,P|416:164|408:60,1,180,0|8,0:0|0:0,0:0:0:0:
304,20,65395,1,0,0:0:0:0:
216,120,65630,2,0,P|128:144|56:80,1,180,0|8,0:0|0:0,0:0:0:0:
180,44,66333,1,0,0:0:0:0:
312,124,66567,2,0,P|300:216|300:312,2,180,0|8|0,0:0|0:0|0:0,0:0:0:0:
404,36,67738,1,8,0:0:0:0:
364,188,67974,1,8,0:0:0:0:
272,52,68208,1,0,0:0:0:0:
256,48,68325,1,0,0:0:0:0:
240,44,68442,6,0,P|172:40|104:132,1,180,0|8,0:0|0:0,0:0:0:0:
160,248,69145,1,0,0:0:0:0:
264,136,69380,2,0,P|336:124|412:200,1,180,0|8,0:0|0:0,0:0:0:0:
384,328,70083,1,0,0:0:0:0:
264,248,70317,2,0,P|200:240|120:320,1,180,0|8,0:0|0:0,0:0:0:0:
288,328,71020,1,0,0:0:0:0:
376,216,71255,2,0,P|384:172|384:124,1,90
208,96,71724,2,0,P|200:144|200:192,1,90
296,272,72192,6,0,P|244:248|136:296,1,180,0|8,0:0|0:0,0:0:0:0:
284,344,72895,1,0,0:0:0:0:
412,240,73130,2,0,P|396:172|284:112,1,180,0|8,0:0|0:0,0:0:0:0:
184,116,73833,1,0,0:0:0:0:
88,200,74067,2,0,P|96:244|96:300,1,90
216,336,74536,2,0,P|224:288|224:240,1,90,8|0,0:0|0:0,0:0:0:0:
220,216,74888,1,8,0:0:0:0:
212,188,75005,2,0,P|252:168|296:160,1,90,0|8,0:0|0:0,0:0:0:0:
144,240,75474,2,0,P|124:196|120:152,1,90,4|0,0:0|0:0,0:0:0:0:
176,44,75942,6,0,L|268:28,1,90,2|0,0:0|0:0,0:0:0:0:
392,112,76411,2,2,P|348:180|256:164,1,180,10|2,0:0|0:0,0:0:0:0:
200,80,77114,1,2,0:0:0:0:
108,144,77348,1,8,0:0:0:0:
200,68,77583,1,2,0:0:0:0:
304,124,77817,6,0,P|296:168|296:220,1,90,0|2,0:0|0:0,0:0:0:0:
380,336,78286,2,2,P|412:304|384:176,1,180,10|0,0:0|0:0,0:0:0:0:
304,124,78989,1,2,0:0:0:0:
196,168,79224,1,8,0:0:0:0:
308,132,79458,1,2,0:0:0:0:
436,152,79692,5,0,0:0:0:0:
436,152,79927,1,2,0:0:0:0:
348,276,80161,2,0,L|348:220,1,45,0|2,0:0|0:0,0:0:0:0:
248,208,80513,2,0,L|248:256,1,45,0|2,0:0|0:0,0:0:0:0:
376,136,80864,2,0,L|376:88,1,45,0|2,0:0|0:0,0:0:0:0:
272,51,81216,2,0,L|272:96,1,45,0|2,0:0|0:0,0:0:0:0:
336,232,81567,5,0,0:0:0:0:
336,232,81685,1,0,0:0:0:0:
336,232,81802,1,2,0:0:0:0:
240,312,82036,2,0,L|196:312,1,45,0|2,0:0|0:0,0:0:0:0:
160,200,82388,2,0,L|204:200,1,45,0|2,0:0|0:0,0:0:0:0:
136,360,82739,6,0,L|80:360,1,45,0|2,0:0|0:0,0:0:0:0:
80,276,82974,2,0,L|136:276,1,45
192,312,83208,1,2,0:0:0:0:
192,312,83442,6,0,P|236:304|276:284,1,90,2|0,0:0|0:0,0:0:0:0:
328,144,83911,2,2,P|256:120|184:184,1,180,10|0,0:0|0:0,0:0:0:0:
192,312,84614,1,2,0:0:0:0:
92,248,84849,1,8,0:0:0:0:
188,324,85083,1,2,0:0:0:0:
324,276,85317,2,0,P|312:228|308:180,1,90,0|2,0:0|0:0,0:0:0:0:
384,44,85786,2,2,P|440:92|432:192,1,180,10|2,0:0|0:0,0:0:0:0:
324,276,86489,1,0,0:0:0:0:
272,240,86606,1,2,0:0:0:0:
252,180,86724,1,8,0:0:0:0:
324,284,86957,1,2,0:0:0:0:
416,188,87192,5,0,0:0:0:0:
416,188,87427,1,2,0:0:0:0:
324,96,87661,2,0,L|316:48,1,45,0|2,0:0|0:0,0:0:0:0:
352,240,88013,2,0,L|360:284,1,45,0|2,0:0|0:0,0:0:0:0:
364,80,88364,2,0,L|380:28,1,45,0|2,0:0|0:0,0:0:0:0:
316,264,88716,2,0,L|300:312,1,45,0|2,0:0|0:0,0:0:0:0:
268,136,89067,5,0,0:0:0:0:
268,136,89185,1,0,0:0:0:0:
268,136,89302,1,2,0:0:0:0:
140,192,89536,2,0,L|96:208,1,45,0|2,0:0|0:0,0:0:0:0:
296,156,89888,2,0,L|340:156,1,45,0|2,0:0|0:0,0:0:0:0:
152,152,90239,6,0,L|108:136,1,45,0|2,0:0|0:0,0:0:0:0:
272,196,90474,2,0,L|316:212,1,45
396,248,90708,1,2,0:0:0:0:
396,248,90942,6,0,L|380:336,1,90,2|0,0:0|0:0,0:0:0:0:
280,356,91410,2,2,P|248:296|284:192,1,180,8|0,0:0|0:0,0:0:0:0:
384,136,92114,1,2,0:0:0:0:
488,200,92349,1,8,0:0:0:0:
376,148,92582,1,2,0:0:0:0:
384,24,92817,2,0,P|336:36|292:36,1,90,0|2,0:0|0:0,0:0:0:0:
136,124,93286,2,2,P|208:100|300:152,1,180,10|0,0:0|0:0,0:0:0:0:
312,264,93989,1,2,0:0:0:0:
260,360,94224,1,8,0:0:0:0:
304,256,94458,1,2,0:0:0:0:
440,264,94692,6,0,P|448:216|448:168,1,90,0|2,0:0|0:0,0:0:0:0:
376,80,95161,2,0,L|360:121,1,45,0|2,0:0|0:0,0:0:0:0:
281,24,95513,2,0,L|264:69,1,45,0|2,0:0|0:0,0:0:0:0:
153,161,95864,2,0,L|173:104,1,45,0|2,0:0|0:0,0:0:0:0:
75,94,96216,2,0,L|92:45,1,45,0|2,0:0|0:0,0:0:0:0:
32,200,96567,5,0,0:0:0:0:
32,200,96685,1,0,0:0:0:0:
32,200,96802,1,2,0:0:0:0:
120,336,97036,2,0,L|88:292,1,45,0|2,0:0|0:0,0:0:0:0:
204,240,97388,2,0,L|192:192,1,45,0|2,0:0|0:0,0:0:0:0:
320,168,97739,6,0,L|316:120,1,45,0|2,0:0|0:0,0:0:0:0:
452,136,97974,2,0,L|456:88,1,45
464,20,98208,1,2,0:0:0:0:
380,112,98442,6,0,L|284:100,1,90,2|0,0:0|0:0,0:0:0:0:
144,184,98910,2,2,P|208:240|296:216,1,180,10|0,0:0|0:0,0:0:0:0:
388,148,99614,1,2,0:0:0:0:
480,204,99849,1,8,0:0:0:0:
392,132,100083,1,2,0:0:0:0:
476,216,100317,2,0,L|444:308,1,90,0|2,0:0|0:0,0:0:0:0:
328,344,100786,2,2,P|272:304|164:320,1,180,10|0,0:0|0:0,0:0:0:0:
52,308,101489,1,2,0:0:0:0:
12,200,101724,1,8,0:0:0:0:
72,100,101958,1,2,0:0:0:0:
188,72,102192,6,0,P|232:76|276:104,1,90,2|0,0:0|0:0,0:0:0:0:
316,216,102661,2,0,L|300:320,1,90,2|0,0:0|0:0,0:0:0:0:
268,312,103013,1,0,0:0:0:0:
232,296,103130,2,0,L|224:206,1,90,2|0,0:0|0:0,0:0:0:0:
236,112,103481,2,0,P|276:96|332:100,1,90,2|0,0:0|0:0,0:0:0:0:
348,116,103833,1,2,0:0:0:0:
484,192,104067,6,0,P|416:244|376:232,1,135,4|0,0:0|0:0,0:0:0:0:
336,160,104536,2,0,L|348:64,1,90
192,56,105005,2,0,L|200:104,1,45
112,88,105239,2,0,L|124:140,1,45
144,204,105474,1,0,0:0:0:0:
168,208,105591,1,0,0:0:0:0:
192,208,105708,1,0,0:0:0:0:
216,204,105825,1,0,0:0:0:0:
240,196,105942,6,0,P|284:188|336:188,1,90,4|2,0:0|0:0,0:0:0:0:
428,248,106411,1,8,0:0:0:0:
352,344,106645,1,2,0:0:0:0:
336,336,106763,1,0,0:0:0:0:
320,328,106879,2,0,P|272:316|228:324,1,90,0|2,0:0|0:0,0:0:0:0:
124,360,107349,1,8,0:0:0:0:
44,260,107583,1,2,0:0:0:0:
124,144,107817,6,0,L|128:52,1,90,0|2,0:0|0:0,0:0:0:0:
164,32,108169,1,0,0:0:0:0:
208,48,108286,2,0,L|216:144,1,90,8|2,0:0|0:0,0:0:0:0:
228,216,108638,2,0,B|272:228|272:228|324:224,1,90
392,204,108988,2,0,L|408:116,1,90,2|8,0:0|0:0,0:0:0:0:
304,32,109457,1,2,0:0:0:0:
304,32,109574,1,0,0:0:0:0:
304,32,109692,6,0,L|284:120,1,90,4|2,0:0|0:0,0:0:0:0:
260,236,110161,1,8,0:0:0:0:
328,328,110395,1,2,0:0:0:0:
339,335,110513,1,0,0:0:0:0:
350,342,110630,2,0,P|396:334|433:298,1,90,0|2,0:0|0:0,0:0:0:0:
416,152,111099,2,0,L|328:136,1,90,8|2,0:0|0:0,0:0:0:0:
176,112,111567,5,0,0:0:0:0:
48,148,111802,1,2,0:0:0:0:
52,168,111919,1,0,0:0:0:0:
56,188,112036,1,8,0:0:0:0:
44,316,112270,1,2,0:0:0:0:
44,316,112388,2,0,P|88:308|136:312,1,90,2|0,0:0|0:0,0:0:0:0:
164,336,112739,1,2,0:0:0:0:
184,332,112856,1,2,0:0:0:0:
204,328,112974,1,8,0:0:0:0:
344,352,113208,1,2,0:0:0:0:
480,344,113442,6,0,L|484:248,1,90,4|2,0:0|0:0,0:0:0:0:
444,104,113911,2,0,P|400:96|352:100,1,90,8|2,0:0|0:0,0:0:0:0:
328,112,114263,1,0,0:0:0:0:
304,132,114380,2,0,P|264:112|212:104,1,90,0|2,0:0|0:0,0:0:0:0:
108,148,114849,2,0,P|116:188|116:244,1,90,8|2,0:0|0:0,0:0:0:0:
100,344,115317,5,0,0:0:0:0:
220,368,115552,1,2,0:0:0:0:
340,336,115786,2,0,P|384:324|432:324,1,90,8|2,0:0|0:0,0:0:0:0:
464,328,116137,2,0,L|472:280,1,45
480,196,116488,1,2,0:0:0:0:
364,264,116723,1,8,0:0:0:0:
268,176,116957,1,2,0:0:0:0:
296,48,117192,6,0,P|336:28|388:28,1,90,4|2,0:0|0:0,0:0:0:0:
472,136,117660,2,0,L|464:232,1,90,8|2,0:0|0:0,0:0:0:0:
456,260,118012,1,2,0:0:0:0:
428,288,118129,2,0,P|380:300|336:288,1,90,0|2,0:0|0:0,0:0:0:0:
272,188,118598,2,0,L|260:96,1,90,8|2,0:0|0:0,0:0:0:0:
192,12,119067,5,4,0:0:0:0:
84,28,119301,1,2,0:0:0:0:
28,144,119535,1,8,0:0:0:0:
84,288,119770,1,2,0:0:0:0:
84,288,119887,2,0,L|172:272,1,90,4|0,0:0|0:0,0:0:0:0:
232,332,120238,2,0,L|328:348,1,90,2|8,0:0|0:0,0:0:0:0:
444,308,120707,1,2,0:0:0:0:
460,272,120824,1,0,0:0:0:0:
488,248,120942,6,0,L|476:156,1,90,4|2,0:0|0:0,0:0:0:0:
416,52,121410,1,8,0:0:0:0:
312,112,121645,1,2,0:0:0:0:
292,120,121762,1,2,0:0:0:0:
272,128,121879,2,0,P|228:124|192:92,1,90,0|2,0:0|0:0,0:0:0:0:
84,32,122348,2,0,L|64:124,1,90,8|2,0:0|0:0,0:0:0:0:
68,156,122699,1,2,0:0:0:0:
72,188,122817,2,0,L|56:284,1,90,0|2,0:0|0:0,0:0:0:0:
260,348,123285,2,0,L|252:256,1,90,8|2,0:0|0:0,0:0:0:0:
336,280,123637,2,0,L|328:180,1,90,2|0,0:0|0:0,0:0:0:0:
376,132,123988,1,2,0:0:0:0:
396,136,124106,1,2,0:0:0:0:
416,144,124223,2,0,B|428:68|428:68|408:84,1,90,8|2,0:0|0:0,0:0:0:0:
360,216,124692,6,0,P|396:232|448:224,1,90,0|2,0:0|0:0,0:0:0:0:
372,124,125160,1,8,0:0:0:0:
288,228,125395,1,2,0:0:0:0:
292,252,125512,1,2,0:0:0:0:
296,276,125629,2,0,B|256:296|256:296|204:288,1,90,0|2,0:0|0:0,0:0:0:0:
136,196,126098,2,0,L|152:108,1,90,8|2,0:0|0:0,0:0:0:0:
252,40,126567,5,0,0:0:0:0:
344,108,126801,1,2,0:0:0:0:
452,68,127035,1,8,0:0:0:0:
364,180,127270,1,0,0:0:0:0:
368,192,127387,1,0,0:0:0:0:
324,272,127621,1,0,0:0:0:0:
328,284,127738,1,0,0:0:0:0:
252,200,127973,1,4,0:0:0:0:
340,112,128207,1,0,0:0:0:0:
336,128,128324,1,0,0:0:0:0:
332,144,128442,6,0,P|312:100|324:56,1,90,0|2,0:0|0:0,0:0:0:0:
452,48,128910,2,0,P|472:92|460:136,1,90,8|2,0:0|0:0,0:0:0:0:
444,164,129262,1,2,0:0:0:0:
408,180,129379,2,0,B|364:168|364:168|312:172,1,90,0|2,0:0|0:0,0:0:0:0:
191,236,129848,2,0,P|176:278|177:322,1,90,8|2,0:0|0:0,0:0:0:0:
220,344,130199,1,2,0:0:0:0:
264,336,130317,6,0,P|279:293|278:249,1,90,0|2,0:0|0:0,0:0:0:0:
224,112,130785,2,0,B|152:108|152:108|128:120,1,90,8|0,0:0|0:0,0:0:0:0:
184,180,131137,2,0,B|256:184|256:184|280:172,1,90,2|0,0:0|0:0,0:0:0:0:
332,128,131488,2,0,B|316:96|316:96|324:36,1,90,2|8,0:0|0:0,0:0:0:0:
412,156,131957,1,2,0:0:0:0:
404,172,132074,1,2,0:0:0:0:
396,188,132192,6,0,B|384:224|384:224|396:276,1,90,0|2,0:0|0:0,0:0:0:0:
508,168,132660,2,0,P|512:124|500:76,1,90,8|2,0:0|0:0,0:0:0:0:
472,52,133012,1,2,0:0:0:0:
432,40,133129,2,0,L|340:56,1,90,0|2,0:0|0:0,0:0:0:0:
216,148,133598,2,0,L|304:164,1,90,8|0,0:0|0:0,0:0:0:0:
336,172,133949,1,2,0:0:0:0:
372,180,134067,1,2,0:0:0:0:
432,268,134301,6,0,B|436:324|436:324|420:288|384:276|352:304|352:304|328:268|284:248|240:252|204:284,1,323.999990112305,4|0,0:0|0:0,0:0:0:0:
164,344,135824,1,0,0:0:0:0:
164,344,135942,6,0,L|176:248,1,90,4|2,0:0|0:0,0:0:0:0:
188,112,136410,1,8,0:0:0:0:
272,208,136645,2,2,B|180:220|180:220|92:192,1,180,0|0,0:0|0:0,0:0:0:0:
40,104,137348,1,0,0:0:0:0:
144,52,137582,1,2,0:0:0:0:
160,48,137699,1,2,0:0:0:0:
180,48,137817,6,0,P|224:52|264:80,1,90,0|2,0:0|0:0,0:0:0:0:
316,232,138285,1,0,0:0:0:0:
352,92,138520,2,0,P|280:104|228:196,1,180,8|8,0:0|0:0,0:0:0:0:
272,328,139223,1,8,0:0:0:0:
376,220,139457,1,2,0:0:0:0:
284,108,139692,6,0,P|272:64|280:16,1,90,0|2,0:0|0:0,0:0:0:0:
348,172,140160,1,8,0:0:0:0:
192,232,140395,2,2,P|176:164|200:56,1,180
316,24,141098,1,8,0:0:0:0:
312,180,141332,1,2,0:0:0:0:
332,176,141449,1,2,0:0:0:0:
356,172,141567,6,0,P|372:132|336:108,1,90,0|2,0:0|0:0,0:0:0:0:
244,164,142035,1,8,0:0:0:0:
420,200,142270,2,0,P|432:108|372:48,1,180,4|0,0:0|0:0,0:0:0:0:
264,144,142973,1,8,0:0:0:0:
356,280,143207,1,2,0:0:0:0:
400,128,143442,6,0,P|408:88|400:40,1,90,0|2,0:0|0:0,0:0:0:0:
268,24,143910,1,8,0:0:0:0:
248,180,144145,2,2,P|280:240|256:344,1,180
136,380,144848,1,8,0:0:0:0:
64,248,145082,1,2,0:0:0:0:
72,224,145199,1,2,0:0:0:0:
80,200,145317,6,0,B|56:180|56:180|-4:192,1,90,0|2,0:0|0:0,0:0:0:0:
136,284,145785,1,8,0:0:0:0:
208,144,146020,2,0,P|248:104|376:112,1,180,8|8,0:0|0:0,0:0:0:0:
448,224,146723,1,8,0:0:0:0:
308,192,146957,1,2,0:0:0:0:
432,64,147192,6,0,P|436:112|420:172,1,90,0|2,0:0|0:0,0:0:0:0:
360,292,147660,1,8,0:0:0:0:
208,312,147895,2,2,L|28:272,1,180
8,132,148598,1,8,0:0:0:0:
128,204,148832,1,2,0:0:0:0:
264,132,149067,6,0,P|272:80|260:28,1,90,0|2,0:0|0:0,0:0:0:0:
152,4,149535,1,8,0:0:0:0:
76,116,149770,2,0,B|48:128|28:104|60:72|104:72|120:128|64:152|64:152|52:184|56:228,1,215.999993408203,4|0,0:0|0:0,0:0:0:0:
144,196,150942,5,4,0:0:0:0:
120,304,151176,2,0,L|128:360,2,53.9999983520508,2|8|2,0:0|0:0|0:0,0:0:0:0:
212,200,152113,2,0,L|224:140,2,53.9999983520508,2|8|2,0:0|0:0|0:0,0:0:0:0:
280,316,153051,2,0,L|284:376,2,53.9999983520508,2|8|2,0:0|0:0|0:0,0:0:0:0:
348,200,153988,2,0,L|332:136,2,53.9999983520508,2|8|2,0:0|0:0|0:0,0:0:0:0:
416,340,154926,6,0,L|428:276,1,53.9999983520508,2|8,0:0|0:0,0:0:0:0:
444,176,155395,1,2,0:0:0:0:
320,52,155863,2,0,L|328:116,1,53.9999983520508,2|8,0:0|0:0,0:0:0:0:
344,256,156332,1,2,0:0:0:0:
152,344,156801,2,0,L|160:280,1,53.9999983520508,2|8,0:0|0:0,0:0:0:0:
176,120,157270,1,2,0:0:0:0:
416,324,157738,2,0,L|408:256,1,53.9999983520508,2|4,0:0|0:0,0:0:0:0:
440,156,158207,6,0,P|384:156|336:136,1,107.999996704102,0|2,0:0|0:0,0:0:0:0:
288,72,158910,2,0,L|304:20,1,53.9999983520508,8|2,0:0|0:0,0:0:0:0:
344,252,159613,2,0,L|328:316,2,53.9999983520508,2|8|2,0:0|0:0|0:0,0:0:0:0:
424,80,160551,2,0,L|480:60,2,53.9999983520508,2|8|2,0:0|0:0|0:0,0:0:0:0:
224,124,161488,2,0,P|184:116|160:100,1,53.9999983520508,2|8,0:0|0:0,0:0:0:0:
144,32,161957,1,2,0:0:0:0:
436,72,162426,6,0,L|380:80,1,53.9999983520508,2|8,0:0|0:0,0:0:0:0:
252,96,162895,1,2,0:0:0:0:
72,184,163363,2,0,L|136:192,1,53.9999983520508,2|8,0:0|0:0,0:0:0:0:
376,220,163832,1,2,0:0:0:0:
152,44,164301,2,0,L|144:104,1,53.9999983520508,2|8,0:0|0:0,0:0:0:0:
124,296,164770,1,2,0:0:0:0:
372,24,165238,2,0,L|380:80,1,53.9999983520508,2|4,0:0|0:0,0:0:0:0:
412,288,165707,1,2,0:0:0:0:
300,336,165942,6,0,L|308:264,1,67.5,0|2,0:0|0:0,0:0:0:0:
192,256,166645,2,0,L|188:184,1,67.5,0|2,0:0|0:0,0:0:0:0:
180,60,167348,1,8,0:0:0:0:
284,92,167582,1,2,0:0:0:0:
288,112,167699,1,2,0:0:0:0:
292,132,167817,6,0,L|364:116,1,67.5,0|2,0:0|0:0,0:0:0:0:
332,236,168520,2,0,L|412:248,1,67.5,0|2,0:0|0:0,0:0:0:0:
440,304,168988,2,0,L|488:296,1,45,0|8,0:0|0:0,0:0:0:0:
360,360,169457,1,2,0:0:0:0:
344,356,169574,1,2,0:0:0:0:
328,352,169692,6,0,L|320:280,1,67.5,4|2,0:0|0:0,0:0:0:0:
444,184,170395,2,0,L|436:260,1,67.5,0|2,0:0|0:0,0:0:0:0:
368,88,171098,1,8,0:0:0:0:
280,144,171332,1,2,0:0:0:0:
264,152,171449,1,2,0:0:0:0:
248,160,171567,2,0,L|176:148,1,67.5,0|2,0:0|0:0,0:0:0:0:
176,268,172270,2,0,L|104:280,1,67.5,0|2,0:0|0:0,0:0:0:0:
64,336,172738,2,0,L|12:328,1,45,0|8,0:0|0:0,0:0:0:0:
28,216,173207,1,2,0:0:0:0:
24,196,173324,1,2,0:0:0:0:
20,176,173442,6,0,L|88:156,3,67.5,4|2|0|2,0:0|0:0|0:0|0:0,0:0:0:0:
232,196,174848,1,8,0:0:0:0:
368,120,175082,1,2,0:0:0:0:
352,116,175200,1,2,0:0:0:0:
332,108,175317,2,0,L|320:176,3,67.5,0|2|0|2,0:0|0:0|0:0|0:0,0:0:0:0:
296,308,176723,1,8,0:0:0:0:
264,192,176957,1,2,0:0:0:0:
248,188,177074,1,2,0:0:0:0:
232,184,177191,6,0,L|228:136,1,45,4|0,0:0|0:0,0:0:0:0:
156,188,177542,2,0,L|152:144,1,45,2|0,0:0|0:0,0:0:0:0:
116,252,177895,2,0,L|112:296,1,45
192,256,178246,2,0,L|188:304,1,45,2|0,0:0|0:0,0:0:0:0:
220,364,178598,1,8,0:0:0:0:
308,268,178832,1,2,0:0:0:0:
304,248,178949,1,2,0:0:0:0:
300,228,179067,6,0,B|312:176|312:176|368:176|392:236|368:316|264:340|224:248|241:216|241:216|247:182,1,360,0|4,0:0|0:0,0:0:0:0:
