osu file format v14

[General]
AudioFilename: audio.mp3
AudioLeadIn: 0
PreviewTime: 241417
Countdown: 1
SampleSet: Normal
StackLeniency: 0.7
Mode: 1
LetterboxInBreaks: 0
WidescreenStoryboard: 0

[Editor]
DistanceSpacing: 0.2
BeatDivisor: 4
GridSize: 8
TimelineZoom: 1.6

[Metadata]
Title:Lost Emotion (Amane UK Hardcore Remix)
TitleUnicode:Lost Emotion (Amane UK Hardcore Remix)
Artist:Masayoshi Minoshima feat.nomico
ArtistUnicode:Masayoshi Minoshima feat.nomico
Creator:a2805146
Version:Inner Oni
Source:東方心綺楼 ~ Hopeless Masquerade.
Tags:alstroemeria records c88 東方 project marathon reitasei 12 pop culture 4 3 hata no kokoro theme edm 秦 の こころ
BeatmapID:1810221
BeatmapSetID:865781

[Difficulty]
HPDrainRate:5.5
CircleSize:5
OverallDifficulty:6.5
ApproachRate:5
SliderMultiplier:1.4
SliderTickRate:1

[Events]
//Background and Video events
0,0,"BG.png",0,0
//Break Periods
2,197902,207474
//Storyboard Layer 0 (Background)
//Storyboard Layer 1 (Fail)
//Storyboard Layer 2 (Pass)
//Storyboard Layer 3 (Foreground)
//Storyboard Sound Samples

[TimingPoints]
217,342.857142857143,4,1,0,55,1,0
21045,-125,4,1,0,5,0,0
21474,-100,4,1,0,50,0,0
22159,-90.9090909090909,4,1,0,50,0,0
42731,-111.111111111111,4,1,0,50,0,0
43759,-71.4285714285714,4,1,0,50,0,0
44102,-111.111111111111,4,1,0,50,0,0
77017,-111.111111111111,4,1,0,60,0,0
82502,-100,4,1,0,70,0,0
83874,-76.9230769230769,4,1,0,70,0,0
84559,-71.4285714285714,4,1,0,70,0,0
85245,-66.6666666666667,4,1,0,70,0,0
86617,-111.111111111111,4,1,0,50,0,0
87988,-133.333333333333,4,1,0,50,0,0
88674,-90.9090909090909,4,1,0,50,0,0
93474,-133.333333333333,4,1,0,50,0,0
94159,-90.9090909090909,4,1,0,50,0,0
98959,-133.333333333333,4,1,0,50,0,0
99645,-90.9090909090909,4,1,0,50,0,0
104445,-133.333333333333,4,1,0,50,0,0
104788,-100,4,1,0,50,0,0
109588,-66.6666666666667,4,1,0,50,0,0
109931,-90.9090909090909,4,1,0,50,0,0
127074,-83.3333333333333,4,1,0,50,0,0
127245,-76.9230769230769,4,1,0,50,0,0
127588,-90.9090909090909,4,1,0,50,0,0
128445,-83.3333333333333,4,1,0,50,0,0
128617,-76.9230769230769,4,1,0,50,0,0
128959,-90.9090909090909,4,1,0,50,0,0
129817,-83.3333333333333,4,1,0,50,0,0
129988,-76.9230769230769,4,1,0,50,0,0
130331,-90.9090909090909,4,1,0,50,0,0
131531,-76.9230769230769,4,1,0,50,0,0
131874,-133.333333333333,4,1,0,50,0,0
142845,-100,4,1,0,50,0,0
153817,-90.9090909090909,4,1,0,50,0,1
158959,-86.9565217391304,4,1,0,50,0,1
159302,-90.9090909090909,4,1,0,50,0,1
160331,-86.9565217391304,4,1,0,50,0,1
160674,-90.9090909090909,4,1,0,50,0,1
161702,-86.9565217391304,4,1,0,50,0,1
162045,-90.9090909090909,4,1,0,50,0,1
169931,-86.9565217391304,4,1,0,50,0,1
170274,-90.9090909090909,4,1,0,50,0,1
171302,-86.9565217391304,4,1,0,50,0,1
171645,-90.9090909090909,4,1,0,50,0,1
172674,-86.9565217391304,4,1,0,50,0,1
173017,-90.9090909090909,4,1,0,50,0,1
175417,-86.9565217391304,4,1,0,50,0,1
175759,-133.333333333333,4,1,0,50,0,0
180731,-125,4,1,0,50,0,0
180817,-117.647058823529,4,1,0,50,0,0
180902,-111.111111111111,4,1,0,50,0,0
180988,-105.263157894737,4,1,0,50,0,0
181074,-100,4,1,0,50,0,0
181159,-95.2380952380952,4,1,0,50,0,0
181245,-90.9090909090909,4,1,0,50,0,1
181588,-83.3333333333333,4,1,0,50,0,1
181759,-76.9230769230769,4,1,0,50,0,1
182102,-90.9090909090909,4,1,0,50,0,1
182959,-83.3333333333333,4,1,0,50,0,1
183131,-76.9230769230769,4,1,0,50,0,1
183474,-90.9090909090909,4,1,0,50,0,1
184331,-83.3333333333333,4,1,0,50,0,1
184502,-76.9230769230769,4,1,0,50,0,1
184845,-90.9090909090909,4,1,0,50,0,1
185359,-90.9090909090909,4,1,0,50,0,0
187074,-133.333333333333,4,1,0,50,0,0
190845,-128.205128205128,4,1,0,50,0,0
190931,-123.456790123457,4,1,0,50,0,0
191017,-119.047619047619,4,1,0,50,0,0
191102,-114.942528735632,4,1,0,50,0,0
191188,-111.111111111111,4,1,0,50,0,0
191274,-107.52688172043,4,1,0,50,0,0
191359,-104.166666666667,4,1,0,50,0,0
191445,-101.010101010101,4,1,0,50,0,0
191531,-98.0392156862745,4,1,0,50,0,0
191702,-95.2380952380952,4,1,0,50,0,0
191788,-92.5925925925926,4,1,0,50,0,0
191874,-90.9090909090909,4,1,0,50,0,0
192217,-83.3333333333333,4,1,0,50,0,1
192388,-76.9230769230769,4,1,0,50,0,1
192731,-90.9090909090909,4,1,0,50,0,1
193588,-83.3333333333333,4,1,0,50,0,1
193759,-76.9230769230769,4,1,0,50,0,1
194102,-90.9090909090909,4,1,0,50,0,1
194959,-83.3333333333333,4,1,0,50,0,1
195131,-76.9230769230769,4,1,0,50,0,1
195474,-90.9090909090909,4,1,0,50,0,1
196331,-90.9090909090909,4,1,0,50,0,0
197359,-76.9230769230769,4,1,0,50,0,0
197702,-133.333333333333,4,1,0,40,0,0
219302,-90.9090909090909,4,1,0,50,0,0
219645,-125,4,1,0,50,0,0
230617,-100,4,1,0,50,0,0
233359,-90.9090909090909,4,1,0,50,0,0
236102,-83.3333333333333,4,1,0,50,0,0
237474,-76.9230769230769,4,1,0,50,0,0
238845,-71.4285714285714,4,1,0,50,0,0
239531,-66.6666666666667,4,1,0,50,0,0
240217,-90.9090909090909,4,1,0,50,0,0
241245,-111.111111111111,4,1,0,50,0,0
241588,-90.9090909090909,4,1,0,50,0,1
262159,-111.111111111111,4,1,0,50,0,0
263531,-90.9090909090909,4,1,0,50,0,0
284102,-111.111111111111,4,1,0,50,0,0
285131,-90.9090909090909,4,1,0,50,0,0
285474,-100,4,1,0,50,0,0

[HitObjects]
256,192,217,5,0,0:0:0:0:
256,192,302,1,8,0:0:0:0:
256,192,388,1,8,0:0:0:0:
256,192,559,1,0,0:0:0:0:
256,192,731,1,8,0:0:0:0:
256,192,817,1,8,0:0:0:0:
256,192,902,1,0,0:0:0:0:
256,192,988,1,8,0:0:0:0:
256,192,1159,1,8,0:0:0:0:
256,192,1245,1,0,0:0:0:0:
256,192,1417,1,8,0:0:0:0:
256,192,1588,1,0,0:0:0:0:
256,192,1674,1,8,0:0:0:0:
256,192,1759,1,8,0:0:0:0:
256,192,1931,1,0,0:0:0:0:
256,192,2102,1,8,0:0:0:0:
256,192,2188,1,8,0:0:0:0:
256,192,2274,1,0,0:0:0:0:
256,192,2445,1,8,0:0:0:0:
256,192,2531,1,0,0:0:0:0:
256,192,2702,1,0,0:0:0:0:
256,192,2788,1,8,0:0:0:0:
256,192,2959,1,0,0:0:0:0:
256,192,3045,1,8,0:0:0:0:
256,192,3131,1,8,0:0:0:0:
256,192,3302,1,0,0:0:0:0:
256,192,3474,1,8,0:0:0:0:
256,192,3559,1,8,0:0:0:0:
256,192,3645,1,0,0:0:0:0:
256,192,3731,1,8,0:0:0:0:
256,192,3902,1,8,0:0:0:0:
256,192,3988,1,0,0:0:0:0:
256,192,4159,1,8,0:0:0:0:
256,192,4245,1,8,0:0:0:0:
256,192,4331,1,0,0:0:0:0:
256,192,4417,1,8,0:0:0:0:
256,192,4502,1,8,0:0:0:0:
256,192,4674,1,0,0:0:0:0:
256,192,4845,1,8,0:0:0:0:
256,192,4931,1,8,0:0:0:0:
256,192,5017,1,0,0:0:0:0:
256,192,5059,1,0,0:0:0:0:
256,192,5188,1,0,0:0:0:0:
256,192,5231,1,0,0:0:0:0:
256,192,5359,1,8,0:0:0:0:
256,192,5402,1,8,0:0:0:0:
256,192,5531,1,8,0:0:0:0:
256,192,5574,1,8,0:0:0:0:
256,192,5702,1,0,0:0:0:0:
256,192,5788,1,8,0:0:0:0:
256,192,5874,1,8,0:0:0:0:
256,192,6045,1,0,0:0:0:0:
256,192,6217,1,8,0:0:0:0:
256,192,6302,1,8,0:0:0:0:
256,192,6388,1,0,0:0:0:0:
256,192,6474,1,8,0:0:0:0:
256,192,6645,1,8,0:0:0:0:
256,192,6731,1,0,0:0:0:0:
256,192,6902,1,8,0:0:0:0:
256,192,6988,1,8,0:0:0:0:
256,192,7074,1,0,0:0:0:0:
256,192,7159,1,8,0:0:0:0:
256,192,7245,1,8,0:0:0:0:
256,192,7417,1,0,0:0:0:0:
256,192,7588,1,8,0:0:0:0:
256,192,7674,1,8,0:0:0:0:
256,192,7759,1,0,0:0:0:0:
256,192,7931,1,8,0:0:0:0:
256,192,8017,1,0,0:0:0:0:
256,192,8102,1,0,0:0:0:0:
256,192,8274,1,8,0:0:0:0:
256,192,8445,1,0,0:0:0:0:
256,192,8531,1,8,0:0:0:0:
256,192,8617,1,8,0:0:0:0:
256,192,8788,1,0,0:0:0:0:
256,192,8959,1,8,0:0:0:0:
256,192,9045,1,8,0:0:0:0:
256,192,9131,1,0,0:0:0:0:
256,192,9217,1,8,0:0:0:0:
256,192,9388,1,8,0:0:0:0:
256,192,9474,1,0,0:0:0:0:
256,192,9645,1,8,0:0:0:0:
256,192,9731,1,8,0:0:0:0:
256,192,9817,1,0,0:0:0:0:
256,192,9988,1,8,0:0:0:0:
256,192,10074,1,0,0:0:0:0:
256,192,10159,1,0,0:0:0:0:
256,192,10331,1,0,0:0:0:0:
256,192,10417,1,0,0:0:0:0:
256,192,10502,1,8,0:0:0:0:
256,192,10545,1,8,0:0:0:0:
256,192,10674,1,0,0:0:0:0:
256,192,10717,1,0,0:0:0:0:
256,192,10845,1,8,0:0:0:0:
256,192,10931,1,0,0:0:0:0:
256,192,11017,1,0,0:0:0:0:
256,192,11102,1,0,0:0:0:0:
256,192,11188,1,0,0:0:0:0:
256,192,11359,1,8,0:0:0:0:
256,192,11445,1,0,0:0:0:0:
256,192,11531,1,0,0:0:0:0:
256,192,11702,1,8,0:0:0:0:
256,192,11874,1,0,0:0:0:0:
256,192,11959,1,8,0:0:0:0:
256,192,12131,1,8,0:0:0:0:
256,192,12217,1,0,0:0:0:0:
256,192,12388,1,8,0:0:0:0:
256,192,12559,1,0,0:0:0:0:
256,192,12731,1,8,0:0:0:0:
256,192,12817,1,0,0:0:0:0:
256,192,12902,1,0,0:0:0:0:
256,192,13074,1,8,0:0:0:0:
256,192,13159,1,8,0:0:0:0:
256,192,13245,1,0,0:0:0:0:
256,192,13331,1,8,0:0:0:0:
256,192,13502,1,8,0:0:0:0:
256,192,13588,1,0,0:0:0:0:
256,192,13759,1,8,0:0:0:0:
256,192,13817,1,8,0:0:0:0:
256,192,13874,1,8,0:0:0:0:
256,192,13931,1,0,0:0:0:0:
256,192,14102,1,8,0:0:0:0:
256,192,14188,1,0,0:0:0:0:
256,192,14274,1,0,0:0:0:0:
256,192,14445,1,8,0:0:0:0:
256,192,14531,1,0,0:0:0:0:
256,192,14617,1,0,0:0:0:0:
256,192,14702,1,8,0:0:0:0:
256,192,14874,1,8,0:0:0:0:
256,192,14959,1,0,0:0:0:0:
256,192,15131,1,8,0:0:0:0:
256,192,15302,1,0,0:0:0:0:
256,192,15388,1,0,0:0:0:0:
256,192,15474,1,8,0:0:0:0:
256,192,15559,1,8,0:0:0:0:
256,192,15645,1,0,0:0:0:0:
256,192,15817,1,8,0:0:0:0:
256,192,15902,1,8,0:0:0:0:
256,192,15988,1,0,0:0:0:0:
256,192,16031,1,0,0:0:0:0:
256,192,16159,1,0,0:0:0:0:
256,192,16202,1,0,0:0:0:0:
256,192,16331,1,8,0:0:0:0:
256,192,16374,1,8,0:0:0:0:
256,192,16502,1,8,0:0:0:0:
256,192,16545,1,8,0:0:0:0:
256,192,16674,1,0,0:0:0:0:
256,192,16759,1,0,0:0:0:0:
256,192,16845,1,8,0:0:0:0:
256,192,17017,1,0,0:0:0:0:
256,192,17188,1,0,0:0:0:0:
256,192,17274,1,8,0:0:0:0:
256,192,17359,1,0,0:0:0:0:
256,192,17445,1,8,0:0:0:0:
256,192,17617,1,8,0:0:0:0:
256,192,17702,1,0,0:0:0:0:
256,192,17874,1,0,0:0:0:0:
256,192,18045,1,0,0:0:0:0:
256,192,18131,1,0,0:0:0:0:
256,192,18217,1,8,0:0:0:0:
256,192,18388,1,0,0:0:0:0:
256,192,18445,1,0,0:0:0:0:
256,192,18502,1,0,0:0:0:0:
256,192,18559,1,8,0:0:0:0:
256,192,18617,1,0,0:0:0:0:
256,192,18674,1,0,0:0:0:0:
256,192,18731,1,0,0:0:0:0:
256,192,18902,1,0,0:0:0:0:
256,192,18988,1,8,0:0:0:0:
256,192,19074,1,0,0:0:0:0:
256,192,19245,1,8,0:0:0:0:
256,192,19417,1,0,0:0:0:0:
256,192,19502,1,0,0:0:0:0:
256,192,19588,1,0,0:0:0:0:
256,192,19674,1,8,0:0:0:0:
256,192,19759,1,0,0:0:0:0:
256,192,19845,1,0,0:0:0:0:
256,192,19931,1,0,0:0:0:0:
256,192,20017,1,8,0:0:0:0:
256,192,20102,1,8,0:0:0:0:
256,192,20188,1,8,0:0:0:0:
256,192,20274,1,8,0:0:0:0:
256,192,20359,1,8,0:0:0:0:
256,192,20445,1,8,0:0:0:0:
256,192,20531,1,0,0:0:0:0:
256,192,21131,1,0,0:0:0:0:
256,192,21474,1,8,0:0:0:0:
256,192,21645,1,0,0:0:0:0:
256,192,22159,1,0,0:0:0:0:
256,192,22245,1,8,0:0:0:0:
256,192,22331,1,8,0:0:0:0:
256,192,22502,1,8,0:0:0:0:
256,192,22674,1,8,0:0:0:0:
256,192,22759,1,8,0:0:0:0:
256,192,22845,1,0,0:0:0:0:
256,192,23017,1,8,0:0:0:0:
256,192,23188,1,8,0:0:0:0:
256,192,23359,1,8,0:0:0:0:
256,192,23445,1,8,0:0:0:0:
256,192,23531,1,0,0:0:0:0:
256,192,23617,1,8,0:0:0:0:
256,192,23702,1,8,0:0:0:0:
256,192,23874,1,8,0:0:0:0:
256,192,24045,1,8,0:0:0:0:
256,192,24131,1,8,0:0:0:0:
256,192,24217,1,0,0:0:0:0:
256,192,24388,1,8,0:0:0:0:
256,192,24474,1,8,0:0:0:0:
256,192,24559,1,0,0:0:0:0:
256,192,24731,1,8,0:0:0:0:
256,192,24902,1,0,0:0:0:0:
256,192,24988,1,8,0:0:0:0:
256,192,25074,1,8,0:0:0:0:
256,192,25245,1,8,0:0:0:0:
256,192,25417,1,8,0:0:0:0:
256,192,25502,1,8,0:0:0:0:
256,192,25588,1,0,0:0:0:0:
256,192,25759,1,8,0:0:0:0:
256,192,25931,1,8,0:0:0:0:
256,192,26102,1,8,0:0:0:0:
256,192,26188,1,8,0:0:0:0:
256,192,26274,1,0,0:0:0:0:
256,192,26359,1,8,0:0:0:0:
256,192,26445,1,8,0:0:0:0:
256,192,26617,1,8,0:0:0:0:
256,192,26788,1,8,0:0:0:0:
256,192,26874,1,8,0:0:0:0:
256,192,26959,1,0,0:0:0:0:
256,192,27131,1,8,0:0:0:0:
256,192,27217,1,8,0:0:0:0:
256,192,27302,1,0,0:0:0:0:
256,192,27388,1,8,0:0:0:0:
256,192,27474,1,8,0:0:0:0:
256,192,27559,1,8,0:0:0:0:
256,192,27645,1,0,0:0:0:0:
256,192,27731,1,8,0:0:0:0:
256,192,27817,1,8,0:0:0:0:
256,192,27988,1,8,0:0:0:0:
256,192,28159,1,8,0:0:0:0:
256,192,28245,1,8,0:0:0:0:
256,192,28331,1,0,0:0:0:0:
256,192,28502,1,8,0:0:0:0:
256,192,28674,1,8,0:0:0:0:
256,192,28845,1,8,0:0:0:0:
256,192,28931,1,8,0:0:0:0:
256,192,29017,1,0,0:0:0:0:
256,192,29102,1,8,0:0:0:0:
256,192,29188,1,8,0:0:0:0:
256,192,29359,1,8,0:0:0:0:
256,192,29531,1,8,0:0:0:0:
256,192,29617,1,8,0:0:0:0:
256,192,29702,1,0,0:0:0:0:
256,192,29874,1,8,0:0:0:0:
256,192,29959,1,8,0:0:0:0:
256,192,30045,1,0,0:0:0:0:
256,192,30217,1,8,0:0:0:0:
256,192,30388,1,0,0:0:0:0:
256,192,30474,1,8,0:0:0:0:
256,192,30559,1,8,0:0:0:0:
256,192,30731,1,8,0:0:0:0:
256,192,30902,1,8,0:0:0:0:
256,192,30988,1,8,0:0:0:0:
256,192,31074,1,0,0:0:0:0:
256,192,31245,1,8,0:0:0:0:
256,192,31417,1,8,0:0:0:0:
256,192,31588,1,8,0:0:0:0:
256,192,31674,1,8,0:0:0:0:
256,192,31759,1,0,0:0:0:0:
256,192,31845,1,8,0:0:0:0:
256,192,31931,1,8,0:0:0:0:
256,192,32102,1,8,0:0:0:0:
256,192,32274,1,8,0:0:0:0:
256,192,32359,1,8,0:0:0:0:
256,192,32445,1,0,0:0:0:0:
256,192,32531,1,8,0:0:0:0:
256,192,32617,1,8,0:0:0:0:
256,192,32702,1,8,0:0:0:0:
256,192,32788,1,0,0:0:0:0:
256,192,32874,1,0,0:0:0:0:
256,192,32959,1,0,0:0:0:0:
256,192,33045,1,0,0:0:0:0:
256,192,33131,1,8,0:0:0:0:
256,192,33217,1,0,0:0:0:0:
256,192,33302,1,8,0:0:0:0:
256,192,33474,1,8,0:0:0:0:
256,192,33645,1,8,0:0:0:0:
256,192,33731,1,8,0:0:0:0:
256,192,33817,1,0,0:0:0:0:
256,192,33988,1,8,0:0:0:0:
256,192,34159,1,8,0:0:0:0:
256,192,34331,1,8,0:0:0:0:
256,192,34417,1,8,0:0:0:0:
256,192,34502,1,0,0:0:0:0:
256,192,34588,1,8,0:0:0:0:
256,192,34674,1,8,0:0:0:0:
256,192,34845,1,8,0:0:0:0:
256,192,35017,1,8,0:0:0:0:
256,192,35102,1,8,0:0:0:0:
256,192,35188,1,0,0:0:0:0:
256,192,35359,1,8,0:0:0:0:
256,192,35445,1,8,0:0:0:0:
256,192,35531,1,0,0:0:0:0:
256,192,35702,1,8,0:0:0:0:
256,192,35874,1,0,0:0:0:0:
256,192,35959,1,8,0:0:0:0:
256,192,36045,1,8,0:0:0:0:
256,192,36217,1,8,0:0:0:0:
256,192,36388,1,8,0:0:0:0:
256,192,36474,1,8,0:0:0:0:
256,192,36559,1,0,0:0:0:0:
256,192,36731,1,8,0:0:0:0:
256,192,36902,1,8,0:0:0:0:
256,192,37074,1,8,0:0:0:0:
256,192,37159,1,8,0:0:0:0:
256,192,37245,1,0,0:0:0:0:
256,192,37331,1,8,0:0:0:0:
256,192,37417,1,8,0:0:0:0:
256,192,37588,1,8,0:0:0:0:
256,192,37759,1,8,0:0:0:0:
256,192,37845,1,8,0:0:0:0:
256,192,37931,1,0,0:0:0:0:
256,192,38102,1,8,0:0:0:0:
256,192,38188,1,8,0:0:0:0:
256,192,38274,1,0,0:0:0:0:
256,192,38359,1,0,0:0:0:0:
256,192,38445,1,0,0:0:0:0:
256,192,38531,1,0,0:0:0:0:
256,192,38617,1,8,0:0:0:0:
256,192,38702,1,0,0:0:0:0:
256,192,38788,1,8,0:0:0:0:
256,192,38959,1,0,0:0:0:0:
256,192,39131,1,8,0:0:0:0:
256,192,39217,1,8,0:0:0:0:
256,192,39302,1,0,0:0:0:0:
256,192,39474,1,8,0:0:0:0:
256,192,39645,1,0,0:0:0:0:
256,192,39817,1,8,0:0:0:0:
256,192,39902,1,8,0:0:0:0:
256,192,39988,1,0,0:0:0:0:
256,192,40074,1,8,0:0:0:0:
256,192,40159,1,8,0:0:0:0:
256,192,40331,1,0,0:0:0:0:
256,192,40502,1,8,0:0:0:0:
256,192,40588,1,8,0:0:0:0:
256,192,40674,1,0,0:0:0:0:
256,192,40845,1,8,0:0:0:0:
256,192,40931,1,8,0:0:0:0:
256,192,41017,1,0,0:0:0:0:
256,192,41188,1,8,0:0:0:0:
256,192,41359,1,0,0:0:0:0:
256,192,41445,1,8,0:0:0:0:
256,192,41531,1,8,0:0:0:0:
256,192,41617,1,8,0:0:0:0:
256,192,41702,1,0,0:0:0:0:
256,192,41788,1,8,0:0:0:0:
256,192,41874,1,8,0:0:0:0:
256,192,41959,1,8,0:0:0:0:
256,192,42045,1,0,0:0:0:0:
256,192,42131,1,0,0:0:0:0:
256,192,42217,1,8,0:0:0:0:
256,192,42302,1,8,0:0:0:0:
256,192,42388,1,0,0:0:0:0:
256,192,42474,1,8,0:0:0:0:
256,192,42559,1,0,0:0:0:0:
256,192,42645,1,8,0:0:0:0:
256,192,42731,1,0,0:0:0:0:
256,192,42902,1,0,0:0:0:0:
256,192,43074,1,8,0:0:0:0:
256,192,43245,1,0,0:0:0:0:
256,192,43331,1,0,0:0:0:0:
256,192,43417,1,0,0:0:0:0:
256,192,43588,1,0,0:0:0:0:
256,192,43759,1,12,0:0:0:0:
256,192,44102,1,4,0:0:0:0:
256,192,44274,1,0,0:0:0:0:
256,192,44445,1,8,0:0:0:0:
256,192,44617,1,8,0:0:0:0:
256,192,44959,1,0,0:0:0:0:
256,192,45131,1,8,0:0:0:0:
256,192,45302,1,8,0:0:0:0:
256,192,45559,1,8,0:0:0:0:
256,192,45645,1,0,0:0:0:0:
256,192,45817,1,0,0:0:0:0:
256,192,45988,1,8,0:0:0:0:
256,192,46074,1,0,0:0:0:0:
256,192,46159,1,8,0:0:0:0:
256,192,46331,1,8,0:0:0:0:
256,192,46417,1,8,0:0:0:0:
256,192,46502,1,0,0:0:0:0:
256,192,46588,1,8,0:0:0:0:
256,192,46674,1,0,0:0:0:0:
256,192,46845,1,0,0:0:0:0:
256,192,47017,1,0,0:0:0:0:
256,192,47188,1,8,0:0:0:0:
256,192,47359,1,0,0:0:0:0:
256,192,47702,1,0,0:0:0:0:
256,192,47874,1,8,0:0:0:0:
256,192,48045,1,8,0:0:0:0:
256,192,48302,1,8,0:0:0:0:
256,192,48388,1,0,0:0:0:0:
256,192,48559,1,8,0:0:0:0:
256,192,48731,1,8,0:0:0:0:
256,192,48817,1,8,0:0:0:0:
256,192,48902,1,0,0:0:0:0:
256,192,49074,1,0,0:0:0:0:
256,192,49159,1,8,0:0:0:0:
256,192,49245,1,0,0:0:0:0:
256,192,49331,1,8,0:0:0:0:
256,192,49417,1,8,0:0:0:0:
256,192,49588,1,0,0:0:0:0:
256,192,49931,1,0,0:0:0:0:
256,192,50102,1,0,0:0:0:0:
256,192,50188,1,0,0:0:0:0:
256,192,50274,1,8,0:0:0:0:
256,192,50445,1,0,0:0:0:0:
256,192,50788,1,0,0:0:0:0:
256,192,51302,1,0,0:0:0:0:
256,192,51474,1,0,0:0:0:0:
256,192,51559,1,0,0:0:0:0:
256,192,51645,1,8,0:0:0:0:
256,192,51817,1,0,0:0:0:0:
256,192,52159,1,0,0:0:0:0:
256,192,52674,1,0,0:0:0:0:
256,192,52845,1,0,0:0:0:0:
256,192,52931,1,0,0:0:0:0:
256,192,53017,1,8,0:0:0:0:
256,192,53188,1,0,0:0:0:0:
256,192,53531,1,0,0:0:0:0:
256,192,54045,1,0,0:0:0:0:
256,192,54217,1,0,0:0:0:0:
256,192,54302,1,0,0:0:0:0:
256,192,54388,1,8,0:0:0:0:
256,192,54559,1,0,0:0:0:0:
256,192,55074,1,0,0:0:0:0:
256,192,55245,1,0,0:0:0:0:
256,192,55417,1,8,0:0:0:0:
256,192,55588,1,8,0:0:0:0:
256,192,55931,1,0,0:0:0:0:
256,192,56102,1,8,0:0:0:0:
256,192,56274,1,8,0:0:0:0:
256,192,56531,1,8,0:0:0:0:
256,192,56617,1,0,0:0:0:0:
256,192,56788,1,0,0:0:0:0:
256,192,56959,1,8,0:0:0:0:
256,192,57045,1,0,0:0:0:0:
256,192,57131,1,8,0:0:0:0:
256,192,57302,1,8,0:0:0:0:
256,192,57388,1,8,0:0:0:0:
256,192,57474,1,0,0:0:0:0:
256,192,57559,1,8,0:0:0:0:
256,192,57645,1,0,0:0:0:0:
256,192,57817,1,0,0:0:0:0:
256,192,57988,1,0,0:0:0:0:
256,192,58159,1,8,0:0:0:0:
256,192,58331,1,0,0:0:0:0:
256,192,58674,1,0,0:0:0:0:
256,192,58845,1,8,0:0:0:0:
256,192,59017,1,8,0:0:0:0:
256,192,59274,1,8,0:0:0:0:
256,192,59359,1,0,0:0:0:0:
256,192,59531,1,8,0:0:0:0:
256,192,59702,1,8,0:0:0:0:
256,192,59788,1,8,0:0:0:0:
256,192,59874,1,0,0:0:0:0:
256,192,60045,1,0,0:0:0:0:
256,192,60131,1,8,0:0:0:0:
256,192,60217,1,0,0:0:0:0:
256,192,60302,1,8,0:0:0:0:
256,192,60388,1,8,0:0:0:0:
256,192,60559,1,0,0:0:0:0:
256,192,60902,1,0,0:0:0:0:
256,192,61074,1,0,0:0:0:0:
256,192,61159,1,0,0:0:0:0:
256,192,61245,1,8,0:0:0:0:
256,192,61417,1,0,0:0:0:0:
256,192,61759,1,0,0:0:0:0:
256,192,62274,1,0,0:0:0:0:
256,192,62445,1,0,0:0:0:0:
256,192,62531,1,0,0:0:0:0:
256,192,62617,1,8,0:0:0:0:
256,192,62788,1,0,0:0:0:0:
256,192,63131,1,0,0:0:0:0:
256,192,63645,1,0,0:0:0:0:
256,192,63817,1,0,0:0:0:0:
256,192,63902,1,0,0:0:0:0:
256,192,63988,1,8,0:0:0:0:
256,192,64159,1,0,0:0:0:0:
256,192,64502,1,0,0:0:0:0:
256,192,65017,1,0,0:0:0:0:
256,192,65188,1,0,0:0:0:0:
256,192,65274,1,8,0:0:0:0:
256,192,65359,1,8,0:0:0:0:
256,192,65531,1,8,0:0:0:0:
256,192,66045,1,4,0:0:0:0:
256,192,66217,1,0,0:0:0:0:
256,192,66388,1,8,0:0:0:0:
256,192,66559,1,8,0:0:0:0:
256,192,66902,1,0,0:0:0:0:
256,192,67074,1,8,0:0:0:0:
256,192,67245,1,8,0:0:0:0:
256,192,67502,1,0,0:0:0:0:
256,192,67588,1,8,0:0:0:0:
256,192,67759,1,0,0:0:0:0:
256,192,67931,1,8,0:0:0:0:
256,192,68017,1,0,0:0:0:0:
256,192,68102,1,8,0:0:0:0:
256,192,68274,1,8,0:0:0:0:
256,192,68360,1,8,0:0:0:0:
256,192,68445,1,0,0:0:0:0:
256,192,68531,1,8,0:0:0:0:
256,192,68617,1,0,0:0:0:0:
256,192,68788,1,0,0:0:0:0:
256,192,68960,1,0,0:0:0:0:
256,192,69131,1,8,0:0:0:0:
256,192,69302,1,0,0:0:0:0:
256,192,69645,1,0,0:0:0:0:
256,192,69817,1,8,0:0:0:0:
256,192,69988,1,8,0:0:0:0:
256,192,70245,1,8,0:0:0:0:
256,192,70331,1,0,0:0:0:0:
256,192,70502,1,8,0:0:0:0:
256,192,70674,1,8,0:0:0:0:
256,192,70760,1,8,0:0:0:0:
256,192,70845,1,0,0:0:0:0:
256,192,71017,1,0,0:0:0:0:
256,192,71102,1,8,0:0:0:0:
256,192,71188,1,0,0:0:0:0:
256,192,71274,1,8,0:0:0:0:
256,192,71360,1,8,0:0:0:0:
256,192,71531,1,0,0:0:0:0:
256,192,71874,1,0,0:0:0:0:
256,192,72045,1,0,0:0:0:0:
256,192,72131,1,0,0:0:0:0:
256,192,72217,1,8,0:0:0:0:
256,192,72388,1,0,0:0:0:0:
256,192,72731,1,0,0:0:0:0:
256,192,73245,1,0,0:0:0:0:
256,192,73417,1,0,0:0:0:0:
256,192,73502,1,0,0:0:0:0:
256,192,73588,1,8,0:0:0:0:
256,192,73759,1,0,0:0:0:0:
256,192,74102,1,0,0:0:0:0:
256,192,74617,1,0,0:0:0:0:
256,192,74788,1,0,0:0:0:0:
256,192,74874,1,0,0:0:0:0:
256,192,74959,1,8,0:0:0:0:
256,192,75131,1,0,0:0:0:0:
256,192,75474,1,0,0:0:0:0:
256,192,75988,1,0,0:0:0:0:
256,192,76159,1,0,0:0:0:0:
256,192,76245,1,0,0:0:0:0:
256,192,76331,1,8,0:0:0:0:
256,192,76502,1,0,0:0:0:0:
256,192,77017,1,8,0:0:0:0:
256,192,77188,1,0,0:0:0:0:
256,192,77274,1,8,0:0:0:0:
256,192,77359,1,8,0:0:0:0:
256,192,77531,1,8,0:0:0:0:
256,192,77702,1,8,0:0:0:0:
256,192,77788,1,8,0:0:0:0:
256,192,77874,1,0,0:0:0:0:
256,192,78045,1,8,0:0:0:0:
256,192,78217,1,8,0:0:0:0:
256,192,78388,1,0,0:0:0:0:
256,192,78474,1,8,0:0:0:0:
256,192,78559,1,0,0:0:0:0:
256,192,78645,1,0,0:0:0:0:
256,192,78731,1,8,0:0:0:0:
256,192,78817,1,0,0:0:0:0:
256,192,78902,1,8,0:0:0:0:
256,192,79074,1,8,0:0:0:0:
256,192,79159,1,8,0:0:0:0:
256,192,79245,1,0,0:0:0:0:
256,192,79331,1,8,0:0:0:0:
256,192,79417,1,0,0:0:0:0:
256,192,79588,1,0,0:0:0:0:
256,192,79759,1,4,0:0:0:0:
256,192,79931,1,0,0:0:0:0:
256,192,80017,1,0,0:0:0:0:
256,192,80102,1,8,0:0:0:0:
256,192,80274,1,0,0:0:0:0:
256,192,80445,1,8,0:0:0:0:
256,192,80531,1,0,0:0:0:0:
256,192,80617,1,0,0:0:0:0:
256,192,80788,1,0,0:0:0:0:
256,192,80959,1,0,0:0:0:0:
256,192,81131,1,8,0:0:0:0:
256,192,81217,1,0,0:0:0:0:
256,192,81302,1,8,0:0:0:0:
256,192,81388,1,8,0:0:0:0:
256,192,81474,1,0,0:0:0:0:
256,192,81559,1,8,0:0:0:0:
256,192,81645,1,0,0:0:0:0:
256,192,81817,1,0,0:0:0:0:
256,192,81902,1,0,0:0:0:0:
256,192,81988,1,8,0:0:0:0:
256,192,82074,1,0,0:0:0:0:
256,192,82159,1,8,0:0:0:0:
256,192,82331,1,0,0:0:0:0:
256,192,82502,1,4,0:0:0:0:
256,192,82674,1,0,0:0:0:0:
256,192,82759,1,0,0:0:0:0:
256,192,82845,1,8,0:0:0:0:
256,192,82931,1,0,0:0:0:0:
256,192,83017,1,0,0:0:0:0:
256,192,83188,1,0,0:0:0:0:
256,192,83274,1,0,0:0:0:0:
256,192,83359,1,0,0:0:0:0:
256,192,83531,1,8,0:0:0:0:
256,192,83702,1,0,0:0:0:0:
256,192,83874,1,4,0:0:0:0:
256,192,84045,1,0,0:0:0:0:
256,192,84217,1,8,0:0:0:0:
256,192,84302,1,0,0:0:0:0:
256,192,84388,1,0,0:0:0:0:
256,192,84559,1,0,0:0:0:0:
256,192,84645,1,0,0:0:0:0:
256,192,84731,1,0,0:0:0:0:
256,192,84817,1,0,0:0:0:0:
256,192,84902,1,8,0:0:0:0:
256,192,85074,1,0,0:0:0:0:
256,192,85159,1,0,0:0:0:0:
256,192,85245,1,8,0:0:0:0:
256,192,85331,1,0,0:0:0:0:
256,192,85417,1,0,0:0:0:0:
256,192,85502,1,0,0:0:0:0:
256,192,85588,1,0,0:0:0:0:
256,192,85674,1,0,0:0:0:0:
256,192,85759,1,0,0:0:0:0:
256,192,85845,1,0,0:0:0:0:
256,192,85931,1,8,0:0:0:0:
256,192,86017,1,0,0:0:0:0:
256,192,86102,1,0,0:0:0:0:
256,192,86188,1,0,0:0:0:0:
256,192,86274,1,0,0:0:0:0:
256,192,86359,1,0,0:0:0:0:
256,192,86445,1,0,0:0:0:0:
256,192,86531,1,0,0:0:0:0:
256,192,86959,1,0,0:0:0:0:
256,192,87131,1,0,0:0:0:0:
256,192,87217,1,0,0:0:0:0:
256,192,87302,1,8,0:0:0:0:
256,192,87417,1,0,0:0:0:0:
256,192,87531,1,0,0:0:0:0:
256,192,87645,1,0,0:0:0:0:
256,192,87759,1,0,0:0:0:0:
256,192,87874,1,0,0:0:0:0:
256,192,87988,1,4,0:0:0:0:
256,192,88674,1,8,0:0:0:0:
256,192,88845,1,0,0:0:0:0:
256,192,88931,1,0,0:0:0:0:
256,192,89017,1,8,0:0:0:0:
256,192,89188,1,0,0:0:0:0:
256,192,89531,1,0,0:0:0:0:
256,192,89617,1,0,0:0:0:0:
256,192,89702,1,8,0:0:0:0:
256,192,89788,1,8,0:0:0:0:
256,192,89874,1,8,0:0:0:0:
256,192,89959,1,8,0:0:0:0:
256,192,90045,1,0,0:0:0:0:
256,192,90131,1,0,0:0:0:0:
256,192,90217,1,8,0:0:0:0:
256,192,90302,1,8,0:0:0:0:
256,192,90388,1,0,0:0:0:0:
256,192,90559,1,0,0:0:0:0:
256,192,90645,1,0,0:0:0:0:
256,192,90731,1,0,0:0:0:0:
256,192,90902,1,0,0:0:0:0:
256,192,91074,1,0,0:0:0:0:
256,192,91245,1,0,0:0:0:0:
256,192,91417,1,8,0:0:0:0:
256,192,91588,1,0,0:0:0:0:
256,192,91645,1,0,0:0:0:0:
256,192,91702,1,0,0:0:0:0:
256,192,91759,1,8,0:0:0:0:
256,192,91817,1,8,0:0:0:0:
256,192,91874,1,8,0:0:0:0:
256,192,91931,1,0,0:0:0:0:
256,192,92017,1,8,0:0:0:0:
256,192,92102,1,0,0:0:0:0:
256,192,92274,1,8,0:0:0:0:
256,192,92359,1,0,0:0:0:0:
256,192,92445,1,0,0:0:0:0:
256,192,92559,1,0,0:0:0:0:
256,192,92674,1,0,0:0:0:0:
256,192,92788,1,8,0:0:0:0:
256,192,92874,1,0,0:0:0:0:
256,192,92959,1,0,0:0:0:0:
256,192,93045,1,0,0:0:0:0:
256,192,93131,1,8,0:0:0:0:
256,192,93217,1,8,0:0:0:0:
256,192,93302,1,8,0:0:0:0:
256,192,93388,1,0,0:0:0:0:
256,192,93474,1,0,0:0:0:0:
256,192,94159,1,8,0:0:0:0:
256,192,94245,1,0,0:0:0:0:
256,192,94331,1,0,0:0:0:0:
256,192,94417,1,0,0:0:0:0:
256,192,94502,1,0,0:0:0:0:
256,192,94588,1,0,0:0:0:0:
256,192,94674,1,8,0:0:0:0:
256,192,94759,1,0,0:0:0:0:
256,192,94845,1,0,0:0:0:0:
256,192,95017,1,8,0:0:0:0:
256,192,95059,1,0,0:0:0:0:
256,192,95188,1,8,0:0:0:0:
256,192,95231,1,0,0:0:0:0:
256,192,95359,1,8,0:0:0:0:
256,192,95402,1,0,0:0:0:0:
256,192,95531,1,8,0:0:0:0:
256,192,95617,1,0,0:0:0:0:
256,192,95702,1,8,0:0:0:0:
256,192,95788,1,8,0:0:0:0:
256,192,95874,1,0,0:0:0:0:
256,192,95959,1,0,0:0:0:0:
256,192,96045,1,8,0:0:0:0:
256,192,96217,1,0,0:0:0:0:
256,192,96331,1,0,0:0:0:0:
256,192,96445,1,8,0:0:0:0:
256,192,96559,1,8,0:0:0:0:
256,192,96674,1,8,0:0:0:0:
256,192,96788,1,8,0:0:0:0:
256,192,96902,1,0,0:0:0:0:
256,192,97074,1,0,0:0:0:0:
256,192,97131,1,0,0:0:0:0:
256,192,97188,1,0,0:0:0:0:
256,192,97245,1,8,0:0:0:0:
256,192,97331,1,8,0:0:0:0:
256,192,97417,1,0,0:0:0:0:
256,192,97502,1,0,0:0:0:0:
256,192,97588,1,0,0:0:0:0:
256,192,97759,1,0,0:0:0:0:
256,192,97845,1,8,0:0:0:0:
256,192,97931,1,0,0:0:0:0:
256,192,98102,1,0,0:0:0:0:
256,192,98274,1,8,0:0:0:0:
256,192,98445,1,0,0:0:0:0:
256,192,98531,1,0,0:0:0:0:
256,192,98617,1,8,0:0:0:0:
256,192,98702,1,8,0:0:0:0:
256,192,98788,1,8,0:0:0:0:
256,192,98874,1,8,0:0:0:0:
256,192,98959,1,0,0:0:0:0:
256,192,99645,1,8,0:0:0:0:
256,192,99817,1,8,0:0:0:0:
256,192,99902,1,0,0:0:0:0:
256,192,99988,1,0,0:0:0:0:
256,192,100074,1,0,0:0:0:0:
256,192,100159,1,8,0:0:0:0:
256,192,100331,1,0,0:0:0:0:
256,192,100502,1,0,0:0:0:0:
256,192,100588,1,0,0:0:0:0:
256,192,100674,1,8,0:0:0:0:
256,192,100759,1,8,0:0:0:0:
256,192,100845,1,8,0:0:0:0:
256,192,100931,1,8,0:0:0:0:
256,192,101017,1,0,0:0:0:0:
256,192,101188,1,8,0:0:0:0:
256,192,101274,1,8,0:0:0:0:
256,192,101359,1,0,0:0:0:0:
256,192,101531,1,0,0:0:0:0:
256,192,101617,1,0,0:0:0:0:
256,192,101702,1,0,0:0:0:0:
256,192,101874,1,0,0:0:0:0:
256,192,102045,1,0,0:0:0:0:
256,192,102131,1,0,0:0:0:0:
256,192,102217,1,0,0:0:0:0:
256,192,102388,1,8,0:0:0:0:
256,192,102474,1,0,0:0:0:0:
256,192,102559,1,0,0:0:0:0:
256,192,102617,1,0,0:0:0:0:
256,192,102674,1,0,0:0:0:0:
256,192,102731,1,8,0:0:0:0:
256,192,102788,1,8,0:0:0:0:
256,192,102845,1,8,0:0:0:0:
256,192,102902,1,0,0:0:0:0:
256,192,103074,1,0,0:0:0:0:
256,192,103245,1,8,0:0:0:0:
256,192,103331,1,0,0:0:0:0:
256,192,103417,1,0,0:0:0:0:
256,192,103588,1,0,0:0:0:0:
256,192,103759,1,8,0:0:0:0:
256,192,103931,1,0,0:0:0:0:
256,192,104017,1,0,0:0:0:0:
256,192,104102,1,8,0:0:0:0:
256,192,104188,1,8,0:0:0:0:
256,192,104274,1,8,0:0:0:0:
256,192,104359,1,8,0:0:0:0:
256,192,104445,1,0,0:0:0:0:
256,192,104617,1,0,0:0:0:0:
256,192,104702,1,0,0:0:0:0:
256,192,104788,1,8,0:0:0:0:
256,192,104874,1,0,0:0:0:0:
256,192,104959,1,0,0:0:0:0:
256,192,105131,1,0,0:0:0:0:
256,192,105302,1,0,0:0:0:0:
256,192,105388,1,0,0:0:0:0:
256,192,105474,1,8,0:0:0:0:
256,192,105559,1,8,0:0:0:0:
256,192,105645,1,8,0:0:0:0:
256,192,105731,1,8,0:0:0:0:
256,192,105817,1,0,0:0:0:0:
256,192,105988,1,0,0:0:0:0:
256,192,106031,1,0,0:0:0:0:
256,192,106159,1,8,0:0:0:0:
256,192,106202,1,8,0:0:0:0:
256,192,106331,1,8,0:0:0:0:
256,192,106374,1,8,0:0:0:0:
256,192,106502,1,0,0:0:0:0:
256,192,106588,1,0,0:0:0:0:
256,192,106674,1,8,0:0:0:0:
256,192,106759,1,0,0:0:0:0:
256,192,106845,1,8,0:0:0:0:
256,192,106931,1,8,0:0:0:0:
256,192,107017,1,0,0:0:0:0:
256,192,107188,1,0,0:0:0:0:
256,192,107359,1,8,0:0:0:0:
256,192,107531,1,0,0:0:0:0:
256,192,107702,1,0,0:0:0:0:
256,192,107874,1,8,0:0:0:0:
256,192,108045,1,0,0:0:0:0:
256,192,108102,1,0,0:0:0:0:
256,192,108159,1,0,0:0:0:0:
256,192,108217,1,8,0:0:0:0:
256,192,108274,1,8,0:0:0:0:
256,192,108331,1,8,0:0:0:0:
256,192,108388,1,0,0:0:0:0:
256,192,108445,1,0,0:0:0:0:
256,192,108502,1,8,0:0:0:0:
256,192,108559,1,0,0:0:0:0:
256,192,109074,1,0,0:0:0:0:
256,192,109588,1,12,0:0:0:0:
256,192,109931,1,4,0:0:0:0:
256,192,110102,1,0,0:0:0:0:
256,192,110274,1,8,0:0:0:0:
256,192,110445,1,0,0:0:0:0:
256,192,110617,1,0,0:0:0:0:
256,192,110702,1,0,0:0:0:0:
256,192,110788,1,0,0:0:0:0:
256,192,110959,1,8,0:0:0:0:
256,192,111045,1,8,0:0:0:0:
256,192,111131,1,0,0:0:0:0:
256,192,111217,1,8,0:0:0:0:
256,192,111302,1,0,0:0:0:0:
256,192,111474,1,0,0:0:0:0:
256,192,111645,1,8,0:0:0:0:
256,192,111817,1,0,0:0:0:0:
256,192,111902,1,0,0:0:0:0:
256,192,111988,1,0,0:0:0:0:
256,192,112159,1,0,0:0:0:0:
256,192,112331,1,8,0:0:0:0:
256,192,112417,1,0,0:0:0:0:
256,192,112502,1,8,0:0:0:0:
256,192,112588,1,8,0:0:0:0:
256,192,112674,1,0,0:0:0:0:
256,192,112845,1,0,0:0:0:0:
256,192,113017,1,8,0:0:0:0:
256,192,113188,1,0,0:0:0:0:
256,192,113274,1,0,0:0:0:0:
256,192,113359,1,8,0:0:0:0:
256,192,113531,1,0,0:0:0:0:
256,192,113702,1,8,0:0:0:0:
256,192,113874,1,8,0:0:0:0:
256,192,113959,1,8,0:0:0:0:
256,192,114045,1,0,0:0:0:0:
256,192,114217,1,0,0:0:0:0:
256,192,114302,1,0,0:0:0:0:
256,192,114388,1,8,0:0:0:0:
256,192,114559,1,0,0:0:0:0:
256,192,114731,1,0,0:0:0:0:
256,192,114817,1,0,0:0:0:0:
256,192,114902,1,0,0:0:0:0:
256,192,115074,1,8,0:0:0:0:
256,192,115159,1,8,0:0:0:0:
256,192,115245,1,0,0:0:0:0:
256,192,115331,1,8,0:0:0:0:
256,192,115417,1,0,0:0:0:0:
256,192,115588,1,0,0:0:0:0:
256,192,115759,1,8,0:0:0:0:
256,192,115931,1,0,0:0:0:0:
256,192,116017,1,0,0:0:0:0:
256,192,116102,1,8,0:0:0:0:
256,192,116274,1,0,0:0:0:0:
256,192,116445,1,8,0:0:0:0:
256,192,116531,1,0,0:0:0:0:
256,192,116617,1,8,0:0:0:0:
256,192,116702,1,0,0:0:0:0:
256,192,116788,1,0,0:0:0:0:
256,192,116959,1,0,0:0:0:0:
256,192,117131,1,8,0:0:0:0:
256,192,117302,1,0,0:0:0:0:
256,192,117388,1,0,0:0:0:0:
256,192,117474,1,0,0:0:0:0:
256,192,117645,1,0,0:0:0:0:
256,192,117817,1,8,0:0:0:0:
256,192,117902,1,8,0:0:0:0:
256,192,117988,1,0,0:0:0:0:
256,192,118074,1,8,0:0:0:0:
256,192,118159,1,0,0:0:0:0:
256,192,118331,1,0,0:0:0:0:
256,192,118502,1,8,0:0:0:0:
256,192,118674,1,0,0:0:0:0:
256,192,118759,1,0,0:0:0:0:
256,192,118845,1,8,0:0:0:0:
256,192,119017,1,0,0:0:0:0:
256,192,119188,1,8,0:0:0:0:
256,192,119359,1,8,0:0:0:0:
256,192,119445,1,0,0:0:0:0:
256,192,119531,1,0,0:0:0:0:
256,192,119702,1,0,0:0:0:0:
256,192,119788,1,0,0:0:0:0:
256,192,119874,1,8,0:0:0:0:
256,192,120045,1,0,0:0:0:0:
256,192,120217,1,0,0:0:0:0:
256,192,120302,1,0,0:0:0:0:
256,192,120388,1,0,0:0:0:0:
256,192,120559,1,0,0:0:0:0:
256,192,120645,1,0,0:0:0:0:
256,192,120731,1,0,0:0:0:0:
256,192,120817,1,0,0:0:0:0:
256,192,120902,1,0,0:0:0:0:
256,192,121074,1,0,0:0:0:0:
256,192,121246,1,8,0:0:0:0:
256,192,121417,1,0,0:0:0:0:
256,192,121502,1,0,0:0:0:0:
256,192,121589,1,0,0:0:0:0:
256,192,121760,1,0,0:0:0:0:
256,192,121931,1,8,0:0:0:0:
256,192,122017,1,0,0:0:0:0:
256,192,122103,1,8,0:0:0:0:
256,192,122189,1,0,0:0:0:0:
256,192,122274,1,0,0:0:0:0:
256,192,122446,1,0,0:0:0:0:
256,192,122531,1,0,0:0:0:0:
256,192,122617,1,8,0:0:0:0:
256,192,122789,1,0,0:0:0:0:
256,192,122960,1,0,0:0:0:0:
256,192,123045,1,0,0:0:0:0:
256,192,123131,1,0,0:0:0:0:
256,192,123303,1,8,0:0:0:0:
256,192,123388,1,8,0:0:0:0:
256,192,123474,1,0,0:0:0:0:
256,192,123559,1,8,0:0:0:0:
256,192,123645,1,0,0:0:0:0:
256,192,123817,1,0,0:0:0:0:
256,192,123989,1,8,0:0:0:0:
256,192,124160,1,0,0:0:0:0:
256,192,124246,1,0,0:0:0:0:
256,192,124331,1,8,0:0:0:0:
256,192,124503,1,0,0:0:0:0:
256,192,124674,1,8,0:0:0:0:
256,192,124846,1,8,0:0:0:0:
256,192,124931,1,0,0:0:0:0:
256,192,125017,1,0,0:0:0:0:
256,192,125189,1,0,0:0:0:0:
256,192,125274,1,0,0:0:0:0:
256,192,125360,1,8,0:0:0:0:
256,192,125531,1,0,0:0:0:0:
256,192,125703,1,0,0:0:0:0:
256,192,125789,1,0,0:0:0:0:
256,192,125874,1,0,0:0:0:0:
256,192,126046,1,8,0:0:0:0:
256,192,126131,1,8,0:0:0:0:
256,192,126217,1,0,0:0:0:0:
256,192,126302,1,8,0:0:0:0:
256,192,126389,1,0,0:0:0:0:
256,192,126560,1,0,0:0:0:0:
256,192,126731,1,8,0:0:0:0:
256,192,126903,1,8,0:0:0:0:
256,192,126989,1,0,0:0:0:0:
256,192,127074,1,0,0:0:0:0:
256,192,127246,1,0,0:0:0:0:
256,192,127331,1,0,0:0:0:0:
256,192,127417,1,8,0:0:0:0:
256,192,127589,1,0,0:0:0:0:
256,192,127760,1,0,0:0:0:0:
256,192,127931,1,0,0:0:0:0:
256,192,128017,1,0,0:0:0:0:
256,192,128103,1,8,0:0:0:0:
256,192,128274,1,0,0:0:0:0:
256,192,128360,1,0,0:0:0:0:
256,192,128446,1,0,0:0:0:0:
256,192,128617,1,0,0:0:0:0:
256,192,128789,1,8,0:0:0:0:
256,192,128960,1,0,0:0:0:0:
256,192,129045,1,8,0:0:0:0:
256,192,129131,1,0,0:0:0:0:
256,192,129303,1,0,0:0:0:0:
256,192,129474,1,8,0:0:0:0:
256,192,129646,1,8,0:0:0:0:
256,192,129731,1,0,0:0:0:0:
256,192,129817,1,0,0:0:0:0:
256,192,129989,1,0,0:0:0:0:
256,192,130074,1,0,0:0:0:0:
256,192,130160,1,8,0:0:0:0:
256,192,130331,1,8,0:0:0:0:
256,192,130502,1,0,0:0:0:0:
256,192,130673,1,0,0:0:0:0:
256,192,130759,1,0,0:0:0:0:
256,192,130845,1,0,0:0:0:0:
256,192,131016,1,0,0:0:0:0:
256,192,131188,1,0,0:0:0:0:
256,192,131273,1,0,0:0:0:0:
256,192,131359,1,0,0:0:0:0:
256,192,131531,1,12,0:0:0:0:
256,192,131874,1,0,0:0:0:0:
256,192,132045,1,0,0:0:0:0:
256,192,132217,1,8,0:0:0:0:
256,192,132388,1,0,0:0:0:0:
256,192,132731,1,0,0:0:0:0:
256,192,132902,1,8,0:0:0:0:
256,192,133245,1,0,0:0:0:0:
256,192,133588,1,8,0:0:0:0:
256,192,133759,1,0,0:0:0:0:
256,192,134102,1,0,0:0:0:0:
256,192,134274,1,8,0:0:0:0:
256,192,134617,1,0,0:0:0:0:
256,192,134788,1,0,0:0:0:0:
256,192,134959,1,8,0:0:0:0:
256,192,135131,1,0,0:0:0:0:
256,192,135474,1,0,0:0:0:0:
256,192,135645,1,8,0:0:0:0:
256,192,135988,1,0,0:0:0:0:
256,192,136159,1,0,0:0:0:0:
256,192,136331,1,8,0:0:0:0:
256,192,136502,1,0,0:0:0:0:
256,192,136674,1,0,0:0:0:0:
256,192,136845,1,0,0:0:0:0:
256,192,137017,1,8,0:0:0:0:
256,192,137359,1,0,0:0:0:0:
256,192,137702,1,8,0:0:0:0:
256,192,137874,1,0,0:0:0:0:
256,192,138217,1,0,0:0:0:0:
256,192,138388,1,8,0:0:0:0:
256,192,138731,1,0,0:0:0:0:
256,192,138902,1,0,0:0:0:0:
256,192,139074,1,8,0:0:0:0:
256,192,139245,1,0,0:0:0:0:
256,192,139588,1,0,0:0:0:0:
256,192,139759,1,8,0:0:0:0:
256,192,140102,1,0,0:0:0:0:
256,192,140445,1,8,0:0:0:0:
256,192,140617,1,0,0:0:0:0:
256,192,140959,1,0,0:0:0:0:
256,192,141131,1,8,0:0:0:0:
256,192,141474,1,0,0:0:0:0:
256,192,141645,1,0,0:0:0:0:
256,192,141817,1,8,0:0:0:0:
256,192,141988,1,0,0:0:0:0:
256,192,142159,1,0,0:0:0:0:
256,192,142331,1,0,0:0:0:0:
256,192,142502,1,8,0:0:0:0:
256,192,142845,1,4,0:0:0:0:
256,192,143102,1,8,0:0:0:0:
256,192,143359,1,0,0:0:0:0:
256,192,143531,1,8,0:0:0:0:
256,192,143617,1,0,0:0:0:0:
256,192,143788,1,0,0:0:0:0:
256,192,143874,1,8,0:0:0:0:
256,192,144045,1,0,0:0:0:0:
256,192,144217,1,8,0:0:0:0:
256,192,144388,1,8,0:0:0:0:
256,192,144474,1,0,0:0:0:0:
256,192,144645,1,8,0:0:0:0:
256,192,144731,1,0,0:0:0:0:
256,192,144902,1,8,0:0:0:0:
256,192,144988,1,0,0:0:0:0:
256,192,145159,1,0,0:0:0:0:
256,192,145245,1,8,0:0:0:0:
256,192,145417,1,0,0:0:0:0:
256,192,145588,1,8,0:0:0:0:
256,192,145759,1,8,0:0:0:0:
256,192,145845,1,0,0:0:0:0:
256,192,146017,1,8,0:0:0:0:
256,192,146102,1,0,0:0:0:0:
256,192,146274,1,0,0:0:0:0:
256,192,146445,1,0,0:0:0:0:
256,192,146531,1,0,0:0:0:0:
256,192,146617,1,8,0:0:0:0:
256,192,146788,1,0,0:0:0:0:
256,192,146959,1,8,0:0:0:0:
256,192,147131,1,0,0:0:0:0:
256,192,147217,1,8,0:0:0:0:
256,192,147388,1,0,0:0:0:0:
256,192,147474,1,8,0:0:0:0:
256,192,147645,1,8,0:0:0:0:
256,192,147731,1,0,0:0:0:0:
256,192,147817,1,0,0:0:0:0:
256,192,147988,1,8,0:0:0:0:
256,192,148159,1,0,0:0:0:0:
256,192,148331,1,8,0:0:0:0:
256,192,148502,1,8,0:0:0:0:
256,192,148674,1,0,0:0:0:0:
256,192,148845,1,0,0:0:0:0:
256,192,149017,1,8,0:0:0:0:
256,192,149188,1,8,0:0:0:0:
256,192,149359,1,0,0:0:0:0:
256,192,149531,1,0,0:0:0:0:
256,192,149702,1,8,0:0:0:0:
256,192,149788,1,8,0:0:0:0:
256,192,149874,1,8,0:0:0:0:
256,192,149959,1,8,0:0:0:0:
256,192,150045,1,0,0:0:0:0:
256,192,150131,1,0,0:0:0:0:
256,192,150217,1,0,0:0:0:0:
256,192,150302,1,0,0:0:0:0:
256,192,150388,1,8,0:0:0:0:
256,192,150559,1,8,0:0:0:0:
256,192,150731,1,0,0:0:0:0:
256,192,150902,1,0,0:0:0:0:
256,192,151074,1,8,0:0:0:0:
256,192,152445,1,8,0:0:0:0:
256,192,153131,1,0,0:0:0:0:
256,192,153302,1,0,0:0:0:0:
256,192,153388,1,0,0:0:0:0:
256,192,153474,1,0,0:0:0:0:
256,192,153559,1,8,0:0:0:0:
256,192,153645,1,0,0:0:0:0:
256,192,153817,1,4,0:0:0:0:
256,192,153988,1,0,0:0:0:0:
256,192,154159,1,8,0:0:0:0:
256,192,154331,1,0,0:0:0:0:
256,192,154417,1,0,0:0:0:0:
256,192,154502,1,0,0:0:0:0:
256,192,154674,1,0,0:0:0:0:
256,192,154717,1,0,0:0:0:0:
256,192,154845,1,8,0:0:0:0:
256,192,154888,1,8,0:0:0:0:
256,192,155017,1,8,0:0:0:0:
256,192,155059,1,8,0:0:0:0:
256,192,155188,1,0,0:0:0:0:
256,192,155359,1,0,0:0:0:0:
256,192,155417,1,0,0:0:0:0:
256,192,155474,1,0,0:0:0:0:
256,192,155531,1,8,0:0:0:0:
256,192,155702,1,0,0:0:0:0:
256,192,155788,1,0,0:0:0:0:
256,192,155874,1,0,0:0:0:0:
256,192,156045,1,0,0:0:0:0:
256,192,156131,1,0,0:0:0:0:
256,192,156217,1,8,0:0:0:0:
256,192,156302,1,8,0:0:0:0:
256,192,156388,1,8,0:0:0:0:
256,192,156474,1,8,0:0:0:0:
256,192,156559,1,0,0:0:0:0:
256,192,156731,1,0,0:0:0:0:
256,192,156817,1,0,0:0:0:0:
256,192,156902,1,8,0:0:0:0:
256,192,156988,1,0,0:0:0:0:
256,192,157074,1,0,0:0:0:0:
256,192,157245,1,0,0:0:0:0:
256,192,157417,1,0,0:0:0:0:
256,192,157502,1,0,0:0:0:0:
256,192,157588,1,8,0:0:0:0:
256,192,157631,1,0,0:0:0:0:
256,192,157717,1,8,0:0:0:0:
256,192,157759,1,8,0:0:0:0:
256,192,157845,1,0,0:0:0:0:
256,192,157931,1,0,0:0:0:0:
256,192,158102,1,0,0:0:0:0:
256,192,158188,1,0,0:0:0:0:
256,192,158274,1,8,0:0:0:0:
256,192,158359,1,8,0:0:0:0:
256,192,158445,1,8,0:0:0:0:
256,192,158531,1,8,0:0:0:0:
256,192,158617,1,0,0:0:0:0:
256,192,158788,1,8,0:0:0:0:
256,192,158874,1,8,0:0:0:0:
256,192,158959,1,0,0:0:0:0:
256,192,159045,1,0,0:0:0:0:
256,192,159131,1,8,0:0:0:0:
256,192,159302,1,0,0:0:0:0:
256,192,159559,1,8,0:0:0:0:
256,192,159645,1,0,0:0:0:0:
256,192,159817,1,0,0:0:0:0:
256,192,159902,1,0,0:0:0:0:
256,192,159988,1,8,0:0:0:0:
256,192,160159,1,0,0:0:0:0:
256,192,160245,1,0,0:0:0:0:
256,192,160331,1,8,0:0:0:0:
256,192,160374,1,8,0:0:0:0:
256,192,160502,1,8,0:0:0:0:
256,192,160545,1,8,0:0:0:0:
256,192,160674,1,0,0:0:0:0:
256,192,160845,1,8,0:0:0:0:
256,192,160902,1,8,0:0:0:0:
256,192,160959,1,8,0:0:0:0:
256,192,161017,1,0,0:0:0:0:
256,192,161188,1,0,0:0:0:0:
256,192,161274,1,0,0:0:0:0:
256,192,161359,1,8,0:0:0:0:
256,192,161531,1,0,0:0:0:0:
256,192,161617,1,0,0:0:0:0:
256,192,161702,1,8,0:0:0:0:
256,192,161788,1,8,0:0:0:0:
256,192,161874,1,8,0:0:0:0:
256,192,161959,1,8,0:0:0:0:
256,192,162045,1,0,0:0:0:0:
256,192,162302,1,8,0:0:0:0:
256,192,162388,1,0,0:0:0:0:
256,192,162559,1,0,0:0:0:0:
256,192,162617,1,0,0:0:0:0:
256,192,162674,1,0,0:0:0:0:
256,192,162731,1,8,0:0:0:0:
256,192,162902,1,0,0:0:0:0:
256,192,163074,1,0,0:0:0:0:
256,192,163245,1,8,0:0:0:0:
256,192,163331,1,8,0:0:0:0:
256,192,163417,1,0,0:0:0:0:
256,192,163588,1,0,0:0:0:0:
256,192,163759,1,8,0:0:0:0:
256,192,163931,1,0,0:0:0:0:
256,192,164102,1,0,0:0:0:0:
256,192,164188,1,0,0:0:0:0:
256,192,164274,1,8,0:0:0:0:
256,192,164359,1,8,0:0:0:0:
256,192,164445,1,8,0:0:0:0:
256,192,164531,1,8,0:0:0:0:
256,192,164617,1,8,0:0:0:0:
256,192,164702,1,8,0:0:0:0:
256,192,164788,1,0,0:0:0:0:
256,192,164959,1,0,0:0:0:0:
256,192,165131,1,8,0:0:0:0:
256,192,165302,1,0,0:0:0:0:
256,192,165388,1,0,0:0:0:0:
256,192,165474,1,0,0:0:0:0:
256,192,165645,1,0,0:0:0:0:
256,192,165688,1,0,0:0:0:0:
256,192,165817,1,8,0:0:0:0:
256,192,165859,1,8,0:0:0:0:
256,192,165988,1,8,0:0:0:0:
256,192,166031,1,8,0:0:0:0:
256,192,166159,1,0,0:0:0:0:
256,192,166331,1,0,0:0:0:0:
256,192,166388,1,0,0:0:0:0:
256,192,166445,1,0,0:0:0:0:
256,192,166502,1,8,0:0:0:0:
256,192,166674,1,0,0:0:0:0:
256,192,166759,1,8,0:0:0:0:
256,192,166845,1,0,0:0:0:0:
256,192,167017,1,0,0:0:0:0:
256,192,167102,1,0,0:0:0:0:
256,192,167188,1,8,0:0:0:0:
256,192,167274,1,8,0:0:0:0:
256,192,167359,1,8,0:0:0:0:
256,192,167531,1,0,0:0:0:0:
256,192,167645,1,0,0:0:0:0:
256,192,167759,1,0,0:0:0:0:
256,192,167874,1,8,0:0:0:0:
256,192,167988,1,8,0:0:0:0:
256,192,168102,1,8,0:0:0:0:
256,192,168388,1,0,0:0:0:0:
256,192,168474,1,8,0:0:0:0:
256,192,168559,1,0,0:0:0:0:
256,192,168731,1,0,0:0:0:0:
256,192,168817,1,0,0:0:0:0:
256,192,168902,1,8,0:0:0:0:
256,192,169074,1,0,0:0:0:0:
256,192,169159,1,0,0:0:0:0:
256,192,169245,1,8,0:0:0:0:
256,192,169331,1,8,0:0:0:0:
256,192,169417,1,8,0:0:0:0:
256,192,169502,1,8,0:0:0:0:
256,192,169588,1,0,0:0:0:0:
256,192,169674,1,0,0:0:0:0:
256,192,169759,1,8,0:0:0:0:
256,192,169845,1,8,0:0:0:0:
256,192,169931,1,0,0:0:0:0:
256,192,170102,1,8,0:0:0:0:
256,192,170159,1,8,0:0:0:0:
256,192,170217,1,8,0:0:0:0:
256,192,170274,1,0,0:0:0:0:
256,192,170531,1,8,0:0:0:0:
256,192,170617,1,0,0:0:0:0:
256,192,170788,1,0,0:0:0:0:
256,192,170874,1,0,0:0:0:0:
256,192,170959,1,8,0:0:0:0:
256,192,171131,1,0,0:0:0:0:
256,192,171217,1,0,0:0:0:0:
256,192,171302,1,8,0:0:0:0:
256,192,171345,1,8,0:0:0:0:
256,192,171474,1,8,0:0:0:0:
256,192,171517,1,8,0:0:0:0:
256,192,171645,1,0,0:0:0:0:
256,192,171817,1,8,0:0:0:0:
256,192,171874,1,8,0:0:0:0:
256,192,171931,1,8,0:0:0:0:
256,192,171988,1,0,0:0:0:0:
256,192,172159,1,0,0:0:0:0:
256,192,172245,1,0,0:0:0:0:
256,192,172331,1,8,0:0:0:0:
256,192,172502,1,0,0:0:0:0:
256,192,172588,1,0,0:0:0:0:
256,192,172674,1,8,0:0:0:0:
256,192,172759,1,8,0:0:0:0:
256,192,172845,1,8,0:0:0:0:
256,192,172931,1,8,0:0:0:0:
256,192,173017,1,0,0:0:0:0:
256,192,173274,1,8,0:0:0:0:
256,192,173359,1,0,0:0:0:0:
256,192,173531,1,0,0:0:0:0:
256,192,173588,1,0,0:0:0:0:
256,192,173645,1,0,0:0:0:0:
256,192,173702,1,8,0:0:0:0:
256,192,173874,1,0,0:0:0:0:
256,192,174045,1,0,0:0:0:0:
256,192,174217,1,8,0:0:0:0:
256,192,174302,1,8,0:0:0:0:
256,192,174388,1,0,0:0:0:0:
256,192,174559,1,0,0:0:0:0:
256,192,174731,1,0,0:0:0:0:
256,192,174902,1,0,0:0:0:0:
256,192,174988,1,0,0:0:0:0:
256,192,175074,1,0,0:0:0:0:
256,192,175245,1,0,0:0:0:0:
256,192,175417,1,0,0:0:0:0:
256,192,175759,1,4,0:0:0:0:
256,192,176102,1,0,0:0:0:0:
256,192,176274,1,8,0:0:0:0:
256,192,176445,1,8,0:0:0:0:
256,192,176788,1,8,0:0:0:0:
256,192,176959,1,0,0:0:0:0:
256,192,177474,1,0,0:0:0:0:
256,192,177645,1,0,0:0:0:0:
256,192,177731,1,0,0:0:0:0:
256,192,177817,1,8,0:0:0:0:
256,192,177902,1,8,0:0:0:0:
256,192,177988,1,0,0:0:0:0:
256,192,178074,1,0,0:0:0:0:
256,192,178159,1,8,0:0:0:0:
256,192,178245,1,8,0:0:0:0:
256,192,178331,1,8,0:0:0:0:
256,192,178417,1,8,0:0:0:0:
256,192,178502,1,0,0:0:0:0:
256,192,178845,1,0,0:0:0:0:
256,192,179017,1,0,0:0:0:0:
256,192,179188,1,8,0:0:0:0:
256,192,179531,1,8,0:0:0:0:
256,192,179702,1,0,0:0:0:0:
256,192,180045,1,8,0:0:0:0:
256,192,180217,1,0,0:0:0:0:
256,192,180302,1,0,0:0:0:0:
256,192,180388,1,8,0:0:0:0:
256,192,180474,1,8,0:0:0:0:
256,192,180559,1,0,0:0:0:0:
256,192,180645,1,0,0:0:0:0:
256,192,180731,1,8,0:0:0:0:
256,192,180817,1,8,0:0:0:0:
256,192,180902,1,0,0:0:0:0:
256,192,180988,1,0,0:0:0:0:
256,192,181074,1,0,0:0:0:0:
256,192,181159,1,0,0:0:0:0:
256,192,181245,1,8,0:0:0:0:
256,192,181417,1,8,0:0:0:0:
256,192,181503,1,0,0:0:0:0:
256,192,181588,1,0,0:0:0:0:
256,192,181760,1,0,0:0:0:0:
256,192,181845,1,0,0:0:0:0:
256,192,181931,1,8,0:0:0:0:
256,192,182102,1,0,0:0:0:0:
256,192,182274,1,0,0:0:0:0:
256,192,182445,1,0,0:0:0:0:
256,192,182531,1,0,0:0:0:0:
256,192,182617,1,8,0:0:0:0:
256,192,182788,1,0,0:0:0:0:
256,192,182874,1,0,0:0:0:0:
256,192,182959,1,0,0:0:0:0:
256,192,183131,1,0,0:0:0:0:
256,192,183302,1,8,0:0:0:0:
256,192,183474,1,0,0:0:0:0:
256,192,183559,1,8,0:0:0:0:
256,192,183645,1,0,0:0:0:0:
256,192,183817,1,0,0:0:0:0:
256,192,183988,1,8,0:0:0:0:
256,192,184159,1,8,0:0:0:0:
256,192,184245,1,0,0:0:0:0:
256,192,184331,1,0,0:0:0:0:
256,192,184502,1,0,0:0:0:0:
256,192,184588,1,0,0:0:0:0:
256,192,184674,1,8,0:0:0:0:
256,192,184845,1,8,0:0:0:0:
256,192,185017,1,0,0:0:0:0:
256,192,185102,1,8,0:0:0:0:
256,192,185188,1,0,0:0:0:0:
256,192,185359,1,0,0:0:0:0:
256,192,185531,1,0,0:0:0:0:
256,192,185617,1,0,0:0:0:0:
256,192,185702,1,0,0:0:0:0:
256,192,185874,1,0,0:0:0:0:
256,192,186045,1,0,0:0:0:0:
256,192,186131,1,0,0:0:0:0:
256,192,186217,1,0,0:0:0:0:
256,192,186388,1,0,0:0:0:0:
256,192,186731,1,4,0:0:0:0:
256,192,187074,1,0,0:0:0:0:
256,192,187245,1,0,0:0:0:0:
256,192,187417,1,8,0:0:0:0:
256,192,187759,1,8,0:0:0:0:
256,192,187931,1,0,0:0:0:0:
256,192,188274,1,0,0:0:0:0:
256,192,188445,1,0,0:0:0:0:
256,192,188617,1,0,0:0:0:0:
256,192,188702,1,0,0:0:0:0:
256,192,188788,1,8,0:0:0:0:
256,192,188874,1,0,0:0:0:0:
256,192,188959,1,0,0:0:0:0:
256,192,189045,1,0,0:0:0:0:
256,192,189131,1,8,0:0:0:0:
256,192,189217,1,8,0:0:0:0:
256,192,189302,1,8,0:0:0:0:
256,192,189388,1,8,0:0:0:0:
256,192,189474,1,0,0:0:0:0:
256,192,189817,1,0,0:0:0:0:
256,192,189988,1,8,0:0:0:0:
256,192,190159,1,8,0:0:0:0:
256,192,190502,1,8,0:0:0:0:
256,192,190674,1,0,0:0:0:0:
256,192,190845,1,0,0:0:0:0:
256,192,190931,1,0,0:0:0:0:
256,192,191017,1,8,0:0:0:0:
256,192,191102,1,8,0:0:0:0:
256,192,191188,1,0,0:0:0:0:
256,192,191274,1,0,0:0:0:0:
256,192,191359,1,0,0:0:0:0:
256,192,191445,1,0,0:0:0:0:
256,192,191531,1,8,0:0:0:0:
256,192,191702,1,0,0:0:0:0:
256,192,191788,1,0,0:0:0:0:
256,192,191874,1,0,0:0:0:0:
256,192,192045,1,0,0:0:0:0:
256,192,192131,1,8,0:0:0:0:
256,192,192217,1,0,0:0:0:0:
256,192,192388,1,0,0:0:0:0:
256,192,192559,1,8,0:0:0:0:
256,192,192731,1,8,0:0:0:0:
256,192,192817,1,0,0:0:0:0:
256,192,192902,1,0,0:0:0:0:
256,192,193074,1,0,0:0:0:0:
256,192,193159,1,0,0:0:0:0:
256,192,193245,1,8,0:0:0:0:
256,192,193417,1,0,0:0:0:0:
256,192,193588,1,0,0:0:0:0:
256,192,193759,1,0,0:0:0:0:
256,192,193845,1,0,0:0:0:0:
256,192,193931,1,8,0:0:0:0:
256,192,194102,1,0,0:0:0:0:
256,192,194188,1,0,0:0:0:0:
256,192,194274,1,0,0:0:0:0:
256,192,194445,1,0,0:0:0:0:
256,192,194617,1,8,0:0:0:0:
256,192,194788,1,0,0:0:0:0:
256,192,194874,1,8,0:0:0:0:
256,192,194959,1,0,0:0:0:0:
256,192,195131,1,0,0:0:0:0:
256,192,195302,1,8,0:0:0:0:
256,192,195474,1,8,0:0:0:0:
256,192,195559,1,0,0:0:0:0:
256,192,195645,1,0,0:0:0:0:
256,192,195817,1,0,0:0:0:0:
256,192,195902,1,0,0:0:0:0:
256,192,195988,1,8,0:0:0:0:
256,192,196159,1,8,0:0:0:0:
256,192,196331,1,0,0:0:0:0:
256,192,196502,1,0,0:0:0:0:
256,192,196588,1,0,0:0:0:0:
256,192,196674,1,0,0:0:0:0:
256,192,196845,1,0,0:0:0:0:
256,192,196931,1,0,0:0:0:0:
256,192,197017,1,0,0:0:0:0:
256,192,197188,1,0,0:0:0:0:
256,192,197359,1,12,0:0:0:0:
256,192,197702,1,0,0:0:0:0:
256,192,208674,5,4,0:0:0:0:
256,192,209359,1,0,0:0:0:0:
256,192,210045,1,8,0:0:0:0:
256,192,210559,1,8,0:0:0:0:
256,192,211074,1,8,0:0:0:0:
256,192,211417,1,0,0:0:0:0:
256,192,211759,1,8,0:0:0:0:
256,192,211931,1,0,0:0:0:0:
256,192,212274,1,8,0:0:0:0:
256,192,212445,1,8,0:0:0:0:
256,192,214159,1,0,0:0:0:0:
256,192,214845,1,0,0:0:0:0:
256,192,215188,1,8,0:0:0:0:
256,192,215874,1,8,0:0:0:0:
256,192,216902,1,8,0:0:0:0:
256,192,217588,1,8,0:0:0:0:
256,192,217931,1,0,0:0:0:0:
256,192,218617,1,0,0:0:0:0:
256,192,219302,1,12,0:0:0:0:
256,192,219645,1,4,0:0:0:0:
256,192,219817,1,0,0:0:0:0:
256,192,219988,1,8,0:0:0:0:
256,192,220159,1,8,0:0:0:0:
256,192,220502,1,0,0:0:0:0:
256,192,220674,1,8,0:0:0:0:
256,192,220845,1,8,0:0:0:0:
256,192,221188,1,0,0:0:0:0:
256,192,221359,1,0,0:0:0:0:
256,192,221531,1,8,0:0:0:0:
256,192,221702,1,8,0:0:0:0:
256,192,221874,1,0,0:0:0:0:
256,192,222045,1,0,0:0:0:0:
256,192,222388,1,0,0:0:0:0:
256,192,222559,1,0,0:0:0:0:
256,192,222731,1,8,0:0:0:0:
256,192,222902,1,8,0:0:0:0:
256,192,223245,1,0,0:0:0:0:
256,192,223417,1,8,0:0:0:0:
256,192,223588,1,8,0:0:0:0:
256,192,223931,1,0,0:0:0:0:
256,192,224102,1,8,0:0:0:0:
256,192,224274,1,8,0:0:0:0:
256,192,224445,1,0,0:0:0:0:
256,192,224617,1,0,0:0:0:0:
256,192,224788,1,0,0:0:0:0:
256,192,224959,1,8,0:0:0:0:
256,192,225131,1,0,0:0:0:0:
256,192,225474,1,0,0:0:0:0:
256,192,225817,1,8,0:0:0:0:
256,192,225988,1,0,0:0:0:0:
256,192,226331,1,0,0:0:0:0:
256,192,226845,1,0,0:0:0:0:
256,192,227188,1,8,0:0:0:0:
256,192,227359,1,0,0:0:0:0:
256,192,227702,1,0,0:0:0:0:
256,192,228217,1,0,0:0:0:0:
256,192,228559,1,8,0:0:0:0:
256,192,228731,1,0,0:0:0:0:
256,192,229074,1,0,0:0:0:0:
256,192,229588,1,0,0:0:0:0:
256,192,229931,1,8,0:0:0:0:
256,192,230102,1,0,0:0:0:0:
256,192,230617,1,8,0:0:0:0:
256,192,230788,1,0,0:0:0:0:
256,192,230874,1,8,0:0:0:0:
256,192,230959,1,8,0:0:0:0:
256,192,231131,1,8,0:0:0:0:
256,192,231302,1,8,0:0:0:0:
256,192,231388,1,8,0:0:0:0:
256,192,231474,1,0,0:0:0:0:
256,192,231645,1,8,0:0:0:0:
256,192,231817,1,8,0:0:0:0:
256,192,231988,1,0,0:0:0:0:
256,192,232074,1,8,0:0:0:0:
256,192,232159,1,0,0:0:0:0:
256,192,232245,1,0,0:0:0:0:
256,192,232331,1,8,0:0:0:0:
256,192,232417,1,0,0:0:0:0:
256,192,232502,1,8,0:0:0:0:
256,192,232674,1,8,0:0:0:0:
256,192,232759,1,8,0:0:0:0:
256,192,232845,1,0,0:0:0:0:
256,192,232931,1,8,0:0:0:0:
256,192,233017,1,0,0:0:0:0:
256,192,233188,1,0,0:0:0:0:
256,192,233359,1,4,0:0:0:0:
256,192,233531,1,0,0:0:0:0:
256,192,233617,1,0,0:0:0:0:
256,192,233702,1,8,0:0:0:0:
256,192,233874,1,0,0:0:0:0:
256,192,234045,1,8,0:0:0:0:
256,192,234131,1,0,0:0:0:0:
256,192,234217,1,0,0:0:0:0:
256,192,234388,1,0,0:0:0:0:
256,192,234559,1,0,0:0:0:0:
256,192,234731,1,8,0:0:0:0:
256,192,234817,1,0,0:0:0:0:
256,192,234902,1,8,0:0:0:0:
256,192,234988,1,8,0:0:0:0:
256,192,235074,1,0,0:0:0:0:
256,192,235159,1,8,0:0:0:0:
256,192,235245,1,0,0:0:0:0:
256,192,235417,1,0,0:0:0:0:
256,192,235502,1,0,0:0:0:0:
256,192,235588,1,8,0:0:0:0:
256,192,235674,1,0,0:0:0:0:
256,192,235759,1,8,0:0:0:0:
256,192,235931,1,0,0:0:0:0:
256,192,236102,1,4,0:0:0:0:
256,192,236274,1,0,0:0:0:0:
256,192,236359,1,0,0:0:0:0:
256,192,236445,1,8,0:0:0:0:
256,192,236531,1,0,0:0:0:0:
256,192,236617,1,0,0:0:0:0:
256,192,236788,1,0,0:0:0:0:
256,192,236874,1,0,0:0:0:0:
256,192,236959,1,0,0:0:0:0:
256,192,237131,1,8,0:0:0:0:
256,192,237302,1,0,0:0:0:0:
256,192,237474,1,4,0:0:0:0:
256,192,237645,1,0,0:0:0:0:
256,192,237817,1,8,0:0:0:0:
256,192,237902,1,0,0:0:0:0:
256,192,237988,1,0,0:0:0:0:
256,192,238159,1,0,0:0:0:0:
256,192,238245,1,0,0:0:0:0:
256,192,238331,1,0,0:0:0:0:
256,192,238417,1,0,0:0:0:0:
256,192,238502,1,8,0:0:0:0:
256,192,238674,1,0,0:0:0:0:
256,192,238759,1,0,0:0:0:0:
256,192,238845,1,8,0:0:0:0:
256,192,238902,1,8,0:0:0:0:
256,192,238959,1,8,0:0:0:0:
256,192,239017,1,0,0:0:0:0:
256,192,239102,1,0,0:0:0:0:
256,192,239188,1,8,0:0:0:0:
256,192,239245,1,8,0:0:0:0:
256,192,239302,1,8,0:0:0:0:
256,192,239359,1,0,0:0:0:0:
256,192,239445,1,0,0:0:0:0:
256,192,239531,1,8,0:0:0:0:
256,192,239588,1,0,0:0:0:0:
256,192,239645,1,0,0:0:0:0:
256,192,239702,1,8,0:0:0:0:
256,192,239788,1,0,0:0:0:0:
256,192,239874,1,8,0:0:0:0:
256,192,239931,1,8,0:0:0:0:
256,192,239988,1,8,0:0:0:0:
256,192,240045,1,8,0:0:0:0:
256,192,240102,1,8,0:0:0:0:
256,192,240159,1,8,0:0:0:0:
256,192,240217,1,0,0:0:0:0:
256,192,240559,1,8,0:0:0:0:
256,192,240731,1,0,0:0:0:0:
256,192,240817,1,8,0:0:0:0:
256,192,240902,1,8,0:0:0:0:
256,192,241074,1,8,0:0:0:0:
256,192,241245,1,0,0:0:0:0:
256,192,241588,1,4,0:0:0:0:
256,192,241759,1,0,0:0:0:0:
256,192,241931,1,8,0:0:0:0:
256,192,242102,1,8,0:0:0:0:
256,192,242188,1,0,0:0:0:0:
256,192,242274,1,0,0:0:0:0:
256,192,242445,1,0,0:0:0:0:
256,192,242617,1,8,0:0:0:0:
256,192,242702,1,0,0:0:0:0:
256,192,242788,1,8,0:0:0:0:
256,192,242959,1,0,0:0:0:0:
256,192,243045,1,8,0:0:0:0:
256,192,243131,1,0,0:0:0:0:
256,192,243217,1,0,0:0:0:0:
256,192,243302,1,8,0:0:0:0:
256,192,243388,1,0,0:0:0:0:
256,192,243474,1,8,0:0:0:0:
256,192,243645,1,8,0:0:0:0:
256,192,243731,1,8,0:0:0:0:
256,192,243817,1,0,0:0:0:0:
256,192,243902,1,8,0:0:0:0:
256,192,243988,1,0,0:0:0:0:
256,192,244159,1,0,0:0:0:0:
256,192,244331,1,0,0:0:0:0:
256,192,244502,1,0,0:0:0:0:
256,192,244588,1,8,0:0:0:0:
256,192,244674,1,8,0:0:0:0:
256,192,244845,1,0,0:0:0:0:
256,192,245017,1,0,0:0:0:0:
256,192,245102,1,8,0:0:0:0:
256,192,245188,1,0,0:0:0:0:
256,192,245359,1,8,0:0:0:0:
256,192,245531,1,0,0:0:0:0:
256,192,245702,1,8,0:0:0:0:
256,192,245788,1,0,0:0:0:0:
256,192,245874,1,8,0:0:0:0:
256,192,245959,1,8,0:0:0:0:
256,192,246045,1,0,0:0:0:0:
256,192,246131,1,8,0:0:0:0:
256,192,246217,1,0,0:0:0:0:
256,192,246388,1,0,0:0:0:0:
256,192,246474,1,0,0:0:0:0:
256,192,246559,1,8,0:0:0:0:
256,192,246645,1,0,0:0:0:0:
256,192,246731,1,8,0:0:0:0:
256,192,246902,1,8,0:0:0:0:
256,192,247074,1,0,0:0:0:0:
256,192,247245,1,0,0:0:0:0:
256,192,247331,1,0,0:0:0:0:
256,192,247417,1,8,0:0:0:0:
256,192,247502,1,0,0:0:0:0:
256,192,247588,1,0,0:0:0:0:
256,192,247759,1,0,0:0:0:0:
256,192,247845,1,0,0:0:0:0:
256,192,247931,1,0,0:0:0:0:
256,192,248102,1,8,0:0:0:0:
256,192,248274,1,0,0:0:0:0:
256,192,248445,1,0,0:0:0:0:
256,192,248617,1,0,0:0:0:0:
256,192,248702,1,0,0:0:0:0:
256,192,248788,1,8,0:0:0:0:
256,192,248959,1,0,0:0:0:0:
256,192,249045,1,0,0:0:0:0:
256,192,249131,1,8,0:0:0:0:
256,192,249217,1,0,0:0:0:0:
256,192,249388,1,0,0:0:0:0:
256,192,249474,1,8,0:0:0:0:
256,192,249645,1,0,0:0:0:0:
256,192,249817,1,0,0:0:0:0:
256,192,249988,1,0,0:0:0:0:
256,192,250074,1,0,0:0:0:0:
256,192,250159,1,8,0:0:0:0:
256,192,250331,1,8,0:0:0:0:
256,192,250417,1,0,0:0:0:0:
256,192,250502,1,0,0:0:0:0:
256,192,250674,1,0,0:0:0:0:
256,192,250845,1,8,0:0:0:0:
256,192,251017,1,0,0:0:0:0:
256,192,251102,1,8,0:0:0:0:
256,192,251188,1,0,0:0:0:0:
256,192,251359,1,0,0:0:0:0:
256,192,251445,1,0,0:0:0:0:
256,192,251531,1,8,0:0:0:0:
256,192,251617,1,0,0:0:0:0:
256,192,251702,1,0,0:0:0:0:
256,192,251874,1,0,0:0:0:0:
256,192,251959,1,0,0:0:0:0:
256,192,252045,1,0,0:0:0:0:
256,192,252217,1,8,0:0:0:0:
256,192,252302,1,0,0:0:0:0:
256,192,252388,1,0,0:0:0:0:
256,192,252474,1,0,0:0:0:0:
256,192,252559,1,0,0:0:0:0:
256,192,252731,1,0,0:0:0:0:
256,192,252902,1,8,0:0:0:0:
256,192,252988,1,0,0:0:0:0:
256,192,253074,1,8,0:0:0:0:
256,192,253159,1,0,0:0:0:0:
256,192,253245,1,0,0:0:0:0:
256,192,253417,1,0,0:0:0:0:
256,192,253588,1,8,0:0:0:0:
256,192,253674,1,0,0:0:0:0:
256,192,253759,1,8,0:0:0:0:
256,192,253931,1,0,0:0:0:0:
256,192,254017,1,8,0:0:0:0:
256,192,254102,1,0,0:0:0:0:
256,192,254188,1,0,0:0:0:0:
256,192,254274,1,8,0:0:0:0:
256,192,254359,1,0,0:0:0:0:
256,192,254445,1,8,0:0:0:0:
256,192,254617,1,8,0:0:0:0:
256,192,254702,1,8,0:0:0:0:
256,192,254788,1,0,0:0:0:0:
256,192,254874,1,8,0:0:0:0:
256,192,254959,1,0,0:0:0:0:
256,192,255131,1,0,0:0:0:0:
256,192,255302,1,0,0:0:0:0:
256,192,255474,1,0,0:0:0:0:
256,192,255559,1,8,0:0:0:0:
256,192,255645,1,8,0:0:0:0:
256,192,255817,1,0,0:0:0:0:
256,192,255988,1,0,0:0:0:0:
256,192,256074,1,8,0:0:0:0:
256,192,256159,1,0,0:0:0:0:
256,192,256331,1,8,0:0:0:0:
256,192,256502,1,0,0:0:0:0:
256,192,256674,1,8,0:0:0:0:
256,192,256759,1,0,0:0:0:0:
256,192,256845,1,8,0:0:0:0:
256,192,256931,1,8,0:0:0:0:
256,192,257017,1,0,0:0:0:0:
256,192,257102,1,8,0:0:0:0:
256,192,257188,1,0,0:0:0:0:
256,192,257359,1,0,0:0:0:0:
256,192,257445,1,0,0:0:0:0:
256,192,257531,1,8,0:0:0:0:
256,192,257617,1,0,0:0:0:0:
256,192,257702,1,8,0:0:0:0:
256,192,257788,1,8,0:0:0:0:
256,192,257874,1,8,0:0:0:0:
256,192,257959,1,8,0:0:0:0:
256,192,258045,1,0,0:0:0:0:
256,192,258217,1,0,0:0:0:0:
256,192,258302,1,0,0:0:0:0:
256,192,258388,1,8,0:0:0:0:
256,192,258474,1,0,0:0:0:0:
256,192,258559,1,0,0:0:0:0:
256,192,258731,1,0,0:0:0:0:
256,192,258817,1,0,0:0:0:0:
256,192,258902,1,0,0:0:0:0:
256,192,259074,1,8,0:0:0:0:
256,192,259245,1,0,0:0:0:0:
256,192,259417,1,4,0:0:0:0:
256,192,259588,1,0,0:0:0:0:
256,192,259759,1,8,0:0:0:0:
256,192,259845,1,0,0:0:0:0:
256,192,259931,1,0,0:0:0:0:
256,192,260102,1,4,0:0:0:0:
256,192,260274,1,0,0:0:0:0:
256,192,260359,1,0,0:0:0:0:
256,192,260445,1,8,0:0:0:0:
256,192,260617,1,0,0:0:0:0:
256,192,260702,1,0,0:0:0:0:
256,192,260788,1,8,0:0:0:0:
256,192,260874,1,0,0:0:0:0:
256,192,260959,1,0,0:0:0:0:
256,192,261045,1,0,0:0:0:0:
256,192,261131,1,0,0:0:0:0:
256,192,261217,1,0,0:0:0:0:
256,192,261302,1,0,0:0:0:0:
256,192,261388,1,0,0:0:0:0:
256,192,261474,1,8,0:0:0:0:
256,192,261559,1,0,0:0:0:0:
256,192,261645,1,0,0:0:0:0:
256,192,261731,1,0,0:0:0:0:
256,192,261817,1,0,0:0:0:0:
256,192,261902,1,0,0:0:0:0:
256,192,261988,1,0,0:0:0:0:
256,192,262074,1,0,0:0:0:0:
256,192,262159,1,0,0:0:0:0:
256,192,262502,1,0,0:0:0:0:
256,192,262674,1,0,0:0:0:0:
256,192,262731,1,0,0:0:0:0:
256,192,262788,1,0,0:0:0:0:
256,192,262845,1,8,0:0:0:0:
256,192,263017,1,0,0:0:0:0:
256,192,263531,1,0,0:0:0:0:
256,192,263617,1,8,0:0:0:0:
256,192,263702,1,8,0:0:0:0:
256,192,263874,1,8,0:0:0:0:
256,192,264045,1,8,0:0:0:0:
256,192,264131,1,8,0:0:0:0:
256,192,264217,1,0,0:0:0:0:
256,192,264388,1,8,0:0:0:0:
256,192,264559,1,8,0:0:0:0:
256,192,264731,1,8,0:0:0:0:
256,192,264817,1,8,0:0:0:0:
256,192,264902,1,0,0:0:0:0:
256,192,264988,1,8,0:0:0:0:
256,192,265074,1,8,0:0:0:0:
256,192,265245,1,8,0:0:0:0:
256,192,265417,1,8,0:0:0:0:
256,192,265502,1,8,0:0:0:0:
256,192,265588,1,0,0:0:0:0:
256,192,265759,1,8,0:0:0:0:
256,192,265845,1,8,0:0:0:0:
256,192,265931,1,0,0:0:0:0:
256,192,266102,1,8,0:0:0:0:
256,192,266274,1,0,0:0:0:0:
256,192,266359,1,8,0:0:0:0:
256,192,266445,1,8,0:0:0:0:
256,192,266617,1,8,0:0:0:0:
256,192,266788,1,8,0:0:0:0:
256,192,266874,1,8,0:0:0:0:
256,192,266959,1,0,0:0:0:0:
256,192,267131,1,8,0:0:0:0:
256,192,267302,1,8,0:0:0:0:
256,192,267474,1,8,0:0:0:0:
256,192,267559,1,8,0:0:0:0:
256,192,267645,1,0,0:0:0:0:
256,192,267731,1,8,0:0:0:0:
256,192,267817,1,8,0:0:0:0:
256,192,267988,1,8,0:0:0:0:
256,192,268159,1,8,0:0:0:0:
256,192,268245,1,8,0:0:0:0:
256,192,268331,1,0,0:0:0:0:
256,192,268502,1,8,0:0:0:0:
256,192,268588,1,8,0:0:0:0:
256,192,268674,1,0,0:0:0:0:
256,192,268759,1,8,0:0:0:0:
256,192,268845,1,8,0:0:0:0:
256,192,268931,1,8,0:0:0:0:
256,192,269017,1,0,0:0:0:0:
256,192,269102,1,8,0:0:0:0:
256,192,269188,1,8,0:0:0:0:
256,192,269359,1,8,0:0:0:0:
256,192,269531,1,8,0:0:0:0:
256,192,269617,1,8,0:0:0:0:
256,192,269702,1,0,0:0:0:0:
256,192,269874,1,8,0:0:0:0:
256,192,270045,1,8,0:0:0:0:
256,192,270217,1,8,0:0:0:0:
256,192,270302,1,8,0:0:0:0:
256,192,270388,1,0,0:0:0:0:
256,192,270474,1,8,0:0:0:0:
256,192,270559,1,8,0:0:0:0:
256,192,270731,1,8,0:0:0:0:
256,192,270902,1,8,0:0:0:0:
256,192,270988,1,8,0:0:0:0:
256,192,271074,1,0,0:0:0:0:
256,192,271245,1,8,0:0:0:0:
256,192,271331,1,8,0:0:0:0:
256,192,271417,1,0,0:0:0:0:
256,192,271588,1,8,0:0:0:0:
256,192,271759,1,0,0:0:0:0:
256,192,271845,1,8,0:0:0:0:
256,192,271931,1,8,0:0:0:0:
256,192,272102,1,8,0:0:0:0:
256,192,272274,1,8,0:0:0:0:
256,192,272359,1,8,0:0:0:0:
256,192,272445,1,0,0:0:0:0:
256,192,272617,1,8,0:0:0:0:
256,192,272788,1,8,0:0:0:0:
256,192,272959,1,8,0:0:0:0:
256,192,273045,1,8,0:0:0:0:
256,192,273131,1,0,0:0:0:0:
256,192,273217,1,8,0:0:0:0:
256,192,273302,1,8,0:0:0:0:
256,192,273474,1,8,0:0:0:0:
256,192,273645,1,8,0:0:0:0:
256,192,273731,1,8,0:0:0:0:
256,192,273817,1,0,0:0:0:0:
256,192,273902,1,8,0:0:0:0:
256,192,273988,1,8,0:0:0:0:
256,192,274074,1,8,0:0:0:0:
256,192,274159,1,0,0:0:0:0:
256,192,274245,1,0,0:0:0:0:
256,192,274331,1,0,0:0:0:0:
256,192,274417,1,0,0:0:0:0:
256,192,274502,1,8,0:0:0:0:
256,192,274588,1,0,0:0:0:0:
256,192,274674,1,8,0:0:0:0:
256,192,274845,1,8,0:0:0:0:
256,192,275017,1,8,0:0:0:0:
256,192,275102,1,8,0:0:0:0:
256,192,275188,1,0,0:0:0:0:
256,192,275359,1,8,0:0:0:0:
256,192,275531,1,8,0:0:0:0:
256,192,275702,1,8,0:0:0:0:
256,192,275788,1,8,0:0:0:0:
256,192,275874,1,0,0:0:0:0:
256,192,275959,1,8,0:0:0:0:
256,192,276045,1,8,0:0:0:0:
256,192,276217,1,8,0:0:0:0:
256,192,276388,1,8,0:0:0:0:
256,192,276474,1,8,0:0:0:0:
256,192,276559,1,0,0:0:0:0:
256,192,276731,1,8,0:0:0:0:
256,192,276817,1,8,0:0:0:0:
256,192,276902,1,0,0:0:0:0:
256,192,277074,1,8,0:0:0:0:
256,192,277245,1,0,0:0:0:0:
256,192,277331,1,8,0:0:0:0:
256,192,277417,1,8,0:0:0:0:
256,192,277588,1,8,0:0:0:0:
256,192,277759,1,8,0:0:0:0:
256,192,277845,1,8,0:0:0:0:
256,192,277931,1,0,0:0:0:0:
256,192,278102,1,8,0:0:0:0:
256,192,278274,1,8,0:0:0:0:
256,192,278445,1,8,0:0:0:0:
256,192,278531,1,8,0:0:0:0:
256,192,278617,1,0,0:0:0:0:
256,192,278702,1,8,0:0:0:0:
256,192,278788,1,8,0:0:0:0:
256,192,278959,1,8,0:0:0:0:
256,192,279131,1,8,0:0:0:0:
256,192,279217,1,8,0:0:0:0:
256,192,279302,1,0,0:0:0:0:
256,192,279474,1,8,0:0:0:0:
256,192,279559,1,8,0:0:0:0:
256,192,279645,1,0,0:0:0:0:
256,192,279731,1,0,0:0:0:0:
256,192,279817,1,0,0:0:0:0:
256,192,279902,1,0,0:0:0:0:
256,192,279988,1,8,0:0:0:0:
256,192,280074,1,0,0:0:0:0:
256,192,280159,1,8,0:0:0:0:
256,192,280331,1,0,0:0:0:0:
256,192,280502,1,8,0:0:0:0:
256,192,280588,1,8,0:0:0:0:
256,192,280674,1,0,0:0:0:0:
256,192,280845,1,8,0:0:0:0:
256,192,281017,1,0,0:0:0:0:
256,192,281188,1,8,0:0:0:0:
256,192,281274,1,8,0:0:0:0:
256,192,281359,1,0,0:0:0:0:
256,192,281445,1,8,0:0:0:0:
256,192,281531,1,8,0:0:0:0:
256,192,281702,1,0,0:0:0:0:
256,192,281874,1,8,0:0:0:0:
256,192,281959,1,8,0:0:0:0:
256,192,282045,1,0,0:0:0:0:
256,192,282217,1,8,0:0:0:0:
256,192,282302,1,8,0:0:0:0:
256,192,282388,1,0,0:0:0:0:
256,192,282559,1,8,0:0:0:0:
256,192,282731,1,0,0:0:0:0:
256,192,282817,1,8,0:0:0:0:
256,192,282902,1,8,0:0:0:0:
256,192,282988,1,8,0:0:0:0:
256,192,283074,1,0,0:0:0:0:
256,192,283159,1,8,0:0:0:0:
256,192,283245,1,8,0:0:0:0:
256,192,283331,1,8,0:0:0:0:
256,192,283417,1,0,0:0:0:0:
256,192,283502,1,0,0:0:0:0:
256,192,283588,1,8,0:0:0:0:
256,192,283674,1,8,0:0:0:0:
256,192,283759,1,0,0:0:0:0:
256,192,283845,1,8,0:0:0:0:
256,192,283931,1,0,0:0:0:0:
256,192,284017,1,8,0:0:0:0:
256,192,284102,1,0,0:0:0:0:
256,192,284274,1,0,0:0:0:0:
256,192,284445,1,8,0:0:0:0:
256,192,284617,1,0,0:0:0:0:
256,192,284702,1,0,0:0:0:0:
256,192,284788,1,0,0:0:0:0:
256,192,284959,1,0,0:0:0:0:
256,192,285131,1,0,0:0:0:0:
256,192,285474,1,0,0:0:0:0:
256,192,285559,1,8,0:0:0:0:
256,192,285645,1,8,0:0:0:0:
256,192,285817,1,0,0:0:0:0:
256,192,285988,1,8,0:0:0:0:
256,192,286074,1,8,0:0:0:0:
256,192,286159,1,0,0:0:0:0:
256,192,286245,1,8,0:0:0:0:
256,192,286417,1,8,0:0:0:0:
256,192,286502,1,0,0:0:0:0:
256,192,286674,1,8,0:0:0:0:
256,192,286845,1,0,0:0:0:0:
256,192,286931,1,8,0:0:0:0:
256,192,287017,1,8,0:0:0:0:
256,192,287188,1,0,0:0:0:0:
256,192,287359,1,8,0:0:0:0:
256,192,287445,1,8,0:0:0:0:
256,192,287531,1,0,0:0:0:0:
256,192,287702,1,8,0:0:0:0:
256,192,287788,1,0,0:0:0:0:
256,192,287959,1,0,0:0:0:0:
256,192,288045,1,8,0:0:0:0:
256,192,288217,1,0,0:0:0:0:
256,192,288302,1,8,0:0:0:0:
256,192,288388,1,8,0:0:0:0:
256,192,288559,1,0,0:0:0:0:
256,192,288731,1,8,0:0:0:0:
256,192,288817,1,8,0:0:0:0:
256,192,288902,1,0,0:0:0:0:
256,192,288988,1,8,0:0:0:0:
256,192,289159,1,8,0:0:0:0:
256,192,289245,1,0,0:0:0:0:
256,192,289417,1,8,0:0:0:0:
256,192,289502,1,8,0:0:0:0:
256,192,289588,1,0,0:0:0:0:
256,192,289674,1,8,0:0:0:0:
256,192,289759,1,8,0:0:0:0:
256,192,289931,1,0,0:0:0:0:
256,192,290102,1,8,0:0:0:0:
256,192,290188,1,8,0:0:0:0:
256,192,290274,1,0,0:0:0:0:
256,192,290317,1,0,0:0:0:0:
256,192,290445,1,0,0:0:0:0:
256,192,290488,1,0,0:0:0:0:
256,192,290617,1,8,0:0:0:0:
256,192,290659,1,8,0:0:0:0:
256,192,290788,1,8,0:0:0:0:
256,192,290831,1,8,0:0:0:0:
256,192,290959,1,0,0:0:0:0:
256,192,291045,1,8,0:0:0:0:
256,192,291131,1,8,0:0:0:0:
256,192,291302,1,0,0:0:0:0:
256,192,291474,1,8,0:0:0:0:
256,192,291559,1,8,0:0:0:0:
256,192,291645,1,0,0:0:0:0:
256,192,291731,1,8,0:0:0:0:
256,192,291902,1,8,0:0:0:0:
256,192,291988,1,0,0:0:0:0:
256,192,292159,1,8,0:0:0:0:
256,192,292245,1,8,0:0:0:0:
256,192,292331,1,0,0:0:0:0:
256,192,292417,1,8,0:0:0:0:
256,192,292502,1,8,0:0:0:0:
256,192,292674,1,0,0:0:0:0:
256,192,292845,1,8,0:0:0:0:
256,192,292931,1,8,0:0:0:0:
256,192,293017,1,0,0:0:0:0:
256,192,293188,1,8,0:0:0:0:
256,192,293274,1,0,0:0:0:0:
256,192,293359,1,0,0:0:0:0:
256,192,293531,1,8,0:0:0:0:
256,192,293702,1,0,0:0:0:0:
256,192,293788,1,8,0:0:0:0:
256,192,293874,1,8,0:0:0:0:
256,192,294045,1,0,0:0:0:0:
256,192,294217,1,8,0:0:0:0:
256,192,294302,1,8,0:0:0:0:
256,192,294388,1,0,0:0:0:0:
256,192,294474,1,8,0:0:0:0:
256,192,294645,1,8,0:0:0:0:
256,192,294731,1,0,0:0:0:0:
256,192,294902,1,8,0:0:0:0:
256,192,294988,1,8,0:0:0:0:
256,192,295074,1,0,0:0:0:0:
256,192,295245,1,8,0:0:0:0:
256,192,295331,1,0,0:0:0:0:
256,192,295417,1,0,0:0:0:0:
256,192,295588,1,0,0:0:0:0:
256,192,295674,1,0,0:0:0:0:
256,192,295759,1,8,0:0:0:0:
256,192,295802,1,8,0:0:0:0:
256,192,295931,1,0,0:0:0:0:
256,192,295974,1,0,0:0:0:0:
256,192,296102,1,8,0:0:0:0:
256,192,296188,1,0,0:0:0:0:
256,192,296274,1,0,0:0:0:0:
256,192,296359,1,0,0:0:0:0:
256,192,296445,1,0,0:0:0:0:
256,192,296617,1,8,0:0:0:0:
256,192,296702,1,0,0:0:0:0:
256,192,296788,1,0,0:0:0:0:
256,192,296959,1,8,0:0:0:0:
256,192,297131,1,0,0:0:0:0:
256,192,297217,1,8,0:0:0:0:
256,192,297388,1,8,0:0:0:0:
256,192,297474,1,0,0:0:0:0:
256,192,297645,1,8,0:0:0:0:
256,192,297817,1,0,0:0:0:0:
256,192,297988,1,8,0:0:0:0:
256,192,298074,1,0,0:0:0:0:
256,192,298159,1,0,0:0:0:0:
256,192,298331,1,8,0:0:0:0:
256,192,298417,1,8,0:0:0:0:
256,192,298502,1,0,0:0:0:0:
256,192,298588,1,8,0:0:0:0:
256,192,298759,1,8,0:0:0:0:
256,192,298845,1,0,0:0:0:0:
256,192,299017,1,8,0:0:0:0:
256,192,299074,1,8,0:0:0:0:
256,192,299131,1,8,0:0:0:0:
256,192,299188,1,0,0:0:0:0:
256,192,299359,1,8,0:0:0:0:
256,192,299445,1,0,0:0:0:0:
256,192,299531,1,0,0:0:0:0:
256,192,299702,1,8,0:0:0:0:
256,192,299788,1,0,0:0:0:0:
256,192,299874,1,0,0:0:0:0:
256,192,299959,1,8,0:0:0:0:
256,192,300131,1,8,0:0:0:0:
256,192,300217,1,0,0:0:0:0:
256,192,300388,1,8,0:0:0:0:
256,192,300559,1,0,0:0:0:0:
256,192,300645,1,0,0:0:0:0:
256,192,300731,1,8,0:0:0:0:
256,192,300817,1,8,0:0:0:0:
256,192,300902,1,0,0:0:0:0:
256,192,301074,1,8,0:0:0:0:
256,192,301159,1,8,0:0:0:0:
256,192,301245,1,0,0:0:0:0:
256,192,301288,1,0,0:0:0:0:
256,192,301417,1,0,0:0:0:0:
256,192,301459,1,0,0:0:0:0:
256,192,301588,1,8,0:0:0:0:
256,192,301631,1,8,0:0:0:0:
256,192,301759,1,8,0:0:0:0:
256,192,301802,1,8,0:0:0:0:
256,192,301931,1,0,0:0:0:0:
256,192,302017,1,0,0:0:0:0:
256,192,302102,1,8,0:0:0:0:
256,192,302274,1,0,0:0:0:0:
256,192,302445,1,0,0:0:0:0:
256,192,302531,1,8,0:0:0:0:
256,192,302617,1,0,0:0:0:0:
256,192,302702,1,8,0:0:0:0:
256,192,302874,1,8,0:0:0:0:
256,192,302959,1,0,0:0:0:0:
256,192,303131,1,0,0:0:0:0:
256,192,303302,1,0,0:0:0:0:
256,192,303388,1,0,0:0:0:0:
256,192,303474,1,8,0:0:0:0:
256,192,303645,1,0,0:0:0:0:
256,192,303702,1,0,0:0:0:0:
256,192,303759,1,0,0:0:0:0:
256,192,303817,1,8,0:0:0:0:
256,192,303874,1,0,0:0:0:0:
256,192,303931,1,0,0:0:0:0:
256,192,303988,1,0,0:0:0:0:
256,192,304159,1,0,0:0:0:0:
256,192,304245,1,8,0:0:0:0:
256,192,304331,1,0,0:0:0:0:
256,192,304502,1,8,0:0:0:0:
256,192,304674,1,0,0:0:0:0:
256,192,304759,1,0,0:0:0:0:
256,192,304845,1,0,0:0:0:0:
256,192,304931,1,8,0:0:0:0:
256,192,305017,1,0,0:0:0:0:
256,192,305102,1,0,0:0:0:0:
256,192,305188,1,0,0:0:0:0:
256,192,305274,1,8,0:0:0:0:
256,192,305359,1,8,0:0:0:0:
256,192,305445,1,8,0:0:0:0:
256,192,305531,1,8,0:0:0:0:
256,192,305617,1,8,0:0:0:0:
256,192,305702,1,8,0:0:0:0:
256,192,305788,1,8,0:0:0:0:
256,192,305874,1,0,0:0:0:0:
256,192,305959,1,0,0:0:0:0:
256,192,306045,1,0,0:0:0:0:
256,192,306559,1,0,0:0:0:0:
256,192,307245,1,8,0:0:0:0:
