osu file format v14

[General]
AudioFilename: audio.mp3
AudioLeadIn: 1000
PreviewTime: 241333
Countdown: 0
SampleSet: Soft
StackLeniency: 0.4
Mode: 0
LetterboxInBreaks: 0
WidescreenStoryboard: 0

[Editor]
Bookmarks: 11104,21990,33047,43933,54990,65961,76847,87818,109761,131704,153647,175590,186561,197533,219475,230447,241418,261990,279818,285304
DistanceSpacing: 0.8
BeatDivisor: 4
GridSize: 32
TimelineZoom: 2.1

[Metadata]
Title:Lost Emotion (Amane UK Hardcore Remix)
TitleUnicode:Lost Emotion (Amane UK Hardcore Remix)
Artist:Masayoshi Minoshima feat.nomico
ArtistUnicode:Masayoshi Minoshima feat.nomico
Creator:MaridiuS
Version:Despondency
Source:東方心綺楼 ~ Hopeless Masquerade.
Tags:Alstroemeria records c88 東方 Project marathon pop culture 4 3 hata no kokoro theme edm Shinkirou touhou 天音 Reitaisai 12 亡失のエモーション j-core のみこ 簑島正佳
BeatmapID:1304748
BeatmapSetID:618953

[Difficulty]
HPDrainRate:6
CircleSize:4.7
OverallDifficulty:9
ApproachRate:9.4
SliderMultiplier:1.7
SliderTickRate:1

[Events]
//Background and Video events
0,0,"060c8f9c-d2c7-4d68-cdf4-188e6961ee58.jpg",0,0
//Break Periods
//Storyboard Layer 0 (Background)
//Storyboard Layer 1 (Fail)
//Storyboard Layer 2 (Pass)
//Storyboard Layer 3 (Foreground)
//Storyboard Sound Samples

[TimingPoints]
133,342.857142857143,4,2,1,70,1,0
10418,-66.6666666666667,4,2,0,70,0,0
11104,-90.9090909090909,4,2,1,70,0,0
16590,-90.9090909090909,4,2,2,70,0,0
20361,-66.6666666666667,4,2,2,70,0,0
21990,-90.9090909090909,4,2,2,5,0,0
22075,-83.3333333333333,4,2,2,70,0,0
30647,-76.9230769230769,4,2,2,70,0,0
31675,-71.4285714285714,4,2,2,70,0,0
33047,-76.9230769230769,4,2,2,70,0,1
38533,-76.9230769230769,4,1,1,70,0,1
42647,-76.9230769230769,4,2,0,70,0,0
43675,-200,4,1,1,70,0,0
43933,-200,4,1,1,5,0,0
44018,-133.333333333333,4,2,0,70,0,0
46675,-200,4,1,1,5,0,0
46761,-133.333333333333,4,2,0,70,0,0
49504,-100,4,2,0,70,0,0
49847,-133.333333333333,4,2,0,70,0,0
50704,-100,4,2,0,70,0,0
51047,-133.333333333333,4,2,0,70,0,0
52075,-100,4,2,0,70,0,0
52418,-133.333333333333,4,2,0,70,0,0
53447,-100,4,2,0,70,0,0
53790,-133.333333333333,4,2,0,70,0,0
54990,-117.647058823529,4,2,0,70,0,0
60475,-90.9090909090909,4,2,0,70,0,0
60818,-117.647058823529,4,2,0,70,0,0
61675,-90.9090909090909,4,2,0,70,0,0
62018,-117.647058823529,4,2,0,70,0,0
63047,-90.9090909090909,4,2,0,70,0,0
63390,-117.647058823529,4,2,0,70,0,0
64418,-90.9090909090909,4,2,0,70,0,0
64761,-117.647058823529,4,2,0,70,0,0
65447,-90.9090909090909,4,2,0,70,0,0
65875,-200,4,1,1,5,0,0
65961,-100,4,2,0,70,0,0
71447,-76.9230769230769,4,2,0,70,0,0
72133,-90.9090909090909,4,2,0,70,0,0
72818,-76.9230769230769,4,2,0,70,0,0
73504,-90.9090909090909,4,2,0,70,0,0
74018,-76.9230769230769,4,2,0,70,0,0
74875,-90.9090909090909,4,2,0,70,0,0
75390,-76.9230769230769,4,2,0,70,0,0
76247,-90.9090909090909,4,2,0,70,0,0
76590,-76.9230769230769,4,2,0,70,0,0
76847,-200,4,1,1,5,0,0
76933,-83.3333333333333,4,2,0,70,0,0
82075,-66.6666666666667,4,2,0,70,0,0
82418,-66.6666666666667,4,2,4,70,0,0
86533,-125,4,2,0,45,0,0
87561,-76.9230769230769,4,2,0,70,0,0
87904,-100,4,2,1,70,0,0
88504,-200,4,1,1,5,0,0
88590,-62.5,4,2,1,70,0,0
89104,-100,4,2,1,70,0,0
89618,-100,4,2,3,70,0,0
89961,-55.5555555555556,4,2,3,70,0,0
90647,-55.5555555555556,4,2,1,70,0,0
91675,-55.5555555555556,4,2,5,70,0,0
92190,-50,4,2,1,70,0,0
92361,-76.9230769230769,4,2,1,70,0,0
92875,-100,4,2,6,70,0,0
93304,-100,4,2,1,70,0,0
94590,-66.6666666666667,4,2,1,70,0,0
94933,-66.6666666666667,4,2,1,70,0,0
95618,-55.5555555555556,4,2,1,70,0,0
96133,-76.9230769230769,4,2,1,70,0,0
97333,-100,4,2,1,70,0,0
97761,-55.5555555555556,4,2,1,70,0,0
98018,-100,4,2,1,70,0,0
98361,-100,4,2,6,70,0,0
98790,-133.333333333333,4,2,1,70,0,0
99475,-200,4,1,1,5,0,0
99561,-62.5,4,2,1,70,0,0
100075,-100,4,2,1,70,0,0
100590,-100,4,2,3,70,0,0
100933,-55.5555555555556,4,2,3,70,0,0
101618,-55.5555555555556,4,2,1,70,0,0
102647,-55.5555555555556,4,2,5,70,0,0
103161,-50,4,2,1,70,0,0
103333,-76.9230769230769,4,2,1,70,0,0
103847,-100,4,2,6,70,0,0
104275,-66.6666666666667,4,2,1,70,0,0
108475,-100,4,2,1,70,0,0
109504,-66.6666666666667,4,2,1,70,0,0
109847,-83.3333333333333,4,2,2,70,0,0
120818,-76.9230769230769,4,2,2,70,0,0
126304,-66.6666666666667,4,2,2,70,0,0
127161,-66.6666666666667,4,2,10,70,0,0
127504,-66.6666666666667,4,2,2,70,0,0
128533,-66.6666666666667,4,2,10,70,0,0
128876,-66.6666666666667,4,2,2,70,0,0
129904,-66.6666666666667,4,2,10,70,0,0
130247,-66.6666666666667,4,2,2,70,0,0
130675,-100,4,2,2,70,0,0
131447,-200,4,2,2,70,0,0
131790,-133.333333333333,4,2,0,70,0,0
142761,-100,4,2,1,60,0,0
148247,-100,4,2,4,70,0,0
153047,-66.6666666666667,4,2,0,70,0,0
153733,-66.6666666666667,4,2,5,70,0,1
155104,-55.5555555555556,4,2,5,70,0,1
155447,-66.6666666666667,4,2,5,70,0,1
155790,-66.6666666666667,4,2,6,45,0,1
155875,-66.6666666666667,4,2,6,50,0,1
155961,-66.6666666666667,4,2,6,60,0,1
156133,-66.6666666666667,4,2,6,70,0,1
156390,-66.6666666666667,4,2,5,70,0,1
158190,-66.6666666666667,4,2,3,70,0,1
158875,-66.6666666666667,4,2,5,70,0,1
160590,-55.5555555555556,4,2,5,70,0,1
160933,-66.6666666666667,4,2,5,70,0,1
161275,-66.6666666666667,4,2,6,45,0,1
161360,-66.6666666666667,4,2,6,50,0,1
161446,-66.6666666666667,4,2,6,60,0,1
161618,-66.6666666666667,4,2,6,70,0,1
161875,-66.6666666666667,4,2,5,70,0,1
166075,-55.5555555555556,4,2,5,70,0,1
166418,-66.6666666666667,4,2,5,70,0,1
166761,-66.6666666666667,4,2,6,50,0,1
166846,-66.6666666666667,4,2,6,60,0,1
166932,-66.6666666666667,4,2,6,70,0,1
167104,-66.6666666666667,4,2,6,80,0,1
167361,-66.6666666666667,4,2,5,70,0,1
169161,-66.6666666666667,4,2,3,70,0,1
169504,-66.6666666666667,4,2,3,60,0,1
169847,-50,4,2,5,70,0,1
170190,-66.6666666666667,4,2,5,70,0,1
171561,-55.5555555555556,4,2,5,70,0,1
171904,-66.6666666666667,4,2,5,70,0,1
172247,-66.6666666666667,4,2,6,50,0,1
172332,-66.6666666666667,4,2,6,60,0,1
172418,-66.6666666666667,4,2,6,70,0,1
172590,-66.6666666666667,4,2,6,80,0,1
172847,-66.6666666666667,4,2,5,70,0,1
174304,-100,4,2,5,70,0,1
175675,-100,4,2,1,70,0,0
177904,-66.6666666666667,4,2,6,60,0,0
178076,-100,4,2,6,70,0,0
178333,-100,4,2,5,70,0,0
178418,-100,4,2,1,70,0,0
180133,-66.6666666666667,4,2,3,70,0,0
180475,-66.6666666666667,4,2,3,70,0,0
180818,-66.6666666666667,4,2,1,70,0,0
182018,-66.6666666666667,4,2,10,70,0,0
182361,-66.6666666666667,4,2,2,70,0,0
183390,-66.6666666666667,4,2,10,70,0,0
183733,-66.6666666666667,4,2,2,70,0,0
184761,-66.6666666666667,4,2,10,70,0,0
185104,-66.6666666666667,4,2,2,70,0,0
185533,-100,4,2,1,70,0,0
186304,-200,4,2,0,70,0,0
186647,-100,4,2,1,70,0,0
188704,-66.6666666666667,4,2,6,45,0,0
188789,-66.6666666666667,4,2,6,50,0,0
188875,-66.6666666666667,4,2,6,60,0,0
189047,-100,4,2,6,70,0,0
189304,-100,4,2,1,70,0,0
190933,-50,4,2,0,70,0,0
191104,-66.6666666666667,4,2,1,70,0,0
192133,-66.6666666666667,4,2,2,70,0,0
192990,-66.6666666666667,4,2,10,70,0,0
193333,-66.6666666666667,4,2,2,70,0,0
194361,-66.6666666666667,4,2,10,70,0,0
194704,-66.6666666666667,4,2,2,70,0,0
195733,-66.6666666666667,4,2,10,70,0,0
196076,-66.6666666666667,4,2,2,70,0,0
197275,-200,4,2,0,70,0,0
197533,-200,4,2,0,5,0,0
197618,-200,4,2,0,70,0,0
208590,-192.307692307692,4,2,0,70,0,0
212704,-200,4,2,0,70,0,0
219561,-100,4,2,0,50,0,0
227790,-100,4,2,0,60,0,0
229161,-100,4,2,0,70,0,0
230533,-66.6666666666667,4,1,1,70,0,0
236018,-100,4,2,1,70,0,0
238761,-66.6666666666667,4,2,1,55,0,0
240133,-100,4,2,0,70,0,0
241161,-333.333333333333,4,2,0,70,0,0
241418,-333.333333333333,4,2,0,5,0,0
241504,-76.9230769230769,4,2,2,80,0,1
262075,-133.333333333333,4,2,0,70,0,0
263361,-90.9090909090909,4,2,2,5,0,0
263447,-76.9230769230769,4,2,2,70,0,1
279904,-76.9230769230769,4,1,11,70,0,1
284018,-100,4,2,0,70,0,0
285047,-200,4,2,0,70,0,0
285304,-200,4,2,0,5,0,0
285390,-90.9090909090909,4,2,2,70,0,0
295675,-66.6666666666667,4,2,0,70,0,0
296361,-90.9090909090909,4,2,2,70,0,0
301161,-66.6666666666667,4,2,0,70,0,0
301847,-66.6666666666667,4,1,11,70,0,0
304590,-100,4,1,11,70,0,0
307333,-100,4,2,0,20,0,0

[Colours]
Combo1 : 90,128,255
Combo2 : 190,45,212
Combo3 : 220,10,100
Combo4 : 0,119,119

[HitObjects]
139,75,133,5,0,1:0:0:0:
150,92,218,1,0,0:0:0:0:
161,110,304,2,0,L|163:152,1,42.5,2|0,0:0|0:0,0:0:0:0:
53,278,475,2,0,L|52:235,1,42.5,0|0,1:0|0:0,0:0:0:0:
173,127,647,2,0,L|175:169,1,42.5,2|0,0:0|0:0,0:0:0:0:
251,242,818,5,0,1:0:0:0:
262,260,904,2,0,L|212:266,1,42.5,0|2,0:0|0:0,0:0:0:0:
161,325,1075,5,0,0:0:0:0:
143,337,1161,2,0,B|144:304|144:304|136:275|136:275|137:252,1,85,0|2,1:0|0:0,0:0:0:0:
267,141,1504,5,0,1:0:0:0:
286,137,1590,1,0,0:0:0:0:
306,133,1675,2,0,L|345:146,1,42.5,2|0,0:0|0:0,0:0:0:0:
434,242,1847,2,0,L|395:228,1,42.5,0|0,1:0|0:0,0:0:0:0:
312,221,2018,1,2,0:0:0:0:
308,243,2104,1,0,0:0:0:0:
304,265,2190,6,0,L|208:224,1,85,0|2,1:0|0:0,0:0:0:0:
99,133,2447,1,0,0:0:0:0:
120,130,2533,2,0,L|171:160,1,42.5,0|0,1:0|0:0,0:0:0:0:
136,245,2704,1,2,0:0:0:0:
207,47,2875,5,0,1:0:0:0:
215,67,2961,1,0,0:0:0:0:
223,86,3047,2,0,L|255:58,1,42.5,2|0,0:0|0:0,0:0:0:0:
257,203,3218,2,0,L|225:231,1,42.5,0|0,1:0|0:0,0:0:0:0:
233,107,3390,2,0,L|265:80,1,42.5,2|0,0:0|0:0,0:0:0:0:
364,68,3561,5,0,1:0:0:0:
380,81,3647,2,0,L|348:108,1,42.5,0|2,0:0|0:0,0:0:0:0:
362,202,3818,5,0,0:0:0:0:
372,220,3904,2,0,B|401:200|401:200|411:180|411:180|436:160,1,85,0|2,1:0|0:0,0:0:0:0:
257,203,4247,5,0,1:0:0:0:
246,221,4333,1,0,0:0:0:0:
236,240,4418,2,0,L|183:226,1,42.5,2|0,0:0|0:0,0:0:0:0:
124,124,4590,2,0,L|177:138,1,42.5,0|0,1:0|0:0,0:0:0:0:
99,217,4761,1,2,0:0:0:0:
84,233,4847,1,0,0:0:0:0:
68,247,4933,5,0,1:0:0:0:
48,283,5018,1,0,0:0:0:0:
59,323,5104,1,2,0:0:0:0:
95,344,5190,1,0,0:0:0:0:
136,334,5275,2,0,L|156:266,1,42.5,0|0,1:0|0:0,0:0:0:0:
99,217,5447,2,0,L|87:176,1,42.5,2|0,0:0|0:0,0:0:0:0:
246,221,5618,5,0,1:0:0:0:
267,224,5704,1,0,0:0:0:0:
286,228,5790,2,0,L|312:194,1,42.5,2|0,0:0|0:0,0:0:0:0:
280,91,5961,2,0,L|254:125,1,42.5,0|0,1:0|0:0,0:0:0:0:
307,229,6133,2,0,L|333:195,1,42.5,2|0,0:0|0:0,0:0:0:0:
394,111,6304,5,0,1:0:0:0:
391,90,6390,2,0,L|365:56,1,42.5,0|2,0:0|0:0,0:0:0:0:
433,181,6561,5,0,0:0:0:0:
438,201,6647,2,0,B|416:219|416:219|410:246|410:246|379:279,1,85,0|2,1:0|0:0,0:0:0:0:
133,213,6990,5,0,1:0:0:0:
134,234,7075,1,0,0:0:0:0:
135,255,7161,2,0,L|176:266,1,42.5,2|0,0:0|0:0,0:0:0:0:
161,375,7333,2,0,L|120:364,1,42.5,0|0,1:0|0:0,0:0:0:0:
49,269,7504,1,2,0:0:0:0:
51,248,7590,1,0,0:0:0:0:
54,227,7675,6,0,L|142:257,1,85,0|2,1:0|0:0,0:0:0:0:
264,297,7933,1,0,0:0:0:0:
248,311,8018,2,0,L|207:300,1,42.5,0|0,1:0|0:0,0:0:0:0:
215,202,8190,1,2,0:0:0:0:
388,352,8361,5,0,1:0:0:0:
374,335,8447,1,0,0:0:0:0:
361,320,8533,2,0,L|355:277,1,42.5,2|0,0:0|0:0,0:0:0:0:
428,171,8704,2,0,L|434:214,1,42.5,0|0,1:0|0:0,0:0:0:0:
343,305,8875,2,0,L|337:262,1,42.5,2|0,0:0|0:0,0:0:0:0:
327,167,9047,5,0,1:0:0:0:
339,149,9133,2,0,L|325:80,1,42.5,0|2,0:0|0:0,0:0:0:0:
238,111,9304,5,0,0:0:0:0:
225,94,9390,2,0,B|235:65|235:65|226:37|226:37|239:-3,1,85,0|2,1:0|0:0,0:0:0:0:
258,205,9733,6,0,L|237:279,1,42.5
167,359,9904,1,2,0:0:0:0:
137,360,9990,1,0,0:0:0:0:
107,358,10075,2,0,L|72:331,1,42.5,0|0,3:0|0:0,0:0:0:0:
0,215,10247,2,0,L|35:188,1,42.5,0|0,3:0|0:0,0:0:0:0:
210,129,10418,6,0,L|202:65,1,63.7500024318696,0|0,1:0|0:0,0:0:0:0:
63,0,10590,2,0,L|56:63,1,63.7500024318696,0|0,1:0|0:0,0:0:0:0:
327,164,10762,1,0,1:0:0:0:
301,214,10847,1,0,1:0:0:0:
252,245,10933,1,0,1:0:0:0:
194,250,11019,1,0,1:0:0:0:
138,235,11104,6,0,P|96:192|85:136,1,93.5000028533936,12|0,1:0|0:0,0:0:0:0:
131,56,11361,1,8,0:0:0:0:
141,96,11447,1,8,1:0:0:0:
0,225,11618,1,8,0:0:0:0:
216,116,11790,1,0,1:0:0:0:
256,106,11875,2,0,P|224:144|163:174,1,93.5000028533936,8|0,0:0|0:0,0:0:0:0:
86,161,12133,1,0,1:0:0:0:
218,11,12304,1,8,0:0:0:0:
306,208,12475,6,0,B|334:238|334:238|353:323,1,93.5000028533936,0|0,1:0|0:0,0:0:0:0:
282,374,12733,1,8,0:0:0:0:
272,334,12819,1,8,1:0:0:0:
426,318,12990,1,8,0:0:0:0:
192,203,13161,1,0,1:0:0:0:
199,161,13247,2,0,L|219:57,1,93.5000028533936,8|0,0:0|0:0,0:0:0:0:
308,11,13504,1,0,1:0:0:0:
114,31,13675,1,8,0:0:0:0:
306,208,13847,6,0,P|340:210|402:176,1,93.5000028533936,4|0,1:0|0:0,0:0:0:0:
416,88,14104,1,8,0:0:0:0:
376,98,14190,1,8,1:0:0:0:
230,261,14361,1,8,0:0:0:0:
277,104,14533,1,8,1:0:0:0:
284,62,14618,2,0,P|266:90|263:161,1,93.5000028533936,8|0,0:0|0:0,0:0:0:0:
392,185,14875,1,0,1:0:0:0:
230,261,15047,1,0,1:0:0:0:
180,249,15133,1,2,0:0:0:0:
139,238,15219,5,2,1:0:0:0:
313,218,15390,2,0,L|328:288,1,46.7500014266968,2|8,0:0|0:0,0:0:0:0:
339,366,15561,1,0,1:0:0:0:
167,339,15733,1,8,0:0:0:0:
242,161,15904,1,0,1:0:0:0:
204,151,15990,1,8,0:0:0:0:
167,142,16075,1,2,0:0:0:0:
130,133,16161,1,0,0:0:0:0:
92,125,16247,2,0,L|107:48,1,46.7500014266968,4|2,1:0|0:0,0:0:0:0:
237,15,16418,2,0,L|221:91,1,46.7500014266968,0|2,1:0|0:0,0:0:0:0:
202,270,16590,5,4,1:0:0:0:
92,125,16761,1,0,1:0:0:0:
237,15,16933,1,2,1:0:0:0:
347,160,17104,1,0,1:0:0:0:
105,228,17275,5,0,1:0:0:0:
237,15,17447,1,0,1:0:0:0:
305,257,17618,1,2,1:0:0:0:
134,28,17790,1,0,1:0:0:0:
202,270,17961,5,4,1:0:0:0:
334,57,18133,1,0,1:0:0:0:
466,270,18304,1,2,1:0:0:0:
202,270,18475,1,0,1:0:0:0:
489,154,18647,5,0,1:0:0:0:
179,154,18818,1,0,1:0:0:0:
337,382,18990,1,2,1:0:0:0:
334,57,19161,1,0,1:0:0:0:
209,303,19333,5,4,1:0:0:0:
164,285,19418,1,0,1:0:0:0:
138,240,19504,1,0,1:0:0:0:
147,191,19590,1,0,1:0:0:0:
179,154,19675,1,0,1:0:0:0:
214,118,19761,1,0,1:0:0:0:
221,68,19847,1,0,1:0:0:0:
195,24,19933,1,0,1:0:0:0:
144,19,20018,5,4,1:0:0:0:
103,50,20103,1,0,1:0:0:0:
98,101,20189,1,0,1:0:0:0:
129,141,20275,1,0,1:0:0:0:
179,154,20361,1,0,0:0:0:0:
211,193,20447,1,0,1:0:0:0:
256,192,20533,12,0,21990,0:0:0:0:
149,215,22075,5,4,1:0:0:0:
149,215,22161,1,0,0:0:0:0:
149,215,22247,1,2,0:0:0:0:
319,273,22418,2,0,L|435:292,1,101.999996887207,8|2,0:0|0:0,0:0:0:0:
423,293,22675,1,0,0:0:0:0:
426,296,22761,1,0,1:0:0:0:
205,329,22933,1,2,0:0:0:0:
263,159,23104,2,0,L|282:43,1,101.999996887207,8|2,0:0|0:0,0:0:0:0:
319,273,23447,5,0,1:0:0:0:
319,273,23533,1,0,0:0:0:0:
319,273,23618,1,2,0:0:0:0:
160,216,23790,2,0,L|44:197,1,101.999996887207,8|2,0:0|0:0,0:0:0:0:
205,329,24133,5,0,1:0:0:0:
263,159,24304,1,2,0:0:0:0:
203,365,24475,5,8,0:0:0:0:
264,122,24646,1,2,0:0:0:0:
319,273,24818,5,0,1:0:0:0:
319,273,24904,1,0,0:0:0:0:
319,273,24990,1,2,0:0:0:0:
264,122,25161,2,0,L|245:6,1,101.999996887207,8|2,0:0|0:0,0:0:0:0:
248,16,25418,1,0,0:0:0:0:
249,11,25504,1,0,1:0:0:0:
204,260,25675,1,2,0:0:0:0:
379,135,25847,2,0,L|398:19,1,101.999996887207,8|2,0:0|0:0,0:0:0:0:
438,250,26190,5,0,1:0:0:0:
438,250,26275,1,0,0:0:0:0:
438,250,26361,1,2,0:0:0:0:
256,191,26533,2,0,L|147:168,1,101.999996887207,8|2,0:0|0:0,0:0:0:0:
379,135,26875,5,0,1:0:0:0:
320,304,27047,1,2,0:0:0:0:
347,112,27218,5,8,0:0:0:0:
359,72,27304,1,0,0:0:0:0:
400,72,27390,1,2,0:0:0:0:
413,111,27475,1,0,0:0:0:0:
379,135,27561,5,0,1:0:0:0:
374,138,27647,1,0,0:0:0:0:
369,140,27733,1,2,0:0:0:0:
202,174,27904,2,0,L|92:215,1,101.999996887207,8|2,0:0|0:0,0:0:0:0:
103,214,28161,1,0,0:0:0:0:
100,218,28247,1,0,1:0:0:0:
273,69,28419,1,2,0:0:0:0:
308,245,28590,2,0,L|349:354,1,101.999996887207,8|2,0:0|0:0,0:0:0:0:
202,174,28933,5,0,1:0:0:0:
202,174,29019,1,0,0:0:0:0:
202,174,29104,1,2,0:0:0:0:
368,144,29275,2,0,L|477:102,1,101.999996887207,8|2,0:0|0:0,0:0:0:0:
273,69,29619,5,0,1:0:0:0:
308,245,29790,1,2,0:0:0:0:
257,37,29961,5,8,0:0:0:0:
325,278,30133,1,2,0:0:0:0:
202,174,30304,5,0,1:0:0:0:
202,174,30390,1,0,0:0:0:0:
202,174,30475,1,2,0:0:0:0:
131,281,30647,2,0,P|87:248|63:198,1,110.499994941712,8|2,0:0|0:0,0:0:0:0:
135,73,30990,2,0,P|179:106|204:167,1,110.499994941712,0|2,1:0|0:0,0:0:0:0:
332,368,31333,2,0,P|288:335|263:274,1,110.499994941712,8|2,0:0|0:0,0:0:0:0:
362,105,31675,6,0,P|406:138|433:204,1,118.999996368408,0|2,1:0|0:0,0:0:0:0:
140,140,32018,2,0,P|96:107|69:41,1,118.999996368408,8|2,0:0|0:0,0:0:0:0:
152,315,32361,1,0,1:0:0:0:
355,226,32533,1,0,1:0:0:0:
261,64,32704,1,0,1:0:0:0:
215,52,32789,1,0,1:0:0:0:
168,60,32875,1,0,1:0:0:0:
129,87,32961,1,0,1:0:0:0:
104,127,33047,5,4,1:0:0:0:
90,364,33218,1,2,0:0:0:0:
168,60,33391,5,8,0:0:0:0:
33,282,33561,1,2,0:0:0:0:
77,38,33733,5,0,1:0:0:0:
131,274,33905,1,2,0:0:0:0:
258,84,34075,5,8,0:0:0:0:
75,193,34247,1,2,0:0:0:0:
348,108,34418,5,0,1:0:0:0:
168,60,34590,1,2,0:0:0:0:
324,19,34761,5,8,0:0:0:0:
193,150,34933,1,2,0:0:0:0:
282,173,35104,5,0,1:0:0:0:
258,84,35275,1,2,0:0:0:0:
370,209,35447,2,0,P|369:139|339:101,1,110.499994941712,8|2,0:0|0:0,0:0:0:0:
151,232,35790,5,0,1:0:0:0:
352,346,35962,1,2,0:0:0:0:
83,383,36133,5,8,0:0:0:0:
373,243,36305,1,2,0:0:0:0:
29,212,36475,5,0,1:0:0:0:
268,265,36647,1,2,0:0:0:0:
0,320,36819,5,8,0:0:0:0:
163,287,36991,1,2,0:0:0:0:
52,90,37161,5,0,1:0:0:0:
29,212,37333,1,2,0:0:0:0:
179,183,37505,5,8,0:0:0:0:
163,287,37675,1,2,0:0:0:0:
83,7,37847,5,0,1:0:0:0:
296,261,38019,1,0,1:0:0:0:
269,37,38190,1,0,1:0:0:0:
213,43,38275,1,0,1:0:0:0:
168,74,38361,1,0,1:0:0:0:
133,117,38447,1,0,1:0:0:0:
123,171,38533,5,4,1:0:0:0:
260,383,38704,1,0,1:0:0:0:
215,131,38875,5,0,1:0:0:0:
352,343,39047,1,0,1:0:0:0:
286,76,39218,5,0,1:0:0:0:
423,288,39390,1,0,1:0:0:0:
359,35,39561,5,0,1:0:0:0:
497,247,39733,1,0,1:0:0:0:
215,131,39904,5,4,1:0:0:0:
494,99,40075,1,0,1:0:0:0:
218,279,40247,5,0,1:0:0:0:
497,247,40418,1,0,1:0:0:0:
261,28,40590,5,4,1:0:0:0:
320,325,40761,1,0,1:0:0:0:
369,16,40933,5,0,1:0:0:0:
428,313,41104,1,0,1:0:0:0:
306,189,41275,5,4,1:0:0:0:
283,139,41361,1,0,1:0:0:0:
236,113,41447,1,0,1:0:0:0:
182,124,41532,1,0,1:0:0:0:
143,166,41618,1,2,1:0:0:0:
90,172,41704,1,0,1:0:0:0:
44,141,41790,1,0,1:0:0:0:
26,90,41875,1,0,1:0:0:0:
19,35,41961,5,4,1:0:0:0:
0,86,42046,1,0,1:0:0:0:
18,140,42132,1,0,1:0:0:0:
60,173,42218,1,0,1:0:0:0:
116,167,42304,1,2,1:0:0:0:
164,195,42389,1,0,1:0:0:0:
179,245,42475,1,0,1:0:0:0:
165,298,42561,1,0,1:0:0:0:
122,331,42647,5,8,0:0:0:0:
249,289,42818,1,0,0:0:0:0:
237,161,42990,1,0,0:0:0:0:
95,248,43161,1,0,0:0:0:0:
98,192,43247,1,0,0:0:0:0:
101,136,43333,1,0,0:0:0:0:
237,161,43504,1,0,0:0:0:0:
459,117,43675,6,0,L|522:106,1,63.75,4|0,0:0|2:0,0:0:0:0:
369,74,44018,5,0,0:0:0:0:
381,158,44190,1,0,0:0:0:0:
293,285,44361,1,0,0:0:0:0:
281,77,44533,2,0,P|298:139|304:202,1,127.500004863739,2|0,0:0|0:0,0:0:0:0:
213,309,45047,1,0,0:0:0:0:
381,158,45218,2,0,P|392:222|416:286,1,127.500004863739,2|0,0:0|0:0,0:0:0:0:
315,286,45733,5,0,0:0:0:0:
254,212,45904,1,0,0:0:0:0:
381,158,46075,1,0,0:0:0:0:
408,296,46247,1,0,0:0:0:0:
296,125,46418,2,0,L|307:25,1,95.6250036478044,2|0,0:0|0:0,0:0:0:0:
316,19,46761,5,0,0:0:0:0:
204,51,46933,1,0,0:0:0:0:
320,210,47104,1,0,0:0:0:0:
130,116,47275,2,0,P|66:105|7:84,1,127.500004863739,2|0,0:0|0:0,0:0:0:0:
211,176,47790,1,0,0:0:0:0:
4,308,47961,2,0,P|21:247|27:184,1,127.500004863739,2|0,0:0|0:0,0:0:0:0:
119,339,48475,5,2,0:0:0:0:
116,132,48647,1,2,0:0:0:0:
305,241,48818,1,2,0:0:0:0:
325,249,48904,1,0,0:0:0:0:
345,257,48990,1,2,0:0:0:0:
365,265,49075,1,0,0:0:0:0:
385,274,49161,2,0,L|390:318,1,31.8750012159348,2|0,0:0|0:0,0:0:0:0:
312,126,49333,2,0,L|307:82,1,31.8750012159348,2|0,0:0|0:0,0:0:0:0:
451,211,49504,6,0,P|411:187|362:186,1,85,2|0,0:0|0:0,0:0:0:0:
227,188,49847,2,0,P|259:191|289:201,1,63.7500024318696,2|0,0:0|0:0,0:0:0:0:
385,274,50190,2,0,L|402:344,2,63.7500024318696,2|0|0,0:0|0:0|0:0,0:0:0:0:
451,161,50704,6,0,P|411:185|348:180,1,85,2|0,0:0|0:0,0:0:0:0:
300,133,51047,1,0,0:0:0:0:
390,34,51218,2,0,L|385:98,1,63.7500024318696,2|0,0:0|0:0,0:0:0:0:
290,224,51561,1,2,0:0:0:0:
305,69,51733,2,0,L|300:133,1,63.7500024318696
53,259,52075,6,0,P|93:235|156:240,1,85,2|0,0:0|0:0,0:0:0:0:
223,259,52418,1,0,0:0:0:0:
113,384,52590,2,0,L|118:320,1,63.7500024318696,2|0,0:0|0:0,0:0:0:0:
202,164,52933,1,2,0:0:0:0:
217,322,53104,2,0,L|222:258,1,63.7500024318696
143,5,53447,6,0,P|134:50|160:108,1,85,2|0,0:0|0:0,0:0:0:0:
202,164,53790,1,0,0:0:0:0:
284,29,53962,2,0,L|222:44,1,63.7500024318696,2|0,0:0|0:0,0:0:0:0:
104,177,54304,2,0,L|41:162,2,63.7500024318696,2|0|0,0:0|0:0|0:0,0:0:0:0:
373,140,54990,5,2,0:0:0:0:
396,238,55162,1,0,0:0:0:0:
281,101,55333,1,0,0:0:0:0:
466,113,55504,2,0,P|477:151|481:190,1,72.2500013780594,2|0,0:0|0:0,0:0:0:0:
292,214,55847,5,0,0:0:0:0:
377,34,56018,1,0,0:0:0:0:
396,238,56190,2,0,P|388:276|388:318,1,72.2500013780594,2|0,0:0|0:0,0:0:0:0:
223,172,56533,5,0,0:0:0:0:
105,131,56704,1,0,0:0:0:0:
157,251,56875,1,0,0:0:0:0:
174,46,57047,5,2,0:0:0:0:
293,230,57218,1,2,0:0:0:0:
105,131,57390,2,2,P|81:106|69:48,1,72.2500013780594,2|0,0:0|0:0,0:0:0:0:
235,300,57733,5,0,0:0:0:0:
339,145,57904,1,0,0:0:0:0:
182,167,58075,1,0,0:0:0:0:
319,363,58247,2,2,P|337:327|342:293,1,72.2500013780594,2|0,0:0|0:0,0:0:0:0:
253,102,58590,5,0,0:0:0:0:
444,158,58761,1,0,0:0:0:0:
273,211,58933,2,2,P|237:212|204:201,1,72.2500013780594,2|0,0:0|0:0,0:0:0:0:
361,257,59275,5,2,0:0:0:0:
496,95,59447,1,2,0:0:0:0:
339,145,59618,1,2,0:0:0:0:
449,349,59790,5,2,0:0:0:0:
256,226,59961,1,2,0:0:0:0:
246,198,60047,1,0,0:0:0:0:
236,170,60133,2,0,L|243:113,1,36.1250006890297,2|0,0:0|0:0,0:0:0:0:
361,257,60304,2,0,L|354:314,1,36.1250006890297,2|0,0:0|0:0,0:0:0:0:
192,335,60475,6,0,P|178:272|161:244,1,93.5000028533936,2|0,0:0|0:0,0:0:0:0:
7,360,60818,2,0,L|70:324,1,72.2500013780594,2|0,0:0|0:0,0:0:0:0:
80,231,61075,1,0,0:0:0:0:
86,202,61161,1,2,0:0:0:0:
138,34,61333,2,0,L|152:115,1,72.2500013780594
306,62,61675,6,0,P|309:104|333:153,1,93.5000028533936,2|0,0:0|0:0,0:0:0:0:
502,94,62018,1,0,0:0:0:0:
498,69,62104,1,0,0:0:0:0:
494,45,62190,2,0,L|428:73,1,72.2500013780594,2|0,0:0|0:0,0:0:0:0:
416,163,62447,1,0,0:0:0:0:
411,187,62533,1,2,0:0:0:0:
346,334,62704,2,0,L|337:262,1,72.2500013780594
206,62,63047,6,0,P|200:109|175:156,1,93.5000028533936,2|0,0:0|0:0,0:0:0:0:
21,192,63390,2,0,L|8:136,1,36.1250006890297
18,45,63562,2,0,L|84:73,1,72.2500013780594,2|0,0:0|0:0,0:0:0:0:
111,149,63819,1,0,0:0:0:0:
106,173,63905,1,2,0:0:0:0:
156,345,64075,2,0,L|172:275,1,72.2500013780594
306,62,64418,6,0,P|310:104|336:153,1,93.5000028533936,2|0,0:0|0:0,0:0:0:0:
504,184,64761,2,0,L|517:128,1,36.1250006890297
494,45,64933,2,0,L|428:73,1,72.2500013780594,2|0,0:0|0:0,0:0:0:0:
414,157,65190,1,0,0:0:0:0:
419,181,65276,1,2,0:0:0:0:
384,356,65447,2,0,B|357:321|350:270|350:270|314:346|243:346,1,233.750007133484
128,233,65961,6,0,L|145:323,1,85,6|0,0:0|0:0,0:0:0:0:
209,140,66304,1,0,0:0:0:0:
41,288,66475,2,0,L|24:378,1,85,2|0,0:0|0:0,0:0:0:0:
143,316,66818,1,0,0:0:0:0:
115,131,66990,1,0,0:0:0:0:
246,286,67161,2,0,L|263:376,1,85,2|0,0:0|0:0,0:0:0:0:
335,315,67418,1,0,0:0:0:0:
335,315,67504,5,0,0:0:0:0:
261,186,67675,1,2,0:0:0:0:
405,237,67847,1,0,0:0:0:0:
331,108,68018,1,2,0:0:0:0:
475,159,68190,1,0,0:0:0:0:
261,186,68361,2,0,L|164:169,1,85,2|0,0:0|0:0,0:0:0:0:
347,31,68704,5,0,0:0:0:0:
321,243,68875,1,0,0:0:0:0:
463,78,69047,1,0,0:0:0:0:
439,295,69218,2,0,L|422:385,1,85,2|0,0:0|0:0,0:0:0:0:
221,221,69561,5,0,0:0:0:0:
141,117,69733,1,0,0:0:0:0:
350,122,69904,2,0,L|441:139,1,85,2|0,0:0|0:0,0:0:0:0:
244,80,70247,5,2,0:0:0:0:
99,226,70418,1,2,0:0:0:0:
145,19,70590,1,2,0:0:0:0:
199,290,70761,5,2,0:0:0:0:
45,126,70933,1,2,0:0:0:0:
37,101,71018,1,0,0:0:0:0:
28,76,71104,2,0,L|11:23,1,42.5,2|0,0:0|0:0,0:0:0:0:
228,119,71275,2,0,L|252:57,1,42.5,2|0,0:0|0:0,0:0:0:0:
414,146,71447,6,0,P|400:202|418:262,1,110.499994941712,2|0,0:0|0:0,0:0:0:0:
296,318,71790,2,0,P|310:260|292:202,1,110.499994941712,2|0,0:0|0:0,0:0:0:0:
195,228,72047,1,0,0:0:0:0:
205,262,72133,2,0,L|183:362,2,93.5000028533936,2|0|0,0:0|0:0|0:0,0:0:0:0:
101,66,72647,5,0,0:0:0:0:
124,89,72733,1,0,0:0:0:0:
148,110,72818,2,0,P|205:118|262:93,1,110.499994941712,2|0,0:0|0:0,0:0:0:0:
344,198,73161,2,0,P|288:193|230:222,1,110.499994941712,2|0,0:0|0:0,0:0:0:0:
272,313,73418,1,0,0:0:0:0:
304,297,73504,2,0,L|397:308,1,93.5000028533936,2|0,0:0|0:0,0:0:0:0:
445,220,73761,1,0,0:0:0:0:
477,236,73847,1,0,0:0:0:0:
394,2,74018,5,0,0:0:0:0:
371,25,74104,1,0,0:0:0:0:
350,49,74189,2,0,P|342:106|367:163,1,110.499994941712,2|0,0:0|0:0,0:0:0:0:
262,245,74532,2,0,P|267:189|238:131,1,110.499994941712,2|0,0:0|0:0,0:0:0:0:
147,173,74789,1,0,0:0:0:0:
163,205,74875,2,0,L|145:298,1,93.5000028533936,2|0,0:0|0:0,0:0:0:0:
234,338,75132,1,0,0:0:0:0:
247,367,75218,1,0,0:0:0:0:
414,279,75390,5,0,0:0:0:0:
391,256,75476,1,0,0:0:0:0:
367,234,75561,2,0,P|310:225|253:250,1,110.499994941712,2|0,0:0|0:0,0:0:0:0:
171,146,75904,2,0,P|227:151|285:122,1,110.499994941712,2|0,0:0|0:0,0:0:0:0:
243,31,76161,1,0,0:0:0:0:
211,47,76247,2,0,L|117:36,1,93.5000028533936,2|0,0:0|0:0,0:0:0:0:
64,131,76504,1,0,0:0:0:0:
32,121,76590,2,0,L|73:297,1,165.749992412568
273,245,76933,6,0,P|225:233|156:229,1,101.999996887207,6|0,0:0|0:0,0:0:0:0:
297,332,77190,1,8,0:0:0:0:
297,332,77275,1,8,0:0:0:0:
424,130,77447,2,0,P|374:135|308:154,1,101.999996887207,10|0,0:0|0:0,0:0:0:0:
443,216,77704,1,8,0:0:0:0:
443,216,77790,1,8,0:0:0:0:
474,52,77961,1,8,0:0:0:0:
172,228,78133,6,0,P|220:240|289:244,1,101.999996887207,10|8,0:0|0:0,0:0:0:0:
443,216,78475,1,2,0:0:0:0:
410,249,78561,1,8,0:0:0:0:
383,286,78647,1,8,0:0:0:0:
368,64,78818,1,8,0:0:0:0:
106,186,78990,6,0,P|132:189|169:190,1,50.9999984436036,0|8,0:0|0:0,0:0:0:0:
296,188,79161,1,0,0:0:0:0:
95,174,79333,1,0,0:0:0:0:
162,339,79504,1,8,0:0:0:0:
213,107,79675,6,0,P|222:57|241:9,1,101.999996887207,6|0,0:0|0:0,0:0:0:0:
322,109,79932,1,8,0:0:0:0:
322,109,80018,1,8,0:0:0:0:
259,303,80190,2,0,P|250:252|251:201,1,101.999996887207,10|0,0:0|0:0,0:0:0:0:
351,273,80447,1,8,0:0:0:0:
351,273,80533,1,8,0:0:0:0:
423,149,80704,1,0,0:0:0:0:
152,191,80875,6,0,P|101:189|50:198,1,101.999996887207,10|8,0:0|0:0,0:0:0:0:
126,367,81218,1,2,0:0:0:0:
100,328,81304,1,8,0:0:0:0:
80,285,81390,1,8,0:0:0:0:
259,303,81561,1,8,0:0:0:0:
157,54,81733,6,0,P|152:90|156:128,1,50.9999984436036,2|8,0:0|0:0,0:0:0:0:
239,198,81904,2,0,P|243:161|240:124,1,50.9999984436036,2|0,0:0|0:0,0:0:0:0:
93,51,82075,6,2,P|129:55|167:51,1,63.7500024318696
302,200,82247,2,2,P|265:195|228:200,1,63.7500024318696,10|2,0:0|0:0,0:0:0:0:
83,228,82418,5,14,0:0:0:0:
226,83,82590,1,8,0:1:0:0:
279,280,82761,1,8,0:0:0:0:
236,69,82933,1,8,0:1:0:0:
96,217,83104,1,8,0:0:0:0:
246,56,83275,1,8,0:1:0:0:
278,262,83447,1,8,0:0:0:0:
256,42,83618,1,8,0:1:0:0:
191,313,83790,5,14,0:0:0:0:
127,72,83961,1,8,0:1:0:0:
69,280,84133,1,8,0:0:0:0:
247,104,84304,1,8,0:1:0:0:
441,297,84475,5,14,0:0:0:0:
247,104,84646,1,8,0:1:0:0:
474,166,84818,1,8,0:0:0:0:
211,236,84989,1,8,0:1:0:0:
370,80,85161,5,6,0:0:0:0:
413,66,85247,1,0,0:0:0:0:
454,83,85332,1,0,0:0:0:0:
479,121,85418,1,0,0:0:0:0:
474,166,85504,1,0,0:0:0:0:
446,201,85590,1,0,0:0:0:0:
444,245,85675,2,0,P|467:287|498:299,1,63.7500024318696
411,139,85847,5,12,0:0:0:0:
354,149,85933,1,0,0:0:0:0:
298,159,86018,2,0,L|371:188,1,63.7500024318696
298,285,86190,5,8,0:0:0:0:
241,275,86276,1,0,0:0:0:0:
185,265,86361,2,0,L|258:236,1,63.7500024318696
298,159,86533,6,0,L|305:86,1,68
321,188,86875,2,0,L|328:115,1,68
263,28,87218,1,0,0:0:0:0:
276,3,87390,1,0,0:0:0:0:
416,55,87561,2,0,P|480:82|425:125,1,165.749992412568
428,241,87904,6,0,B|441:216|462:206|462:206|405:191|356:229|356:229|347:264|363:290|388:320|431:318,1,297.5,4|0,1:0|0:0,0:0:0:0:
272,299,88590,6,0,P|287:332|313:362,1,68,8|0,0:0|0:0,0:0:0:0:
511,287,88761,1,2,0:0:0:0:
378,124,88933,2,0,P|341:135|310:158,1,68
272,299,89104,2,0,L|119:332,1,127.5,0|0,1:0|0:0,0:0:0:0:
176,211,89447,2,2,L|236:196,1,42.5,2|0,0:0|0:0,0:0:0:0:
378,124,89618,5,0,0:0:0:0:
394,172,89704,1,0,0:0:0:0:
411,220,89790,1,2,0:0:0:0:
428,267,89875,1,0,0:0:0:0:
435,350,89961,6,0,L|336:324,1,76.4999976654053,8|0,0:0|0:0,0:0:0:0:
272,299,90133,1,2,0:0:0:0:
252,252,90218,1,0,0:0:0:0:
231,204,90304,2,0,L|329:178,1,76.4999976654053,2|0,0:0|0:0,0:0:0:0:
127,339,90475,2,0,L|225:364,1,76.4999976654053
40,223,90647,5,0,1:0:0:0:
255,76,90818,2,0,P|292:59|353:50,1,76.4999976654053,2|0,3:0|0:0,0:0:0:0:
116,49,90990,2,0,P|90:20|58:0,1,76.4999976654053,0|0,3:0|0:0,0:0:0:0:
161,162,91161,2,0,P|149:198|146:236,1,76.4999976654053,2|0,3:0|0:0,0:0:0:0:
198,7,91333,5,8,0:0:0:0:
249,170,91504,2,0,L|261:218,2,50.9999984436036,2|0|0,0:0|0:0|0:0,0:0:0:0:
291,294,91675,2,0,L|242:306,1,50.9999984436036,2|0,0:0|0:0,0:0:0:0:
286,318,91790,2,0,L|237:330,1,50.9999984436036,2|0,0:0|1:0,0:0:0:0:
280,341,91904,2,0,L|231:353,2,50.9999984436036,2|0|0,0:0|0:0|0:0,0:0:0:0:
157,137,92190,6,0,P|181:96|232:71,1,85,8|0,0:0|0:0,0:0:0:0:
175,234,92361,2,0,P|152:258|115:289,2,73.6666632944744,0|0|0,3:0|0:0|0:0,0:0:0:0:
249,170,92704,1,0,0:0:0:0:
114,55,92875,5,2,0:0:0:0:
79,46,92961,1,0,0:0:0:0:
37,114,93047,5,0,0:0:0:0:
72,123,93133,1,0,0:0:0:0:
157,137,93218,6,0,L|217:120,1,42.5,2|0,0:0|0:0,0:0:0:0:
286,84,93390,6,0,B|334:61|341:20|341:20|335:151|185:123,1,297.5,0|0,1:0|0:0,0:0:0:0:
259,0,94075,5,8,0:0:0:0:
163,206,94247,1,2,0:0:0:0:
129,180,94332,1,0,0:0:0:0:
112,141,94418,1,0,0:0:0:0:
114,99,94504,1,0,0:0:0:0:
197,125,94590,6,0,P|233:154|200:285,1,191.250007295609,0|0,1:0|0:0,0:0:0:0:
131,349,94933,6,0,L|114:287,1,63.7500024318696,2|0,0:0|0:0,0:0:0:0:
276,149,95104,2,0,L|292:210,1,63.7500024318696,0|0,1:0|0:0,0:0:0:0:
101,372,95275,2,0,L|84:310,1,63.7500024318696
306,126,95447,5,8,0:0:0:0:
336,102,95533,1,0,0:0:0:0:
366,78,95618,2,0,P|399:60|451:62,1,76.4999976654053,2|0,3:0|0:0,0:0:0:0:
220,229,95790,2,0,P|186:249|133:248,1,76.4999976654053,0|0,3:0|0:0,0:0:0:0:
402,186,95961,2,0,P|435:168|487:170,1,76.4999976654053,2|0,3:0|0:0,0:0:0:0:
159,161,96133,6,0,P|142:130|126:87,2,73.6666632944744
249,147,96475,2,0,P|286:148|329:155,2,73.6666632944744
220,229,96818,1,8,0:0:0:0:
159,36,96990,2,0,L|146:-9,3,36.8333316472372,2|0|0|0,0:0|0:0|0:0|0:0,0:0:0:0:
220,229,97333,6,0,L|210:270,1,42.5,0|0,1:0|0:0,0:0:0:0:
215,218,97504,2,0,L|186:330,1,85,0|2,1:0|0:0,0:0:0:0:
159,161,97761,6,0,P|110:200|23:189,1,152.999995330811,8|0,0:0|0:0,0:0:0:0:
220,229,98018,6,0,L|210:270,1,42.5,2|0,0:0|0:0,0:0:0:0:
77,107,98190,1,8,0:0:0:0:
113,300,98361,5,2,0:0:0:0:
105,332,98447,1,0,0:0:0:0:
23,347,98533,5,0,0:0:0:0:
31,315,98619,1,0,0:0:0:0:
60,244,98704,6,0,L|76:199,1,42.5,2|0,0:0|0:0,0:0:0:0:
164,86,98875,6,0,P|134:21|80:110,1,223.125008511544,0|0,1:0|0:0,0:0:0:0:
256,113,99561,6,0,P|267:73|249:24,1,68,8|0,0:0|0:0,0:0:0:0:
135,169,99733,1,2,0:0:0:0:
282,215,99904,2,0,P|319:197|350:157,1,68
135,169,100075,2,0,L|170:302,1,127.5,0|0,1:0|0:0,0:0:0:0:
269,355,100418,2,0,L|253:292,1,42.5,2|0,0:0|0:0,0:0:0:0:
184,155,100590,5,0,1:0:0:0:
135,169,100675,1,0,0:0:0:0:
86,184,100761,1,2,0:0:0:0:
37,200,100847,1,0,0:0:0:0:
4,280,100933,6,0,L|25:363,1,76.4999976654053,8|0,0:0|0:0,0:0:0:0:
195,350,101104,1,2,0:0:0:0:
181,301,101189,1,0,0:0:0:0:
164,253,101275,2,0,L|91:277,1,76.4999976654053
289,292,101447,2,0,L|362:314,1,76.4999976654053,2|0,0:0|0:0,0:0:0:0:
261,169,101618,5,0,1:0:0:0:
398,231,101790,2,0,P|437:234|471:252,1,76.4999976654053,2|0,3:0|0:0,0:0:0:0:
164,253,101961,2,0,P|125:250|91:232,1,76.4999976654053,0|0,3:0|0:0,0:0:0:0:
255,53,102133,2,0,P|294:56|328:74,1,76.4999976654053,2|0,3:0|0:0,0:0:0:0:
289,292,102304,5,8,0:0:0:0:
149,124,102475,2,0,L|135:71,2,50.9999984436036,2|0|0,0:0|0:0|0:0,0:0:0:0:
177,202,102647,2,0,L|123:215,1,50.9999984436036,2|0,0:0|0:0,0:0:0:0:
171,228,102762,2,0,L|117:241,1,50.9999984436036,2|0,0:0|1:0,0:0:0:0:
164,253,102876,2,0,L|110:266,2,50.9999984436036,2|0|0,0:0|0:0|0:0,0:0:0:0:
244,105,103161,6,0,P|268:64|319:39,1,85,8|0,0:0|0:0,0:0:0:0:
265,200,103333,2,0,P|257:239|246:270,2,73.6666632944744,0|0|0,1:0|0:0|0:0,0:0:0:0:
336,138,103675,1,8,0:0:0:0:
139,230,103847,5,2,0:0:0:0:
105,239,103933,1,0,0:0:0:0:
42,170,104018,5,0,0:0:0:0:
76,161,104104,1,0,0:0:0:0:
151,155,104190,6,0,L|205:169,1,42.5,2|0,0:0|0:0,0:0:0:0:
245,270,104361,5,0,1:0:0:0:
216,65,104533,1,2,0:0:0:0:
212,53,104618,1,2,0:0:0:0:
208,41,104704,1,10,0:0:0:0:
139,230,104875,1,2,0:0:0:0:
324,25,105047,5,0,1:0:0:0:
116,71,105218,1,2,0:0:0:0:
106,114,105303,1,2,0:0:0:0:
96,158,105389,1,10,0:0:0:0:
86,201,105475,1,0,0:0:0:0:
77,245,105561,2,0,L|165:223,1,63.7500024318696,2|0,0:0|0:0,0:0:0:0:
216,65,105733,5,0,1:0:0:0:
216,352,105904,2,2,L|157:327,1,63.7500024318696
193,152,106075,2,0,L|251:176,1,63.7500024318696,10|0,0:0|0:0,0:0:0:0:
187,366,106247,2,0,L|128:341,1,63.7500024318696,2|0,0:0|0:0,0:0:0:0:
222,138,106418,5,0,1:0:0:0:
251,124,106503,1,0,0:0:0:0:
280,110,106590,2,0,P|310:121|352:153,1,63.7500024318696,2|2,0:0|0:0,0:0:0:0:
125,281,106761,2,0,P|121:248|122:216,1,63.7500024318696,10|0,0:0|0:0,0:0:0:0:
356,317,106933,2,0,P|325:339|282:357,1,63.7500024318696,2|0,0:0|0:0,0:0:0:0:
222,138,107104,5,0,1:0:0:0:
424,7,107275,1,8,0:0:0:0:
345,214,107447,5,0,1:0:0:0:
170,0,107618,1,0,1:0:0:0:
345,240,107790,1,8,0:0:0:0:
51,204,107961,1,0,0:0:0:0:
304,87,108133,5,0,1:0:0:0:
31,191,108304,1,8,0:0:0:0:
186,179,108475,6,0,L|297:195,1,85
149,98,108990,2,0,P|105:139|137:253,1,170
270,191,109504,2,0,B|235:185|186:180|186:180|252:143|235:68,1,191.250007295609,12|0,0:0|0:0,0:0:0:0:
186,27,109847,5,4,1:0:0:0:
318,125,110018,1,2,0:0:0:0:
149,98,110190,1,8,0:0:0:0:
312,47,110361,1,2,0:0:0:0:
187,180,110533,1,0,1:0:0:0:
382,80,110704,2,0,P|396:121|367:188,1,101.999996887207,2|8,0:0|0:0,0:0:0:0:
350,197,110961,1,0,0:0:0:0:
331,227,111047,1,2,0:0:0:0:
325,262,111133,1,0,0:0:0:0:
330,296,111218,5,0,1:0:0:0:
461,200,111390,1,2,0:0:0:0:
255,139,111561,1,8,0:0:0:0:
382,80,111733,1,2,0:0:0:0:
330,296,111904,1,0,1:0:0:0:
210,251,112075,2,0,L|109:235,1,101.999996887207,2|8,0:0|0:0,0:0:0:0:
89,218,112333,1,0,0:0:0:0:
78,195,112419,1,2,0:0:0:0:
69,171,112505,1,0,0:0:0:0:
56,149,112590,5,0,1:0:0:0:
167,160,112761,1,2,0:0:0:0:
103,310,112933,2,0,L|-16:330,1,101.999996887207,8|2,0:0|0:0,0:0:0:0:
249,334,113275,1,0,1:0:0:0:
167,160,113447,2,0,P|221:159|287:143,1,101.999996887207,2|8,0:0|0:0,0:0:0:0:
301,137,113704,1,0,0:0:0:0:
330,157,113790,1,2,0:0:0:0:
346,188,113875,1,0,0:0:0:0:
346,223,113961,6,0,P|332:254|309:274,3,50.9999984436036,0|0|2|0,1:0|0:0|0:0|0:0,0:0:0:0:
222,267,114304,2,0,P|165:255|88:205,1,101.999996887207,8|2,0:0|0:0,0:0:0:0:
22,78,114647,2,0,L|-1:177,1,101.999996887207,0|2,1:0|0:0,0:0:0:0:
199,112,114990,2,0,L|176:13,1,101.999996887207,8|2,0:0|0:0,0:0:0:0:
349,4,115333,5,0,1:0:0:0:
341,28,115418,1,0,0:0:0:0:
334,52,115504,1,2,0:0:0:0:
271,166,115675,1,8,0:0:0:0:
176,13,115847,1,2,0:0:0:0:
152,207,116018,1,0,1:0:0:0:
162,241,116104,1,0,0:0:0:0:
181,270,116190,1,2,0:0:0:0:
208,292,116275,1,0,0:0:0:0:
241,304,116361,1,8,0:0:0:0:
217,264,116447,1,0,0:0:0:0:
175,243,116533,1,2,0:0:0:0:
129,246,116618,1,0,0:0:0:0:
87,265,116704,6,0,P|74:276|47:317,1,50.9999984436036,0|0,1:0|0:0,0:0:0:0:
70,384,116875,1,2,0:0:0:0:
84,173,117047,1,8,0:0:0:0:
152,341,117218,1,2,0:0:0:0:
166,130,117390,2,0,L|177:64,3,50.9999984436036,0|0|2|0,1:0|0:0|0:0|0:0,0:0:0:0:
248,116,117733,1,8,0:0:0:0:
273,114,117818,1,0,0:0:0:0:
298,112,117904,1,2,0:0:0:0:
323,110,117990,1,0,0:0:0:0:
348,108,118075,6,0,L|398:116,3,50.9999984436036,0|0|2|0,1:0|0:0|0:0|0:0,0:0:0:0:
457,183,118418,2,0,L|435:287,1,101.999996887207,8|2,0:0|0:0,0:0:0:0:
289,296,118761,2,0,L|276:246,1,50.9999984436036,0|0,1:0|0:0,0:0:0:0:
375,196,118933,2,0,L|362:247,1,50.9999984436036,2|0,0:0|0:0,0:0:0:0:
296,157,119104,1,8,0:0:0:0:
261,146,119190,1,0,0:0:0:0:
227,136,119275,2,0,L|171:118,1,50.9999984436036,2|0,0:0|0:0,0:0:0:0:
110,31,119447,5,0,1:0:0:0:
68,10,119533,1,0,0:0:0:0:
26,29,119618,1,2,0:0:0:0:
18,74,119704,1,0,0:0:0:0:
50,107,119790,2,0,P|63:132|67:164,1,50.9999984436036,8|0,0:0|0:0,0:0:0:0:
93,245,119961,2,0,P|80:270|76:302,1,50.9999984436036,2|0,0:0|0:0,0:0:0:0:
28,374,120133,5,0,1:0:0:0:
164,164,120304,1,8,0:0:0:0:
284,319,120475,1,8,1:2:0:0:
308,268,120561,1,0,1:0:0:0:
310,212,120647,1,2,1:2:0:0:
296,157,120733,1,0,1:0:0:0:
267,111,120818,5,4,1:0:0:0:
435,215,120990,1,2,0:0:0:0:
180,242,121161,1,8,0:0:0:0:
267,111,121333,1,2,0:0:0:0:
375,330,121504,1,0,1:0:0:0:
216,382,121675,2,0,L|104:363,1,110.499994941712,2|8,0:0|0:0,0:0:0:0:
100,336,121933,1,0,0:0:0:0:
93,309,122018,1,2,0:0:0:0:
86,282,122104,1,0,0:0:0:0:
79,254,122190,6,0,L|96:177,1,55.2499974708558,0|0,1:0|0:0,0:0:0:0:
123,104,122361,1,2,0:0:0:0:
183,276,122533,1,8,0:0:0:0:
0,153,122704,1,2,0:0:0:0:
246,153,122875,1,0,1:0:0:0:
79,254,123047,2,0,P|80:321|118:371,1,110.499994941712,2|8,0:0|0:0,0:0:0:0:
123,374,123304,1,0,0:0:0:0:
149,379,123390,1,2,0:0:0:0:
176,377,123475,1,0,0:0:0:0:
200,363,123561,5,0,1:0:0:0:
246,153,123733,1,2,0:0:0:0:
315,276,123904,2,0,L|347:391,1,110.499994941712,8|2,0:0|0:0,0:0:0:0:
417,178,124247,1,0,1:0:0:0:
431,142,124333,1,0,0:0:0:0:
445,106,124418,1,2,0:0:0:0:
431,289,124590,1,8,0:0:0:0:
367,35,124761,6,0,P|312:28|237:52,1,110.499994941712,2|0,0:0|1:0,0:0:0:0:
471,0,125104,1,2,0:0:0:0:
324,126,125275,2,0,P|275:152|227:214,1,110.499994941712,8|2,0:0|0:0,0:0:0:0:
249,375,125618,6,0,L|267:266,1,110.499994941712,0|2,1:0|0:0,0:0:0:0:
137,55,125961,2,0,L|155:164,1,110.499994941712,8|2,1:2|0:0,0:0:0:0:
268,266,126304,5,4,1:0:0:0:
373,44,126475,1,2,0:0:0:0:
376,299,126647,2,0,B|336:352|336:352|260:382,1,127.500004863739,12|2,0:0|0:0,0:0:0:0:
114,133,126990,5,12,1:0:0:0:
459,203,127161,1,4,0:0:0:0:
451,194,127504,6,0,L|251:226,1,191.250007295609
250,230,127847,1,0,0:0:0:0:
434,68,128018,5,12,0:0:0:0:
238,236,128190,1,0,0:0:0:0:
409,343,128361,5,12,1:0:0:0:
264,3,128533,1,4,0:0:0:0:
273,11,128875,6,0,L|314:202,1,191.250007295609
317,209,129218,1,0,0:0:0:0:
396,11,129390,2,0,B|415:72|415:72|404:155,1,127.500004863739,12|0,0:0|0:0,0:0:0:0:
406,330,129733,5,12,1:0:0:0:
119,162,129904,1,4,0:0:0:0:
130,155,130247,5,2,1:0:0:0:
393,198,130418,2,0,L|268:177,1,127.500004863739
285,268,130675,1,0,0:0:0:0:
285,268,130761,2,0,L|379:284,1,85
396,118,131018,1,2,0:0:0:0:
396,118,131104,5,2,0:0:0:0:
346,104,131190,1,2,0:0:0:0:
296,91,131275,1,2,0:0:0:0:
185,147,131447,6,0,L|123:133,1,63.75,2|0,1:0|0:0,0:0:0:0:
289,196,131790,5,10,0:0:0:0:
353,39,132133,1,0,0:0:0:0:
355,145,132304,2,0,P|372:195|327:271,1,127.500004863739,2|0,0:0|0:0,0:0:0:0:
276,311,132818,1,0,0:0:0:0:
289,196,132990,2,0,P|272:146|317:70,1,127.500004863739,2|0,0:0|0:0,0:0:0:0:
189,160,133504,2,0,L|174:224,1,63.7500024318696
322,364,133847,2,0,L|337:300,1,63.7500024318696,2|0,0:0|0:0,0:0:0:0:
267,225,134190,2,0,L|252:289,1,63.7500024318696,2|0,0:0|0:0,0:0:0:0:
352,222,134533,5,2,0:0:0:0:
156,295,134875,1,0,0:0:0:0:
267,225,135047,2,0,P|281:174|357:137,1,127.500004863739,2|0,0:0|0:0,0:0:0:0:
190,175,135561,2,0,B|174:202|179:238|179:238|155:270|153:313,1,127.500004863739,2|0,0:0|0:0,0:0:0:0:
105,163,136075,2,0,P|128:115|210:91,1,127.500004863739,2|0,0:0|0:0,0:0:0:0:
190,175,136590,2,0,L|201:258,1,63.7500024318696,2|0,0:0|0:0,0:0:0:0:
266,300,136933,2,0,L|255:383,1,63.7500024318696,2|0,0:0|0:0,0:0:0:0:
272,222,137275,6,0,P|313:166|386:178,1,127.500004863739,2|0,0:0|0:0,0:0:0:0:
261,238,137790,2,0,P|282:171|354:158,1,127.500004863739,2|0,0:0|0:0,0:0:0:0:
331,229,138304,2,0,B|359:251|368:269|373:300|343:338|343:338|315:260|252:251|252:251|229:208|262:158|307:142,1,382.500014591218,2|0,0:0|0:0,0:0:0:0:
124,257,139675,6,0,P|122:300|112:342,1,63.7500024318696
135,244,140018,2,0,L|118:108,1,127.500004863739,2|0,0:0|0:0,0:0:0:0:
148,228,140533,2,0,L|131:92,1,127.500004863739,2|0,0:0|0:0,0:0:0:0:
50,118,141047,2,0,B|13:91|26:53|26:53|40:29|83:8|83:8|101:57|147:93|147:93|163:227,1,382.500014591218,2|0,0:0|0:0,0:0:0:0:
152,324,142247,1,0,0:0:0:0:
152,324,142418,2,0,L|215:324,1,63.7500024318696
249,132,142761,5,6,0:0:0:0:
328,259,142933,1,8,0:0:0:0:
354,290,143018,1,8,0:0:0:0:
380,323,143104,1,0,1:0:0:0:
183,195,143275,2,0,P|162:158|163:101,1,85,8|8,0:0|0:0,0:0:0:0:
172,75,143533,1,8,0:0:0:0:
201,44,143618,1,0,1:0:0:0:
272,204,143790,1,8,0:0:0:0:
73,162,143961,2,0,L|60:129,4,21.25
159,260,144304,5,2,0:0:0:0:
170,272,144390,1,2,0:0:0:0:
182,283,144475,1,2,0:0:0:0:
203,109,144647,1,8,0:0:0:0:
301,296,144818,1,8,0:0:0:0:
315,336,144904,1,8,0:0:0:0:
126,130,145161,2,0,L|107:99,6,21.25
203,109,145504,6,0,P|259:118|301:137,1,85,4|0,0:0|0:0,0:0:0:0:
318,154,145761,1,8,0:0:0:0:
339,190,145847,1,0,1:0:0:0:
80,254,146018,2,0,P|133:233|178:229,1,85,0|0,0:0|0:3,0:3:0:0:
203,235,146275,1,2,0:0:0:0:
241,252,146361,1,2,0:0:0:0:
3,369,146533,1,8,0:0:0:0:
104,126,146704,1,8,0:0:0:0:
313,325,146875,6,0,P|333:271|337:226,1,85,8|0,0:0|0:3,0:3:0:0:
327,202,147133,1,8,0:0:0:0:
307,164,147218,1,0,1:0:0:0:
165,335,147390,2,0,L|194:276,1,42.5,8|0,0:0|0:0,0:0:0:0:
218,213,147561,1,0,1:0:0:0:
254,42,147733,2,0,L|283:101,1,42.5,8|0,0:0|0:0,0:0:0:0:
307,164,147904,1,0,1:0:0:0:
112,235,148075,1,8,0:0:0:0:
286,271,148247,5,8,0:0:0:0:
183,126,148418,1,8,0:1:0:0:
261,366,148590,5,8,0:0:0:0:
217,47,148761,1,8,0:1:0:0:
192,297,148933,5,8,0:0:0:0:
269,116,149104,1,8,0:1:0:0:
103,286,149275,5,8,0:0:0:0:
357,88,149447,1,8,0:1:0:0:
158,215,149618,5,8,0:0:0:0:
338,179,149790,1,8,0:1:0:0:
141,210,149961,5,8,0:0:0:0:
356,254,150133,1,8,0:1:0:0:
124,205,150304,5,8,0:0:0:0:
381,157,150475,1,8,0:1:0:0:
107,199,150647,5,8,0:0:0:0:
406,268,150818,1,8,0:1:0:0:
256,192,150990,12,0,152875,0:0:0:0:
155,146,153047,6,0,L|185:299,1,127.500004863739,8|0,0:0|0:0,0:0:0:0:
81,361,153304,2,0,L|92:283,1,63.7500024318696,8|0,0:0|0:0,0:0:0:0:
63,136,153475,1,8,0:0:0:0:
82,216,153561,1,8,0:0:0:0:
255,327,153733,6,0,B|279:238|279:238|241:190,1,127.500004863739,4|0,1:0|0:0,0:0:0:0:
234,40,154075,1,8,0:0:0:0:
390,193,154247,2,0,L|351:335,1,127.500004863739
318,137,154590,2,0,L|303:85,2,42.5000016212464
234,40,154761,2,0,L|216:100,1,42.5000016212464,10|0,0:0|0:0,0:0:0:0:
205,44,154875,2,0,L|186:104,1,42.5000016212464,2|0,0:0|0:0,0:0:0:0:
176,48,154990,2,0,L|157:108,1,42.5000016212464,2|0,0:0|0:0,0:0:0:0:
147,52,155104,6,0,B|141:110|116:164|116:164|135:147|173:143,1,152.999995330811,0|0,1:0|0:0,0:0:0:0:
241,194,155361,1,0,0:0:0:0:
241,194,155447,2,0,L|259:258,1,63.7500024318696,8|0,0:0|0:0,0:0:0:0:
227,103,155618,1,0,1:0:0:0:
351,245,155790,5,0,0:0:0:0:
351,257,155875,1,0,0:0:0:0:
345,282,155961,1,0,1:0:0:0:
327,316,156047,1,0,0:0:0:0:
283,343,156133,1,8,0:0:0:0:
219,338,156218,1,0,0:0:0:0:
171,277,156304,2,0,P|157:239|151:208,1,63.7500024318696
93,87,156475,6,0,P|141:115|180:145,2,85.0000032424928,0|0|0,1:0|0:0|0:0,0:0:0:0:
224,35,156818,2,0,P|256:81|279:124,2,85.0000032424928,8|0|0,0:0|0:0|0:0,0:0:0:0:
285,190,157161,1,0,0:0:0:0:
277,219,157247,1,0,0:0:0:0:
269,249,157333,1,0,0:0:0:0:
367,68,157504,2,0,L|351:130,1,63.7500024318696,8|0,0:0|0:0,0:0:0:0:
255,260,157675,2,0,L|274:187,1,63.7500024318696
224,35,157847,5,0,1:0:0:0:
389,293,158018,1,0,1:0:0:0:
424,112,158190,1,8,0:0:0:0:
405,58,158275,1,0,0:0:0:0:
382,6,158361,2,0,L|366:68,1,63.7500024318696,0|0,1:0|0:0,0:0:0:0:
341,176,158533,1,0,0:0:0:0:
95,56,158704,2,0,L|157:72,1,63.7500024318696,0|0,1:0|0:0,0:0:0:0:
265,97,158876,1,8,0:0:0:0:
11,127,159047,1,0,0:0:0:0:
341,176,159218,6,0,B|436:204|436:204|482:183,1,127.500004863739,0|0,1:0|0:0,0:0:0:0:
265,97,159561,2,0,B|170:69|170:69|124:90,1,127.500004863739,8|0,0:0|0:0,0:0:0:0:
309,275,159904,2,0,L|248:257,1,63.7500024318696
220,173,160075,2,0,L|180:162,2,42.5000016212464
149,247,160246,2,0,L|89:266,1,42.5000016212464,10|0,0:0|0:0,0:0:0:0:
145,276,160360,2,0,L|85:295,1,42.5000016212464,2|0,0:0|0:0,0:0:0:0:
141,305,160475,2,0,L|81:324,1,42.5000016212464,2|0,0:0|0:0,0:0:0:0:
137,334,160590,6,0,B|82:345|19:366|19:366|31:348|38:329,1,152.999995330811,0|0,1:0|0:0,0:0:0:0:
237,112,160933,2,0,L|216:187,1,63.7500024318696,8|0,0:0|0:0,0:0:0:0:
199,11,161104,1,0,1:0:0:0:
129,169,161275,5,0,0:0:0:0:
129,181,161361,1,0,0:0:0:0:
134,206,161447,1,0,1:0:0:0:
151,240,161533,1,0,0:0:0:0:
194,266,161618,1,8,0:0:0:0:
257,266,161704,1,0,0:0:0:0:
313,214,161790,2,0,P|323:178|321:152,1,63.7500024318696
171,60,161961,6,0,B|197:155|197:155|230:181,1,127.500004863739,0|0,1:0|0:0,1:0:0:0:
454,207,162304,2,0,B|428:112|428:112|395:86,1,127.500004863739,8|0,0:0|0:0,0:0:0:0:
244,267,162647,2,0,L|341:241,1,63.7500024318696
351,167,162818,1,0,1:0:0:0:
152,231,162990,1,8,0:0:0:0:
143,280,163075,1,0,0:0:0:0:
162,328,163161,2,0,P|192:358|228:367,1,63.7500024318696
244,267,163333,5,0,1:0:0:0:
227,59,163504,1,0,1:0:0:0:
240,288,163675,2,0,L|339:260,1,63.7500024318696,8|0,0:0|0:0,0:0:0:0:
231,38,163847,2,0,L|132:66,1,63.7500024318696,0|0,1:0|0:0,0:0:0:0:
351,167,164018,1,0,0:0:0:0:
356,129,164104,1,0,0:0:0:0:
341,94,164190,1,0,0:0:0:0:
239,287,164361,2,0,P|151:272|133:184,1,191.250007295609,8|0,0:0|0:0,0:0:0:0:
206,215,164704,6,0,B|220:175|220:175|195:88,1,127.500004863739,4|0,1:0|0:0,0:0:0:0:
296,224,165047,1,8,0:0:0:0:
121,109,165218,2,0,B|81:95|81:95|-6:120,1,127.500004863739
159,21,165561,2,0,L|122:2,2,42.5000016212464,0|0|0,1:0|0:0|0:0,0:0:0:0:
196,93,165733,2,0,L|256:112,1,42.5000016212464,10|0,0:0|0:0,0:0:0:0:
200,122,165847,2,0,L|260:141,1,42.5000016212464,2|0,0:0|0:0,0:0:0:0:
204,151,165961,2,0,L|264:170,1,42.5000016212464,2|0,0:0|0:0,0:0:0:0:
208,180,166075,6,0,B|266:188|324:211|324:211|311:190|311:168,1,152.999995330811,0|0,1:0|0:0,0:0:0:0:
454,149,166333,1,0,0:0:0:0:
454,149,166418,2,0,L|366:177,1,63.7500024318696,8|0,0:0|0:0,0:0:0:0:
512,225,166590,1,0,1:0:0:0:
312,141,166761,5,0,0:0:0:0:
308,154,166847,1,0,0:0:0:0:
312,180,166933,1,0,1:0:0:0:
325,215,167018,1,0,0:0:0:0:
340,263,167104,1,8,0:0:0:0:
317,322,167190,1,0,0:0:0:0:
245,347,167275,2,0,P|204:336|161:337,1,63.7500024318696
257,263,167447,6,0,P|241:231|230:167,2,85.0000032424928,0|0|0,1:0|0:0|0:0,0:0:0:0:
126,237,167790,2,0,P|142:205|153:141,2,85.0000032424928,8|0|0,0:0|0:0|0:0,0:0:0:0:
221,92,168133,1,0,0:0:0:0:
230,62,168218,1,0,0:0:0:0:
239,31,168304,1,0,1:0:0:0:
185,294,168475,2,0,L|160:380,1,63.7500024318696,8|0,0:0|0:0,0:0:0:0:
238,114,168647,2,0,L|262:27,1,63.7500024318696
52,196,168818,5,0,1:0:0:0:
392,260,168990,1,0,1:0:0:0:
254,59,169161,1,8,0:0:0:0:
238,114,169247,1,0,0:0:0:0:
221,170,169333,1,0,1:0:0:0:
207,224,169418,1,0,0:0:0:0:
190,278,169504,6,0,L|113:299,1,63.7500024318696
319,259,169675,1,0,1:0:0:0:
345,257,169761,1,0,0:0:0:0:
370,262,169847,2,0,B|414:275|414:275|460:273,1,85,8|0,0:0|0:0,0:0:0:0:
156,85,170018,2,0,B|111:71|111:71|65:73,1,85
67,287,170190,6,0,B|114:299|114:299|214:272,1,127.500004863739,0|0,1:0|0:0,0:0:0:0:
279,93,170533,2,0,B|202:72|202:72|155:84,1,127.500004863739,8|0,0:0|0:0,0:0:0:0:
220,184,170875,2,0,L|297:204,1,63.7500024318696
112,186,171047,2,0,L|38:205,2,42.5000016212464,0|0|0,1:0|0:0|0:0,0:0:0:0:
159,113,171218,2,0,L|99:94,1,42.5000016212464,10|0,0:0|0:0,0:0:0:0:
155,84,171332,2,0,L|95:65,1,42.5000016212464,2|0,0:0|0:0,0:0:0:0:
151,55,171447,2,0,L|91:36,1,42.5000016212464,2|0,0:0|0:0,0:0:0:0:
147,26,171562,6,0,B|89:18|31:-5|31:-5|44:16|44:38,1,152.999995330811,0|0,1:0|0:0,0:0:0:0:
190,192,171904,2,0,L|209:264,1,63.7500024318696,8|0,0:0|0:0,0:0:0:0:
91,103,172075,1,0,1:0:0:0:
137,308,172247,5,0,0:0:0:0:
144,318,172333,1,0,0:0:0:0:
164,332,172418,1,0,1:0:0:0:
201,342,172504,1,0,0:0:0:0:
251,332,172590,1,8,0:0:0:0:
292,284,172675,1,0,0:0:0:0:
359,246,172761,2,0,P|372:272|379:321,1,63.7500024318696
206,253,172933,6,0,B|194:206|194:206|221:106,1,127.500004863739,0|0,1:0|0:0,0:0:0:0:
437,141,173275,2,0,B|457:217|457:217|445:264,1,127.500004863739,8|0,0:0|0:0,0:0:0:0:
326,142,173618,2,0,L|320:78,1,63.7500024318696
324,262,173790,1,0,1:0:0:0:
246,63,173961,1,8,0:0:0:0:
272,20,174046,1,0,0:0:0:0:
319,3,174132,1,0,0:0:0:0:
366,18,174218,1,0,0:0:0:0:
394,59,174304,6,0,L|402:119,1,42.5
329,219,174475,2,0,L|321:279,1,42.5
246,63,174647,6,0,L|234:103,1,42.5
239,227,174818,2,0,L|223:187,1,42.5
326,142,174990,1,0,0:0:0:0:
326,142,175161,1,0,0:0:0:0:
230,300,175333,2,0,L|97:310,1,127.5
160,186,175675,6,0,L|210:214,1,42.5,0|0,1:0|0:0,0:0:0:0:
303,212,175847,2,0,L|339:233,1,42.5,2|0,0:0|0:0,0:0:0:0:
152,157,176018,2,0,L|188:178,1,42.5
311,241,176190,1,2,0:0:0:0:
322,272,176275,1,0,0:0:0:0:
332,299,176361,2,0,L|368:320,3,42.5,8|0|2|0,0:0|0:0|0:0|0:0,0:0:0:0:
443,261,176704,2,0,L|404:236,1,42.5
303,212,176875,6,0,B|333:144|333:144|396:94|396:94|384:159,1,212.5,0|2,1:0|0:0,0:0:0:0:
214,216,177390,2,0,P|218:246|240:277,2,56.6666666666667,0|0|0,1:0|0:0|0:0,0:0:0:0:
244,127,177733,1,8,0:0:0:0:
383,107,177904,5,2,0:0:0:0:
401,130,177990,1,0,0:0:0:0:
414,169,178075,1,0,0:0:0:0:
408,224,178161,1,0,0:0:0:0:
364,276,178247,2,0,P|342:295|321:304,1,42.5,2|0,0:0|0:0,0:0:0:0:
231,268,178418,6,0,B|214:307|179:312|179:312|157:274|208:214|208:214|247:230|299:218|323:171,1,297.5,0|2,1:0|0:0,0:0:0:0:
274,94,179104,1,8,0:0:0:0:
274,94,179190,2,0,B|254:107|244:126|244:126|236:102|220:82,1,85,0|2,0:0|0:0,0:0:0:0:
111,136,179447,1,0,0:0:0:0:
111,136,179533,2,0,B|128:152|132:171|132:171|146:150|160:139|160:139|139:108|140:78|152:56,1,170
207,213,179961,5,8,0:0:0:0:
372,186,180133,1,0,0:0:0:0:
341,147,180218,1,0,0:0:0:0:
311,106,180304,1,0,0:0:0:0:
279,67,180390,1,0,0:0:0:0:
247,29,180475,6,0,L|224:92,1,63.7500024318696,0|0,1:0|0:0,0:0:0:0:
258,314,180647,2,0,L|281:251,1,63.7500024318696,0|0,1:0|0:0,0:0:0:0:
385,81,180818,1,0,1:0:0:0:
432,123,180903,1,0,1:0:0:0:
453,183,180989,1,0,1:0:0:0:
438,245,181075,1,0,1:0:0:0:
399,296,181161,6,0,P|344:268|256:254,1,127.500004863739,10|0,0:0|0:0,0:0:0:0:
83,82,181504,2,0,P|137:109|225:123,1,127.500004863739,12|0,0:0|0:0,0:0:0:0:
156,298,181847,5,12,1:0:0:0:
446,90,182018,1,4,0:0:0:0:
449,76,182361,6,0,B|382:137|291:130|291:130|324:110|360:66,1,255.000009727478
109,211,182875,2,0,P|178:217|237:242,1,127.500004863739,12|0,0:0|0:0,0:0:0:0:
183,52,183218,5,12,1:0:0:0:
439,292,183390,1,4,0:0:0:0:
441,304,183733,6,0,B|374:243|283:250|283:250|316:270|352:314,1,255.000009727478
104,87,184247,2,0,P|161:121|246:128,1,127.500004863739,12|0,0:0|0:0,0:0:0:0:
49,223,184590,5,12,1:0:0:0:
394,138,184761,1,4,0:0:0:0:
397,127,185104,5,2,1:0:0:0:
164,172,185275,2,0,L|289:151,1,127.500004863739
272,242,185532,1,0,0:0:0:0:
272,242,185618,2,0,L|178:258,1,85
161,92,185875,1,2,0:0:0:0:
161,92,185961,5,2,0:0:0:0:
211,78,186047,1,2,0:0:0:0:
261,65,186132,1,2,0:0:0:0:
338,135,186304,6,0,L|401:121,1,63.75
244,163,186647,6,0,L|176:280,1,127.5,0|0,1:0|0:0,0:0:0:0:
100,275,186990,2,0,P|110:312|142:337,2,56.6666666666667
133,204,187333,1,8,0:0:0:0:
232,331,187504,2,0,L|196:353,1,42.5,2|2,0:0|0:0,0:0:0:0:
271,261,187675,1,0,0:0:0:0:
282,90,187847,6,0,L|214:207,1,127.5,0|0,1:0|0:0,0:0:0:0:
111,167,188190,2,0,L|132:203,1,42.5,2|0,0:0|0:0,0:0:0:0:
180,273,188361,1,0,1:0:0:0:
55,232,188533,1,0,0:0:0:0:
218,200,188704,5,8,0:0:0:0:
224,188,188790,1,0,0:0:0:0:
243,171,188876,1,0,0:0:0:0:
275,150,188961,1,0,0:0:0:0:
298,90,189047,1,0,0:0:0:0:
280,16,189133,1,0,0:0:0:0:
196,2,189218,2,0,P|169:0|133:11,1,42.5
174,81,189390,6,0,B|153:102|135:110|135:110|167:118|212:111|212:65|212:65|174:37|153:4|153:4|130:44|76:61,1,297.5,0|2,1:0|0:0,0:0:0:0:
44,138,190075,1,8,0:0:0:0:
237,211,190247,1,2,0:0:0:0:
270,192,190332,1,0,0:0:0:0:
295,163,190418,1,0,0:0:0:0:
311,129,190504,1,0,0:0:0:0:
315,91,190590,2,0,B|372:129|372:129|446:130,1,127.5,0|0,1:0|0:0,0:0:0:0:
395,46,190933,6,0,P|371:26|315:13,1,85,8|0,0:0|0:0,0:0:0:0:
372,228,191104,6,0,L|381:291,1,63.7500024318696,0|0,1:0|0:0,0:0:0:0:
238,133,191275,2,0,L|228:69,1,63.7500024318696
244,285,191447,6,0,P|240:323|222:366,1,63.7500024318696,8|0,0:0|0:0,0:0:0:0:
362,115,191618,2,0,P|365:76|383:33,1,63.7500024318696,0|0,3:0|0:0,0:0:0:0:
206,313,191790,2,0,P|194:358|162:406,1,63.7500024318696,0|0,3:0|0:0,0:0:0:0:
405,93,191961,2,0,P|416:46|447:-1,1,63.7500024318696,0|0,3:0|0:0,0:0:0:0:
176,168,192133,6,0,P|118:164|18:174,1,127.500004863739,12|0,0:0|0:0,0:0:0:0:
333,289,192475,2,0,P|390:285|491:295,1,127.500004863739,12|0,0:0|0:0,0:0:0:0:
388,63,192818,5,12,1:0:0:0:
185,302,192990,1,4,0:0:0:0:
172,315,193333,6,0,B|229:252|316:219|316:219|269:230|218:217,1,255.000009727478
260,62,193847,2,0,P|317:58|418:68,1,127.500004863739,12|0,0:0|0:0,0:0:0:0:
340,317,194190,5,12,1:0:0:0:
109,72,194361,1,4,0:0:0:0:
93,58,194704,6,0,B|150:121|237:154|237:154|190:143|139:156,1,255.000009727478
212,317,195218,2,0,P|276:312|340:317,1,127.500004863739,12|0,0:0|0:0,0:0:0:0:
333,64,195561,5,12,1:0:0:0:
74,255,195733,1,4,0:0:0:0:
59,267,196075,5,0,0:0:0:0:
154,202,196247,1,0,0:0:0:0:
248,134,196418,1,0,0:0:0:0:
48,276,196590,1,8,0:0:0:0:
46,166,196761,1,0,0:0:0:0:
54,115,196847,1,0,0:0:0:0:
60,64,196933,1,0,0:0:0:0:
151,107,197104,1,0,0:0:0:0:
164,269,197275,6,0,L|153:346,1,63.75
230,186,197618,6,0,B|217:149|235:103|235:103|219:73|246:25|246:25|274:93|325:99|325:99|392:143|378:204|330:218|267:201|290:125|326:99|326:99|359:54|404:65|404:65|430:100|459:157|455:228|399:269|348:277|306:280|261:305|261:305|279:277|272:236,1,1020,6|2,0:0|0:0,0:0:0:0:
125,116,203104,6,0,B|163:166|176:241|147:284|95:298|15:224|81:147|158:195|158:195|206:186|232:209|269:217|269:217|226:157|226:157|204:120|204:73,1,595,2|2,0:0|0:0,0:0:0:0:
360,88,205847,6,0,B|333:28|333:28|252:62|287:198|420:182|426:89,1,340,2|2,0:0|0:0,0:0:0:0:
182,220,208590,6,0,B|258:177|306:94|226:54|135:79|154:168|249:212|249:212|315:233|315:233|298:184|332:132|332:132|366:89|427:114|408:158|408:158|365:180|393:238|393:238|336:358|408:398|470:377|474:324|461:273|390:280|368:287|368:287|330:309,1,1060.79999352539,6|2,0:0|0:0,0:0:0:0:
117,139,214075,6,0,L|92:227,1,85
220,66,214761,1,0,0:0:0:0:
220,66,215104,2,0,L|245:154,1,85
301,328,215790,2,0,L|337:152,1,170
256,192,216818,12,0,219218,1:0:0:0:
192,208,219561,5,0,0:0:0:0:
181,194,219733,1,0,0:0:0:0:
262,263,219904,1,0,0:0:0:0:
171,180,220075,2,0,L|185:90,1,85,2|0,0:0|0:0,0:0:0:0:
286,107,220418,1,0,0:0:0:0:
244,206,220590,1,0,0:0:0:0:
205,51,220761,2,0,L|191:141,1,85,2|0,0:0|0:0,0:0:0:0:
244,206,221104,5,0,0:0:0:0:
369,153,221275,1,0,0:0:0:0:
384,159,221447,1,0,0:0:0:0:
340,259,221618,1,0,0:0:0:0:
286,107,221790,1,0,0:0:0:0:
423,258,221961,2,0,L|444:354,1,85,2|0,0:0|0:0,0:0:0:0:
258,258,222304,6,0,L|237:354,1,85,2|0,0:0|0:0,0:0:0:0:
342,288,222647,1,0,0:0:0:0:
160,270,222818,2,0,L|139:174,1,85,2|0,0:0|0:0,0:0:0:0:
150,69,223161,1,0,0:0:0:0:
239,166,223333,1,0,0:0:0:0:
56,244,223504,2,0,L|77:340,1,85,2|0,0:0|0:0,0:0:0:0:
141,186,223847,5,0,0:0:0:0:
243,80,224018,1,0,0:0:0:0:
252,66,224190,1,0,0:0:0:0:
263,228,224361,1,2,0:0:0:0:
262,52,224533,1,2,0:0:0:0:
127,92,224704,1,2,0:0:0:0:
348,139,224875,1,2,0:0:0:0:
148,271,225047,6,0,P|104:275|57:253,1,85,2|0,0:0|0:0,0:0:0:0:
322,41,225390,2,0,P|366:37|413:59,1,85,2|0,0:0|0:0,0:0:0:0:
355,227,225733,1,0,0:0:0:0:
362,242,225904,1,0,0:0:0:0:
348,139,226075,1,0,0:0:0:0:
172,177,226247,6,0,P|211:191|253:187,2,85,2|0|0,0:0|0:0|0:0,0:0:0:0:
322,41,226761,2,0,P|366:37|413:59,1,85,2|0,0:0|0:0,0:0:0:0:
355,227,227104,1,0,0:0:0:0:
348,242,227275,1,0,0:0:0:0:
348,139,227447,1,0,0:0:0:0:
444,282,227618,6,0,P|458:242|454:200,2,85,2|0|0,0:0|0:0|0:0,0:0:0:0:
305,327,228133,1,2,0:0:0:0:
295,313,228304,1,0,0:0:0:0:
340,188,228475,1,0,0:0:0:0:
355,227,228647,1,0,0:0:0:0:
216,300,228818,1,0,0:0:0:0:
267,237,228990,1,0,0:0:0:0:
119,151,229161,5,2,0:0:0:0:
204,288,229333,1,0,0:0:0:0:
225,37,229504,5,2,0:0:0:0:
269,206,229676,1,0,0:0:0:0:
325,14,229847,5,2,0:0:0:0:
279,186,230019,1,0,0:0:0:0:
431,128,230190,5,2,0:0:0:0:
309,292,230362,1,0,0:0:0:0:
508,7,230533,5,4,0:0:0:0:
269,99,230704,1,8,0:0:0:0:
226,113,230790,1,8,0:0:0:0:
183,126,230875,1,8,0:0:0:0:
369,216,231047,2,0,L|543:243,1,127.500004863739
431,128,231304,1,8,0:0:0:0:
431,128,231390,1,8,0:0:0:0:
339,365,231561,1,8,0:0:0:0:
183,126,231733,2,0,L|210:-48,1,127.500004863739
305,148,232075,5,0,0:0:0:0:
297,192,232161,1,2,0:2:0:0:
308,235,232247,1,10,0:2:0:0:
407,74,232418,2,0,L|418:2,1,63.7500024318696
417,270,232590,1,8,0:0:0:0:
405,312,232675,1,8,0:0:0:0:
393,355,232761,1,8,0:0:0:0:
308,235,232933,1,8,0:0:0:0:
508,203,233104,1,0,0:0:0:0:
196,46,233275,6,0,L|215:171,1,127.500004863739,4|0,0:0|0:0,0:0:0:0:
291,83,233533,1,8,0:0:0:0:
291,83,233618,1,8,0:0:0:0:
81,152,233790,2,0,L|61:277,1,127.500004863739
165,236,234047,1,8,0:0:0:0:
165,236,234133,1,8,0:0:0:0:
18,16,234304,1,8,0:0:0:0:
316,84,234475,2,0,L|450:113,1,127.500004863739
366,292,234818,6,0,L|349:207,1,63.7500024318696
236,19,234990,1,8,0:0:0:0:
186,222,235161,1,0,0:0:0:0:
440,110,235333,6,8,L|350:92,1,63.7500024318696
122,39,235504,1,8,0:0:0:0:
221,312,235675,1,8,0:0:0:0:
337,0,235847,1,0,0:0:0:0:
142,258,236018,5,4,1:0:0:0:
125,296,236103,1,0,1:0:0:0:
88,315,236189,1,0,1:0:0:0:
48,306,236275,1,0,1:0:0:0:
22,274,236360,1,0,1:0:0:0:
22,232,236446,1,0,1:0:0:0:
50,201,236532,1,0,1:0:0:0:
91,194,236618,1,0,1:0:0:0:
131,186,236704,5,8,1:0:0:0:
159,155,236790,1,0,1:0:0:0:
159,113,236876,1,0,1:0:0:0:
133,81,236961,1,0,1:0:0:0:
93,72,237047,1,0,1:0:0:0:
56,91,237133,1,0,1:0:0:0:
40,130,237218,1,0,1:0:0:0:
60,167,237304,1,0,1:0:0:0:
130,215,237390,5,4,1:0:0:0:
173,240,237475,1,0,1:0:0:0:
223,239,237561,1,0,1:0:0:0:
265,212,237647,1,0,1:0:0:0:
286,166,237733,1,0,1:0:0:0:
294,116,237818,1,0,1:0:0:0:
327,78,237904,1,0,1:0:0:0:
375,63,237990,1,0,1:0:0:0:
372,151,238075,5,12,1:0:0:0:
338,198,238160,1,0,1:0:0:0:
283,218,238246,1,0,1:0:0:0:
226,202,238332,1,0,1:0:0:0:
190,156,238417,1,0,1:0:0:0:
186,98,238503,1,0,1:0:0:0:
217,48,238589,1,0,1:0:0:0:
271,26,238675,1,0,1:0:0:0:
330,34,238761,6,0,L|380:60,6,31.8750012159348,4|0|0|0|0|0|0,1:0|1:0|1:0|1:0|1:0|1:0|1:0,1:0:0:0:
446,66,239104,2,0,L|496:40,6,31.8750012159348,4|0|0|0|0|0|0,1:0|1:0|1:0|1:0|1:0|1:0|1:0,1:0:0:0:
378,141,239447,2,0,L|328:115,6,31.8750012159348,4|0|0|0|0|0|0,1:0|1:0|1:0|1:0|1:0|1:0|1:0,1:0:0:0:
262,109,239790,2,0,L|212:135,6,31.8750012159348,4|0|0|0|0|0|0,1:0|1:0|1:0|1:0|1:0|1:0|1:0,1:0:0:0:
281,206,240133,5,8,0:0:0:0:
288,230,240218,1,8,0:0:0:0:
295,254,240304,1,8,0:0:0:0:
302,278,240390,1,8,0:0:0:0:
309,302,240475,5,8,0:0:0:0:
272,289,240561,1,8,0:0:0:0:
233,286,240647,1,8,0:0:0:0:
195,294,240733,1,8,0:0:0:0:
160,310,240818,5,8,0:0:0:0:
174,265,240904,1,8,0:0:0:0:
178,218,240990,1,8,0:0:0:0:
165,173,241075,1,8,0:0:0:0:
144,130,241161,6,0,L|126:95,1,38.2499988327027,0|0,1:0|0:0,0:0:0:0:
212,60,241504,5,4,1:0:0:0:
290,211,241675,1,2,0:0:0:0:
79,213,241847,1,8,0:0:0:0:
326,360,242018,2,0,P|351:314|366:231,1,110.499994941712,2|0,0:0|1:0,0:0:0:0:
304,105,242361,1,2,0:0:0:0:
222,299,242533,1,8,0:0:0:0:
174,48,242704,2,0,P|219:22|302:7,1,110.499994941712,2|0,0:0|1:0,0:0:0:0:
275,8,242961,1,0,0:0:0:0:
275,8,243047,5,2,0:0:0:0:
177,155,243218,1,8,0:0:0:0:
377,143,243390,1,2,0:0:0:0:
171,294,243561,1,0,1:0:0:0:
271,113,243733,1,2,0:0:0:0:
338,336,243904,2,0,P|293:362|210:377,1,110.499994941712,8|2,0:0|0:0,0:0:0:0:
271,113,244247,5,0,1:0:0:0:
387,253,244418,1,2,0:0:0:0:
338,24,244590,1,8,0:0:0:0:
250,297,244761,2,0,P|283:257|312:177,1,110.499994941712,2|0,0:0|1:0,0:0:0:0:
338,24,245104,1,2,0:0:0:0:
161,257,245275,1,8,0:0:0:0:
413,224,245447,2,0,P|411:178|390:112,1,110.499994941712,2|0,0:0|1:0,0:0:0:0:
388,112,245704,1,0,0:0:0:0:
383,109,245790,1,0,0:0:0:0:
161,257,245961,5,8,0:0:0:0:
422,245,246133,1,2,0:0:0:0:
66,162,246304,1,0,1:0:0:0:
293,273,246476,1,2,0:0:0:0:
21,37,246647,1,8,0:0:0:0:
161,257,246819,1,2,0:0:0:0:
219,25,246990,6,0,P|231:88|236:155,1,110.499994941712,0|2,1:0|0:0,0:0:0:0:
131,342,247333,1,8,0:0:0:0:
45,169,247504,1,2,0:0:0:0:
314,43,247675,6,0,P|324:98|330:153,1,110.499994941712,0|2,1:0|0:0,0:0:0:0:
214,271,248018,1,8,0:0:0:0:
128,98,248189,1,2,0:0:0:0:
418,89,248361,6,0,B|373:111|373:111|326:156,1,110.499994941712,0|2,1:0|0:0,0:0:0:0:
206,350,248704,1,8,0:0:0:0:
413,303,248875,1,2,0:0:0:0:
324,38,249047,6,0,B|284:67|284:67|245:119,1,110.499994941712,0|2,1:0|0:0,0:0:0:0:
277,283,249390,1,8,0:0:0:0:
472,200,249561,1,2,0:0:0:0:
195,19,249733,6,0,P|227:74|255:135,1,110.499994941712,0|2,1:0|0:0,0:0:0:0:
220,346,250076,1,8,0:0:0:0:
71,210,250247,1,2,0:0:0:0:
290,4,250418,6,2,P|322:59|350:120,1,110.499994941712,0|2,1:0|0:0,0:0:0:0:
274,251,250761,1,8,0:0:0:0:
121,104,250932,1,2,0:0:0:0:
431,37,251104,6,0,B|386:59|386:59|339:104,1,110.499994941712,0|2,1:0|0:0,0:0:0:0:
179,319,251447,1,8,0:0:0:0:
419,255,251618,1,2,0:0:0:0:
217,25,251790,5,0,1:0:0:0:
274,251,251961,1,0,1:0:0:0:
431,37,252133,1,0,1:0:0:0:
473,71,252218,1,0,1:0:0:0:
499,119,252304,1,0,1:0:0:0:
503,174,252390,1,0,1:0:0:0:
485,226,252475,5,4,1:0:0:0:
327,361,252647,1,2,0:0:0:0:
372,156,252818,1,8,0:0:0:0:
141,273,252990,2,0,P|167:328|203:374,1,110.499994941712,2|0,0:0|1:0,0:0:0:0:
233,192,253333,1,2,0:0:0:0:
27,320,253504,1,8,0:0:0:0:
313,273,253675,2,0,P|328:220|333:165,1,110.499994941712,2|0,0:0|1:0,0:0:0:0:
332,159,253933,1,0,0:0:0:0:
330,153,254018,5,2,0:0:0:0:
136,186,254190,1,8,0:0:0:0:
242,2,254361,1,2,0:0:0:0:
313,273,254533,1,0,1:0:0:0:
445,22,254704,1,2,0:0:0:0:
445,227,254875,2,0,P|427:279|399:326,1,110.499994941712,8|2,0:0|0:0,0:0:0:0:
253,142,255218,5,0,1:0:0:0:
448,124,255390,1,2,0:0:0:0:
278,356,255561,1,8,0:0:0:0:
355,64,255733,2,0,P|303:44|248:36,1,110.499994941712,2|0,0:0|1:0,0:0:0:0:
448,124,256075,1,2,0:0:0:0:
182,233,256247,1,8,0:0:0:0:
472,322,256418,2,0,P|491:270|499:215,1,110.499994941712,2|0,0:0|1:0,0:0:0:0:
498,210,256675,1,0,0:0:0:0:
497,204,256761,5,2,0:0:0:0:
287,87,256933,1,8,0:0:0:0:
512,123,257104,1,2,0:0:0:0:
261,255,257275,5,0,1:0:0:0:
463,22,257447,1,0,1:0:0:0:
375,311,257618,1,0,1:0:0:0:
341,354,257703,1,0,1:0:0:0:
292,378,257789,1,0,1:0:0:0:
237,381,257875,1,0,1:0:0:0:
186,359,257960,5,0,1:0:0:0:
229,81,258133,1,2,0:0:0:0:
305,339,258304,5,8,0:0:0:0:
108,116,258475,1,2,0:0:0:0:
355,224,258647,5,0,1:0:0:0:
59,231,258818,1,2,0:0:0:0:
300,111,258990,5,8,0:0:0:0:
114,344,259161,1,2,0:0:0:0:
168,23,259333,5,4,1:0:0:0:
245,301,259504,1,2,0:0:0:0:
284,33,259675,5,8,0:0:0:0:
369,315,259847,1,2,0:0:0:0:
454,43,260018,5,4,1:0:0:0:
175,120,260189,1,2,0:0:0:0:
511,133,260361,5,8,0:0:0:0:
230,212,260532,1,2,0:0:0:0:
479,279,260704,5,4,1:0:0:0:
448,309,260789,1,0,1:0:0:0:
409,330,260875,1,0,1:0:0:0:
367,337,260961,1,0,1:0:0:0:
293,360,261047,5,4,1:0:0:0:
289,315,261132,1,0,1:0:0:0:
298,272,261218,1,0,1:0:0:0:
319,235,261304,1,0,1:0:0:0:
348,161,261390,5,4,1:0:0:0:
381,188,261475,1,0,1:0:0:0:
406,225,261561,1,0,1:0:0:0:
417,265,261647,1,0,1:0:0:0:
389,340,261733,5,4,1:0:0:0:
355,312,261818,1,0,1:0:0:0:
330,274,261904,1,0,1:0:0:0:
319,235,261990,1,0,1:0:0:0:
256,192,262075,12,0,263361,0:0:0:0:
173,158,263447,5,4,1:0:0:0:
304,312,263618,1,2,0:0:0:0:
183,49,263790,5,8,0:0:0:0:
212,376,263961,1,2,0:0:0:0:
83,93,264133,5,0,1:0:0:0:
203,265,264304,1,2,0:0:0:0:
295,27,264475,5,8,0:0:0:0:
173,158,264647,1,2,0:0:0:0:
425,138,264818,5,0,1:0:0:0:
236,92,264990,1,2,0:0:0:0:
265,248,265161,5,8,0:0:0:0:
328,120,265333,1,2,0:0:0:0:
415,242,265504,5,0,1:0:0:0:
336,203,265675,1,2,0:0:0:0:
285,372,265847,2,0,L|350:263,1,110.499994941712,8|2,0:0|0:0,0:0:0:0:
409,152,266190,5,0,1:0:0:0:
198,167,266361,1,2,0:0:0:0:
467,234,266533,5,8,0:0:0:0:
178,76,266704,1,2,0:0:0:0:
367,244,266875,5,0,1:0:0:0:
267,105,267047,1,2,0:0:0:0:
222,254,267218,5,8,0:0:0:0:
356,134,267390,1,2,0:0:0:0:
237,340,267561,5,0,1:0:0:0:
289,194,267733,1,2,0:0:0:0:
140,223,267904,5,8,0:0:0:0:
304,280,268075,1,2,0:0:0:0:
207,163,268247,5,0,1:0:0:0:
222,254,268419,1,2,0:0:0:0:
354,104,268590,2,0,L|289:193,1,110.499994941712,8|2,0:0|0:0,0:0:0:0:
32,215,268933,5,0,1:0:0:0:
173,36,269104,1,2,0:0:0:0:
227,260,269275,5,8,0:0:0:0:
0,68,269447,1,2,0:0:0:0:
116,290,269618,5,0,1:0:0:0:
256,149,269790,1,2,0:0:0:0:
197,371,269961,5,8,0:0:0:0:
146,179,270133,1,2,0:0:0:0:
18,355,270304,5,0,1:0:0:0:
227,260,270475,1,2,0:0:0:0:
48,244,270647,5,8,0:0:0:0:
197,371,270818,1,2,0:0:0:0:
146,179,270990,5,0,1:0:0:0:
133,294,271161,1,2,0:0:0:0:
74,96,271333,2,0,L|183:81,1,110.499994941712,8|2,0:0|0:0,0:0:0:0:
356,141,271675,5,0,1:0:0:0:
232,293,271847,1,2,0:0:0:0:
327,47,272018,5,8,0:0:0:0:
270,370,272190,1,2,0:0:0:0:
260,119,272361,5,0,1:0:0:0:
325,298,272533,1,2,0:0:0:0:
191,205,272704,5,8,0:0:0:0:
389,218,272875,1,2,0:0:0:0:
156,112,273047,5,0,1:0:0:0:
277,257,273218,1,2,0:0:0:0:
92,188,273390,5,8,0:0:0:0:
284,157,273561,1,2,0:0:0:0:
60,93,273733,5,0,1:0:0:0:
277,257,273904,1,0,1:0:0:0:
1,178,274075,1,0,1:0:0:0:
14,231,274161,1,0,1:0:0:0:
52,271,274247,1,0,1:0:0:0:
106,279,274333,1,0,1:0:0:0:
154,254,274418,5,0,1:0:0:0:
213,65,274590,1,2,0:0:0:0:
210,322,274761,5,8,0:0:0:0:
145,9,274933,1,2,0:0:0:0:
98,322,275104,5,0,1:0:0:0:
293,124,275275,1,2,0:0:0:0:
210,322,275447,5,8,0:0:0:0:
201,163,275618,1,2,0:0:0:0:
308,379,275790,5,0,1:0:0:0:
98,322,275961,1,2,0:0:0:0:
305,282,276133,5,8,0:0:0:0:
158,242,276304,1,2,0:0:0:0:
304,191,276475,5,0,1:0:0:0:
201,163,276646,1,2,0:0:0:0:
383,235,276818,2,0,L|429:355,1,110.499994941712,8|2,0:0|0:0,0:0:0:0:
231,250,277161,5,0,1:0:0:0:
405,109,277333,1,2,0:0:0:0:
234,340,277504,5,8,0:0:0:0:
314,65,277675,1,2,0:0:0:0:
155,298,277847,5,0,1:0:0:0:
321,165,278018,1,2,0:0:0:0:
313,382,278190,5,8,0:0:0:0:
243,215,278361,1,2,0:0:0:0:
457,202,278533,5,0,1:0:0:0:
155,298,278704,1,2,0:0:0:0:
239,4,278875,1,8,0:0:0:0:
331,307,279047,1,2,0:0:0:0:
113,109,279218,1,0,1:0:0:0:
414,17,279390,1,2,0:0:0:0:
208,345,279561,1,0,1:0:0:0:
160,368,279646,1,0,1:0:0:0:
109,348,279732,1,0,1:0:0:0:
86,300,279818,1,0,1:0:0:0:
103,250,279904,5,6,1:0:0:0:
328,255,280075,1,2,0:0:0:0:
1,205,280247,5,10,0:0:0:0:
337,171,280418,1,2,0:0:0:0:
3,84,280590,5,2,0:0:0:0:
287,90,280761,1,2,0:0:0:0:
85,2,280933,5,10,0:0:0:0:
227,189,281104,1,2,0:0:0:0:
379,0,281275,5,6,0:0:0:0:
461,244,281447,1,2,0:0:0:0:
250,22,281618,5,10,0:0:0:0:
376,289,281790,1,2,0:0:0:0:
96,257,281961,5,14,0:0:0:0:
260,117,282133,1,2,0:0:0:0:
186,383,282304,5,2,0:0:0:0:
352,182,282475,1,2,0:0:0:0:
110,39,282647,5,6,0:0:0:0:
72,77,282732,1,0,0:0:0:0:
63,131,282818,1,2,0:0:0:0:
87,180,282904,1,0,0:0:0:0:
135,205,282989,1,2,0:0:0:0:
172,243,283075,1,0,0:0:0:0:
181,297,283161,1,2,0:0:0:0:
157,346,283247,1,0,0:0:0:0:
107,371,283333,5,6,0:0:0:0:
131,320,283418,1,0,0:0:0:0:
181,297,283504,1,2,0:0:0:0:
234,302,283590,1,0,0:0:0:0:
273,338,283675,1,2,0:0:0:0:
321,361,283761,1,0,0:0:0:0:
376,352,283847,1,2,0:0:0:0:
412,313,283933,1,0,0:0:0:0:
433,266,284018,5,0,0:0:0:0:
269,153,284190,1,0,0:0:0:0:
330,253,284361,1,8,0:0:0:0:
383,148,284533,1,0,0:0:0:0:
406,106,284618,1,0,0:0:0:0:
430,65,284705,1,0,0:0:0:0:
478,188,284875,1,0,0:0:0:0:
337,26,285047,6,0,L|264:-2,1,63.75
297,95,285390,5,0,1:0:0:0:
291,122,285475,1,0,0:0:0:0:
285,149,285561,2,0,L|238:151,1,46.7500014266968,2|0,0:0|0:0,0:0:0:0:
154,96,285733,2,0,L|83:92,1,46.7500014266968,8|0,0:0|0:0,0:0:0:0:
228,178,285904,2,0,L|275:176,1,46.7500014266968,2|0,0:0|0:0,0:0:0:0:
381,94,286075,5,0,1:0:0:0:
387,121,286161,2,0,L|458:117,1,46.7500014266968,0|2,0:0|0:0,0:0:0:0:
487,220,286333,5,0,0:0:0:0:
481,247,286419,2,0,L|410:243,1,46.7500014266968,8|0,0:0|0:0,0:0:0:0:
439,143,286590,2,0,L|393:146,1,46.7500014266968,2|0,0:0|0:0,0:0:0:0:
249,254,286761,5,0,1:0:0:0:
264,276,286846,1,0,0:0:0:0:
280,299,286932,2,0,L|324:283,1,46.7500014266968,2|0,0:0|0:0,0:0:0:0:
435,245,287104,2,0,L|479:260,1,46.7500014266968,8|0,0:0|0:0,0:0:0:0:
338,306,287275,2,0,L|294:322,1,46.7500014266968,2|0,0:0|0:0,0:0:0:0:
184,306,287447,6,0,L|140:290,1,46.7500014266968,0|0,1:0|0:0,0:0:0:0:
3,189,287618,1,2,0:0:0:0:
18,211,287703,1,0,0:0:0:0:
34,234,287790,2,0,L|78:218,1,46.7500014266968,8|0,0:0|0:0,0:0:0:0:
178,190,287961,2,0,L|222:206,1,46.7500014266968,2|0,0:0|0:0,0:0:0:0:
407,144,288133,5,0,1:0:0:0:
385,159,288218,1,0,0:0:0:0:
362,174,288304,2,0,L|327:142,1,46.7500014266968,2|0,0:0|0:0,0:0:0:0:
238,66,288476,2,0,L|191:63,1,46.7500014266968,8|0,0:0|0:0,0:0:0:0:
305,158,288647,2,0,L|339:189,1,46.7500014266968,2|0,0:0|0:0,0:0:0:0:
400,316,288818,5,0,1:0:0:0:
407,342,288904,2,0,L|359:381,1,46.7500014266968,0|2,0:0|0:0,0:0:0:0:
486,296,289075,5,0,0:0:0:0:
493,270,289161,2,0,L|445:231,1,46.7500014266968,8|0,0:0|0:0,0:0:0:0:
343,276,289333,2,0,L|295:315,1,46.7500014266968
203,337,289504,5,0,1:0:0:0:
198,310,289589,1,0,0:0:0:0:
193,284,289675,2,0,L|235:263,1,46.7500014266968,2|0,0:0|0:0,0:0:0:0:
343,276,289847,2,0,L|385:296,1,46.7500014266968,8|0,0:0|0:0,0:0:0:0:
230,234,290018,2,0,L|188:255,1,46.7500014266968,2|0,0:0|0:0,0:0:0:0:
74,342,290190,5,0,1:0:0:0:
83,296,290275,1,0,0:0:0:0:
79,249,290361,1,2,0:0:0:0:
64,204,290447,1,0,0:0:0:0:
38,164,290533,2,0,L|5:130,1,46.7500014266968,2|0,0:0|0:0,0:0:0:0:
197,200,290704,2,0,L|230:234,1,46.7500014266968,2|0,0:0|0:0,0:0:0:0:
157,109,290876,5,0,1:0:0:0:
178,101,290961,1,0,0:0:0:0:
200,93,291047,2,0,L|263:111,1,46.7500014266968,2|0,0:0|0:0,0:0:0:0:
96,37,291218,2,0,L|33:19,1,46.7500014266968,8|0,0:0|0:0,0:0:0:0:
38,164,291390,2,0,L|101:182,1,46.7500014266968,2|0,0:0|0:0,0:0:0:0:
263,192,291561,5,0,1:0:0:0:
256,169,291647,2,0,L|184:191,1,46.7500014266968,0|2,0:0|0:0,0:0:0:0:
200,93,291818,5,0,0:0:0:0:
208,70,291904,2,0,L|271:88,1,46.7500014266968,8|0,0:0|0:0,0:0:0:0:
354,46,292075,2,0,L|417:28,1,46.7500014266968,2|0,0:0|0:0,0:0:0:0:
387,139,292247,5,0,1:0:0:0:
376,159,292333,1,0,0:0:0:0:
366,180,292418,2,0,L|306:207,1,46.7500014266968,2|0,0:0|0:0,0:0:0:0:
470,187,292590,2,0,L|530:160,1,46.7500014266968,8|0,0:0|0:0,0:0:0:0:
413,268,292761,1,2,0:0:0:0:
401,288,292847,1,0,0:0:0:0:
387,307,292933,6,0,L|327:334,1,46.7500014266968,0|0,1:0|0:0,0:0:0:0:
297,238,293104,1,2,0:0:0:0:
309,218,293190,1,0,0:0:0:0:
323,199,293276,2,0,L|383:172,1,46.7500014266968,8|0,0:0|0:0,0:0:0:0:
205,187,293447,2,0,L|145:214,1,46.7500014266968,2|0,0:0|0:0,0:0:0:0:
275,117,293618,5,0,1:0:0:0:
289,99,293704,1,0,0:0:0:0:
303,80,293790,2,0,L|315:14,1,46.7500014266968,2|0,0:0|0:0,0:0:0:0:
365,179,293961,2,0,L|353:245,1,46.7500014266968,8|0,0:0|0:0,0:0:0:0:
447,96,294133,2,0,L|459:30,1,46.7500014266968,2|0,0:0|0:0,0:0:0:0:
477,208,294304,5,0,1:0:0:0:
482,230,294390,2,0,L|470:296,1,46.7500014266968,0|2,0:0|0:0,0:0:0:0:
390,316,294561,5,0,0:0:0:0:
385,338,294647,2,0,L|397:404,1,46.7500014266968,8|0,0:0|0:0,0:0:0:0:
373,224,294818,2,0,L|364:178,1,46.7500014266968,2|0,0:0|0:0,0:0:0:0:
309,297,294990,6,0,L|246:308,1,46.7500014266968,0|0,1:0|0:0,0:0:0:0:
204,369,295161,1,2,0:0:0:0:
168,356,295247,1,0,0:0:0:0:
136,336,295333,2,0,L|116:251,1,46.7500014266968,8|0,0:0|0:0,0:0:0:0:
254,204,295504,2,0,L|271:129,1,46.7500014266968,2|0,0:0|0:0,0:0:0:0:
44,206,295675,6,0,L|37:116,1,63.7500024318696,0|0,1:0|0:0,1:0:0:0:
185,66,295847,2,0,L|192:-24,1,63.7500024318696,0|0,1:0|0:0,1:0:0:0:
163,178,296018,1,0,1:0:0:0:
162,234,296103,1,0,1:0:0:0:
135,285,296189,1,0,1:0:0:0:
90,319,296275,1,0,1:0:0:0:
34,329,296361,6,0,L|43:255,1,46.7500014266968,4|0,1:0|0:0,0:0:0:0:
172,361,296533,2,0,L|216:301,1,46.7500014266968,2|0,0:0|0:0,0:0:0:0:
134,242,296704,2,0,L|142:167,1,46.7500014266968,8|0,0:0|0:0,0:0:0:0:
281,269,296876,2,0,L|325:209,1,46.7500014266968,2|0,0:0|0:0,0:0:0:0:
265,139,297047,5,0,1:0:0:0:
258,116,297133,2,0,L|174:146,1,46.7500014266968,0|2,0:0|0:0,0:0:0:0:
198,30,297304,5,0,0:0:0:0:
180,13,297390,2,0,L|122:80,1,46.7500014266968,8|0,0:0|0:0,0:0:0:0:
124,145,297561,2,0,L|107:232,1,46.7500014266968,2|0,0:0|0:0,0:0:0:0:
220,267,297733,6,0,L|277:334,1,46.7500014266968,0|0,1:0|0:0,0:0:0:0:
328,218,297904,2,0,L|412:248,1,46.7500014266968,2|0,0:0|0:0,0:0:0:0:
405,137,298075,2,0,L|450:128,1,46.7500014266968,8|0,0:0|0:0,0:0:0:0:
337,244,298247,2,0,L|421:274,1,46.7500014266968,2|0,0:0|0:0,0:0:0:0:
301,136,298418,6,0,L|270:100,1,46.7500014266968,0|0,1:0|0:0,0:0:0:0:
175,61,298590,1,2,0:0:0:0:
166,83,298675,1,0,0:0:0:0:
157,104,298761,2,0,L|112:88,1,46.7500014266968,8|0,0:0|0:0,0:0:0:0:
70,187,298933,2,0,L|23:195,1,46.7500014266968,2|0,0:0|0:0,0:0:0:0:
193,249,299104,6,0,L|178:206,1,46.7500014266968,0|0,1:0|0:0,0:0:0:0:
299,232,299275,2,0,L|334:262,1,46.7500014266968,2|0,0:0|0:0,0:0:0:0:
259,136,299447,2,0,L|243:92,1,46.7500014266968,8|0,0:0|0:0,0:0:0:0:
367,142,299618,2,0,L|402:172,1,46.7500014266968,2|0,0:0|0:0,0:0:0:0:
479,270,299790,5,0,1:0:0:0:
465,289,299875,2,0,L|418:280,1,46.7500014266968,0|2,0:0|0:0,0:0:0:0:
341,336,300047,5,0,0:0:0:0:
338,359,300132,2,0,L|292:374,1,46.7500014266968,8|0,0:0|0:0,0:0:0:0:
334,235,300304,2,0,L|297:203,1,46.7500014266968,2|0,0:0|0:0,0:0:0:0:
390,117,300475,5,0,1:0:0:0:
378,96,300561,1,0,0:0:0:0:
366,75,300647,2,0,L|375:11,1,46.7500014266968,2|0,0:0|0:0,0:0:0:0:
246,110,300818,2,0,L|285:59,1,46.7500014266968,8|0,0:0|0:0,0:0:0:0:
124,80,300990,2,0,L|183:55,1,46.7500014266968,2|0,0:0|0:0,0:0:0:0:
161,184,301161,6,0,L|185:274,1,63.7500024318696,0|0,1:0|0:0,0:0:0:0:
350,296,301333,2,0,L|326:206,1,63.7500024318696,0|0,1:0|0:0,0:0:0:0:
246,110,301504,1,0,1:0:0:0:
199,77,301589,1,0,1:0:0:0:
143,72,301675,1,0,1:0:0:0:
91,95,301761,1,0,1:0:0:0:
57,141,301846,5,4,1:0:0:0:
187,345,302018,1,0,0:0:0:0:
199,77,302190,5,8,0:0:0:0:
69,280,302362,1,0,0:0:0:0:
91,30,302533,5,0,0:0:0:0:
220,233,302705,1,0,0:0:0:0:
258,0,302875,5,8,0:0:0:0:
128,203,303047,1,0,0:0:0:0:
384,203,303218,5,4,0:0:0:0:
134,95,303390,1,0,0:0:0:0:
378,95,303561,5,8,0:0:0:0:
128,203,303733,1,0,0:0:0:0:
314,14,303904,5,4,0:0:0:0:
195,289,304076,1,0,0:0:0:0:
195,8,304247,5,8,0:0:0:0:
314,283,304419,1,0,0:0:0:0:
396,45,304590,5,0,0:0:0:0:
413,82,304675,1,0,0:0:0:0:
407,122,304761,1,0,0:0:0:0:
382,154,304847,1,0,0:0:0:0:
322,204,304933,5,0,0:0:0:0:
304,167,305019,1,0,0:0:0:0:
309,126,305105,1,0,0:0:0:0:
336,94,305191,1,0,0:0:0:0:
382,154,305276,5,0,0:0:0:0:
345,172,305361,1,0,0:0:0:0:
304,167,305447,1,0,0:0:0:0:
272,140,305533,1,0,0:0:0:0:
225,79,305619,5,0,0:0:0:0:
263,61,305704,1,0,0:0:0:0:
303,66,305790,1,0,0:0:0:0:
336,94,305876,1,0,0:0:0:0:
256,192,305961,12,0,307333,0:0:0:0:
