osu file format v14

[General]
AudioFilename: Lost Emotion (Amane UK Hardcore Remix).mp3
AudioLeadIn: 0
PreviewTime: 241126
Countdown: 0
SampleSet: Normal
StackLeniency: 0.7
Mode: 1
LetterboxInBreaks: 0
WidescreenStoryboard: 0

[Editor]
DistanceSpacing: 0.9
BeatDivisor: 4
GridSize: 32
TimelineZoom: 2.7

[Metadata]
Title:Lost Emotion (Amane UK Hardcore Remix)
TitleUnicode:Lost Emotion (Amane UK Hardcore Remix)
Artist:Masayoshi Minoshima feat. nomico
ArtistUnicode:Masayoshi Minoshima feat. nomico
Creator:ekumea1123
Version:Emotional
Source:東方心綺楼 ~ Hopeless Masquerade.
Tags:alstroemeria records c88 東方 project marathon pop culture 4 3 秦こころ hata no kokoro theme edm shinkirou touhou 天音 例大祭 reitaisai 12 亡失のエモーション The Lost Emotion Boushitsu
BeatmapID:1285226
BeatmapSetID:608551

[Difficulty]
HPDrainRate:4
CircleSize:5
OverallDifficulty:7
ApproachRate:5
SliderMultiplier:1.4
SliderTickRate:1

[Events]
//Background and Video events
0,0,"BG.jpg",0,0
//Break Periods
//Storyboard Layer 0 (Background)
//Storyboard Layer 1 (Fail)
//Storyboard Layer 2 (Pass)
//Storyboard Layer 3 (Foreground)
//Storyboard Sound Samples

[TimingPoints]
140.295497514619,342.857142857143,4,1,0,80,1,0
20540,-100,4,1,0,30,0,0
22061,-100,4,1,0,80,0,0
42826,-102.040816326531,4,1,0,80,0,0
42997,-104.166666666667,4,1,0,80,0,0
43168,-106.382978723404,4,1,0,80,0,0
43254,-107.52688172043,4,1,0,80,0,0
43340,-108.695652173913,4,1,0,80,0,0
43511,-111.111111111111,4,1,0,80,0,0
43683,-113.636363636364,4,1,0,80,0,0
44004,-117.647058823529,4,1,0,65,0,0
44026,-125,4,1,0,65,0,0
54976,-125,4,1,0,70,0,0
54997,-111.111111111111,4,1,0,70,0,0
65947,-111.111111111111,4,1,0,75,0,0
65968,-100,4,1,0,75,0,0
76918,-100,4,1,0,80,0,0
76939,-90.9090909090909,4,1,0,80,0,0
87226,-90.9090909090909,4,1,0,50,0,0
87890,-90.9090909090909,4,1,0,80,0,0
87911,-100,4,1,0,80,0,0
98883,-100,4,1,0,50,0,0
99547,-100,4,1,0,80,0,0
131776,-100,4,1,0,75,0,0
131797,-111.111111111111,4,1,0,75,0,0
142768,-100,4,1,0,75,0,0
145511,-95.2380952380952,4,1,0,75,0,0
148254,-90.9090909090909,4,1,0,75,0,0
150997,-90.9090909090909,4,1,0,50,0,0
153033,-90.9090909090909,4,1,0,85,0,0
153054,-90.9090909090909,4,1,0,85,0,0
153311,-94.1176470588235,4,1,0,85,0,0
153483,-96.3855421686747,4,1,0,85,0,0
153568,-97.5609756097561,4,1,0,85,0,0
153718,-100,4,1,0,90,0,0
153740,-100,4,1,0,90,0,1
175683,-117.647058823529,4,1,0,90,0,1
176197,-142.857142857143,4,1,0,90,0,1
179968,-138.888888888889,4,1,0,90,0,1
180140,-131.578947368421,4,1,0,90,0,1
180226,-128.205128205128,4,1,0,90,0,1
180311,-125,4,1,0,90,0,1
180397,-121.951219512195,4,1,0,90,0,1
180483,-119.047619047619,4,1,0,90,0,1
180654,-113.636363636364,4,1,0,90,0,1
180740,-111.111111111111,4,1,0,90,0,1
180826,-108.695652173913,4,1,0,90,0,1
180911,-106.382978723404,4,1,0,90,0,1
180997,-104.166666666667,4,1,0,90,0,1
181083,-102.040816326531,4,1,0,90,0,1
181168,-100,4,1,0,90,0,1
186654,-142.857142857143,4,1,0,90,0,1
190940,-138.888888888889,4,1,0,90,0,1
191111,-131.578947368421,4,1,0,90,0,1
191197,-128.205128205128,4,1,0,90,0,1
191283,-125,4,1,0,90,0,1
191368,-121.951219512195,4,1,0,90,0,1
191454,-119.047619047619,4,1,0,90,0,1
191626,-113.636363636364,4,1,0,90,0,1
191797,-108.695652173913,4,1,0,90,0,1
191883,-106.382978723404,4,1,0,90,0,1
191968,-104.166666666667,4,1,0,90,0,1
192054,-102.040816326531,4,1,0,90,0,1
192140,-100,4,1,0,90,0,1
197604,-100,4,1,0,60,0,1
197626,-133.333333333333,4,1,0,60,0,0
218861,-133.333333333333,4,1,0,65,0,0
218883,-100,4,1,0,65,0,0
219204,-100,4,1,0,70,0,0
219225,-80,4,1,0,70,0,0
219547,-80,4,1,0,75,0,0
219567,-111.111111111111,4,1,0,75,0,0
230518,-111.111111111111,4,1,0,85,0,0
230540,-100,4,1,0,85,0,0
233261,-100,4,1,0,90,0,0
233283,-95.2380952380952,4,1,0,90,0,0
236026,-90.9090909090909,4,1,0,90,0,0
241490,-95.2380952380952,4,1,0,100,0,0
241511,-100,4,1,0,100,0,1
262061,-100,4,1,0,60,0,1
262083,-100,4,1,0,60,0,0
263433,-100,4,1,0,90,0,0
263454,-100,4,1,0,90,0,1
284197,-102.040816326531,4,1,0,90,0,1
284368,-104.166666666667,4,1,0,90,0,1
284539,-106.382978723404,4,1,0,90,0,1
284626,-107.52688172043,4,1,0,90,0,1
284711,-108.695652173913,4,1,0,90,0,1
284883,-111.111111111111,4,1,0,90,0,1
285054,-113.636363636364,4,1,0,90,0,1
285376,-117.647058823529,4,1,0,80,0,1
285397,-100,4,1,0,80,0,0

[HitObjects]
256,192,140,5,4,0:0:0:0:
256,192,311,1,8,0:0:0:0:
256,192,483,1,0,0:0:0:0:
256,192,654,1,8,0:0:0:0:
256,192,740,1,8,0:0:0:0:
256,192,826,1,0,0:0:0:0:
256,192,911,1,8,0:0:0:0:
256,192,1083,1,8,0:0:0:0:
256,192,1168,1,0,0:0:0:0:
256,192,1340,1,8,0:0:0:0:
256,192,1511,1,0,0:0:0:0:
256,192,1597,1,0,0:0:0:0:
256,192,1683,1,8,0:0:0:0:
256,192,1854,1,0,0:0:0:0:
256,192,2026,1,8,0:0:0:0:
256,192,2197,1,0,0:0:0:0:
256,192,2368,1,0,0:0:0:0:
256,192,2454,1,8,0:0:0:0:
256,192,2711,1,8,0:0:0:0:
256,192,2883,1,0,0:0:0:0:
256,192,3054,1,8,0:0:0:0:
256,192,3226,1,0,0:0:0:0:
256,192,3397,1,8,0:0:0:0:
256,192,3483,1,8,0:0:0:0:
256,192,3568,1,0,0:0:0:0:
256,192,3654,1,8,0:0:0:0:
256,192,3826,1,8,0:0:0:0:
256,192,3911,1,0,0:0:0:0:
256,192,4083,1,8,0:0:0:0:
256,192,4254,1,0,0:0:0:0:
256,192,4340,1,0,0:0:0:0:
256,192,4426,1,8,0:0:0:0:
256,192,4597,1,0,0:0:0:0:
256,192,4768,1,8,0:0:0:0:
256,192,4940,1,0,0:0:0:0:
256,192,5026,1,0,0:0:0:0:
256,192,5111,1,0,0:0:0:0:
256,192,5197,1,0,0:0:0:0:
256,192,5283,1,8,0:0:0:0:
256,192,5454,1,8,0:0:0:0:
256,192,5626,1,0,0:0:0:0:
256,192,5797,1,8,0:0:0:0:
256,192,5968,1,0,0:0:0:0:
256,192,6140,1,8,0:0:0:0:
256,192,6226,1,8,0:0:0:0:
256,192,6311,1,0,0:0:0:0:
256,192,6397,1,8,0:0:0:0:
256,192,6568,1,8,0:0:0:0:
256,192,6654,1,0,0:0:0:0:
256,192,6826,1,8,0:0:0:0:
256,192,6997,1,0,0:0:0:0:
256,192,7083,1,0,0:0:0:0:
256,192,7168,1,8,0:0:0:0:
256,192,7340,1,0,0:0:0:0:
256,192,7511,1,8,0:0:0:0:
256,192,7683,1,0,0:0:0:0:
256,192,7854,1,0,0:0:0:0:
256,192,7940,1,8,0:0:0:0:
256,192,8197,1,8,0:0:0:0:
256,192,8368,1,0,0:0:0:0:
256,192,8540,1,8,0:0:0:0:
256,192,8711,1,0,0:0:0:0:
256,192,8883,1,8,0:0:0:0:
256,192,8968,1,8,0:0:0:0:
256,192,9054,1,0,0:0:0:0:
256,192,9140,1,8,0:0:0:0:
256,192,9311,1,8,0:0:0:0:
256,192,9397,1,0,0:0:0:0:
256,192,9568,1,0,0:0:0:0:
256,192,9740,1,8,0:0:0:0:
256,192,9911,1,8,0:0:0:0:
256,192,9997,1,8,0:0:0:0:
256,192,10083,1,0,0:0:0:0:
256,192,10254,1,0,0:0:0:0:
256,192,10426,1,8,0:0:0:0:
256,192,10511,1,8,0:0:0:0:
256,192,10597,1,0,0:0:0:0:
256,192,10768,1,8,0:0:0:0:
256,192,10854,1,8,0:0:0:0:
256,192,10940,1,0,0:0:0:0:
256,192,11026,1,8,0:0:0:0:
256,192,11111,1,0,0:0:0:0:
256,192,11197,1,0,0:0:0:0:
256,192,11283,1,8,0:0:0:0:
256,192,11454,1,0,0:0:0:0:
256,192,11626,1,8,0:0:0:0:
256,192,11711,1,8,0:0:0:0:
256,192,11797,1,0,0:0:0:0:
256,192,11883,1,8,0:0:0:0:
256,192,12054,1,8,0:0:0:0:
256,192,12140,1,0,0:0:0:0:
256,192,12311,1,8,0:0:0:0:
256,192,12483,1,0,0:0:0:0:
256,192,12568,1,0,0:0:0:0:
256,192,12654,1,8,0:0:0:0:
256,192,12826,1,0,0:0:0:0:
256,192,12997,1,8,0:0:0:0:
256,192,13083,1,8,0:0:0:0:
256,192,13168,1,0,0:0:0:0:
256,192,13340,1,0,0:0:0:0:
256,192,13426,1,8,0:0:0:0:
256,192,13683,1,8,0:0:0:0:
256,192,13854,1,0,0:0:0:0:
256,192,13940,1,0,0:0:0:0:
256,192,14026,1,8,0:0:0:0:
256,192,14197,1,0,0:0:0:0:
256,192,14368,1,8,0:0:0:0:
256,192,14454,1,8,0:0:0:0:
256,192,14540,1,0,0:0:0:0:
256,192,14626,1,8,0:0:0:0:
256,192,14797,1,8,0:0:0:0:
256,192,14883,1,0,0:0:0:0:
256,192,15054,1,8,0:0:0:0:
256,192,15226,1,0,0:0:0:0:
256,192,15311,1,0,0:0:0:0:
256,192,15397,1,8,0:0:0:0:
256,192,15568,1,0,0:0:0:0:
256,192,15740,1,8,0:0:0:0:
256,192,15826,1,8,0:0:0:0:
256,192,15911,1,0,0:0:0:0:
256,192,15997,1,0,0:0:0:0:
256,192,16083,1,0,0:0:0:0:
256,192,16168,1,0,0:0:0:0:
256,192,16254,1,8,0:0:0:0:
256,192,16426,1,8,0:0:0:0:
256,192,16511,1,8,0:0:0:0:
256,192,16597,1,0,0:0:0:0:
256,192,16683,1,0,0:0:0:0:
256,192,16768,1,8,0:0:0:0:
256,192,16940,1,8,0:0:0:0:
256,192,17111,1,8,0:0:0:0:
256,192,17283,1,0,0:0:0:0:
256,192,17368,1,8,0:0:0:0:
256,192,17540,1,8,0:0:0:0:
256,192,17626,1,0,0:0:0:0:
256,192,17797,1,8,0:0:0:0:
256,192,17968,1,0,0:0:0:0:
256,192,18054,1,0,0:0:0:0:
256,192,18140,1,8,0:0:0:0:
256,192,18311,1,8,0:0:0:0:
256,192,18483,1,8,0:0:0:0:
256,192,18654,1,0,0:0:0:0:
256,192,18826,1,0,0:0:0:0:
256,192,18911,1,8,0:0:0:0:
256,192,18997,1,0,0:0:0:0:
256,192,19168,1,8,0:0:0:0:
256,192,19340,1,0,0:0:0:0:
256,192,19426,1,0,0:0:0:0:
256,192,19511,1,8,0:0:0:0:
256,192,19597,1,0,0:0:0:0:
256,192,19683,1,0,0:0:0:0:
256,192,19768,1,0,0:0:0:0:
256,192,19854,1,8,0:0:0:0:
256,192,19940,1,8,0:0:0:0:
256,192,20026,1,0,0:0:0:0:
256,192,20111,1,8,0:0:0:0:
256,192,20197,1,0,0:0:0:0:
256,192,20283,1,8,0:0:0:0:
256,192,20368,1,0,0:0:0:0:
256,192,20540,12,0,21740,0:0:0:0:
256,288,22083,5,4,0:0:0:0:
256,192,22254,1,0,0:0:0:0:
256,192,22340,1,0,0:0:0:0:
256,192,22426,1,8,0:0:0:0:
256,192,22597,1,8,0:0:0:0:
256,192,22768,1,0,0:0:0:0:
256,192,22854,1,0,0:0:0:0:
256,192,22940,1,0,0:0:0:0:
256,192,23111,1,8,0:0:0:0:
256,192,23283,1,0,0:0:0:0:
256,192,23626,1,0,0:0:0:0:
256,192,23711,1,0,0:0:0:0:
256,192,23797,1,8,0:0:0:0:
256,192,23968,1,0,0:0:0:0:
256,192,24140,1,8,0:0:0:0:
256,192,24226,1,8,0:0:0:0:
256,192,24311,1,0,0:0:0:0:
256,192,24483,1,8,0:0:0:0:
256,192,24654,1,0,0:0:0:0:
256,192,24826,1,0,0:0:0:0:
256,192,24911,1,0,0:0:0:0:
256,192,24997,1,0,0:0:0:0:
256,192,25083,1,0,0:0:0:0:
256,192,25168,1,8,0:0:0:0:
256,192,25340,1,0,0:0:0:0:
256,192,25511,1,8,0:0:0:0:
256,192,25597,1,8,0:0:0:0:
256,192,25683,1,0,0:0:0:0:
256,192,25854,1,8,0:0:0:0:
256,192,26026,1,0,0:0:0:0:
256,192,26197,1,8,0:0:0:0:
256,192,26368,1,0,0:0:0:0:
256,192,26454,1,0,0:0:0:0:
256,192,26540,1,8,0:0:0:0:
256,192,26711,1,0,0:0:0:0:
256,192,26883,1,8,0:0:0:0:
256,192,26968,1,8,0:0:0:0:
256,192,27054,1,0,0:0:0:0:
256,192,27140,1,0,0:0:0:0:
256,192,27226,1,8,0:0:0:0:
256,192,27397,1,8,0:0:0:0:
256,192,27483,1,8,0:0:0:0:
256,192,27568,1,0,0:0:0:0:
256,192,27740,1,0,0:0:0:0:
256,192,27826,1,0,0:0:0:0:
256,192,27911,1,8,0:0:0:0:
256,192,28083,1,8,0:0:0:0:
256,192,28254,1,0,0:0:0:0:
256,192,28340,1,0,0:0:0:0:
256,192,28426,1,0,0:0:0:0:
256,192,28597,1,8,0:0:0:0:
256,192,28768,1,0,0:0:0:0:
256,192,29111,1,0,0:0:0:0:
256,192,29197,1,0,0:0:0:0:
256,192,29283,1,8,0:0:0:0:
256,192,29454,1,0,0:0:0:0:
256,192,29626,1,8,0:0:0:0:
256,192,29711,1,8,0:0:0:0:
256,192,29797,1,0,0:0:0:0:
256,192,29968,1,8,0:0:0:0:
256,192,30140,1,0,0:0:0:0:
256,192,30311,1,0,0:0:0:0:
256,192,30397,1,0,0:0:0:0:
256,192,30483,1,0,0:0:0:0:
256,192,30568,1,0,0:0:0:0:
256,192,30654,1,8,0:0:0:0:
256,192,30826,1,0,0:0:0:0:
256,192,30997,1,8,0:0:0:0:
256,192,31083,1,8,0:0:0:0:
256,192,31168,1,0,0:0:0:0:
256,192,31254,1,0,0:0:0:0:
256,192,31340,1,8,0:0:0:0:
256,192,31511,1,0,0:0:0:0:
256,192,31683,1,8,0:0:0:0:
256,192,31854,1,0,0:0:0:0:
256,192,31940,1,0,0:0:0:0:
256,192,32026,1,8,0:0:0:0:
256,192,32197,1,0,0:0:0:0:
256,192,32368,1,8,0:0:0:0:
256,192,32454,1,8,0:0:0:0:
256,192,32540,1,0,0:0:0:0:
256,192,32711,1,8,0:0:0:0:
256,192,32797,1,8,0:0:0:0:
256,192,32883,1,8,0:0:0:0:
256,192,32968,1,8,0:0:0:0:
256,192,33054,1,0,0:0:0:0:
256,192,33226,1,0,0:0:0:0:
256,192,33311,1,0,0:0:0:0:
256,192,33397,1,8,0:0:0:0:
256,192,33568,1,0,0:0:0:0:
256,192,33740,1,8,0:0:0:0:
256,192,33826,1,8,0:0:0:0:
256,192,33911,1,0,0:0:0:0:
256,192,34083,1,8,0:0:0:0:
256,192,34254,1,0,0:0:0:0:
256,192,34426,1,8,0:0:0:0:
256,192,34597,1,0,0:0:0:0:
256,192,34683,1,0,0:0:0:0:
256,192,34768,1,8,0:0:0:0:
256,192,34940,1,0,0:0:0:0:
256,192,35111,1,8,0:0:0:0:
256,192,35283,1,0,0:0:0:0:
256,192,35454,1,8,0:0:0:0:
256,192,35540,1,8,0:0:0:0:
256,192,35626,1,0,0:0:0:0:
256,192,35797,1,0,0:0:0:0:
256,192,35883,1,0,0:0:0:0:
256,192,35968,1,0,0:0:0:0:
256,192,36054,1,0,0:0:0:0:
256,192,36140,1,8,0:0:0:0:
256,192,36311,1,0,0:0:0:0:
256,192,36483,1,8,0:0:0:0:
256,192,36568,1,8,0:0:0:0:
256,192,36654,1,0,0:0:0:0:
256,192,36826,1,8,0:0:0:0:
256,192,36997,1,0,0:0:0:0:
256,192,37168,1,8,0:0:0:0:
256,192,37340,1,0,0:0:0:0:
256,192,37426,1,0,0:0:0:0:
256,192,37511,1,8,0:0:0:0:
256,192,37683,1,0,0:0:0:0:
256,192,37854,1,8,0:0:0:0:
256,192,37940,1,8,0:0:0:0:
256,192,38026,1,0,0:0:0:0:
256,192,38197,1,8,0:0:0:0:
256,192,38283,1,8,0:0:0:0:
256,192,38368,1,8,0:0:0:0:
256,192,38454,1,8,0:0:0:0:
256,192,38540,1,0,0:0:0:0:
256,192,38711,1,0,0:0:0:0:
256,192,38797,1,0,0:0:0:0:
256,192,38883,1,8,0:0:0:0:
256,192,39054,1,0,0:0:0:0:
256,192,39226,1,8,0:0:0:0:
256,192,39311,1,8,0:0:0:0:
256,192,39397,1,0,0:0:0:0:
256,192,39483,1,0,0:0:0:0:
256,192,39568,1,8,0:0:0:0:
256,192,39740,1,0,0:0:0:0:
256,192,39911,1,8,0:0:0:0:
256,192,40083,1,0,0:0:0:0:
256,192,40168,1,0,0:0:0:0:
256,192,40254,1,8,0:0:0:0:
256,192,40426,1,0,0:0:0:0:
256,192,40597,1,8,0:0:0:0:
256,192,40683,1,8,0:0:0:0:
256,192,40768,1,0,0:0:0:0:
256,192,40854,1,0,0:0:0:0:
256,192,40940,1,8,0:0:0:0:
256,192,41111,1,8,0:0:0:0:
256,192,41283,1,0,0:0:0:0:
256,192,41368,1,8,0:0:0:0:
256,192,41454,1,8,0:0:0:0:
256,192,41540,1,0,0:0:0:0:
256,192,41626,1,8,0:0:0:0:
256,192,41711,1,8,0:0:0:0:
256,192,41797,1,0,0:0:0:0:
256,192,41883,1,8,0:0:0:0:
256,192,41968,1,0,0:0:0:0:
256,192,42054,1,0,0:0:0:0:
256,192,42140,1,8,0:0:0:0:
256,192,42226,1,8,0:0:0:0:
256,192,42311,1,0,0:0:0:0:
256,192,42397,1,8,0:0:0:0:
256,192,42483,1,8,0:0:0:0:
256,192,42568,1,8,0:0:0:0:
256,192,42654,1,0,0:0:0:0:
256,192,42826,1,0,0:0:0:0:
256,192,42997,1,8,0:0:0:0:
256,192,43168,1,0,0:0:0:0:
256,192,43254,1,0,0:0:0:0:
256,192,43340,1,0,0:0:0:0:
256,192,43511,1,0,0:0:0:0:
256,96,43683,1,12,0:0:0:0:
256,192,44026,1,8,0:0:0:0:
256,192,44197,1,0,0:0:0:0:
256,192,44368,1,0,0:0:0:0:
256,192,44540,1,8,0:0:0:0:
256,192,44883,1,0,0:0:0:0:
256,192,45054,1,0,0:0:0:0:
256,192,45226,1,8,0:0:0:0:
256,192,45568,1,0,0:0:0:0:
256,192,45740,1,0,0:0:0:0:
256,192,45911,1,8,0:0:0:0:
256,192,46083,1,8,0:0:0:0:
256,192,46254,1,0,0:0:0:0:
256,192,46426,1,0,0:0:0:0:
256,192,46768,1,8,0:0:0:0:
256,192,46940,1,0,0:0:0:0:
256,192,47111,1,8,0:0:0:0:
256,192,47283,1,8,0:0:0:0:
256,192,47626,1,0,0:0:0:0:
256,192,47797,1,8,0:0:0:0:
256,192,47968,1,8,0:0:0:0:
256,192,48311,1,0,0:0:0:0:
256,192,48483,1,8,0:0:0:0:
256,192,48654,1,8,0:0:0:0:
256,192,48826,1,8,0:0:0:0:
256,192,48997,1,0,0:0:0:0:
256,192,49168,1,8,0:0:0:0:
256,192,49340,1,8,0:0:0:0:
256,192,49511,1,0,0:0:0:0:
256,192,49854,1,8,0:0:0:0:
256,192,50197,1,8,0:0:0:0:
256,192,50368,1,0,0:0:0:0:
256,192,50711,1,8,0:0:0:0:
256,192,51226,1,8,0:0:0:0:
256,192,51568,1,8,0:0:0:0:
256,192,51740,1,0,0:0:0:0:
256,192,52083,1,8,0:0:0:0:
256,192,52597,1,8,0:0:0:0:
256,192,52940,1,8,0:0:0:0:
256,192,53111,1,0,0:0:0:0:
256,192,53454,1,8,0:0:0:0:
256,192,53968,1,8,0:0:0:0:
256,192,54311,1,8,0:0:0:0:
256,192,54483,1,0,0:0:0:0:
256,192,54997,1,0,0:0:0:0:
256,192,55168,1,0,0:0:0:0:
256,192,55340,1,0,0:0:0:0:
256,192,55511,1,8,0:0:0:0:
256,192,55854,1,0,0:0:0:0:
256,192,56026,1,0,0:0:0:0:
256,192,56197,1,8,0:0:0:0:
256,192,56540,1,0,0:0:0:0:
256,192,56711,1,0,0:0:0:0:
256,192,56883,1,8,0:0:0:0:
256,192,57054,1,8,0:0:0:0:
256,192,57226,1,0,0:0:0:0:
256,192,57397,1,0,0:0:0:0:
256,192,57740,1,0,0:0:0:0:
256,192,57911,1,0,0:0:0:0:
256,192,58083,1,8,0:0:0:0:
256,192,58254,1,8,0:0:0:0:
256,192,58597,1,0,0:0:0:0:
256,192,58768,1,8,0:0:0:0:
256,192,58940,1,8,0:0:0:0:
256,192,59283,1,0,0:0:0:0:
256,192,59454,1,8,0:0:0:0:
256,192,59626,1,8,0:0:0:0:
256,192,59797,1,8,0:0:0:0:
256,192,59968,1,0,0:0:0:0:
256,192,60140,1,8,0:0:0:0:
256,192,60311,1,8,0:0:0:0:
256,192,60483,1,0,0:0:0:0:
256,192,60826,1,8,0:0:0:0:
256,192,61168,1,8,0:0:0:0:
256,192,61340,1,0,0:0:0:0:
256,192,61683,1,8,0:0:0:0:
256,192,62197,1,8,0:0:0:0:
256,192,62540,1,8,0:0:0:0:
256,192,62711,1,0,0:0:0:0:
256,192,63054,1,8,0:0:0:0:
256,192,63568,1,8,0:0:0:0:
256,192,63911,1,8,0:0:0:0:
256,192,64083,1,0,0:0:0:0:
256,192,64426,1,8,0:0:0:0:
256,192,64940,1,8,0:0:0:0:
256,192,65283,1,0,0:0:0:0:
256,192,65454,1,8,0:0:0:0:
256,96,65968,1,12,0:0:0:0:
256,192,66140,1,0,0:0:0:0:
256,192,66311,1,8,0:0:0:0:
256,192,66483,1,8,0:0:0:0:
256,192,66826,1,0,0:0:0:0:
256,192,66997,1,8,0:0:0:0:
256,192,67168,1,8,0:0:0:0:
256,192,67511,1,0,0:0:0:0:
256,192,67683,1,8,0:0:0:0:
256,192,67854,1,8,0:0:0:0:
256,192,68026,1,8,0:0:0:0:
256,192,68197,1,0,0:0:0:0:
256,192,68368,1,0,0:0:0:0:
256,192,68711,1,8,0:0:0:0:
256,192,68883,1,8,0:0:0:0:
256,192,69054,1,0,0:0:0:0:
256,192,69226,1,8,0:0:0:0:
256,192,69568,1,8,0:0:0:0:
256,192,69740,1,0,0:0:0:0:
256,192,69911,1,8,0:0:0:0:
256,192,70254,1,8,0:0:0:0:
256,192,70426,1,0,0:0:0:0:
256,192,70597,1,8,0:0:0:0:
256,192,70768,1,8,0:0:0:0:
256,192,70940,1,0,0:0:0:0:
256,192,71111,1,8,0:0:0:0:
256,192,71283,1,8,0:0:0:0:
256,192,71454,1,0,0:0:0:0:
256,192,71626,1,0,0:0:0:0:
256,192,71797,1,8,0:0:0:0:
256,192,72054,1,0,0:0:0:0:
256,192,72140,1,8,0:0:0:0:
256,192,72311,1,0,0:0:0:0:
256,192,72483,1,0,0:0:0:0:
256,192,72654,1,8,0:0:0:0:
256,192,72997,1,0,0:0:0:0:
256,192,73168,1,8,0:0:0:0:
256,192,73426,1,0,0:0:0:0:
256,192,73511,1,8,0:0:0:0:
256,192,73683,1,0,0:0:0:0:
256,192,73854,1,0,0:0:0:0:
256,192,74026,1,8,0:0:0:0:
256,192,74368,1,0,0:0:0:0:
256,192,74540,1,8,0:0:0:0:
256,192,74797,1,0,0:0:0:0:
256,192,74883,1,8,0:0:0:0:
256,192,75054,1,0,0:0:0:0:
256,192,75226,1,0,0:0:0:0:
256,192,75397,1,8,0:0:0:0:
256,192,75740,1,0,0:0:0:0:
256,192,75911,1,8,0:0:0:0:
256,192,76168,1,0,0:0:0:0:
256,192,76254,1,8,0:0:0:0:
256,192,76426,1,0,0:0:0:0:
256,96,76940,1,12,0:0:0:0:
256,192,77111,1,0,0:0:0:0:
256,192,77197,1,0,0:0:0:0:
256,192,77283,1,0,0:0:0:0:
256,192,77454,1,8,0:0:0:0:
256,192,77626,1,0,0:0:0:0:
256,192,77711,1,8,0:0:0:0:
256,192,77797,1,0,0:0:0:0:
256,192,77968,1,0,0:0:0:0:
256,192,78140,1,8,0:0:0:0:
256,192,78311,1,8,0:0:0:0:
256,192,78483,1,0,0:0:0:0:
256,192,78568,1,0,0:0:0:0:
256,192,78654,1,0,0:0:0:0:
256,192,78826,1,8,0:0:0:0:
256,192,78997,1,0,0:0:0:0:
256,192,79083,1,8,0:0:0:0:
256,192,79168,1,0,0:0:0:0:
256,192,79340,1,0,0:0:0:0:
256,192,79683,1,8,0:0:0:0:
256,192,79854,1,0,0:0:0:0:
256,192,79940,1,0,0:0:0:0:
256,192,80026,1,8,0:0:0:0:
256,192,80197,1,8,0:0:0:0:
256,192,80368,1,0,0:0:0:0:
256,192,80454,1,8,0:0:0:0:
256,192,80540,1,8,0:0:0:0:
256,192,80711,1,0,0:0:0:0:
256,192,80883,1,8,0:0:0:0:
256,192,81054,1,8,0:0:0:0:
256,192,81140,1,8,0:0:0:0:
256,192,81226,1,0,0:0:0:0:
256,192,81311,1,0,0:0:0:0:
256,192,81397,1,8,0:0:0:0:
256,192,81568,1,0,0:0:0:0:
256,192,81740,1,8,0:0:0:0:
256,192,81911,1,0,0:0:0:0:
256,192,81997,1,0,0:0:0:0:
256,192,82083,1,8,0:0:0:0:
256,192,82254,1,0,0:0:0:0:
256,96,82426,1,12,0:0:0:0:
256,192,82597,1,0,0:0:0:0:
256,192,82683,1,0,0:0:0:0:
256,192,82768,1,8,0:0:0:0:
256,192,82940,1,0,0:0:0:0:
256,192,83111,1,8,0:0:0:0:
256,192,83283,1,0,0:0:0:0:
256,192,83454,1,0,0:0:0:0:
256,192,83540,1,0,0:0:0:0:
256,192,83626,1,8,0:0:0:0:
256,96,83797,1,12,0:0:0:0:
256,192,83968,1,0,0:0:0:0:
256,192,84054,1,0,0:0:0:0:
256,192,84140,1,8,0:0:0:0:
256,192,84226,1,8,0:0:0:0:
256,192,84311,1,0,0:0:0:0:
256,96,84483,1,12,0:0:0:0:
256,192,84654,1,0,0:0:0:0:
256,192,84740,1,0,0:0:0:0:
256,192,84826,1,8,0:0:0:0:
256,192,84911,1,0,0:0:0:0:
256,192,84997,1,8,0:0:0:0:
256,192,85168,1,8,0:0:0:0:
256,192,85254,1,8,0:0:0:0:
256,192,85340,1,0,0:0:0:0:
256,192,85426,1,8,0:0:0:0:
256,192,85511,1,0,0:0:0:0:
256,192,85597,1,0,0:0:0:0:
256,192,85683,1,8,0:0:0:0:
256,192,85768,1,0,0:0:0:0:
256,192,85854,1,8,0:0:0:0:
256,192,85940,1,8,0:0:0:0:
256,192,86026,1,0,0:0:0:0:
256,192,86111,1,0,0:0:0:0:
256,192,86197,1,8,0:0:0:0:
256,192,86283,1,0,0:0:0:0:
256,192,86368,1,0,0:0:0:0:
256,192,86454,1,0,0:0:0:0:
256,192,86540,1,8,0:0:0:0:
256,192,86883,1,0,0:0:0:0:
256,192,87226,12,0,87740,0:0:0:0:
256,288,87911,5,4,0:0:0:0:
256,192,88426,1,0,0:0:0:0:
256,192,88597,1,8,0:0:0:0:
256,192,88768,1,8,0:0:0:0:
256,192,88940,1,0,0:0:0:0:
256,192,88997,1,0,0:0:0:0:
256,192,89054,1,0,0:0:0:0:
256,192,89111,1,8,0:0:0:0:
256,192,89454,1,0,0:0:0:0:
256,192,89540,1,0,0:0:0:0:
256,192,89626,1,8,0:0:0:0:
256,192,89711,1,8,0:0:0:0:
256,192,89797,1,8,0:0:0:0:
256,192,89883,1,8,0:0:0:0:
256,192,89968,1,0,0:0:0:0:
256,192,90054,1,8,0:0:0:0:
256,192,90140,1,8,0:0:0:0:
256,192,90226,1,0,0:0:0:0:
256,192,90311,1,8,0:0:0:0:
256,192,90483,1,8,0:0:0:0:
256,288,90654,1,4,0:0:0:0:
256,192,91168,1,0,0:0:0:0:
256,192,91340,1,8,0:0:0:0:
256,192,91511,1,0,0:0:0:0:
256,192,91568,1,0,0:0:0:0:
256,192,91626,1,0,0:0:0:0:
256,192,91683,1,8,0:0:0:0:
256,192,91797,1,8,0:0:0:0:
256,192,91911,1,8,0:0:0:0:
256,192,92197,1,8,0:0:0:0:
256,192,92368,1,0,0:0:0:0:
256,192,92483,1,0,0:0:0:0:
256,192,92597,1,0,0:0:0:0:
256,192,92711,1,8,0:0:0:0:
256,192,92797,1,8,0:0:0:0:
256,192,92883,1,0,0:0:0:0:
256,192,92968,1,8,0:0:0:0:
256,192,93054,1,0,0:0:0:0:
256,192,93140,1,0,0:0:0:0:
256,192,93226,1,8,0:0:0:0:
256,288,93397,1,4,0:0:0:0:
256,192,93911,1,0,0:0:0:0:
256,192,94083,1,8,0:0:0:0:
256,192,94254,1,8,0:0:0:0:
256,192,94340,1,8,0:0:0:0:
256,192,94426,1,0,0:0:0:0:
256,192,94511,1,0,0:0:0:0:
256,192,94597,1,8,0:0:0:0:
256,192,94683,1,0,0:0:0:0:
256,192,94940,1,8,0:0:0:0:
256,192,95111,1,0,0:0:0:0:
256,192,95283,1,0,0:0:0:0:
256,192,95454,1,8,0:0:0:0:
256,192,95540,1,8,0:0:0:0:
256,192,95626,1,0,0:0:0:0:
256,192,95711,1,0,0:0:0:0:
256,192,95797,1,8,0:0:0:0:
256,192,95968,1,8,0:0:0:0:
256,288,96140,1,4,0:0:0:0:
256,192,96311,1,8,0:0:0:0:
256,192,96397,1,8,0:0:0:0:
256,192,96483,1,0,0:0:0:0:
256,192,96597,1,0,0:0:0:0:
256,192,96711,1,0,0:0:0:0:
256,192,96826,1,8,0:0:0:0:
256,192,96997,1,0,0:0:0:0:
256,192,97054,1,0,0:0:0:0:
256,192,97111,1,0,0:0:0:0:
256,192,97168,1,8,0:0:0:0:
256,192,97283,1,8,0:0:0:0:
256,192,97397,1,8,0:0:0:0:
256,192,97511,1,0,0:0:0:0:
256,192,97683,1,0,0:0:0:0:
256,192,97768,1,8,0:0:0:0:
256,192,97854,1,0,0:0:0:0:
256,192,97968,1,0,0:0:0:0:
256,192,98083,1,0,0:0:0:0:
256,192,98197,1,8,0:0:0:0:
256,192,98368,1,0,0:0:0:0:
256,192,98454,1,0,0:0:0:0:
256,192,98540,1,8,0:0:0:0:
256,192,98626,1,8,0:0:0:0:
256,192,98711,1,8,0:0:0:0:
256,192,98883,12,0,99397,0:0:0:0:
256,96,99568,5,12,0:0:0:0:
256,192,99740,1,0,0:0:0:0:
256,192,99826,1,8,0:0:0:0:
256,192,99911,1,0,0:0:0:0:
256,192,99997,1,0,0:0:0:0:
256,192,100083,1,8,0:0:0:0:
256,192,100426,1,0,0:0:0:0:
256,192,100511,1,0,0:0:0:0:
256,192,100597,1,8,0:0:0:0:
256,192,100683,1,0,0:0:0:0:
256,192,100768,1,8,0:0:0:0:
256,192,100854,1,8,0:0:0:0:
256,192,100940,1,0,0:0:0:0:
256,192,101026,1,8,0:0:0:0:
256,192,101111,1,8,0:0:0:0:
256,192,101197,1,0,0:0:0:0:
256,192,101283,1,8,0:0:0:0:
256,192,101454,1,8,0:0:0:0:
256,288,101626,1,4,0:0:0:0:
256,192,102140,1,0,0:0:0:0:
256,192,102311,1,8,0:0:0:0:
256,192,102483,1,0,0:0:0:0:
256,192,102540,1,0,0:0:0:0:
256,192,102597,1,0,0:0:0:0:
256,192,102654,1,8,0:0:0:0:
256,192,102768,1,8,0:0:0:0:
256,192,102883,1,8,0:0:0:0:
256,192,103168,1,8,0:0:0:0:
256,192,103340,1,0,0:0:0:0:
256,192,103454,1,0,0:0:0:0:
256,192,103568,1,0,0:0:0:0:
256,192,103683,1,8,0:0:0:0:
256,192,103768,1,8,0:0:0:0:
256,192,103854,1,0,0:0:0:0:
256,192,103940,1,8,0:0:0:0:
256,192,104026,1,0,0:0:0:0:
256,192,104111,1,0,0:0:0:0:
256,192,104197,1,8,0:0:0:0:
256,288,104368,1,4,0:0:0:0:
256,192,104626,1,0,0:0:0:0:
256,192,104711,1,8,0:0:0:0:
256,192,104883,1,0,0:0:0:0:
256,192,105054,1,8,0:0:0:0:
256,192,105168,1,8,0:0:0:0:
256,192,105283,1,0,0:0:0:0:
256,192,105397,1,8,0:0:0:0:
256,192,105483,1,8,0:0:0:0:
256,192,105568,1,0,0:0:0:0:
256,192,105654,1,0,0:0:0:0:
256,192,105740,1,0,0:0:0:0:
256,192,105911,1,8,0:0:0:0:
256,192,106083,1,8,0:0:0:0:
256,192,106254,1,8,0:0:0:0:
256,192,106426,1,0,0:0:0:0:
256,192,106511,1,8,0:0:0:0:
256,192,106597,1,8,0:0:0:0:
256,192,106683,1,0,0:0:0:0:
256,192,106768,1,8,0:0:0:0:
256,192,106940,1,8,0:0:0:0:
256,288,107111,1,4,0:0:0:0:
256,192,107283,1,8,0:0:0:0:
256,192,107368,1,8,0:0:0:0:
256,192,107454,1,0,0:0:0:0:
256,192,107568,1,0,0:0:0:0:
256,192,107683,1,0,0:0:0:0:
256,192,107797,1,8,0:0:0:0:
256,192,107968,1,0,0:0:0:0:
256,192,108026,1,0,0:0:0:0:
256,192,108083,1,0,0:0:0:0:
256,192,108140,1,8,0:0:0:0:
256,192,108254,1,8,0:0:0:0:
256,192,108368,1,8,0:0:0:0:
256,96,109511,1,12,0:0:0:0:
256,192,109854,1,0,0:0:0:0:
256,192,110026,1,0,0:0:0:0:
256,192,110197,1,8,0:0:0:0:
256,192,110368,1,0,0:0:0:0:
256,192,110454,1,0,0:0:0:0:
256,192,110540,1,0,0:0:0:0:
256,192,110711,1,8,0:0:0:0:
256,192,111054,1,0,0:0:0:0:
256,192,111226,1,0,0:0:0:0:
256,192,111397,1,8,0:0:0:0:
256,192,111483,1,0,0:0:0:0:
256,192,111568,1,8,0:0:0:0:
256,192,111740,1,0,0:0:0:0:
256,192,111911,1,0,0:0:0:0:
256,192,112083,1,8,0:0:0:0:
256,192,112426,1,0,0:0:0:0:
256,192,112597,1,0,0:0:0:0:
256,192,112768,1,8,0:0:0:0:
256,192,112854,1,8,0:0:0:0:
256,192,112940,1,0,0:0:0:0:
256,192,113111,1,0,0:0:0:0:
256,192,113283,1,8,0:0:0:0:
256,192,113454,1,0,0:0:0:0:
256,192,113797,1,0,0:0:0:0:
256,192,113968,1,0,0:0:0:0:
256,192,114140,1,0,0:0:0:0:
256,192,114226,1,0,0:0:0:0:
256,192,114311,1,8,0:0:0:0:
256,192,114483,1,0,0:0:0:0:
256,192,114654,1,8,0:0:0:0:
256,192,114740,1,8,0:0:0:0:
256,192,114826,1,0,0:0:0:0:
256,192,114997,1,8,0:0:0:0:
256,192,115340,1,8,0:0:0:0:
256,192,115511,1,0,0:0:0:0:
256,192,115597,1,8,0:0:0:0:
256,192,115683,1,0,0:0:0:0:
256,192,115854,1,8,0:0:0:0:
256,192,116026,1,0,0:0:0:0:
256,192,116111,1,0,0:0:0:0:
256,192,116197,1,8,0:0:0:0:
256,192,116540,1,0,0:0:0:0:
256,192,116711,1,0,0:0:0:0:
256,192,116883,1,8,0:0:0:0:
256,192,116968,1,0,0:0:0:0:
256,192,117054,1,8,0:0:0:0:
256,192,117226,1,0,0:0:0:0:
256,192,117397,1,0,0:0:0:0:
256,192,117483,1,0,0:0:0:0:
256,192,117568,1,8,0:0:0:0:
256,192,117911,1,0,0:0:0:0:
256,192,118083,1,0,0:0:0:0:
256,192,118254,1,8,0:0:0:0:
256,192,118340,1,8,0:0:0:0:
256,192,118426,1,0,0:0:0:0:
256,192,118597,1,8,0:0:0:0:
256,192,118768,1,0,0:0:0:0:
256,192,118854,1,0,0:0:0:0:
256,192,118940,1,8,0:0:0:0:
256,192,119283,1,0,0:0:0:0:
256,192,119454,1,8,0:0:0:0:
256,192,119626,1,0,0:0:0:0:
256,192,119711,1,0,0:0:0:0:
256,192,119797,1,8,0:0:0:0:
256,192,119968,1,0,0:0:0:0:
256,192,120140,1,8,0:0:0:0:
256,192,120226,1,8,0:0:0:0:
256,192,120311,1,0,0:0:0:0:
256,192,120483,1,8,0:0:0:0:
256,192,120568,1,8,0:0:0:0:
256,192,120654,1,8,0:0:0:0:
256,192,120740,1,8,0:0:0:0:
256,192,120826,1,0,0:0:0:0:
256,192,120997,1,0,0:0:0:0:
256,192,121168,1,8,0:0:0:0:
256,192,121340,1,0,0:0:0:0:
256,192,121426,1,0,0:0:0:0:
256,192,121511,1,0,0:0:0:0:
256,192,121683,1,8,0:0:0:0:
256,192,121854,1,8,0:0:0:0:
256,192,122026,1,0,0:0:0:0:
256,192,122111,1,8,0:0:0:0:
256,192,122197,1,0,0:0:0:0:
256,192,122368,1,8,0:0:0:0:
256,192,122454,1,0,0:0:0:0:
256,192,122540,1,8,0:0:0:0:
256,192,122711,1,0,0:0:0:0:
256,192,122883,1,0,0:0:0:0:
256,192,123054,1,8,0:0:0:0:
256,192,123226,1,8,0:0:0:0:
256,192,123397,1,0,0:0:0:0:
256,192,123483,1,8,0:0:0:0:
256,192,123568,1,0,0:0:0:0:
256,192,123740,1,8,0:0:0:0:
256,192,123826,1,8,0:0:0:0:
256,192,123911,1,0,0:0:0:0:
256,192,124083,1,0,0:0:0:0:
256,192,124254,1,8,0:0:0:0:
256,192,124426,1,0,0:0:0:0:
256,192,124597,1,8,0:0:0:0:
256,192,124768,1,0,0:0:0:0:
256,192,124854,1,8,0:0:0:0:
256,192,124940,1,0,0:0:0:0:
256,192,125111,1,0,0:0:0:0:
256,192,125197,1,0,0:0:0:0:
256,192,125283,1,8,0:0:0:0:
256,192,125454,1,0,0:0:0:0:
256,192,125626,1,8,0:0:0:0:
256,192,125711,1,8,0:0:0:0:
256,192,125797,1,0,0:0:0:0:
256,192,125968,1,8,0:0:0:0:
256,288,126311,1,4,0:0:0:0:
256,192,126568,1,8,0:0:0:0:
256,192,126654,1,0,0:0:0:0:
256,192,126826,1,8,0:0:0:0:
256,192,126997,1,0,0:0:0:0:
256,192,127083,1,8,0:0:0:0:
256,192,127168,1,0,0:0:0:0:
256,192,127340,1,8,0:0:0:0:
256,288,127511,1,4,0:0:0:0:
256,192,127768,1,0,0:0:0:0:
256,192,127854,1,8,0:0:0:0:
256,192,128026,1,0,0:0:0:0:
256,192,128197,1,8,0:0:0:0:
256,192,128283,1,8,0:0:0:0:
256,192,128368,1,0,0:0:0:0:
256,192,128540,1,0,0:0:0:0:
256,192,128711,1,8,0:0:0:0:
256,288,128883,1,4,0:0:0:0:
256,192,129140,1,8,0:0:0:0:
256,192,129226,1,8,0:0:0:0:
256,192,129397,1,0,0:0:0:0:
256,192,129568,1,8,0:0:0:0:
256,192,129740,1,0,0:0:0:0:
256,192,129911,1,0,0:0:0:0:
256,192,129997,1,8,0:0:0:0:
256,192,130083,1,8,0:0:0:0:
256,192,130254,1,0,0:0:0:0:
256,192,130426,1,8,0:0:0:0:
256,192,130511,1,8,0:0:0:0:
256,192,130597,1,0,0:0:0:0:
256,192,130683,1,0,0:0:0:0:
256,192,130768,1,8,0:0:0:0:
256,192,130854,1,0,0:0:0:0:
256,192,130940,1,0,0:0:0:0:
256,192,131026,1,0,0:0:0:0:
256,192,131111,1,8,0:0:0:0:
256,192,131197,1,8,0:0:0:0:
256,192,131283,1,0,0:0:0:0:
256,96,131454,1,12,0:0:0:0:
256,192,131797,1,8,0:0:0:0:
256,192,132140,1,8,0:0:0:0:
256,192,132483,1,8,0:0:0:0:
256,192,132826,1,8,0:0:0:0:
256,192,133168,1,8,0:0:0:0:
256,192,133511,1,8,0:0:0:0:
256,192,133854,1,8,0:0:0:0:
256,192,134197,1,8,0:0:0:0:
256,192,134368,1,0,0:0:0:0:
256,192,134540,1,8,0:0:0:0:
256,192,134883,1,8,0:0:0:0:
256,192,135226,1,8,0:0:0:0:
256,192,135568,1,8,0:0:0:0:
256,192,135911,1,8,0:0:0:0:
256,192,136254,1,8,0:0:0:0:
256,192,136597,1,8,0:0:0:0:
256,192,136768,1,0,0:0:0:0:
256,192,136940,1,8,0:0:0:0:
256,192,137111,1,0,0:0:0:0:
256,192,137283,1,8,0:0:0:0:
256,192,137626,1,8,0:0:0:0:
256,192,137968,1,8,0:0:0:0:
256,192,138311,1,8,0:0:0:0:
256,192,138654,1,8,0:0:0:0:
256,192,138997,1,8,0:0:0:0:
256,192,139340,1,8,0:0:0:0:
256,192,139683,1,8,0:0:0:0:
256,192,139854,1,0,0:0:0:0:
256,192,140026,1,8,0:0:0:0:
256,192,140368,1,8,0:0:0:0:
256,192,140711,1,8,0:0:0:0:
256,192,141054,1,8,0:0:0:0:
256,192,141397,1,8,0:0:0:0:
256,192,141568,1,0,0:0:0:0:
256,192,141740,1,8,0:0:0:0:
256,192,141911,1,0,0:0:0:0:
256,192,142083,1,8,0:0:0:0:
256,192,142254,1,0,0:0:0:0:
256,192,142340,1,0,0:0:0:0:
256,192,142426,1,8,0:0:0:0:
256,96,142768,1,12,0:0:0:0:
256,192,142940,1,0,0:0:0:0:
256,192,143026,1,0,0:0:0:0:
256,192,143111,1,8,0:0:0:0:
256,192,143283,1,0,0:0:0:0:
256,192,143454,1,8,0:0:0:0:
256,192,143540,1,8,0:0:0:0:
256,192,143626,1,0,0:0:0:0:
256,192,143797,1,8,0:0:0:0:
256,192,143968,1,0,0:0:0:0:
256,192,144140,1,8,0:0:0:0:
256,192,144311,1,0,0:0:0:0:
256,192,144397,1,0,0:0:0:0:
256,192,144483,1,8,0:0:0:0:
256,192,144654,1,0,0:0:0:0:
256,192,144826,1,8,0:0:0:0:
256,192,144911,1,8,0:0:0:0:
256,192,144997,1,0,0:0:0:0:
256,192,145083,1,0,0:0:0:0:
256,192,145168,1,8,0:0:0:0:
256,192,145254,1,0,0:0:0:0:
256,192,145340,1,0,0:0:0:0:
256,192,145511,1,8,0:0:0:0:
256,192,145683,1,0,0:0:0:0:
256,192,145768,1,0,0:0:0:0:
256,192,145854,1,8,0:0:0:0:
256,192,146026,1,0,0:0:0:0:
256,192,146197,1,8,0:0:0:0:
256,192,146283,1,0,0:0:0:0:
256,192,146368,1,0,0:0:0:0:
256,192,146540,1,8,0:0:0:0:
256,192,146711,1,0,0:0:0:0:
256,192,146883,1,8,0:0:0:0:
256,192,147054,1,0,0:0:0:0:
256,192,147140,1,0,0:0:0:0:
256,192,147226,1,8,0:0:0:0:
256,192,147397,1,0,0:0:0:0:
256,192,147568,1,8,0:0:0:0:
256,192,147654,1,8,0:0:0:0:
256,192,147740,1,0,0:0:0:0:
256,192,147826,1,0,0:0:0:0:
256,192,147911,1,8,0:0:0:0:
256,192,147997,1,8,0:0:0:0:
256,192,148083,1,0,0:0:0:0:
256,192,148254,1,8,0:0:0:0:
256,192,148340,1,8,0:0:0:0:
256,192,148426,1,0,0:0:0:0:
256,192,148511,1,0,0:0:0:0:
256,192,148597,1,8,0:0:0:0:
256,192,148683,1,0,0:0:0:0:
256,192,148768,1,8,0:0:0:0:
256,192,148854,1,8,0:0:0:0:
256,192,148940,1,0,0:0:0:0:
256,192,149026,1,8,0:0:0:0:
256,192,149111,1,0,0:0:0:0:
256,192,149197,1,0,0:0:0:0:
256,192,149283,1,8,0:0:0:0:
256,192,149368,1,0,0:0:0:0:
256,192,149454,1,8,0:0:0:0:
256,192,149540,1,8,0:0:0:0:
256,192,149626,1,0,0:0:0:0:
256,192,149711,1,8,0:0:0:0:
256,192,149797,1,8,0:0:0:0:
256,192,149883,1,0,0:0:0:0:
256,192,149968,1,8,0:0:0:0:
256,192,150054,1,8,0:0:0:0:
256,192,150140,1,0,0:0:0:0:
256,192,150226,1,8,0:0:0:0:
256,192,150311,1,0,0:0:0:0:
256,192,150397,1,0,0:0:0:0:
256,192,150483,1,8,0:0:0:0:
256,192,150568,1,8,0:0:0:0:
256,192,150654,1,0,0:0:0:0:
256,192,150740,1,8,0:0:0:0:
256,192,150826,1,8,0:0:0:0:
256,192,150997,12,0,152711,0:0:0:0:
256,192,153054,5,8,0:0:0:0:
256,192,153311,1,8,0:0:0:0:
256,192,153483,1,8,0:0:0:0:
256,192,153568,1,0,0:0:0:0:
256,288,153740,1,4,0:0:0:0:
256,192,154083,1,8,0:0:0:0:
256,192,154254,1,0,0:0:0:0:
256,192,154597,1,0,0:0:0:0:
256,192,154654,1,0,0:0:0:0:
256,192,154711,1,0,0:0:0:0:
256,192,154768,1,8,0:0:0:0:
256,192,154883,1,8,0:0:0:0:
256,192,154997,1,8,0:0:0:0:
256,192,155111,1,0,0:0:0:0:
256,192,155283,1,0,0:0:0:0:
256,192,155454,1,8,0:0:0:0:
256,192,155540,1,8,0:0:0:0:
256,192,155626,1,0,0:0:0:0:
256,192,155797,1,8,0:0:0:0:
256,192,155883,1,8,0:0:0:0:
256,192,155968,1,0,0:0:0:0:
256,192,156054,1,0,0:0:0:0:
256,192,156140,1,8,0:0:0:0:
256,192,156483,1,0,0:0:0:0:
256,192,156597,1,0,0:0:0:0:
256,192,156711,1,0,0:0:0:0:
256,192,156826,1,8,0:0:0:0:
256,192,156940,1,0,0:0:0:0:
256,192,157054,1,0,0:0:0:0:
256,192,157340,1,0,0:0:0:0:
256,192,157511,1,8,0:0:0:0:
256,192,157597,1,0,0:0:0:0:
256,192,157683,1,8,0:0:0:0:
256,192,157854,1,0,0:0:0:0:
256,192,158026,1,0,0:0:0:0:
256,192,158111,1,8,0:0:0:0:
256,192,158197,1,8,0:0:0:0:
256,192,158283,1,8,0:0:0:0:
256,192,158368,1,0,0:0:0:0:
256,192,158454,1,0,0:0:0:0:
256,192,158540,1,8,0:0:0:0:
256,192,158711,1,0,0:0:0:0:
256,192,158797,1,8,0:0:0:0:
256,192,158883,1,8,0:0:0:0:
256,192,159054,1,8,0:0:0:0:
256,192,159226,1,0,0:0:0:0:
256,192,159397,1,0,0:0:0:0:
256,192,159483,1,0,0:0:0:0:
256,192,159568,1,8,0:0:0:0:
256,192,159740,1,0,0:0:0:0:
256,192,159911,1,8,0:0:0:0:
256,192,159997,1,8,0:0:0:0:
256,192,160083,1,0,0:0:0:0:
256,192,160254,1,8,0:0:0:0:
256,192,160368,1,8,0:0:0:0:
256,192,160483,1,8,0:0:0:0:
256,192,160597,1,0,0:0:0:0:
256,192,160768,1,0,0:0:0:0:
256,192,160854,1,0,0:0:0:0:
256,192,160940,1,8,0:0:0:0:
256,192,161111,1,0,0:0:0:0:
256,192,161283,1,8,0:0:0:0:
256,192,161368,1,8,0:0:0:0:
256,192,161454,1,0,0:0:0:0:
256,192,161540,1,0,0:0:0:0:
256,192,161626,1,8,0:0:0:0:
256,192,161711,1,8,0:0:0:0:
256,192,161797,1,8,0:0:0:0:
256,192,161968,1,0,0:0:0:0:
256,192,162140,1,0,0:0:0:0:
256,192,162226,1,0,0:0:0:0:
256,192,162311,1,8,0:0:0:0:
256,192,162483,1,0,0:0:0:0:
256,192,162654,1,8,0:0:0:0:
256,192,162740,1,8,0:0:0:0:
256,192,162826,1,0,0:0:0:0:
256,192,162997,1,8,0:0:0:0:
256,192,163168,1,8,0:0:0:0:
256,192,163254,1,8,0:0:0:0:
256,192,163340,1,0,0:0:0:0:
256,192,163511,1,0,0:0:0:0:
256,192,163597,1,0,0:0:0:0:
256,192,163683,1,8,0:0:0:0:
256,192,163854,1,0,0:0:0:0:
256,192,164026,1,8,0:0:0:0:
256,192,164111,1,8,0:0:0:0:
256,192,164197,1,0,0:0:0:0:
256,192,164368,1,8,0:0:0:0:
256,192,164711,1,0,0:0:0:0:
256,192,164883,1,0,0:0:0:0:
256,192,164968,1,0,0:0:0:0:
256,192,165054,1,8,0:0:0:0:
256,192,165226,1,0,0:0:0:0:
256,192,165568,1,0,0:0:0:0:
256,192,165626,1,0,0:0:0:0:
256,192,165683,1,0,0:0:0:0:
256,192,165740,1,8,0:0:0:0:
256,192,165854,1,8,0:0:0:0:
256,192,165968,1,8,0:0:0:0:
256,192,166083,1,0,0:0:0:0:
256,192,166254,1,0,0:0:0:0:
256,192,166426,1,8,0:0:0:0:
256,192,166511,1,8,0:0:0:0:
256,192,166597,1,0,0:0:0:0:
256,192,166768,1,8,0:0:0:0:
256,192,166854,1,8,0:0:0:0:
256,192,166940,1,0,0:0:0:0:
256,192,167026,1,0,0:0:0:0:
256,192,167111,1,8,0:0:0:0:
256,192,167454,1,0,0:0:0:0:
256,192,167568,1,0,0:0:0:0:
256,192,167683,1,0,0:0:0:0:
256,192,167797,1,8,0:0:0:0:
256,192,167911,1,0,0:0:0:0:
256,192,168026,1,0,0:0:0:0:
256,192,168311,1,0,0:0:0:0:
256,192,168483,1,8,0:0:0:0:
256,192,168568,1,0,0:0:0:0:
256,192,168654,1,8,0:0:0:0:
256,192,168826,1,0,0:0:0:0:
256,192,168997,1,0,0:0:0:0:
256,192,169083,1,8,0:0:0:0:
256,192,169168,1,8,0:0:0:0:
256,192,169254,1,8,0:0:0:0:
256,192,169340,1,0,0:0:0:0:
256,192,169426,1,0,0:0:0:0:
256,192,169511,1,8,0:0:0:0:
256,192,169683,1,0,0:0:0:0:
256,192,169768,1,8,0:0:0:0:
256,192,169854,1,8,0:0:0:0:
256,192,170026,1,8,0:0:0:0:
256,192,170197,1,0,0:0:0:0:
256,192,170283,1,0,0:0:0:0:
256,192,170368,1,0,0:0:0:0:
256,192,170540,1,8,0:0:0:0:
256,192,170711,1,0,0:0:0:0:
256,192,170797,1,0,0:0:0:0:
256,192,170883,1,8,0:0:0:0:
256,192,170968,1,8,0:0:0:0:
256,192,171054,1,0,0:0:0:0:
256,192,171226,1,8,0:0:0:0:
256,192,171340,1,8,0:0:0:0:
256,192,171454,1,8,0:0:0:0:
256,192,171568,1,0,0:0:0:0:
256,192,171654,1,0,0:0:0:0:
256,192,171740,1,0,0:0:0:0:
256,192,171911,1,8,0:0:0:0:
256,192,172083,1,0,0:0:0:0:
256,192,172168,1,0,0:0:0:0:
256,192,172254,1,8,0:0:0:0:
256,192,172340,1,8,0:0:0:0:
256,192,172426,1,0,0:0:0:0:
256,192,172511,1,0,0:0:0:0:
256,192,172597,1,8,0:0:0:0:
256,192,172683,1,8,0:0:0:0:
256,192,172768,1,8,0:0:0:0:
256,192,172940,1,0,0:0:0:0:
256,192,173026,1,0,0:0:0:0:
256,192,173111,1,0,0:0:0:0:
256,192,173283,1,8,0:0:0:0:
256,192,173454,1,0,0:0:0:0:
256,192,173540,1,0,0:0:0:0:
256,192,173626,1,8,0:0:0:0:
256,192,173711,1,8,0:0:0:0:
256,192,173797,1,0,0:0:0:0:
256,192,173968,1,8,0:0:0:0:
256,192,174140,1,8,0:0:0:0:
256,192,174226,1,8,0:0:0:0:
256,192,174311,1,0,0:0:0:0:
256,192,174483,1,0,0:0:0:0:
256,192,174654,1,8,0:0:0:0:
256,192,174826,1,0,0:0:0:0:
256,192,174911,1,8,0:0:0:0:
256,192,174997,1,0,0:0:0:0:
256,192,175168,1,0,0:0:0:0:
256,192,175340,1,8,0:0:0:0:
256,288,175683,1,4,0:0:0:0:
256,192,176197,1,0,0:0:0:0:
256,192,176368,1,8,0:0:0:0:
256,192,176711,1,0,0:0:0:0:
256,192,176883,1,0,0:0:0:0:
256,192,176968,1,0,0:0:0:0:
256,192,177054,1,0,0:0:0:0:
256,192,177226,1,8,0:0:0:0:
256,192,177397,1,0,0:0:0:0:
256,192,177740,1,8,0:0:0:0:
256,192,177911,1,0,0:0:0:0:
256,192,177997,1,0,0:0:0:0:
256,192,178083,1,8,0:0:0:0:
256,192,178426,1,0,0:0:0:0:
256,192,178940,1,0,0:0:0:0:
256,192,179111,1,8,0:0:0:0:
256,192,179454,1,8,0:0:0:0:
256,192,179626,1,0,0:0:0:0:
256,192,179711,1,0,0:0:0:0:
256,192,179797,1,0,0:0:0:0:
256,192,179968,1,8,0:0:0:0:
256,192,180140,1,0,0:0:0:0:
256,192,180226,1,8,0:0:0:0:
256,192,180311,1,8,0:0:0:0:
256,192,180397,1,8,0:0:0:0:
256,192,180483,1,0,0:0:0:0:
256,192,180654,1,0,0:0:0:0:
256,192,180740,1,8,0:0:0:0:
256,192,180826,1,0,0:0:0:0:
256,192,180911,1,0,0:0:0:0:
256,192,180997,1,0,0:0:0:0:
256,192,181083,1,0,0:0:0:0:
256,192,181168,1,0,0:0:0:0:
256,192,181340,1,8,0:0:0:0:
256,192,181426,1,8,0:0:0:0:
256,192,181511,1,0,0:0:0:0:
256,192,181683,1,8,0:0:0:0:
256,192,181854,1,0,0:0:0:0:
256,192,182026,1,0,0:0:0:0:
256,192,182111,1,8,0:0:0:0:
256,192,182197,1,8,0:0:0:0:
256,192,182283,1,8,0:0:0:0:
256,192,182368,1,0,0:0:0:0:
256,192,182711,1,8,0:0:0:0:
256,192,182797,1,8,0:0:0:0:
256,192,182883,1,0,0:0:0:0:
256,192,183054,1,8,0:0:0:0:
256,192,183226,1,0,0:0:0:0:
256,192,183397,1,0,0:0:0:0:
256,192,183483,1,0,0:0:0:0:
256,192,183568,1,8,0:0:0:0:
256,192,183654,1,8,0:0:0:0:
256,192,183740,1,0,0:0:0:0:
256,192,184083,1,8,0:0:0:0:
256,192,184168,1,8,0:0:0:0:
256,192,184254,1,0,0:0:0:0:
256,192,184426,1,8,0:0:0:0:
256,192,184597,1,0,0:0:0:0:
256,192,184768,1,0,0:0:0:0:
256,192,184854,1,0,0:0:0:0:
256,192,184940,1,0,0:0:0:0:
256,192,185026,1,8,0:0:0:0:
256,192,185111,1,0,0:0:0:0:
256,192,185283,1,0,0:0:0:0:
256,192,185454,1,8,0:0:0:0:
256,192,185540,1,8,0:0:0:0:
256,192,185626,1,0,0:0:0:0:
256,192,185797,1,0,0:0:0:0:
256,192,185883,1,8,0:0:0:0:
256,192,185968,1,0,0:0:0:0:
256,192,186140,1,0,0:0:0:0:
256,192,186311,1,8,0:0:0:0:
256,192,186654,1,0,0:0:0:0:
256,192,186826,1,0,0:0:0:0:
256,192,186997,1,8,0:0:0:0:
256,192,187168,1,0,0:0:0:0:
256,192,187340,1,8,0:0:0:0:
256,192,187683,1,0,0:0:0:0:
256,192,187854,1,0,0:0:0:0:
256,192,187940,1,0,0:0:0:0:
256,192,188026,1,0,0:0:0:0:
256,192,188197,1,8,0:0:0:0:
256,192,188368,1,0,0:0:0:0:
256,192,188540,1,0,0:0:0:0:
256,192,188711,1,8,0:0:0:0:
256,192,188883,1,0,0:0:0:0:
256,192,188968,1,0,0:0:0:0:
256,192,189054,1,8,0:0:0:0:
256,192,189226,1,8,0:0:0:0:
256,192,189397,1,0,0:0:0:0:
256,192,189568,1,0,0:0:0:0:
256,192,189740,1,8,0:0:0:0:
256,192,189911,1,0,0:0:0:0:
256,192,190083,1,8,0:0:0:0:
256,192,190426,1,8,0:0:0:0:
256,192,190597,1,0,0:0:0:0:
256,192,190683,1,0,0:0:0:0:
256,192,190768,1,0,0:0:0:0:
256,192,190940,1,8,0:0:0:0:
256,192,191111,1,0,0:0:0:0:
256,192,191197,1,0,0:0:0:0:
256,192,191283,1,8,0:0:0:0:
256,192,191368,1,0,0:0:0:0:
256,192,191454,1,8,0:0:0:0:
256,192,191626,1,0,0:0:0:0:
256,192,191797,1,8,0:0:0:0:
256,192,191883,1,8,0:0:0:0:
256,192,191968,1,8,0:0:0:0:
256,192,192054,1,8,0:0:0:0:
256,192,192140,1,0,0:0:0:0:
256,192,192311,1,8,0:0:0:0:
256,192,192483,1,0,0:0:0:0:
256,192,192568,1,0,0:0:0:0:
256,192,192654,1,8,0:0:0:0:
256,192,192826,1,0,0:0:0:0:
256,192,192997,1,0,0:0:0:0:
256,192,193083,1,0,0:0:0:0:
256,192,193168,1,0,0:0:0:0:
256,192,193254,1,8,0:0:0:0:
256,192,193340,1,0,0:0:0:0:
256,192,193683,1,8,0:0:0:0:
256,192,193854,1,0,0:0:0:0:
256,192,193940,1,0,0:0:0:0:
256,192,194026,1,8,0:0:0:0:
256,192,194197,1,0,0:0:0:0:
256,192,194368,1,0,0:0:0:0:
256,192,194454,1,0,0:0:0:0:
256,192,194540,1,8,0:0:0:0:
256,192,194626,1,8,0:0:0:0:
256,192,194711,1,0,0:0:0:0:
256,192,195054,1,8,0:0:0:0:
256,192,195226,1,0,0:0:0:0:
256,192,195311,1,0,0:0:0:0:
256,192,195397,1,8,0:0:0:0:
256,192,195568,1,0,0:0:0:0:
256,192,195740,1,0,0:0:0:0:
256,192,195826,1,8,0:0:0:0:
256,192,195911,1,8,0:0:0:0:
256,192,195997,1,8,0:0:0:0:
256,192,196083,1,0,0:0:0:0:
256,192,196254,1,8,0:0:0:0:
256,192,196426,1,8,0:0:0:0:
256,192,196597,1,8,0:0:0:0:
256,192,196768,1,8,0:0:0:0:
256,192,196854,1,8,0:0:0:0:
256,192,196940,1,0,0:0:0:0:
256,192,197111,1,0,0:0:0:0:
256,96,197283,1,12,0:0:0:0:
256,192,197626,1,0,0:0:0:0:
256,192,198997,1,8,0:0:0:0:
256,192,200368,1,0,0:0:0:0:
256,192,200711,1,8,0:0:0:0:
256,192,200883,1,0,0:0:0:0:
256,192,201226,1,0,0:0:0:0:
256,192,201397,1,8,0:0:0:0:
256,192,203111,1,0,0:0:0:0:
256,192,204483,1,8,0:0:0:0:
256,192,205854,1,8,0:0:0:0:
256,192,206197,1,8,0:0:0:0:
256,192,206368,1,0,0:0:0:0:
256,192,206711,1,0,0:0:0:0:
256,192,206883,1,8,0:0:0:0:
256,288,208597,1,4,0:0:0:0:
256,192,209968,1,8,0:0:0:0:
256,192,211340,1,0,0:0:0:0:
256,192,211683,1,8,0:0:0:0:
256,192,211854,1,0,0:0:0:0:
256,192,212197,1,0,0:0:0:0:
256,192,212368,1,8,0:0:0:0:
256,192,214083,1,0,0:0:0:0:
256,192,215454,1,8,0:0:0:0:
256,192,216826,1,0,0:0:0:0:
256,192,217511,1,8,0:0:0:0:
256,192,217854,1,8,0:0:0:0:
256,192,218540,1,0,0:0:0:0:
256,192,218883,1,8,0:0:0:0:
256,96,219226,1,12,0:0:0:0:
256,192,219568,1,8,0:0:0:0:
256,192,219740,1,0,0:0:0:0:
256,192,219911,1,0,0:0:0:0:
256,192,220083,1,8,0:0:0:0:
256,192,220426,1,0,0:0:0:0:
256,192,220597,1,0,0:0:0:0:
256,192,220768,1,8,0:0:0:0:
256,192,221111,1,0,0:0:0:0:
256,192,221283,1,0,0:0:0:0:
256,192,221454,1,8,0:0:0:0:
256,192,221626,1,8,0:0:0:0:
256,192,221797,1,0,0:0:0:0:
256,192,221968,1,0,0:0:0:0:
256,192,222311,1,8,0:0:0:0:
256,192,222483,1,0,0:0:0:0:
256,192,222654,1,8,0:0:0:0:
256,192,222826,1,8,0:0:0:0:
256,192,223168,1,0,0:0:0:0:
256,192,223340,1,8,0:0:0:0:
256,192,223511,1,8,0:0:0:0:
256,192,223854,1,0,0:0:0:0:
256,192,224026,1,8,0:0:0:0:
256,192,224197,1,8,0:0:0:0:
256,192,224368,1,8,0:0:0:0:
256,192,224540,1,0,0:0:0:0:
256,192,224711,1,8,0:0:0:0:
256,192,224883,1,8,0:0:0:0:
256,192,225054,1,0,0:0:0:0:
256,192,225397,1,8,0:0:0:0:
256,192,225568,1,0,0:0:0:0:
256,192,225740,1,8,0:0:0:0:
256,192,225911,1,0,0:0:0:0:
256,192,226254,1,8,0:0:0:0:
256,192,226597,1,0,0:0:0:0:
256,192,226768,1,8,0:0:0:0:
256,192,226940,1,0,0:0:0:0:
256,192,227111,1,8,0:0:0:0:
256,192,227283,1,0,0:0:0:0:
256,192,227626,1,8,0:0:0:0:
256,192,227968,1,0,0:0:0:0:
256,192,228140,1,8,0:0:0:0:
256,192,228311,1,0,0:0:0:0:
256,192,228483,1,8,0:0:0:0:
256,192,228654,1,0,0:0:0:0:
256,192,228997,1,8,0:0:0:0:
256,192,229340,1,0,0:0:0:0:
256,192,229511,1,8,0:0:0:0:
256,192,229683,1,0,0:0:0:0:
256,192,229854,1,8,0:0:0:0:
256,192,230026,1,0,0:0:0:0:
256,288,230540,1,4,0:0:0:0:
256,192,230711,1,0,0:0:0:0:
256,192,230797,1,8,0:0:0:0:
256,192,230883,1,0,0:0:0:0:
256,192,231054,1,8,0:0:0:0:
256,192,231226,1,0,0:0:0:0:
256,192,231311,1,0,0:0:0:0:
256,192,231397,1,8,0:0:0:0:
256,192,231568,1,0,0:0:0:0:
256,192,231740,1,8,0:0:0:0:
256,192,231826,1,8,0:0:0:0:
256,192,231911,1,0,0:0:0:0:
256,192,232083,1,0,0:0:0:0:
256,192,232254,1,8,0:0:0:0:
256,192,232340,1,8,0:0:0:0:
256,192,232426,1,0,0:0:0:0:
256,192,232511,1,8,0:0:0:0:
256,192,232597,1,0,0:0:0:0:
256,192,232683,1,0,0:0:0:0:
256,192,232768,1,8,0:0:0:0:
256,192,232854,1,8,0:0:0:0:
256,192,232940,1,0,0:0:0:0:
256,192,233111,1,8,0:0:0:0:
256,288,233283,1,4,0:0:0:0:
256,192,233454,1,8,0:0:0:0:
256,192,233540,1,8,0:0:0:0:
256,192,233626,1,0,0:0:0:0:
256,192,233797,1,8,0:0:0:0:
256,192,233968,1,0,0:0:0:0:
256,192,234054,1,0,0:0:0:0:
256,192,234140,1,8,0:0:0:0:
256,192,234311,1,0,0:0:0:0:
256,192,234483,1,0,0:0:0:0:
256,192,234568,1,8,0:0:0:0:
256,192,234654,1,0,0:0:0:0:
256,192,234826,1,8,0:0:0:0:
256,192,234997,1,0,0:0:0:0:
256,192,235083,1,0,0:0:0:0:
256,192,235168,1,8,0:0:0:0:
256,192,235254,1,0,0:0:0:0:
256,192,235340,1,8,0:0:0:0:
256,192,235426,1,8,0:0:0:0:
256,192,235511,1,0,0:0:0:0:
256,192,235597,1,0,0:0:0:0:
256,192,235683,1,8,0:0:0:0:
256,192,235854,1,0,0:0:0:0:
256,192,236026,1,0,0:0:0:0:
256,192,236111,1,8,0:0:0:0:
256,192,236197,1,0,0:0:0:0:
256,192,236283,1,0,0:0:0:0:
256,192,236368,1,8,0:0:0:0:
256,192,236454,1,8,0:0:0:0:
256,192,236540,1,8,0:0:0:0:
256,192,236626,1,0,0:0:0:0:
256,192,236711,1,8,0:0:0:0:
256,192,236797,1,8,0:0:0:0:
256,192,236883,1,0,0:0:0:0:
256,192,236968,1,0,0:0:0:0:
256,192,237054,1,8,0:0:0:0:
256,192,237140,1,0,0:0:0:0:
256,192,237226,1,8,0:0:0:0:
256,192,237311,1,8,0:0:0:0:
256,192,237397,1,0,0:0:0:0:
256,192,237483,1,8,0:0:0:0:
256,192,237568,1,0,0:0:0:0:
256,192,237654,1,0,0:0:0:0:
256,192,237740,1,8,0:0:0:0:
256,192,237826,1,8,0:0:0:0:
256,192,237911,1,8,0:0:0:0:
256,192,237997,1,0,0:0:0:0:
256,192,238083,1,8,0:0:0:0:
256,192,238168,1,8,0:0:0:0:
256,192,238254,1,0,0:0:0:0:
256,192,238340,1,0,0:0:0:0:
256,192,238426,1,8,0:0:0:0:
256,192,238511,1,0,0:0:0:0:
256,192,238597,1,8,0:0:0:0:
256,192,238683,1,8,0:0:0:0:
256,192,238768,1,0,0:0:0:0:
256,192,238826,1,0,0:0:0:0:
256,192,238883,1,0,0:0:0:0:
256,192,238940,1,8,0:0:0:0:
256,192,239026,1,8,0:0:0:0:
256,192,239111,1,0,0:0:0:0:
256,192,239197,1,8,0:0:0:0:
256,192,239283,1,0,0:0:0:0:
256,192,239368,1,0,0:0:0:0:
256,192,239454,1,8,0:0:0:0:
256,192,239511,1,8,0:0:0:0:
256,192,239568,1,8,0:0:0:0:
256,192,239626,1,0,0:0:0:0:
256,192,239711,1,0,0:0:0:0:
256,192,239797,1,8,0:0:0:0:
256,192,239854,1,0,0:0:0:0:
256,192,239911,1,0,0:0:0:0:
256,192,239968,1,8,0:0:0:0:
256,192,240054,1,0,0:0:0:0:
256,192,240140,1,8,0:0:0:0:
256,192,240226,1,8,0:0:0:0:
256,192,240311,1,0,0:0:0:0:
256,192,240397,1,8,0:0:0:0:
256,192,240483,1,8,0:0:0:0:
256,192,240568,1,0,0:0:0:0:
256,192,240654,1,8,0:0:0:0:
256,192,240740,1,8,0:0:0:0:
256,192,240826,1,0,0:0:0:0:
256,192,240911,1,8,0:0:0:0:
256,192,240997,1,8,0:0:0:0:
256,192,241083,1,8,0:0:0:0:
256,192,241168,1,0,0:0:0:0:
256,288,241511,1,4,0:0:0:0:
256,192,241683,1,0,0:0:0:0:
256,192,241768,1,0,0:0:0:0:
256,192,241854,1,8,0:0:0:0:
256,192,242026,1,0,0:0:0:0:
256,192,242197,1,8,0:0:0:0:
256,192,242283,1,0,0:0:0:0:
256,192,242368,1,0,0:0:0:0:
256,192,242454,1,8,0:0:0:0:
256,192,242540,1,0,0:0:0:0:
256,192,242711,1,8,0:0:0:0:
256,192,242883,1,0,0:0:0:0:
256,192,242968,1,8,0:0:0:0:
256,192,243054,1,0,0:0:0:0:
256,192,243140,1,0,0:0:0:0:
256,192,243226,1,8,0:0:0:0:
256,192,243397,1,0,0:0:0:0:
256,192,243568,1,8,0:0:0:0:
256,192,243740,1,0,0:0:0:0:
256,192,243826,1,8,0:0:0:0:
256,192,243911,1,0,0:0:0:0:
256,192,244254,1,8,0:0:0:0:
256,192,244426,1,0,0:0:0:0:
256,192,244511,1,0,0:0:0:0:
256,192,244597,1,8,0:0:0:0:
256,192,244768,1,0,0:0:0:0:
256,192,244940,1,8,0:0:0:0:
256,192,245026,1,8,0:0:0:0:
256,192,245111,1,0,0:0:0:0:
256,192,245197,1,8,0:0:0:0:
256,192,245283,1,0,0:0:0:0:
256,192,245454,1,8,0:0:0:0:
256,192,245626,1,0,0:0:0:0:
256,192,245797,1,0,0:0:0:0:
256,192,245883,1,0,0:0:0:0:
256,192,245968,1,8,0:0:0:0:
256,192,246054,1,8,0:0:0:0:
256,192,246140,1,0,0:0:0:0:
256,192,246226,1,0,0:0:0:0:
256,192,246311,1,8,0:0:0:0:
256,192,246483,1,0,0:0:0:0:
256,192,246654,1,8,0:0:0:0:
256,192,246740,1,0,0:0:0:0:
256,192,246826,1,8,0:0:0:0:
256,192,246997,1,8,0:0:0:0:
256,192,247168,1,0,0:0:0:0:
256,192,247254,1,0,0:0:0:0:
256,192,247340,1,8,0:0:0:0:
256,192,247511,1,0,0:0:0:0:
256,192,247683,1,8,0:0:0:0:
256,192,247768,1,8,0:0:0:0:
256,192,247854,1,0,0:0:0:0:
256,192,247940,1,8,0:0:0:0:
256,192,248026,1,0,0:0:0:0:
256,192,248111,1,0,0:0:0:0:
256,192,248197,1,8,0:0:0:0:
256,192,248368,1,8,0:0:0:0:
256,192,248540,1,0,0:0:0:0:
256,192,248626,1,0,0:0:0:0:
256,192,248711,1,8,0:0:0:0:
256,192,248883,1,0,0:0:0:0:
256,192,249054,1,8,0:0:0:0:
256,192,249140,1,8,0:0:0:0:
256,192,249226,1,0,0:0:0:0:
256,192,249311,1,0,0:0:0:0:
256,192,249397,1,8,0:0:0:0:
256,192,249483,1,0,0:0:0:0:
256,192,249568,1,8,0:0:0:0:
256,192,249740,1,8,0:0:0:0:
256,192,249911,1,0,0:0:0:0:
256,192,249997,1,0,0:0:0:0:
256,192,250083,1,8,0:0:0:0:
256,192,250254,1,0,0:0:0:0:
256,192,250426,1,8,0:0:0:0:
256,192,250511,1,8,0:0:0:0:
256,192,250597,1,0,0:0:0:0:
256,192,250683,1,8,0:0:0:0:
256,192,250768,1,0,0:0:0:0:
256,192,250854,1,0,0:0:0:0:
256,192,250940,1,8,0:0:0:0:
256,192,251111,1,8,0:0:0:0:
256,192,251283,1,0,0:0:0:0:
256,192,251368,1,0,0:0:0:0:
256,192,251454,1,8,0:0:0:0:
256,192,251626,1,0,0:0:0:0:
256,192,251797,1,8,0:0:0:0:
256,192,251883,1,8,0:0:0:0:
256,192,251968,1,0,0:0:0:0:
256,192,252140,1,0,0:0:0:0:
256,192,252226,1,0,0:0:0:0:
256,192,252311,1,0,0:0:0:0:
256,192,252397,1,0,0:0:0:0:
256,192,252483,1,0,0:0:0:0:
256,192,252654,1,8,0:0:0:0:
256,192,252740,1,0,0:0:0:0:
256,192,252826,1,8,0:0:0:0:
256,192,252997,1,0,0:0:0:0:
256,192,253168,1,8,0:0:0:0:
256,192,253254,1,0,0:0:0:0:
256,192,253340,1,8,0:0:0:0:
256,192,253426,1,8,0:0:0:0:
256,192,253511,1,0,0:0:0:0:
256,192,253683,1,8,0:0:0:0:
256,192,253854,1,0,0:0:0:0:
256,192,253940,1,8,0:0:0:0:
256,192,254026,1,8,0:0:0:0:
256,192,254111,1,0,0:0:0:0:
256,192,254197,1,8,0:0:0:0:
256,192,254368,1,0,0:0:0:0:
256,192,254540,1,8,0:0:0:0:
256,192,254711,1,8,0:0:0:0:
256,192,254797,1,8,0:0:0:0:
256,192,254883,1,0,0:0:0:0:
256,192,255226,1,8,0:0:0:0:
256,192,255397,1,8,0:0:0:0:
256,192,255483,1,0,0:0:0:0:
256,192,255568,1,8,0:0:0:0:
256,192,255740,1,0,0:0:0:0:
256,192,255911,1,8,0:0:0:0:
256,192,255997,1,8,0:0:0:0:
256,192,256083,1,0,0:0:0:0:
256,192,256168,1,0,0:0:0:0:
256,192,256254,1,8,0:0:0:0:
256,192,256426,1,0,0:0:0:0:
256,192,256597,1,8,0:0:0:0:
256,192,256683,1,8,0:0:0:0:
256,192,256768,1,0,0:0:0:0:
256,192,256854,1,8,0:0:0:0:
256,192,256940,1,0,0:0:0:0:
256,192,257111,1,0,0:0:0:0:
256,192,257283,1,8,0:0:0:0:
256,192,257454,1,0,0:0:0:0:
256,192,257626,1,0,0:0:0:0:
256,192,257711,1,0,0:0:0:0:
256,192,257797,1,0,0:0:0:0:
256,192,257883,1,0,0:0:0:0:
256,192,257968,1,8,0:0:0:0:
256,192,258140,1,0,0:0:0:0:
256,192,258226,1,0,0:0:0:0:
256,192,258311,1,8,0:0:0:0:
256,192,258483,1,0,0:0:0:0:
256,192,258654,1,8,0:0:0:0:
256,192,258740,1,8,0:0:0:0:
256,192,258826,1,0,0:0:0:0:
256,192,258911,1,8,0:0:0:0:
256,192,258997,1,0,0:0:0:0:
256,192,259083,1,0,0:0:0:0:
256,192,259168,1,8,0:0:0:0:
256,192,259340,1,8,0:0:0:0:
256,192,259511,1,0,0:0:0:0:
256,192,259597,1,0,0:0:0:0:
256,192,259683,1,8,0:0:0:0:
256,192,259854,1,0,0:0:0:0:
256,192,260026,1,8,0:0:0:0:
256,192,260111,1,8,0:0:0:0:
256,192,260197,1,0,0:0:0:0:
256,192,260283,1,0,0:0:0:0:
256,192,260368,1,8,0:0:0:0:
256,192,260454,1,0,0:0:0:0:
256,192,260540,1,8,0:0:0:0:
256,192,260711,1,8,0:0:0:0:
256,192,260797,1,8,0:0:0:0:
256,192,260883,1,0,0:0:0:0:
256,192,260968,1,0,0:0:0:0:
256,192,261054,1,8,0:0:0:0:
256,192,261140,1,0,0:0:0:0:
256,192,261226,1,0,0:0:0:0:
256,192,261311,1,0,0:0:0:0:
256,192,261397,1,8,0:0:0:0:
256,192,261483,1,8,0:0:0:0:
256,192,261568,1,0,0:0:0:0:
256,192,261654,1,8,0:0:0:0:
256,192,261740,1,0,0:0:0:0:
256,192,261826,1,0,0:0:0:0:
256,192,261911,1,8,0:0:0:0:
256,192,261997,1,0,0:0:0:0:
256,192,262083,1,8,0:0:0:0:
256,192,262426,1,0,0:0:0:0:
256,192,262768,1,8,0:0:0:0:
256,192,262939,1,0,0:0:0:0:
256,96,263111,1,12,0:0:0:0:
256,192,263454,1,0,0:0:0:0:
256,192,263626,1,0,0:0:0:0:
256,192,263711,1,0,0:0:0:0:
256,192,263797,1,8,0:0:0:0:
256,192,263968,1,0,0:0:0:0:
256,192,264140,1,8,0:0:0:0:
256,192,264226,1,8,0:0:0:0:
256,192,264311,1,0,0:0:0:0:
256,192,264397,1,0,0:0:0:0:
256,192,264483,1,8,0:0:0:0:
256,192,264654,1,0,0:0:0:0:
256,192,264826,1,8,0:0:0:0:
256,192,264997,1,0,0:0:0:0:
256,192,265083,1,0,0:0:0:0:
256,192,265168,1,8,0:0:0:0:
256,192,265340,1,0,0:0:0:0:
256,192,265511,1,8,0:0:0:0:
256,192,265597,1,8,0:0:0:0:
256,192,265683,1,0,0:0:0:0:
256,192,265854,1,8,0:0:0:0:
256,192,265940,1,8,0:0:0:0:
256,192,266026,1,0,0:0:0:0:
256,192,266111,1,0,0:0:0:0:
256,192,266197,1,0,0:0:0:0:
256,192,266368,1,0,0:0:0:0:
256,192,266454,1,0,0:0:0:0:
256,192,266540,1,8,0:0:0:0:
256,192,266711,1,0,0:0:0:0:
256,192,266883,1,8,0:0:0:0:
256,192,266968,1,0,0:0:0:0:
256,192,267054,1,8,0:0:0:0:
256,192,267140,1,0,0:0:0:0:
256,192,267226,1,8,0:0:0:0:
256,192,267397,1,0,0:0:0:0:
256,192,267568,1,8,0:0:0:0:
256,192,267740,1,0,0:0:0:0:
256,192,267826,1,0,0:0:0:0:
256,192,267911,1,8,0:0:0:0:
256,192,268083,1,0,0:0:0:0:
256,192,268254,1,8,0:0:0:0:
256,192,268340,1,8,0:0:0:0:
256,192,268426,1,0,0:0:0:0:
256,192,268511,1,0,0:0:0:0:
256,192,268597,1,8,0:0:0:0:
256,192,268683,1,0,0:0:0:0:
256,192,268768,1,0,0:0:0:0:
256,192,268940,1,0,0:0:0:0:
256,192,269111,1,0,0:0:0:0:
256,192,269197,1,0,0:0:0:0:
256,192,269283,1,8,0:0:0:0:
256,192,269454,1,0,0:0:0:0:
256,192,269626,1,8,0:0:0:0:
256,192,269711,1,8,0:0:0:0:
256,192,269797,1,0,0:0:0:0:
256,192,269883,1,0,0:0:0:0:
256,192,269968,1,8,0:0:0:0:
256,192,270140,1,0,0:0:0:0:
256,192,270311,1,8,0:0:0:0:
256,192,270483,1,0,0:0:0:0:
256,192,270568,1,0,0:0:0:0:
256,192,270654,1,8,0:0:0:0:
256,192,270826,1,0,0:0:0:0:
256,192,270997,1,8,0:0:0:0:
256,192,271083,1,8,0:0:0:0:
256,192,271168,1,0,0:0:0:0:
256,192,271340,1,8,0:0:0:0:
256,192,271426,1,8,0:0:0:0:
256,192,271511,1,0,0:0:0:0:
256,192,271597,1,0,0:0:0:0:
256,192,271683,1,0,0:0:0:0:
256,192,271854,1,0,0:0:0:0:
256,192,271940,1,0,0:0:0:0:
256,192,272026,1,8,0:0:0:0:
256,192,272197,1,0,0:0:0:0:
256,192,272368,1,8,0:0:0:0:
256,192,272454,1,0,0:0:0:0:
256,192,272540,1,8,0:0:0:0:
256,192,272626,1,0,0:0:0:0:
256,192,272711,1,8,0:0:0:0:
256,192,272883,1,0,0:0:0:0:
256,192,273054,1,8,0:0:0:0:
256,192,273226,1,0,0:0:0:0:
256,192,273311,1,0,0:0:0:0:
256,192,273397,1,8,0:0:0:0:
256,192,273568,1,0,0:0:0:0:
256,192,273740,1,8,0:0:0:0:
256,192,273826,1,8,0:0:0:0:
256,192,273911,1,0,0:0:0:0:
256,192,274083,1,8,0:0:0:0:
256,192,274168,1,8,0:0:0:0:
256,192,274254,1,8,0:0:0:0:
256,192,274340,1,8,0:0:0:0:
256,192,274426,1,0,0:0:0:0:
256,192,274597,1,0,0:0:0:0:
256,192,274683,1,0,0:0:0:0:
256,192,274768,1,8,0:0:0:0:
256,192,274940,1,0,0:0:0:0:
256,192,275111,1,8,0:0:0:0:
256,192,275197,1,8,0:0:0:0:
256,192,275283,1,0,0:0:0:0:
256,192,275368,1,0,0:0:0:0:
256,192,275454,1,8,0:0:0:0:
256,192,275540,1,8,0:0:0:0:
256,192,275626,1,0,0:0:0:0:
256,192,275797,1,8,0:0:0:0:
256,192,275968,1,0,0:0:0:0:
256,192,276054,1,0,0:0:0:0:
256,192,276140,1,8,0:0:0:0:
256,192,276311,1,0,0:0:0:0:
256,192,276397,1,0,0:0:0:0:
256,192,276483,1,8,0:0:0:0:
256,192,276568,1,8,0:0:0:0:
256,192,276654,1,0,0:0:0:0:
256,192,276826,1,8,0:0:0:0:
256,192,276911,1,8,0:0:0:0:
256,192,276997,1,0,0:0:0:0:
256,192,277083,1,0,0:0:0:0:
256,192,277168,1,0,0:0:0:0:
256,192,277340,1,0,0:0:0:0:
256,192,277426,1,0,0:0:0:0:
256,192,277511,1,8,0:0:0:0:
256,192,277683,1,0,0:0:0:0:
256,192,277854,1,8,0:0:0:0:
256,192,277940,1,0,0:0:0:0:
256,192,278026,1,8,0:0:0:0:
256,192,278111,1,0,0:0:0:0:
256,192,278197,1,8,0:0:0:0:
256,192,278368,1,0,0:0:0:0:
256,192,278540,1,8,0:0:0:0:
256,192,278626,1,8,0:0:0:0:
256,192,278711,1,0,0:0:0:0:
256,192,278797,1,8,0:0:0:0:
256,192,278883,1,0,0:0:0:0:
256,192,278968,1,0,0:0:0:0:
256,192,279054,1,8,0:0:0:0:
256,192,279226,1,0,0:0:0:0:
256,192,279397,1,0,0:0:0:0:
256,192,279483,1,0,0:0:0:0:
256,192,279568,1,8,0:0:0:0:
256,192,279654,1,8,0:0:0:0:
256,192,279740,1,8,0:0:0:0:
256,192,279826,1,8,0:0:0:0:
256,192,279911,1,0,0:0:0:0:
256,192,280083,1,0,0:0:0:0:
256,192,280168,1,0,0:0:0:0:
256,192,280254,1,8,0:0:0:0:
256,192,280426,1,0,0:0:0:0:
256,192,280597,1,8,0:0:0:0:
256,192,280683,1,0,0:0:0:0:
256,192,280768,1,8,0:0:0:0:
256,192,280854,1,8,0:0:0:0:
256,192,280940,1,0,0:0:0:0:
256,192,281026,1,0,0:0:0:0:
256,192,281111,1,8,0:0:0:0:
256,192,281283,1,0,0:0:0:0:
256,192,281454,1,0,0:0:0:0:
256,192,281540,1,0,0:0:0:0:
256,192,281626,1,8,0:0:0:0:
256,192,281797,1,0,0:0:0:0:
256,192,281968,1,8,0:0:0:0:
256,192,282054,1,8,0:0:0:0:
256,192,282140,1,0,0:0:0:0:
256,192,282226,1,0,0:0:0:0:
256,192,282311,1,8,0:0:0:0:
256,192,282397,1,0,0:0:0:0:
256,192,282483,1,8,0:0:0:0:
256,192,282654,1,0,0:0:0:0:
256,192,282740,1,8,0:0:0:0:
256,192,282826,1,8,0:0:0:0:
256,192,282911,1,0,0:0:0:0:
256,192,282997,1,8,0:0:0:0:
256,192,283083,1,8,0:0:0:0:
256,192,283168,1,0,0:0:0:0:
256,192,283254,1,8,0:0:0:0:
256,192,283340,1,0,0:0:0:0:
256,192,283426,1,0,0:0:0:0:
256,192,283511,1,8,0:0:0:0:
256,192,283597,1,8,0:0:0:0:
256,192,283683,1,0,0:0:0:0:
256,192,283768,1,8,0:0:0:0:
256,192,283854,1,8,0:0:0:0:
256,192,283940,1,8,0:0:0:0:
256,192,284026,1,0,0:0:0:0:
256,192,284197,1,0,0:0:0:0:
256,192,284368,1,8,0:0:0:0:
256,192,284540,1,0,0:0:0:0:
256,192,284626,1,0,0:0:0:0:
256,192,284711,1,0,0:0:0:0:
256,192,284883,1,8,0:0:0:0:
256,192,285054,1,8,0:0:0:0:
256,192,285397,1,0,0:0:0:0:
256,192,285483,1,0,0:0:0:0:
256,192,285568,1,8,0:0:0:0:
256,192,285740,1,0,0:0:0:0:
256,192,285911,1,8,0:0:0:0:
256,192,285997,1,8,0:0:0:0:
256,192,286083,1,0,0:0:0:0:
256,192,286168,1,8,0:0:0:0:
256,192,286340,1,8,0:0:0:0:
256,192,286426,1,0,0:0:0:0:
256,192,286511,1,0,0:0:0:0:
256,192,286597,1,8,0:0:0:0:
256,192,286768,1,0,0:0:0:0:
256,192,286854,1,0,0:0:0:0:
256,192,286940,1,8,0:0:0:0:
256,192,287111,1,0,0:0:0:0:
256,192,287283,1,8,0:0:0:0:
256,192,287454,1,0,0:0:0:0:
256,192,287626,1,0,0:0:0:0:
256,192,287711,1,8,0:0:0:0:
256,192,287968,1,8,0:0:0:0:
256,192,288140,1,0,0:0:0:0:
256,192,288226,1,0,0:0:0:0:
256,192,288311,1,8,0:0:0:0:
256,192,288483,1,0,0:0:0:0:
256,192,288654,1,8,0:0:0:0:
256,192,288740,1,8,0:0:0:0:
256,192,288826,1,0,0:0:0:0:
256,192,288911,1,8,0:0:0:0:
256,192,289083,1,8,0:0:0:0:
256,192,289168,1,0,0:0:0:0:
256,192,289254,1,0,0:0:0:0:
256,192,289340,1,8,0:0:0:0:
256,192,289511,1,0,0:0:0:0:
256,192,289597,1,0,0:0:0:0:
256,192,289683,1,8,0:0:0:0:
256,192,289854,1,0,0:0:0:0:
256,192,290026,1,8,0:0:0:0:
256,192,290197,1,0,0:0:0:0:
256,192,290283,1,0,0:0:0:0:
256,192,290368,1,0,0:0:0:0:
256,192,290454,1,0,0:0:0:0:
256,192,290540,1,8,0:0:0:0:
256,192,290711,1,8,0:0:0:0:
256,192,290883,1,0,0:0:0:0:
256,192,290968,1,0,0:0:0:0:
256,192,291054,1,8,0:0:0:0:
256,192,291226,1,0,0:0:0:0:
256,192,291397,1,8,0:0:0:0:
256,192,291483,1,8,0:0:0:0:
256,192,291568,1,0,0:0:0:0:
256,192,291654,1,8,0:0:0:0:
256,192,291826,1,8,0:0:0:0:
256,192,291911,1,0,0:0:0:0:
256,192,291997,1,0,0:0:0:0:
256,192,292083,1,8,0:0:0:0:
256,192,292254,1,0,0:0:0:0:
256,192,292340,1,0,0:0:0:0:
256,192,292426,1,8,0:0:0:0:
256,192,292597,1,0,0:0:0:0:
256,192,292768,1,8,0:0:0:0:
256,192,292940,1,0,0:0:0:0:
256,192,293111,1,0,0:0:0:0:
256,192,293197,1,8,0:0:0:0:
256,192,293454,1,8,0:0:0:0:
256,192,293626,1,0,0:0:0:0:
256,192,293711,1,0,0:0:0:0:
256,192,293797,1,8,0:0:0:0:
256,192,293968,1,0,0:0:0:0:
256,192,294140,1,8,0:0:0:0:
256,192,294226,1,8,0:0:0:0:
256,192,294311,1,0,0:0:0:0:
256,192,294397,1,8,0:0:0:0:
256,192,294568,1,8,0:0:0:0:
256,192,294654,1,0,0:0:0:0:
256,192,294826,1,0,0:0:0:0:
256,192,294911,1,0,0:0:0:0:
256,192,294997,1,8,0:0:0:0:
256,192,295168,1,8,0:0:0:0:
256,192,295254,1,8,0:0:0:0:
256,192,295340,1,0,0:0:0:0:
256,192,295511,1,0,0:0:0:0:
256,192,295683,1,8,0:0:0:0:
256,192,295768,1,8,0:0:0:0:
256,192,295854,1,0,0:0:0:0:
256,192,296026,1,8,0:0:0:0:
256,192,296111,1,8,0:0:0:0:
256,192,296197,1,0,0:0:0:0:
256,192,296283,1,8,0:0:0:0:
256,192,296368,1,0,0:0:0:0:
256,192,296454,1,0,0:0:0:0:
256,192,296540,1,8,0:0:0:0:
256,192,296711,1,0,0:0:0:0:
256,192,296883,1,8,0:0:0:0:
256,192,296968,1,8,0:0:0:0:
256,192,297054,1,0,0:0:0:0:
256,192,297140,1,8,0:0:0:0:
256,192,297311,1,8,0:0:0:0:
256,192,297397,1,0,0:0:0:0:
256,192,297483,1,0,0:0:0:0:
256,192,297568,1,8,0:0:0:0:
256,192,297740,1,0,0:0:0:0:
256,192,297826,1,0,0:0:0:0:
256,192,297911,1,8,0:0:0:0:
256,192,298083,1,0,0:0:0:0:
256,192,298254,1,8,0:0:0:0:
256,192,298340,1,8,0:0:0:0:
256,192,298426,1,0,0:0:0:0:
256,192,298597,1,0,0:0:0:0:
256,192,298683,1,8,0:0:0:0:
256,192,298940,1,8,0:0:0:0:
256,192,299111,1,0,0:0:0:0:
256,192,299197,1,0,0:0:0:0:
256,192,299283,1,8,0:0:0:0:
256,192,299454,1,0,0:0:0:0:
256,192,299626,1,8,0:0:0:0:
256,192,299711,1,8,0:0:0:0:
256,192,299797,1,0,0:0:0:0:
256,192,299883,1,8,0:0:0:0:
256,192,300054,1,8,0:0:0:0:
256,192,300140,1,0,0:0:0:0:
256,192,300226,1,0,0:0:0:0:
256,192,300311,1,8,0:0:0:0:
256,192,300483,1,0,0:0:0:0:
256,192,300568,1,0,0:0:0:0:
256,192,300654,1,8,0:0:0:0:
256,192,300826,1,0,0:0:0:0:
256,192,300997,1,8,0:0:0:0:
256,192,301083,1,8,0:0:0:0:
256,192,301168,1,0,0:0:0:0:
256,192,301254,1,0,0:0:0:0:
256,192,301340,1,0,0:0:0:0:
256,192,301426,1,0,0:0:0:0:
256,192,301511,1,8,0:0:0:0:
256,192,301597,1,0,0:0:0:0:
256,192,301683,1,8,0:0:0:0:
256,192,301768,1,8,0:0:0:0:
256,192,301854,1,0,0:0:0:0:
256,192,301940,1,0,0:0:0:0:
256,192,302026,1,8,0:0:0:0:
256,192,302197,1,8,0:0:0:0:
256,192,302368,1,8,0:0:0:0:
256,192,302540,1,0,0:0:0:0:
256,192,302626,1,8,0:0:0:0:
256,192,302797,1,8,0:0:0:0:
256,192,302883,1,0,0:0:0:0:
256,192,302968,1,0,0:0:0:0:
256,192,303054,1,8,0:0:0:0:
256,192,303226,1,0,0:0:0:0:
256,192,303311,1,0,0:0:0:0:
256,192,303397,1,8,0:0:0:0:
256,192,303568,1,8,0:0:0:0:
256,192,303740,1,8,0:0:0:0:
256,192,303911,1,0,0:0:0:0:
256,192,304083,1,0,0:0:0:0:
256,192,304168,1,8,0:0:0:0:
256,192,304254,1,0,0:0:0:0:
256,192,304426,1,8,0:0:0:0:
256,192,304597,1,0,0:0:0:0:
256,192,304683,1,0,0:0:0:0:
256,192,304768,1,8,0:0:0:0:
256,192,304854,1,0,0:0:0:0:
256,192,304940,1,0,0:0:0:0:
256,192,305026,1,0,0:0:0:0:
256,192,305111,1,8,0:0:0:0:
256,192,305197,1,8,0:0:0:0:
256,192,305283,1,0,0:0:0:0:
256,192,305368,1,8,0:0:0:0:
256,192,305454,1,0,0:0:0:0:
256,192,305540,1,8,0:0:0:0:
256,192,305626,1,0,0:0:0:0:
256,192,305711,1,0,0:0:0:0:
256,192,305797,1,0,0:0:0:0:
256,192,305883,1,0,0:0:0:0:
256,192,305968,1,8,0:0:0:0:
256,192,306140,1,0,0:0:0:0:
256,192,306226,1,0,0:0:0:0:
256,192,306311,1,0,0:0:0:0:
256,192,306483,1,8,0:0:0:0:
256,192,306740,1,0,0:0:0:0:
256,192,306826,1,0,0:0:0:0:
256,192,306997,1,8,0:0:0:0:
256,192,307168,1,0,0:0:0:0:
