osu file format v14

[General]
AudioFilename: audio.mp3
AudioLeadIn: 0
PreviewTime: 153729
Countdown: 0
SampleSet: Soft
StackLeniency: 0.7
Mode: 3
LetterboxInBreaks: 0
SpecialStyle: 0
WidescreenStoryboard: 0

[Editor]
Bookmarks: 87900,153729
DistanceSpacing: 0.8
BeatDivisor: 12
GridSize: 32
TimelineZoom: 3.199998

[Metadata]
Title:Lost Emotion (Amane UK Hardcore Remix)
TitleUnicode:Lost Emotion (Amane UK Hardcore Remix)
Artist:Masayoshi Minoshima feat. nomico
ArtistUnicode:Masayoshi Minoshima feat. nomico
Creator:cherrychou
Version:Last Dance Heaven..
Source:東方心綺楼 ~ Hopeless Masquerade.
Tags:alstroemeria records c88 東方project marathon pop culture 4 3 秦こころ hata no kokoro theme edm shinkirou touhou 天音 例大祭 reitaisai 12 亡失のエモーション the lost emotion boushitsu japanese electronic video game zun th13.5 rolling contact 簑島正佳 alst
BeatmapID:4139445
BeatmapSetID:1992172

[Difficulty]
HPDrainRate:8.3
CircleSize:4
OverallDifficulty:7.7
ApproachRate:5
SliderMultiplier:1.4
SliderTickRate:1

[Events]
//Background and Video events
0,0,"bg.jpg",0,0
//Break Periods
//Storyboard Layer 0 (Background)
//Storyboard Layer 1 (Fail)
//Storyboard Layer 2 (Pass)
//Storyboard Layer 3 (Foreground)
//Storyboard Layer 4 (Overlay)
//Storyboard Sound Samples

[TimingPoints]
126,342.857142857143,4,2,1,15,1,0
153726,-100,4,2,1,15,0,1
174297,-100,4,2,1,15,0,0
241497,-100,4,2,1,15,0,1
262068,-100,4,2,1,15,0,0

[HitObjects]
64,192,126,5,0,0:0:0:0:
448,192,126,1,0,0:0:0:0:
192,192,126,1,0,0:0:0:0:
320,192,211,1,0,0:0:0:0:
448,192,297,1,0,0:0:0:0:
320,192,468,1,0,0:0:0:0:
192,192,468,1,0,0:0:0:0:
64,192,468,1,0,0:0:0:0:
448,192,640,1,0,0:0:0:0:
192,192,726,1,0,0:0:0:0:
448,192,811,1,0,0:0:0:0:
320,192,811,1,0,0:0:0:0:
64,192,811,1,0,0:0:0:0:
192,192,897,1,0,0:0:0:0:
448,192,983,1,0,0:0:0:0:
192,192,1068,1,0,0:0:0:0:
448,192,1154,1,0,0:0:0:0:
320,192,1154,1,0,0:0:0:0:
64,192,1154,1,0,0:0:0:0:
192,192,1326,1,0,0:0:0:0:
320,192,1411,1,0,0:0:0:0:
448,192,1497,1,0,0:0:0:0:
64,192,1497,1,0,0:0:0:0:
192,192,1497,1,0,0:0:0:0:
320,192,1583,1,0,0:0:0:0:
64,192,1668,1,0,0:0:0:0:
192,192,1840,1,0,0:0:0:0:
448,192,1840,1,0,0:0:0:0:
320,192,1840,1,0,0:0:0:0:
64,192,2011,1,0,0:0:0:0:
192,192,2097,1,0,0:0:0:0:
320,192,2183,1,0,0:0:0:0:
448,192,2183,1,0,0:0:0:0:
64,192,2183,1,0,0:0:0:0:
448,192,2354,1,0,0:0:0:0:
192,192,2440,1,0,0:0:0:0:
64,192,2526,1,0,0:0:0:0:
448,192,2526,1,0,0:0:0:0:
320,192,2526,1,0,0:0:0:0:
192,192,2697,1,0,0:0:0:0:
64,192,2868,5,0,0:0:0:0:
448,192,2868,1,0,0:0:0:0:
192,192,2868,1,0,0:0:0:0:
320,192,2954,1,0,0:0:0:0:
448,192,3040,1,0,0:0:0:0:
320,192,3211,1,0,0:0:0:0:
192,192,3211,1,0,0:0:0:0:
64,192,3211,1,0,0:0:0:0:
448,192,3383,1,0,0:0:0:0:
192,192,3468,1,0,0:0:0:0:
448,192,3554,1,0,0:0:0:0:
320,192,3554,1,0,0:0:0:0:
64,192,3554,1,0,0:0:0:0:
192,192,3640,1,0,0:0:0:0:
448,192,3726,1,0,0:0:0:0:
192,192,3811,1,0,0:0:0:0:
448,192,3897,1,0,0:0:0:0:
320,192,3897,1,0,0:0:0:0:
64,192,3897,1,0,0:0:0:0:
192,192,4068,1,0,0:0:0:0:
320,192,4154,1,0,0:0:0:0:
448,192,4240,1,0,0:0:0:0:
64,192,4240,1,0,0:0:0:0:
192,192,4240,1,0,0:0:0:0:
320,192,4326,1,0,0:0:0:0:
64,192,4411,1,0,0:0:0:0:
192,192,4583,1,0,0:0:0:0:
448,192,4583,1,0,0:0:0:0:
320,192,4583,1,0,0:0:0:0:
64,192,4754,1,0,0:0:0:0:
192,192,4840,1,0,0:0:0:0:
64,192,4926,1,0,0:0:0:0:
320,192,4926,1,0,0:0:0:0:
448,192,4926,1,0,0:0:0:0:
64,192,5011,1,0,0:0:0:0:
320,192,5097,1,0,0:0:0:0:
320,192,5183,1,0,0:0:0:0:
192,192,5268,1,0,0:0:0:0:
64,192,5268,1,0,0:0:0:0:
448,192,5268,1,0,0:0:0:0:
320,192,5354,1,0,0:0:0:0:
448,192,5440,1,0,0:0:0:0:
64,192,5440,1,0,0:0:0:0:
192,192,5526,1,0,0:0:0:0:
448,192,5611,1,0,0:0:0:0:
320,192,5611,1,0,0:0:0:0:
64,192,5611,1,0,0:0:0:0:
192,192,5697,1,0,0:0:0:0:
64,192,5783,1,0,0:0:0:0:
192,192,5954,1,0,0:0:0:0:
320,192,5954,1,0,0:0:0:0:
448,192,5954,1,0,0:0:0:0:
64,192,6126,1,0,0:0:0:0:
320,192,6211,1,0,0:0:0:0:
64,192,6297,1,0,0:0:0:0:
192,192,6297,1,0,0:0:0:0:
448,192,6297,1,0,0:0:0:0:
320,192,6383,1,0,0:0:0:0:
64,192,6468,1,0,0:0:0:0:
320,192,6554,1,0,0:0:0:0:
64,192,6640,1,0,0:0:0:0:
192,192,6640,1,0,0:0:0:0:
448,192,6640,1,0,0:0:0:0:
320,192,6811,1,0,0:0:0:0:
192,192,6897,1,0,0:0:0:0:
64,192,6983,1,0,0:0:0:0:
448,192,6983,1,0,0:0:0:0:
320,192,6983,1,0,0:0:0:0:
192,192,7068,1,0,0:0:0:0:
448,192,7154,1,0,0:0:0:0:
320,192,7326,1,0,0:0:0:0:
64,192,7326,1,0,0:0:0:0:
192,192,7326,1,0,0:0:0:0:
448,192,7497,1,0,0:0:0:0:
320,192,7583,1,0,0:0:0:0:
192,192,7668,1,0,0:0:0:0:
64,192,7668,1,0,0:0:0:0:
448,192,7668,1,0,0:0:0:0:
64,192,7840,1,0,0:0:0:0:
320,192,7926,1,0,0:0:0:0:
448,192,8011,1,0,0:0:0:0:
64,192,8011,1,0,0:0:0:0:
192,192,8011,1,0,0:0:0:0:
320,192,8183,1,0,0:0:0:0:
448,192,8354,5,0,0:0:0:0:
64,192,8354,1,0,0:0:0:0:
320,192,8354,1,0,0:0:0:0:
192,192,8440,1,0,0:0:0:0:
64,192,8526,1,0,0:0:0:0:
192,192,8697,1,0,0:0:0:0:
320,192,8697,1,0,0:0:0:0:
448,192,8697,1,0,0:0:0:0:
64,192,8868,1,0,0:0:0:0:
320,192,8954,1,0,0:0:0:0:
64,192,9040,1,0,0:0:0:0:
192,192,9040,1,0,0:0:0:0:
448,192,9040,1,0,0:0:0:0:
320,192,9126,1,0,0:0:0:0:
64,192,9211,1,0,0:0:0:0:
320,192,9297,1,0,0:0:0:0:
64,192,9383,1,0,0:0:0:0:
192,192,9383,1,0,0:0:0:0:
448,192,9383,1,0,0:0:0:0:
320,192,9554,1,0,0:0:0:0:
192,192,9640,1,0,0:0:0:0:
64,192,9726,1,0,0:0:0:0:
448,192,9726,1,0,0:0:0:0:
320,192,9726,1,0,0:0:0:0:
192,192,9811,1,0,0:0:0:0:
320,192,9897,1,0,0:0:0:0:
320,192,9983,1,0,0:0:0:0:
448,192,10068,1,0,0:0:0:0:
192,192,10068,1,0,0:0:0:0:
64,192,10068,1,0,0:0:0:0:
192,192,10240,1,0,0:0:0:0:
320,192,10326,1,0,0:0:0:0:
448,192,10411,1,0,0:0:0:0:
192,192,10411,1,0,0:0:0:0:
64,192,10411,1,0,0:0:0:0:
64,192,10497,1,0,0:0:0:0:
192,192,10583,1,0,0:0:0:0:
320,192,10583,1,0,0:0:0:0:
448,192,10583,1,0,0:0:0:0:
448,192,10668,1,0,0:0:0:0:
192,192,10754,1,0,0:0:0:0:
64,192,10754,1,0,0:0:0:0:
64,192,10840,1,0,0:0:0:0:
192,192,10840,1,0,0:0:0:0:
448,192,10926,1,0,0:0:0:0:
320,192,10926,1,0,0:0:0:0:
448,192,11011,1,0,0:0:0:0:
320,192,11011,1,0,0:0:0:0:
64,192,11097,1,0,0:0:0:0:
192,192,11097,1,0,0:0:0:0:
320,192,11183,1,0,0:0:0:0:
448,192,11268,1,0,0:0:0:0:
192,192,11354,1,0,0:0:0:0:
64,192,11354,1,0,0:0:0:0:
192,192,11440,1,0,0:0:0:0:
320,192,11440,1,0,0:0:0:0:
448,192,11440,1,0,0:0:0:0:
192,192,11611,1,0,0:0:0:0:
448,192,11611,1,0,0:0:0:0:
64,192,11783,1,0,0:0:0:0:
192,192,11783,1,0,0:0:0:0:
320,192,11783,1,0,0:0:0:0:
192,192,11868,1,0,0:0:0:0:
448,192,11868,1,0,0:0:0:0:
448,192,12040,1,0,0:0:0:0:
64,192,12126,1,0,0:0:0:0:
192,192,12126,1,0,0:0:0:0:
320,192,12126,1,0,0:0:0:0:
192,192,12297,1,0,0:0:0:0:
448,192,12297,1,0,0:0:0:0:
448,192,12468,1,0,0:0:0:0:
64,192,12468,1,0,0:0:0:0:
192,192,12468,1,0,0:0:0:0:
320,192,12554,1,0,0:0:0:0:
192,192,12640,1,0,0:0:0:0:
448,192,12726,1,0,0:0:0:0:
320,192,12726,1,0,0:0:0:0:
448,192,12811,1,0,0:0:0:0:
64,192,12811,1,0,0:0:0:0:
192,192,12811,1,0,0:0:0:0:
448,192,12983,1,0,0:0:0:0:
192,192,12983,1,0,0:0:0:0:
64,192,13154,1,0,0:0:0:0:
320,192,13154,1,0,0:0:0:0:
448,192,13154,1,0,0:0:0:0:
64,192,13240,1,0,0:0:0:0:
192,192,13240,1,0,0:0:0:0:
320,192,13326,1,0,0:0:0:0:
192,192,13411,1,0,0:0:0:0:
64,192,13497,1,0,0:0:0:0:
448,192,13497,1,0,0:0:0:0:
320,192,13540,1,0,0:0:0:0:
192,192,13583,1,0,0:0:0:0:
64,192,13626,1,0,0:0:0:0:
448,192,13668,1,0,0:0:0:0:
320,192,13711,1,0,0:0:0:0:
192,192,13754,1,0,0:0:0:0:
64,192,13797,1,0,0:0:0:0:
448,192,13840,1,0,0:0:0:0:
320,192,13840,1,0,0:0:0:0:
192,192,13926,1,0,0:0:0:0:
64,192,14011,1,0,0:0:0:0:
320,192,14097,1,0,0:0:0:0:
448,192,14097,1,0,0:0:0:0:
320,192,14183,1,0,0:0:0:0:
192,192,14183,1,0,0:0:0:0:
64,192,14183,1,0,0:0:0:0:
320,192,14354,1,0,0:0:0:0:
64,192,14354,1,0,0:0:0:0:
448,192,14526,1,0,0:0:0:0:
320,192,14526,1,0,0:0:0:0:
192,192,14526,1,0,0:0:0:0:
320,192,14611,1,0,0:0:0:0:
64,192,14611,1,0,0:0:0:0:
64,192,14783,1,0,0:0:0:0:
448,192,14868,1,0,0:0:0:0:
320,192,14868,1,0,0:0:0:0:
192,192,14868,1,0,0:0:0:0:
320,192,15040,1,0,0:0:0:0:
64,192,15040,1,0,0:0:0:0:
64,192,15211,1,0,0:0:0:0:
448,192,15211,1,0,0:0:0:0:
320,192,15211,1,0,0:0:0:0:
192,192,15297,1,0,0:0:0:0:
320,192,15383,1,0,0:0:0:0:
64,192,15468,1,0,0:0:0:0:
192,192,15468,1,0,0:0:0:0:
64,192,15554,1,0,0:0:0:0:
448,192,15554,1,0,0:0:0:0:
320,192,15554,1,0,0:0:0:0:
64,192,15726,1,0,0:0:0:0:
320,192,15726,1,0,0:0:0:0:
448,192,15897,1,0,0:0:0:0:
192,192,15897,1,0,0:0:0:0:
64,192,15897,1,0,0:0:0:0:
64,192,15983,1,0,0:0:0:0:
192,192,16068,1,0,0:0:0:0:
320,192,16068,1,0,0:0:0:0:
320,192,16154,1,0,0:0:0:0:
64,192,16240,1,0,0:0:0:0:
192,192,16240,1,0,0:0:0:0:
448,192,16240,1,0,0:0:0:0:
320,192,16326,1,0,0:0:0:0:
64,192,16411,1,0,0:0:0:0:
448,192,16411,1,0,0:0:0:0:
192,192,16497,1,0,0:0:0:0:
448,192,16583,1,0,0:0:0:0:
320,192,16583,1,0,0:0:0:0:
64,192,16583,1,0,0:0:0:0:
320,192,16668,1,0,0:0:0:0:
192,192,16754,1,0,0:0:0:0:
448,192,16754,1,0,0:0:0:0:
64,192,16754,1,0,0:0:0:0:
448,192,16926,1,0,0:0:0:0:
320,192,16926,1,0,0:0:0:0:
192,192,16926,1,0,0:0:0:0:
448,192,17097,1,0,0:0:0:0:
64,192,17097,1,0,0:0:0:0:
192,192,17097,1,0,0:0:0:0:
64,192,17268,1,0,0:0:0:0:
192,192,17268,1,0,0:0:0:0:
320,192,17268,1,0,0:0:0:0:
448,192,17354,1,0,0:0:0:0:
192,192,17440,1,0,0:0:0:0:
64,192,17440,1,0,0:0:0:0:
320,192,17526,1,0,0:0:0:0:
448,192,17611,1,0,0:0:0:0:
192,192,17611,1,0,0:0:0:0:
64,192,17611,1,0,0:0:0:0:
320,192,17783,1,0,0:0:0:0:
192,192,17783,1,0,0:0:0:0:
448,192,17783,1,0,0:0:0:0:
64,192,17954,1,0,0:0:0:0:
192,192,17954,1,0,0:0:0:0:
448,192,17954,1,0,0:0:0:0:
192,192,18040,1,0,0:0:0:0:
320,192,18126,1,0,0:0:0:0:
64,192,18126,1,0,0:0:0:0:
448,192,18126,1,0,0:0:0:0:
64,192,18297,1,0,0:0:0:0:
448,192,18297,1,0,0:0:0:0:
320,192,18340,1,0,0:0:0:0:
192,192,18383,1,0,0:0:0:0:
64,192,18426,1,0,0:0:0:0:
448,192,18468,1,0,0:0:0:0:
320,192,18511,1,0,0:0:0:0:
192,192,18554,1,0,0:0:0:0:
64,192,18597,1,0,0:0:0:0:
448,192,18640,1,0,0:0:0:0:
320,192,18640,1,0,0:0:0:0:
192,192,18811,1,0,0:0:0:0:
320,192,18811,1,0,0:0:0:0:
448,192,18811,1,0,0:0:0:0:
64,192,18897,1,0,0:0:0:0:
192,192,18983,1,0,0:0:0:0:
320,192,18983,1,0,0:0:0:0:
448,192,18983,1,0,0:0:0:0:
320,192,19154,1,0,0:0:0:0:
64,192,19154,1,0,0:0:0:0:
448,192,19154,1,0,0:0:0:0:
320,192,19326,1,0,0:0:0:0:
192,192,19326,1,0,0:0:0:0:
64,192,19326,1,0,0:0:0:0:
448,192,19411,1,0,0:0:0:0:
192,192,19497,1,0,0:0:0:0:
64,192,19497,1,0,0:0:0:0:
320,192,19583,1,0,0:0:0:0:
448,192,19668,1,0,0:0:0:0:
192,192,19668,1,0,0:0:0:0:
64,192,19668,1,0,0:0:0:0:
320,192,19754,1,0,0:0:0:0:
448,192,19840,1,0,0:0:0:0:
64,192,19840,1,0,0:0:0:0:
192,192,19926,1,0,0:0:0:0:
448,192,20011,1,0,0:0:0:0:
320,192,20011,1,0,0:0:0:0:
64,192,20097,1,0,0:0:0:0:
192,192,20097,1,0,0:0:0:0:
448,192,20183,1,0,0:0:0:0:
320,192,20183,1,0,0:0:0:0:
192,192,20268,1,0,0:0:0:0:
64,192,20268,1,0,0:0:0:0:
448,192,20354,1,0,0:0:0:0:
320,192,20354,1,0,0:0:0:0:
64,192,20440,1,0,0:0:0:0:
192,192,20440,1,0,0:0:0:0:
320,192,20526,1,0,0:0:0:0:
448,192,20611,128,0,20954:0:0:0:0:
448,192,21040,128,0,21297:0:0:0:0:
448,192,21383,128,0,21983:0:0:0:0:
192,192,21554,128,0,21983:0:0:0:0:
64,192,21726,128,0,21983:0:0:0:0:
448,192,22068,1,0,0:0:0:0:
64,192,22068,1,0,0:0:0:0:
320,192,22068,1,0,0:0:0:0:
192,192,22154,1,0,0:0:0:0:
320,192,22240,1,0,0:0:0:0:
320,192,22411,1,0,0:0:0:0:
64,192,22411,1,0,0:0:0:0:
192,192,22411,1,0,0:0:0:0:
320,192,22583,1,0,0:0:0:0:
64,192,22668,1,0,0:0:0:0:
448,192,22754,1,0,0:0:0:0:
192,192,22754,1,0,0:0:0:0:
320,192,22754,1,0,0:0:0:0:
448,192,22926,1,0,0:0:0:0:
448,192,23097,1,0,0:0:0:0:
320,192,23097,1,0,0:0:0:0:
64,192,23097,1,0,0:0:0:0:
448,192,23268,1,0,0:0:0:0:
192,192,23354,1,0,0:0:0:0:
320,192,23440,1,0,0:0:0:0:
64,192,23440,1,0,0:0:0:0:
448,192,23440,1,0,0:0:0:0:
192,192,23526,1,0,0:0:0:0:
320,192,23611,1,0,0:0:0:0:
320,192,23783,1,0,0:0:0:0:
192,192,23783,1,0,0:0:0:0:
64,192,23783,1,0,0:0:0:0:
320,192,23954,1,0,0:0:0:0:
192,192,24040,1,0,0:0:0:0:
448,192,24126,1,0,0:0:0:0:
64,192,24126,1,0,0:0:0:0:
320,192,24126,1,0,0:0:0:0:
448,192,24297,1,0,0:0:0:0:
320,192,24383,1,0,0:0:0:0:
192,192,24468,1,0,0:0:0:0:
64,192,24468,1,0,0:0:0:0:
448,192,24468,1,0,0:0:0:0:
448,192,24640,1,0,0:0:0:0:
64,192,24811,1,0,0:0:0:0:
448,192,24811,1,0,0:0:0:0:
192,192,24811,1,0,0:0:0:0:
320,192,24897,1,0,0:0:0:0:
192,192,24983,1,0,0:0:0:0:
192,192,25154,1,0,0:0:0:0:
448,192,25154,1,0,0:0:0:0:
320,192,25154,1,0,0:0:0:0:
192,192,25326,1,0,0:0:0:0:
448,192,25411,1,0,0:0:0:0:
64,192,25497,1,0,0:0:0:0:
320,192,25497,1,0,0:0:0:0:
192,192,25497,1,0,0:0:0:0:
64,192,25668,1,0,0:0:0:0:
64,192,25840,1,0,0:0:0:0:
192,192,25840,1,0,0:0:0:0:
448,192,25840,1,0,0:0:0:0:
64,192,26011,1,0,0:0:0:0:
320,192,26097,1,0,0:0:0:0:
192,192,26183,1,0,0:0:0:0:
448,192,26183,1,0,0:0:0:0:
64,192,26183,1,0,0:0:0:0:
320,192,26268,1,0,0:0:0:0:
192,192,26354,1,0,0:0:0:0:
192,192,26526,1,0,0:0:0:0:
320,192,26526,1,0,0:0:0:0:
448,192,26526,1,0,0:0:0:0:
192,192,26697,1,0,0:0:0:0:
320,192,26783,1,0,0:0:0:0:
64,192,26868,1,0,0:0:0:0:
448,192,26868,1,0,0:0:0:0:
192,192,26868,1,0,0:0:0:0:
64,192,27040,1,0,0:0:0:0:
192,192,27126,1,0,0:0:0:0:
320,192,27211,1,0,0:0:0:0:
448,192,27211,1,0,0:0:0:0:
64,192,27211,1,0,0:0:0:0:
64,192,27297,1,0,0:0:0:0:
320,192,27383,1,0,0:0:0:0:
320,192,27468,1,0,0:0:0:0:
448,192,27554,128,0,27640:0:0:0:0:
64,192,27554,1,0,0:0:0:0:
192,192,27554,1,0,0:0:0:0:
320,192,27640,1,0,0:0:0:0:
192,192,27726,128,0,27811:0:0:0:0:
320,192,27897,128,0,27983:0:0:0:0:
192,192,27897,1,0,0:0:0:0:
448,192,27897,1,0,0:0:0:0:
192,192,28068,128,0,28154:0:0:0:0:
448,192,28154,1,0,0:0:0:0:
320,192,28240,128,0,28326:0:0:0:0:
64,192,28240,1,0,0:0:0:0:
192,192,28240,1,0,0:0:0:0:
64,192,28411,128,0,28497:0:0:0:0:
192,192,28583,128,0,28668:0:0:0:0:
448,192,28583,1,0,0:0:0:0:
64,192,28583,1,0,0:0:0:0:
64,192,28754,128,0,28840:0:0:0:0:
320,192,28840,1,0,0:0:0:0:
448,192,28926,128,0,29011:0:0:0:0:
64,192,28926,1,0,0:0:0:0:
192,192,28926,1,0,0:0:0:0:
320,192,29011,1,0,0:0:0:0:
192,192,29097,128,0,29183:0:0:0:0:
320,192,29268,128,0,29354:0:0:0:0:
192,192,29268,1,0,0:0:0:0:
448,192,29268,1,0,0:0:0:0:
192,192,29440,128,0,29526:0:0:0:0:
320,192,29526,1,0,0:0:0:0:
448,192,29611,128,0,29697:0:0:0:0:
64,192,29611,1,0,0:0:0:0:
192,192,29611,1,0,0:0:0:0:
64,192,29783,128,0,29868:0:0:0:0:
192,192,29868,1,0,0:0:0:0:
320,192,29954,128,0,30040:0:0:0:0:
448,192,29954,1,0,0:0:0:0:
64,192,29954,1,0,0:0:0:0:
64,192,30126,128,0,30211:0:0:0:0:
64,192,30297,128,0,30383:0:0:0:0:
448,192,30297,1,0,0:0:0:0:
320,192,30297,1,0,0:0:0:0:
192,192,30383,1,0,0:0:0:0:
320,192,30468,128,0,30554:0:0:0:0:
192,192,30640,128,0,30726:0:0:0:0:
320,192,30640,1,0,0:0:0:0:
64,192,30640,1,0,0:0:0:0:
320,192,30811,128,0,30897:0:0:0:0:
64,192,30897,1,0,0:0:0:0:
192,192,30983,128,0,31068:0:0:0:0:
448,192,30983,1,0,0:0:0:0:
320,192,30983,1,0,0:0:0:0:
448,192,31154,128,0,31240:0:0:0:0:
320,192,31326,128,0,31411:0:0:0:0:
448,192,31326,1,0,0:0:0:0:
64,192,31326,1,0,0:0:0:0:
448,192,31497,128,0,31583:0:0:0:0:
192,192,31583,1,0,0:0:0:0:
64,192,31668,128,0,31754:0:0:0:0:
320,192,31668,1,0,0:0:0:0:
448,192,31668,1,0,0:0:0:0:
192,192,31754,1,0,0:0:0:0:
320,192,31840,128,0,31926:0:0:0:0:
192,192,32011,128,0,32097:0:0:0:0:
320,192,32011,1,0,0:0:0:0:
64,192,32011,1,0,0:0:0:0:
320,192,32183,128,0,32268:0:0:0:0:
192,192,32268,1,0,0:0:0:0:
64,192,32354,1,0,0:0:0:0:
448,192,32354,1,0,0:0:0:0:
320,192,32354,1,0,0:0:0:0:
64,192,32440,1,0,0:0:0:0:
320,192,32526,1,0,0:0:0:0:
448,192,32526,1,0,0:0:0:0:
192,192,32526,1,0,0:0:0:0:
448,192,32611,1,0,0:0:0:0:
192,192,32697,1,0,0:0:0:0:
64,192,32697,1,0,0:0:0:0:
64,192,32783,1,0,0:0:0:0:
192,192,32783,1,0,0:0:0:0:
448,192,32868,1,0,0:0:0:0:
320,192,32868,1,0,0:0:0:0:
448,192,32954,1,0,0:0:0:0:
320,192,32954,1,0,0:0:0:0:
64,192,33040,128,0,33211:0:0:0:0:
192,192,33040,1,0,0:0:0:0:
320,192,33126,1,0,0:0:0:0:
448,192,33211,128,0,33383:0:0:0:0:
64,192,33383,128,0,33554:0:0:0:0:
320,192,33383,1,0,0:0:0:0:
192,192,33383,1,0,0:0:0:0:
320,192,33554,1,0,0:0:0:0:
320,192,33640,1,0,0:0:0:0:
448,192,33726,1,0,0:0:0:0:
192,192,33726,128,0,33897:0:0:0:0:
64,192,33726,1,0,0:0:0:0:
448,192,33897,128,0,34068:0:0:0:0:
320,192,34068,128,0,34240:0:0:0:0:
64,192,34068,1,0,0:0:0:0:
192,192,34068,1,0,0:0:0:0:
192,192,34240,1,0,0:0:0:0:
192,192,34326,1,0,0:0:0:0:
448,192,34411,1,0,0:0:0:0:
320,192,34411,1,0,0:0:0:0:
64,192,34411,128,0,34583:0:0:0:0:
192,192,34497,1,0,0:0:0:0:
320,192,34583,128,0,34754:0:0:0:0:
64,192,34754,128,0,34926:0:0:0:0:
192,192,34754,1,0,0:0:0:0:
448,192,34754,1,0,0:0:0:0:
448,192,34926,1,0,0:0:0:0:
448,192,35011,1,0,0:0:0:0:
192,192,35097,1,0,0:0:0:0:
320,192,35097,128,0,35268:0:0:0:0:
64,192,35097,1,0,0:0:0:0:
192,192,35268,1,0,0:0:0:0:
192,192,35354,1,0,0:0:0:0:
448,192,35440,1,0,0:0:0:0:
320,192,35440,128,0,35611:0:0:0:0:
64,192,35440,1,0,0:0:0:0:
448,192,35611,1,0,0:0:0:0:
192,192,35611,128,0,35783:0:0:0:0:
64,192,35783,1,0,0:0:0:0:
448,192,35783,128,0,35954:0:0:0:0:
320,192,35783,1,0,0:0:0:0:
192,192,35868,1,0,0:0:0:0:
64,192,35954,128,0,36126:0:0:0:0:
448,192,36126,128,0,36297:0:0:0:0:
192,192,36126,1,0,0:0:0:0:
320,192,36126,1,0,0:0:0:0:
192,192,36297,1,0,0:0:0:0:
192,192,36383,1,0,0:0:0:0:
64,192,36468,1,0,0:0:0:0:
320,192,36468,128,0,36640:0:0:0:0:
448,192,36468,1,0,0:0:0:0:
64,192,36640,128,0,36811:0:0:0:0:
192,192,36811,128,0,36983:0:0:0:0:
448,192,36811,1,0,0:0:0:0:
320,192,36811,1,0,0:0:0:0:
320,192,36983,1,0,0:0:0:0:
320,192,37068,1,0,0:0:0:0:
64,192,37154,1,0,0:0:0:0:
192,192,37154,1,0,0:0:0:0:
448,192,37154,128,0,37326:0:0:0:0:
320,192,37240,1,0,0:0:0:0:
192,192,37326,128,0,37497:0:0:0:0:
448,192,37497,128,0,37668:0:0:0:0:
320,192,37497,1,0,0:0:0:0:
64,192,37497,1,0,0:0:0:0:
64,192,37668,1,0,0:0:0:0:
64,192,37754,1,0,0:0:0:0:
192,192,37840,128,0,38011:0:0:0:0:
448,192,37840,1,0,0:0:0:0:
320,192,37840,1,0,0:0:0:0:
64,192,38011,128,0,38183:0:0:0:0:
448,192,38011,1,0,0:0:0:0:
320,192,38011,1,0,0:0:0:0:
448,192,38183,1,0,0:0:0:0:
320,192,38183,1,0,0:0:0:0:
448,192,38268,1,0,0:0:0:0:
320,192,38268,1,0,0:0:0:0:
64,192,38354,1,0,0:0:0:0:
192,192,38354,1,0,0:0:0:0:
192,192,38440,1,0,0:0:0:0:
64,192,38440,1,0,0:0:0:0:
448,192,38526,128,0,38611:0:0:0:0:
320,192,38526,128,0,38611:0:0:0:0:
192,192,38611,128,0,38697:0:0:0:0:
64,192,38697,128,0,38868:0:0:0:0:
448,192,38697,1,0,0:0:0:0:
320,192,38697,1,0,0:0:0:0:
448,192,38868,1,0,0:0:0:0:
192,192,38868,1,0,0:0:0:0:
320,192,38868,128,0,39040:0:0:0:0:
448,192,39040,1,0,0:0:0:0:
64,192,39040,1,0,0:0:0:0:
192,192,39040,128,0,39211:0:0:0:0:
448,192,39211,128,0,39383:0:0:0:0:
320,192,39211,1,0,0:0:0:0:
64,192,39211,1,0,0:0:0:0:
320,192,39383,128,0,39554:0:0:0:0:
64,192,39383,1,0,0:0:0:0:
192,192,39383,1,0,0:0:0:0:
192,192,39554,128,0,39726:0:0:0:0:
448,192,39554,1,0,0:0:0:0:
64,192,39554,1,0,0:0:0:0:
64,192,39726,128,0,39897:0:0:0:0:
448,192,39726,1,0,0:0:0:0:
320,192,39726,1,0,0:0:0:0:
320,192,39897,128,0,39983:0:0:0:0:
192,192,39897,128,0,39983:0:0:0:0:
448,192,39897,128,0,40068:0:0:0:0:
320,192,40068,1,0,0:0:0:0:
64,192,40068,1,0,0:0:0:0:
192,192,40068,128,0,40240:0:0:0:0:
448,192,40240,1,0,0:0:0:0:
320,192,40240,128,0,40411:0:0:0:0:
64,192,40240,1,0,0:0:0:0:
64,192,40411,128,0,40583:0:0:0:0:
192,192,40411,1,0,0:0:0:0:
448,192,40411,1,0,0:0:0:0:
448,192,40583,128,0,40668:0:0:0:0:
320,192,40583,128,0,40668:0:0:0:0:
192,192,40583,128,0,40754:0:0:0:0:
320,192,40754,128,0,40926:0:0:0:0:
64,192,40754,1,0,0:0:0:0:
448,192,40754,1,0,0:0:0:0:
448,192,40926,128,0,41097:0:0:0:0:
64,192,40926,1,0,0:0:0:0:
192,192,40926,1,0,0:0:0:0:
64,192,41097,128,0,41268:0:0:0:0:
192,192,41097,1,0,0:0:0:0:
320,192,41097,1,0,0:0:0:0:
192,192,41268,1,0,0:0:0:0:
448,192,41268,1,0,0:0:0:0:
320,192,41268,1,0,0:0:0:0:
64,192,41354,1,0,0:0:0:0:
448,192,41440,1,0,0:0:0:0:
320,192,41440,1,0,0:0:0:0:
192,192,41526,1,0,0:0:0:0:
320,192,41611,1,0,0:0:0:0:
448,192,41611,1,0,0:0:0:0:
64,192,41611,1,0,0:0:0:0:
192,192,41697,1,0,0:0:0:0:
448,192,41783,1,0,0:0:0:0:
64,192,41783,1,0,0:0:0:0:
320,192,41868,1,0,0:0:0:0:
448,192,41954,1,0,0:0:0:0:
64,192,41954,1,0,0:0:0:0:
192,192,41954,1,0,0:0:0:0:
320,192,42040,1,0,0:0:0:0:
64,192,42126,1,0,0:0:0:0:
192,192,42126,1,0,0:0:0:0:
448,192,42211,1,0,0:0:0:0:
64,192,42297,1,0,0:0:0:0:
192,192,42297,1,0,0:0:0:0:
320,192,42297,1,0,0:0:0:0:
448,192,42383,1,0,0:0:0:0:
320,192,42468,1,0,0:0:0:0:
192,192,42468,1,0,0:0:0:0:
64,192,42554,1,0,0:0:0:0:
320,192,42640,128,0,42726:0:0:0:0:
448,192,42640,128,0,42726:0:0:0:0:
320,192,42811,128,0,42897:0:0:0:0:
448,192,42811,128,0,42897:0:0:0:0:
448,192,42983,128,0,43068:0:0:0:0:
320,192,42983,128,0,43068:0:0:0:0:
448,192,43154,128,0,43240:0:0:0:0:
320,192,43154,128,0,43240:0:0:0:0:
192,192,43240,128,0,43326:0:0:0:0:
64,192,43240,128,0,43326:0:0:0:0:
320,192,43326,128,0,43411:0:0:0:0:
448,192,43326,128,0,43583:0:0:0:0:
320,192,43497,128,0,43754:0:0:0:0:
192,192,43497,128,0,43583:0:0:0:0:
192,192,43668,128,0,43926:0:0:0:0:
64,192,43668,128,0,43926:0:0:0:0:
448,192,43668,128,0,43754:0:0:0:0:
320,192,44011,1,0,0:0:0:0:
64,192,44011,128,0,44440:0:0:0:0:
192,192,44011,1,0,0:0:0:0:
448,192,44011,1,0,0:0:0:0:
192,192,44183,128,0,44954:0:0:0:0:
320,192,44354,128,0,45126:0:0:0:0:
64,192,44526,128,0,44783:0:0:0:0:
64,192,44868,128,0,45811:0:0:0:0:
192,192,45040,128,0,45640:0:0:0:0:
320,192,45211,128,0,45468:0:0:0:0:
320,192,45554,128,0,45983:0:0:0:0:
192,192,45726,128,0,46154:0:0:0:0:
64,192,45897,128,0,46326:0:0:0:0:
320,192,46068,128,0,46754:0:0:0:0:
192,192,46240,128,0,46754:0:0:0:0:
64,192,46411,128,0,46754:0:0:0:0:
448,192,46754,128,0,47183:0:0:0:0:
320,192,46926,128,0,47697:0:0:0:0:
192,192,47097,128,0,47868:0:0:0:0:
448,192,47268,128,0,47526:0:0:0:0:
448,192,47611,128,0,48554:0:0:0:0:
320,192,47783,128,0,48383:0:0:0:0:
192,192,47954,128,0,48211:0:0:0:0:
192,192,48297,128,0,48726:0:0:0:0:
320,192,48468,128,0,48897:0:0:0:0:
448,192,48640,128,0,49068:0:0:0:0:
192,192,48811,128,0,49240:0:0:0:0:
320,192,48983,128,0,49497:0:0:0:0:
448,192,49154,128,0,49497:0:0:0:0:
192,192,49326,128,0,49497:0:0:0:0:
64,192,49497,128,0,50268:0:0:0:0:
320,192,49668,128,0,49754:0:0:0:0:
320,192,49840,128,0,50697:0:0:0:0:
192,192,50011,128,0,50097:0:0:0:0:
192,192,50183,128,0,50697:0:0:0:0:
64,192,50354,128,0,50697:0:0:0:0:
448,192,50697,128,0,51640:0:0:0:0:
192,192,51040,128,0,51126:0:0:0:0:
192,192,51211,128,0,52068:0:0:0:0:
320,192,51383,128,0,51468:0:0:0:0:
320,192,51554,128,0,52068:0:0:0:0:
448,192,51726,128,0,52068:0:0:0:0:
64,192,52068,128,0,53011:0:0:0:0:
320,192,52411,128,0,52497:0:0:0:0:
320,192,52583,128,0,53440:0:0:0:0:
192,192,52754,128,0,52840:0:0:0:0:
192,192,52926,128,0,53440:0:0:0:0:
64,192,53097,128,0,53440:0:0:0:0:
448,192,53440,128,0,54383:0:0:0:0:
192,192,53783,128,0,53868:0:0:0:0:
192,192,53954,128,0,54983:0:0:0:0:
320,192,54126,128,0,54211:0:0:0:0:
320,192,54297,128,0,54811:0:0:0:0:
448,192,54468,128,0,54640:0:0:0:0:
64,192,54640,128,0,55154:0:0:0:0:
320,192,54983,1,0,0:0:0:0:
448,192,54983,128,0,55240:0:0:0:0:
192,192,55154,1,0,0:0:0:0:
320,192,55154,128,0,55411:0:0:0:0:
448,192,55326,1,0,0:0:0:0:
192,192,55326,128,0,55583:0:0:0:0:
320,192,55497,1,0,0:0:0:0:
448,192,55497,128,0,55754:0:0:0:0:
64,192,55668,1,0,0:0:0:0:
192,192,55668,1,0,0:0:0:0:
448,192,55840,128,0,56097:0:0:0:0:
320,192,55840,1,0,0:0:0:0:
320,192,56011,128,0,56268:0:0:0:0:
192,192,56011,1,0,0:0:0:0:
448,192,56183,1,0,0:0:0:0:
192,192,56183,128,0,56440:0:0:0:0:
64,192,56354,1,0,0:0:0:0:
320,192,56354,1,0,0:0:0:0:
320,192,56526,1,0,0:0:0:0:
192,192,56526,128,0,56783:0:0:0:0:
448,192,56697,1,0,0:0:0:0:
320,192,56697,128,0,56954:0:0:0:0:
192,192,56868,1,0,0:0:0:0:
448,192,56868,128,0,57126:0:0:0:0:
192,192,57040,128,0,57297:0:0:0:0:
320,192,57040,1,0,0:0:0:0:
448,192,57211,1,0,0:0:0:0:
320,192,57211,128,0,57468:0:0:0:0:
448,192,57383,128,0,57640:0:0:0:0:
192,192,57383,1,0,0:0:0:0:
320,192,57554,1,0,0:0:0:0:
64,192,57726,128,0,57983:0:0:0:0:
448,192,57726,1,0,0:0:0:0:
320,192,57897,1,0,0:0:0:0:
192,192,57897,128,0,58154:0:0:0:0:
64,192,58068,1,0,0:0:0:0:
320,192,58068,128,0,58326:0:0:0:0:
192,192,58240,1,0,0:0:0:0:
64,192,58240,128,0,58497:0:0:0:0:
448,192,58411,1,0,0:0:0:0:
320,192,58411,1,0,0:0:0:0:
64,192,58583,128,0,58840:0:0:0:0:
192,192,58583,1,0,0:0:0:0:
192,192,58754,128,0,59011:0:0:0:0:
320,192,58754,1,0,0:0:0:0:
64,192,58926,1,0,0:0:0:0:
320,192,58926,128,0,59183:0:0:0:0:
448,192,59097,1,0,0:0:0:0:
192,192,59097,1,0,0:0:0:0:
320,192,59268,128,0,59526:0:0:0:0:
192,192,59268,1,0,0:0:0:0:
192,192,59440,128,0,59697:0:0:0:0:
64,192,59440,1,0,0:0:0:0:
320,192,59611,1,0,0:0:0:0:
64,192,59611,128,0,59868:0:0:0:0:
320,192,59783,128,0,60040:0:0:0:0:
192,192,59783,1,0,0:0:0:0:
64,192,59954,1,0,0:0:0:0:
192,192,59954,128,0,60211:0:0:0:0:
64,192,60126,128,0,60383:0:0:0:0:
320,192,60126,1,0,0:0:0:0:
320,192,60297,128,0,60554:0:0:0:0:
192,192,60297,1,0,0:0:0:0:
64,192,60468,1,0,0:0:0:0:
448,192,60468,128,0,60726:0:0:0:0:
192,192,60640,128,0,60726:0:0:0:0:
320,192,60640,1,0,0:0:0:0:
192,192,60811,128,0,61068:0:0:0:0:
448,192,60811,1,0,0:0:0:0:
320,192,60983,128,0,61068:0:0:0:0:
64,192,60983,1,0,0:0:0:0:
192,192,61154,1,0,0:0:0:0:
320,192,61154,128,0,61411:0:0:0:0:
64,192,61326,1,0,0:0:0:0:
448,192,61326,128,0,61583:0:0:0:0:
192,192,61497,1,0,0:0:0:0:
320,192,61497,1,0,0:0:0:0:
448,192,61668,1,0,0:0:0:0:
64,192,61668,128,0,62097:0:0:0:0:
448,192,61840,1,0,0:0:0:0:
192,192,61840,1,0,0:0:0:0:
192,192,62011,1,0,0:0:0:0:
320,192,62011,128,0,62097:0:0:0:0:
64,192,62183,1,0,0:0:0:0:
320,192,62183,128,0,62440:0:0:0:0:
448,192,62354,1,0,0:0:0:0:
192,192,62354,128,0,62440:0:0:0:0:
192,192,62526,128,0,62783:0:0:0:0:
320,192,62526,1,0,0:0:0:0:
64,192,62697,128,0,62954:0:0:0:0:
448,192,62697,1,0,0:0:0:0:
192,192,62868,1,0,0:0:0:0:
320,192,62868,1,0,0:0:0:0:
64,192,63040,1,0,0:0:0:0:
448,192,63040,128,0,63468:0:0:0:0:
64,192,63211,1,0,0:0:0:0:
320,192,63211,1,0,0:0:0:0:
320,192,63383,1,0,0:0:0:0:
192,192,63383,128,0,63468:0:0:0:0:
448,192,63554,1,0,0:0:0:0:
192,192,63554,128,0,63811:0:0:0:0:
64,192,63726,1,0,0:0:0:0:
320,192,63726,128,0,63811:0:0:0:0:
320,192,63897,128,0,64154:0:0:0:0:
192,192,63897,1,0,0:0:0:0:
448,192,64068,128,0,64326:0:0:0:0:
64,192,64068,1,0,0:0:0:0:
320,192,64240,1,0,0:0:0:0:
192,192,64240,1,0,0:0:0:0:
448,192,64411,1,0,0:0:0:0:
64,192,64411,128,0,64840:0:0:0:0:
448,192,64583,1,0,0:0:0:0:
192,192,64583,1,0,0:0:0:0:
192,192,64754,1,0,0:0:0:0:
320,192,64754,128,0,64840:0:0:0:0:
64,192,64926,1,0,0:0:0:0:
320,192,64926,128,0,65183:0:0:0:0:
448,192,65097,1,0,0:0:0:0:
192,192,65097,128,0,65183:0:0:0:0:
192,192,65268,128,0,65868:0:0:0:0:
320,192,65268,1,0,0:0:0:0:
320,192,65440,128,0,65868:0:0:0:0:
64,192,65440,1,0,0:0:0:0:
64,192,65611,128,0,65868:0:0:0:0:
448,192,65611,1,0,0:0:0:0:
448,192,65783,128,0,65868:0:0:0:0:
320,192,65954,128,0,66040:0:0:0:0:
448,192,65954,128,0,66040:0:0:0:0:
64,192,65954,128,0,66211:0:0:0:0:
192,192,65954,128,0,66040:0:0:0:0:
320,192,66126,1,0,0:0:0:0:
192,192,66126,128,0,66383:0:0:0:0:
448,192,66297,128,0,66383:0:0:0:0:
64,192,66297,128,0,66383:0:0:0:0:
320,192,66297,128,0,66554:0:0:0:0:
192,192,66468,1,0,0:0:0:0:
64,192,66468,128,0,66726:0:0:0:0:
192,192,66640,128,0,66726:0:0:0:0:
448,192,66640,128,0,66726:0:0:0:0:
320,192,66640,128,0,66726:0:0:0:0:
64,192,66811,128,0,67068:0:0:0:0:
192,192,66811,1,0,0:0:0:0:
448,192,66983,128,0,67068:0:0:0:0:
320,192,66983,128,0,67068:0:0:0:0:
192,192,66983,128,0,67240:0:0:0:0:
64,192,67154,1,0,0:0:0:0:
320,192,67154,128,0,67411:0:0:0:0:
448,192,67326,128,0,67411:0:0:0:0:
192,192,67326,128,0,67411:0:0:0:0:
64,192,67326,128,0,67411:0:0:0:0:
192,192,67497,1,0,0:0:0:0:
320,192,67497,128,0,67754:0:0:0:0:
448,192,67668,128,0,67754:0:0:0:0:
64,192,67668,128,0,67754:0:0:0:0:
192,192,67668,128,0,67926:0:0:0:0:
320,192,67840,1,0,0:0:0:0:
64,192,67840,128,0,68097:0:0:0:0:
448,192,68011,128,0,68097:0:0:0:0:
192,192,68011,128,0,68097:0:0:0:0:
320,192,68011,128,0,68268:0:0:0:0:
64,192,68183,1,0,0:0:0:0:
192,192,68183,128,0,68440:0:0:0:0:
448,192,68354,128,0,68440:0:0:0:0:
320,192,68354,128,0,68440:0:0:0:0:
64,192,68354,128,0,68611:0:0:0:0:
192,192,68526,1,0,0:0:0:0:
192,192,68697,128,0,68783:0:0:0:0:
64,192,68697,128,0,68783:0:0:0:0:
448,192,68697,128,0,68954:0:0:0:0:
192,192,68868,1,0,0:0:0:0:
320,192,68868,128,0,69126:0:0:0:0:
448,192,69040,128,0,69126:0:0:0:0:
64,192,69040,128,0,69126:0:0:0:0:
192,192,69040,128,0,69297:0:0:0:0:
320,192,69211,1,0,0:0:0:0:
448,192,69211,128,0,69468:0:0:0:0:
320,192,69383,128,0,69468:0:0:0:0:
192,192,69383,128,0,69468:0:0:0:0:
64,192,69383,128,0,69468:0:0:0:0:
448,192,69554,128,0,69811:0:0:0:0:
320,192,69554,1,0,0:0:0:0:
192,192,69726,128,0,69811:0:0:0:0:
64,192,69726,128,0,69811:0:0:0:0:
320,192,69726,128,0,69983:0:0:0:0:
448,192,69897,1,0,0:0:0:0:
192,192,69897,128,0,70154:0:0:0:0:
448,192,70068,128,0,70154:0:0:0:0:
320,192,70068,128,0,70154:0:0:0:0:
64,192,70068,128,0,70154:0:0:0:0:
192,192,70240,128,0,70497:0:0:0:0:
320,192,70240,1,0,0:0:0:0:
64,192,70411,128,0,70497:0:0:0:0:
448,192,70411,128,0,70497:0:0:0:0:
320,192,70411,128,0,70668:0:0:0:0:
192,192,70583,1,0,0:0:0:0:
448,192,70583,128,0,70840:0:0:0:0:
320,192,70754,128,0,70840:0:0:0:0:
64,192,70754,128,0,70840:0:0:0:0:
192,192,70754,128,0,71011:0:0:0:0:
448,192,70926,1,0,0:0:0:0:
320,192,70926,128,0,71183:0:0:0:0:
192,192,71097,128,0,71183:0:0:0:0:
64,192,71097,128,0,71183:0:0:0:0:
448,192,71097,128,0,71354:0:0:0:0:
192,192,71268,128,0,71526:0:0:0:0:
320,192,71268,1,0,0:0:0:0:
448,192,71440,128,0,71526:0:0:0:0:
320,192,71440,128,0,71526:0:0:0:0:
64,192,71440,128,0,71697:0:0:0:0:
320,192,71611,128,0,71697:0:0:0:0:
192,192,71611,1,0,0:0:0:0:
320,192,71783,128,0,72040:0:0:0:0:
64,192,71783,128,0,71868:0:0:0:0:
448,192,71783,128,0,71868:0:0:0:0:
192,192,71954,128,0,72040:0:0:0:0:
448,192,71954,1,0,0:0:0:0:
192,192,72126,128,0,72383:0:0:0:0:
64,192,72126,128,0,72211:0:0:0:0:
448,192,72126,128,0,72211:0:0:0:0:
64,192,72297,128,0,72554:0:0:0:0:
320,192,72297,1,0,0:0:0:0:
192,192,72468,128,0,72554:0:0:0:0:
448,192,72468,128,0,72554:0:0:0:0:
320,192,72468,128,0,72554:0:0:0:0:
448,192,72640,128,0,73068:0:0:0:0:
192,192,72640,1,0,0:0:0:0:
320,192,72811,128,0,72897:0:0:0:0:
192,192,72811,128,0,72897:0:0:0:0:
64,192,72811,128,0,72897:0:0:0:0:
192,192,72983,128,0,73068:0:0:0:0:
320,192,72983,1,0,0:0:0:0:
192,192,73154,128,0,73411:0:0:0:0:
448,192,73154,128,0,73240:0:0:0:0:
64,192,73154,128,0,73240:0:0:0:0:
320,192,73326,128,0,73411:0:0:0:0:
64,192,73326,1,0,0:0:0:0:
448,192,73497,128,0,73583:0:0:0:0:
320,192,73497,128,0,73754:0:0:0:0:
64,192,73497,128,0,73583:0:0:0:0:
448,192,73668,128,0,73926:0:0:0:0:
192,192,73668,1,0,0:0:0:0:
320,192,73840,128,0,73926:0:0:0:0:
192,192,73840,128,0,73926:0:0:0:0:
64,192,73840,128,0,73926:0:0:0:0:
64,192,74011,128,0,74440:0:0:0:0:
320,192,74011,1,0,0:0:0:0:
192,192,74183,128,0,74268:0:0:0:0:
320,192,74183,128,0,74268:0:0:0:0:
448,192,74183,128,0,74268:0:0:0:0:
320,192,74354,128,0,74440:0:0:0:0:
192,192,74354,1,0,0:0:0:0:
320,192,74526,128,0,74783:0:0:0:0:
64,192,74526,128,0,74611:0:0:0:0:
448,192,74526,128,0,74611:0:0:0:0:
192,192,74697,128,0,74783:0:0:0:0:
448,192,74697,1,0,0:0:0:0:
64,192,74868,128,0,74954:0:0:0:0:
192,192,74868,128,0,75126:0:0:0:0:
448,192,74868,128,0,74954:0:0:0:0:
64,192,75040,128,0,75297:0:0:0:0:
320,192,75040,1,0,0:0:0:0:
192,192,75211,128,0,75297:0:0:0:0:
320,192,75211,128,0,75297:0:0:0:0:
448,192,75211,128,0,75297:0:0:0:0:
448,192,75383,128,0,75811:0:0:0:0:
192,192,75383,1,0,0:0:0:0:
320,192,75554,128,0,75640:0:0:0:0:
192,192,75554,128,0,75640:0:0:0:0:
64,192,75554,128,0,75640:0:0:0:0:
192,192,75726,128,0,75811:0:0:0:0:
320,192,75726,1,0,0:0:0:0:
192,192,75897,128,0,76154:0:0:0:0:
448,192,75897,128,0,75983:0:0:0:0:
64,192,75897,128,0,75983:0:0:0:0:
320,192,76068,128,0,76154:0:0:0:0:
64,192,76068,1,0,0:0:0:0:
320,192,76240,128,0,76497:0:0:0:0:
192,192,76240,128,0,76326:0:0:0:0:
64,192,76240,128,0,76326:0:0:0:0:
448,192,76411,128,0,76668:0:0:0:0:
192,192,76411,128,0,76497:0:0:0:0:
64,192,76411,128,0,76497:0:0:0:0:
320,192,76583,128,0,76668:0:0:0:0:
64,192,76583,128,0,76668:0:0:0:0:
192,192,76583,128,0,76840:0:0:0:0:
448,192,76754,128,0,76840:0:0:0:0:
320,192,76754,128,0,76840:0:0:0:0:
64,192,76754,128,0,76840:0:0:0:0:
448,192,76926,1,0,0:0:0:0:
64,192,76926,128,0,77097:0:0:0:0:
192,192,76926,1,0,0:0:0:0:
320,192,76926,1,0,0:0:0:0:
192,192,77097,128,0,77268:0:0:0:0:
64,192,77183,1,0,0:0:0:0:
448,192,77183,1,0,0:0:0:0:
320,192,77268,128,0,77440:0:0:0:0:
448,192,77440,1,0,0:0:0:0:
64,192,77440,128,0,77611:0:0:0:0:
192,192,77440,1,0,0:0:0:0:
320,192,77611,1,0,0:0:0:0:
448,192,77697,1,0,0:0:0:0:
192,192,77697,1,0,0:0:0:0:
320,192,77783,1,0,0:0:0:0:
64,192,77783,128,0,77954:0:0:0:0:
448,192,77954,1,0,0:0:0:0:
192,192,77954,128,0,78126:0:0:0:0:
320,192,77954,1,0,0:0:0:0:
448,192,78126,1,0,0:0:0:0:
320,192,78126,128,0,78297:0:0:0:0:
64,192,78126,1,0,0:0:0:0:
64,192,78297,1,0,0:0:0:0:
192,192,78297,1,0,0:0:0:0:
448,192,78297,1,0,0:0:0:0:
320,192,78468,128,0,78640:0:0:0:0:
448,192,78554,1,0,0:0:0:0:
64,192,78554,1,0,0:0:0:0:
192,192,78640,128,0,78811:0:0:0:0:
448,192,78811,1,0,0:0:0:0:
64,192,78811,128,0,78983:0:0:0:0:
320,192,78811,1,0,0:0:0:0:
192,192,78897,1,0,0:0:0:0:
320,192,78983,128,0,79154:0:0:0:0:
448,192,79068,1,0,0:0:0:0:
64,192,79068,1,0,0:0:0:0:
192,192,79154,128,0,79326:0:0:0:0:
320,192,79240,1,0,0:0:0:0:
448,192,79326,128,0,79411:0:0:0:0:
64,192,79326,1,0,0:0:0:0:
320,192,79368,128,0,79454:0:0:0:0:
192,192,79411,128,0,79497:0:0:0:0:
64,192,79454,128,0,79540:0:0:0:0:
448,192,79497,1,0,0:0:0:0:
320,192,79540,1,0,0:0:0:0:
192,192,79583,1,0,0:0:0:0:
64,192,79626,1,0,0:0:0:0:
448,192,79668,128,0,79840:0:0:0:0:
320,192,79668,1,0,0:0:0:0:
320,192,79840,128,0,80011:0:0:0:0:
448,192,79926,1,0,0:0:0:0:
64,192,79926,1,0,0:0:0:0:
192,192,80011,128,0,80183:0:0:0:0:
64,192,80183,1,0,0:0:0:0:
448,192,80183,128,0,80354:0:0:0:0:
320,192,80183,1,0,0:0:0:0:
192,192,80354,1,0,0:0:0:0:
64,192,80440,1,0,0:0:0:0:
320,192,80440,1,0,0:0:0:0:
192,192,80526,1,0,0:0:0:0:
448,192,80526,128,0,80697:0:0:0:0:
64,192,80697,1,0,0:0:0:0:
320,192,80697,128,0,80868:0:0:0:0:
192,192,80697,1,0,0:0:0:0:
64,192,80868,1,0,0:0:0:0:
192,192,80868,128,0,81040:0:0:0:0:
448,192,80868,1,0,0:0:0:0:
64,192,81040,128,0,81211:0:0:0:0:
448,192,81040,1,0,0:0:0:0:
320,192,81040,1,0,0:0:0:0:
192,192,81211,128,0,81383:0:0:0:0:
64,192,81297,1,0,0:0:0:0:
448,192,81297,1,0,0:0:0:0:
320,192,81383,128,0,81554:0:0:0:0:
64,192,81554,1,0,0:0:0:0:
448,192,81554,128,0,81726:0:0:0:0:
192,192,81554,1,0,0:0:0:0:
320,192,81640,1,0,0:0:0:0:
192,192,81726,128,0,81897:0:0:0:0:
64,192,81811,1,0,0:0:0:0:
448,192,81811,1,0,0:0:0:0:
320,192,81897,128,0,82068:0:0:0:0:
192,192,81983,1,0,0:0:0:0:
64,192,82068,128,0,82240:0:0:0:0:
448,192,82068,1,0,0:0:0:0:
320,192,82240,128,0,82411:0:0:0:0:
448,192,82240,1,0,0:0:0:0:
192,192,82240,1,0,0:0:0:0:
64,192,82326,1,0,0:0:0:0:
192,192,82411,1,0,0:0:0:0:
448,192,82411,128,0,82583:0:0:0:0:
192,192,82583,1,0,0:0:0:0:
64,192,82583,1,0,0:0:0:0:
320,192,82583,1,0,0:0:0:0:
192,192,82754,1,0,0:0:0:0:
448,192,82754,128,0,82926:0:0:0:0:
320,192,82754,1,0,0:0:0:0:
192,192,82926,1,0,0:0:0:0:
320,192,82926,1,0,0:0:0:0:
64,192,82926,1,0,0:0:0:0:
448,192,83097,128,0,83268:0:0:0:0:
192,192,83097,1,0,0:0:0:0:
320,192,83097,1,0,0:0:0:0:
192,192,83268,128,0,83440:0:0:0:0:
64,192,83268,1,0,0:0:0:0:
320,192,83268,1,0,0:0:0:0:
64,192,83440,1,0,0:0:0:0:
448,192,83440,1,0,0:0:0:0:
320,192,83440,1,0,0:0:0:0:
64,192,83611,128,0,83783:0:0:0:0:
320,192,83611,1,0,0:0:0:0:
448,192,83611,1,0,0:0:0:0:
320,192,83783,1,0,0:0:0:0:
448,192,83783,1,0,0:0:0:0:
192,192,83783,1,0,0:0:0:0:
320,192,83954,1,0,0:0:0:0:
64,192,83954,1,0,0:0:0:0:
192,192,83954,1,0,0:0:0:0:
448,192,84126,1,0,0:0:0:0:
64,192,84126,128,0,84211:0:0:0:0:
192,192,84168,128,0,84254:0:0:0:0:
320,192,84211,128,0,84297:0:0:0:0:
448,192,84254,128,0,84340:0:0:0:0:
64,192,84297,1,0,0:0:0:0:
192,192,84340,1,0,0:0:0:0:
320,192,84383,1,0,0:0:0:0:
448,192,84426,1,0,0:0:0:0:
64,192,84468,128,0,84640:0:0:0:0:
192,192,84468,1,0,0:0:0:0:
320,192,84640,128,0,84811:0:0:0:0:
448,192,84640,1,0,0:0:0:0:
192,192,84640,1,0,0:0:0:0:
192,192,84811,1,0,0:0:0:0:
64,192,84811,1,0,0:0:0:0:
448,192,84811,1,0,0:0:0:0:
448,192,84983,1,0,0:0:0:0:
320,192,84983,1,0,0:0:0:0:
192,192,85068,1,0,0:0:0:0:
64,192,85154,1,0,0:0:0:0:
448,192,85154,1,0,0:0:0:0:
320,192,85154,1,0,0:0:0:0:
192,192,85240,1,0,0:0:0:0:
320,192,85326,1,0,0:0:0:0:
64,192,85326,1,0,0:0:0:0:
448,192,85411,1,0,0:0:0:0:
320,192,85497,1,0,0:0:0:0:
64,192,85497,1,0,0:0:0:0:
192,192,85497,1,0,0:0:0:0:
448,192,85583,1,0,0:0:0:0:
64,192,85668,1,0,0:0:0:0:
192,192,85668,1,0,0:0:0:0:
320,192,85840,1,0,0:0:0:0:
448,192,85840,1,0,0:0:0:0:
64,192,85840,1,0,0:0:0:0:
192,192,85926,1,0,0:0:0:0:
320,192,86011,1,0,0:0:0:0:
448,192,86011,1,0,0:0:0:0:
64,192,86011,1,0,0:0:0:0:
192,192,86183,1,0,0:0:0:0:
448,192,86183,1,0,0:0:0:0:
64,192,86183,1,0,0:0:0:0:
320,192,86268,1,0,0:0:0:0:
192,192,86354,1,0,0:0:0:0:
64,192,86354,1,0,0:0:0:0:
320,192,86440,1,0,0:0:0:0:
448,192,86526,128,0,86783:0:0:0:0:
448,192,86868,128,0,87126:0:0:0:0:
448,192,87211,128,0,87497:0:0:0:0:
64,192,87383,128,0,87497:0:0:0:0:
192,192,87440,128,0,87611:0:0:0:0:
320,192,87497,128,0,87726:0:0:0:0:
448,192,87554,128,0,87840:0:0:0:0:
64,192,87554,1,0,0:0:0:0:
192,192,87668,1,0,0:0:0:0:
320,192,87783,1,0,0:0:0:0:
64,192,87897,128,0,88126:0:0:0:0:
448,192,87897,128,0,87954:0:0:0:0:
320,192,87897,128,0,88011:0:0:0:0:
192,192,87897,128,0,88068:0:0:0:0:
448,192,88068,128,0,88183:0:0:0:0:
320,192,88126,128,0,88240:0:0:0:0:
192,192,88183,128,0,88354:0:0:0:0:
64,192,88240,128,0,88297:0:0:0:0:
320,192,88297,128,0,88411:0:0:0:0:
448,192,88354,128,0,88468:0:0:0:0:
64,192,88411,1,0,0:0:0:0:
192,192,88468,1,0,0:0:0:0:
320,192,88526,1,0,0:0:0:0:
64,192,88583,128,0,88697:0:0:0:0:
448,192,88583,1,0,0:0:0:0:
192,192,88583,128,0,88754:0:0:0:0:
320,192,88697,128,0,88811:0:0:0:0:
448,192,88754,128,0,88868:0:0:0:0:
64,192,88811,1,0,0:0:0:0:
192,192,88868,1,0,0:0:0:0:
192,192,88983,128,0,89097:0:0:0:0:
64,192,89040,128,0,89154:0:0:0:0:
448,192,89097,128,0,89211:0:0:0:0:
320,192,89097,128,0,89268:0:0:0:0:
192,192,89183,1,0,0:0:0:0:
64,192,89268,1,0,0:0:0:0:
320,192,89354,1,0,0:0:0:0:
192,192,89440,128,0,89526:0:0:0:0:
448,192,89440,1,0,0:0:0:0:
64,192,89526,128,0,89611:0:0:0:0:
448,192,89611,128,0,89811:0:0:0:0:
320,192,89611,128,0,89697:0:0:0:0:
192,192,89611,1,0,0:0:0:0:
64,192,89697,1,0,0:0:0:0:
320,192,89783,128,0,89840:0:0:0:0:
192,192,89811,128,0,89868:0:0:0:0:
64,192,89840,128,0,89897:0:0:0:0:
448,192,89868,128,0,89954:0:0:0:0:
192,192,89954,128,0,90126:0:0:0:0:
64,192,89954,128,0,90040:0:0:0:0:
320,192,89954,1,0,0:0:0:0:
448,192,90040,1,0,0:0:0:0:
320,192,90126,1,0,0:0:0:0:
64,192,90126,128,0,90211:0:0:0:0:
448,192,90211,128,0,90297:0:0:0:0:
192,192,90211,1,0,0:0:0:0:
320,192,90297,128,0,90411:0:0:0:0:
192,192,90354,128,0,90468:0:0:0:0:
64,192,90411,128,0,90526:0:0:0:0:
448,192,90468,1,0,0:0:0:0:
320,192,90526,1,0,0:0:0:0:
192,192,90583,1,0,0:0:0:0:
64,192,90640,128,0,90726:0:0:0:0:
448,192,90640,128,0,90897:0:0:0:0:
320,192,90640,128,0,90811:0:0:0:0:
64,192,90811,1,0,0:0:0:0:
192,192,90868,1,0,0:0:0:0:
320,192,90926,1,0,0:0:0:0:
448,192,90983,128,0,91097:0:0:0:0:
320,192,91040,128,0,91154:0:0:0:0:
192,192,91097,128,0,91211:0:0:0:0:
64,192,91154,128,0,91268:0:0:0:0:
448,192,91211,1,0,0:0:0:0:
320,192,91268,1,0,0:0:0:0:
64,192,91326,128,0,91583:0:0:0:0:
192,192,91326,128,0,91497:0:0:0:0:
448,192,91326,128,0,91411:0:0:0:0:
448,192,91497,1,0,0:0:0:0:
320,192,91554,1,0,0:0:0:0:
192,192,91611,1,0,0:0:0:0:
64,192,91668,128,0,91783:0:0:0:0:
448,192,91668,128,0,91726:0:0:0:0:
448,192,91783,128,0,91840:0:0:0:0:
192,192,91840,1,0,0:0:0:0:
64,192,91840,1,0,0:0:0:0:
448,192,91897,128,0,91954:0:0:0:0:
64,192,92011,128,0,92126:0:0:0:0:
320,192,92126,128,0,92240:0:0:0:0:
448,192,92183,128,0,92297:0:0:0:0:
64,192,92183,1,0,0:0:0:0:
192,192,92240,1,0,0:0:0:0:
320,192,92297,1,0,0:0:0:0:
192,192,92354,1,0,0:0:0:0:
64,192,92354,128,0,92468:0:0:0:0:
448,192,92354,1,0,0:0:0:0:
320,192,92468,128,0,92583:0:0:0:0:
64,192,92526,1,0,0:0:0:0:
192,192,92583,128,0,92697:0:0:0:0:
448,192,92697,128,0,93297:0:0:0:0:
320,192,92697,128,0,92868:0:0:0:0:
64,192,92697,128,0,92783:0:0:0:0:
192,192,92868,128,0,93297:0:0:0:0:
64,192,92868,1,0,0:0:0:0:
320,192,92954,1,0,0:0:0:0:
64,192,93040,1,0,0:0:0:0:
320,192,93126,128,0,93297:0:0:0:0:
64,192,93211,128,0,93297:0:0:0:0:
448,192,93383,1,0,0:0:0:0:
192,192,93383,128,0,93554:0:0:0:0:
64,192,93383,128,0,93468:0:0:0:0:
320,192,93468,128,0,93640:0:0:0:0:
448,192,93554,128,0,93811:0:0:0:0:
64,192,93554,1,0,0:0:0:0:
192,192,93640,1,0,0:0:0:0:
320,192,93726,128,0,93897:0:0:0:0:
192,192,93811,128,0,93983:0:0:0:0:
64,192,93897,128,0,93983:0:0:0:0:
448,192,93897,1,0,0:0:0:0:
320,192,93983,1,0,0:0:0:0:
448,192,94068,128,0,94183:0:0:0:0:
64,192,94068,1,0,0:0:0:0:
192,192,94068,1,0,0:0:0:0:
320,192,94154,128,0,94211:0:0:0:0:
192,192,94183,128,0,94240:0:0:0:0:
64,192,94211,128,0,94326:0:0:0:0:
448,192,94240,128,0,94326:0:0:0:0:
320,192,94326,128,0,94411:0:0:0:0:
64,192,94411,128,0,94497:0:0:0:0:
448,192,94411,128,0,94497:0:0:0:0:
320,192,94497,128,0,94583:0:0:0:0:
64,192,94583,128,0,94668:0:0:0:0:
192,192,94611,128,0,94754:0:0:0:0:
320,192,94640,128,0,94840:0:0:0:0:
448,192,94668,128,0,94926:0:0:0:0:
64,192,94754,1,0,0:0:0:0:
192,192,94840,1,0,0:0:0:0:
64,192,94926,128,0,95011:0:0:0:0:
320,192,94954,128,0,95097:0:0:0:0:
448,192,95097,1,0,0:0:0:0:
192,192,95097,128,0,95183:0:0:0:0:
64,192,95126,128,0,95268:0:0:0:0:
320,192,95268,128,0,95354:0:0:0:0:
448,192,95297,128,0,95440:0:0:0:0:
320,192,95440,128,0,95526:0:0:0:0:
64,192,95440,1,0,0:0:0:0:
192,192,95440,1,0,0:0:0:0:
64,192,95526,128,0,95697:0:0:0:0:
320,192,95611,1,0,0:0:0:0:
320,192,95697,128,0,95868:0:0:0:0:
64,192,95783,1,0,0:0:0:0:
64,192,95868,128,0,96040:0:0:0:0:
320,192,95954,128,0,96040:0:0:0:0:
448,192,96040,1,0,0:0:0:0:
64,192,96126,128,0,96240:0:0:0:0:
192,192,96126,128,0,96240:0:0:0:0:
320,192,96126,1,0,0:0:0:0:
448,192,96240,128,0,96354:0:0:0:0:
320,192,96297,128,0,96411:0:0:0:0:
192,192,96354,128,0,96468:0:0:0:0:
64,192,96468,128,0,96583:0:0:0:0:
448,192,96468,128,0,96583:0:0:0:0:
320,192,96583,128,0,96697:0:0:0:0:
192,192,96640,128,0,96754:0:0:0:0:
64,192,96697,128,0,96811:0:0:0:0:
448,192,96811,128,0,97068:0:0:0:0:
320,192,96811,128,0,96983:0:0:0:0:
192,192,96811,128,0,96897:0:0:0:0:
64,192,96983,1,0,0:0:0:0:
192,192,97040,1,0,0:0:0:0:
320,192,97097,1,0,0:0:0:0:
64,192,97154,128,0,97268:0:0:0:0:
448,192,97154,128,0,97211:0:0:0:0:
448,192,97268,128,0,97326:0:0:0:0:
192,192,97326,128,0,97440:0:0:0:0:
64,192,97326,1,0,0:0:0:0:
448,192,97383,128,0,97440:0:0:0:0:
192,192,97497,1,0,0:0:0:0:
64,192,97497,128,0,97668:0:0:0:0:
320,192,97497,1,0,0:0:0:0:
192,192,97611,128,0,97697:0:0:0:0:
320,192,97640,128,0,97726:0:0:0:0:
448,192,97668,128,0,97840:0:0:0:0:
64,192,97754,1,0,0:0:0:0:
192,192,97754,1,0,0:0:0:0:
64,192,97840,128,0,97954:0:0:0:0:
320,192,97954,128,0,98068:0:0:0:0:
448,192,98011,1,0,0:0:0:0:
64,192,98011,1,0,0:0:0:0:
192,192,98068,128,0,98183:0:0:0:0:
448,192,98183,128,0,98783:0:0:0:0:
64,192,98183,128,0,98268:0:0:0:0:
320,192,98183,128,0,98354:0:0:0:0:
192,192,98354,128,0,98783:0:0:0:0:
64,192,98354,1,0,0:0:0:0:
320,192,98440,1,0,0:0:0:0:
64,192,98526,1,0,0:0:0:0:
320,192,98611,128,0,98783:0:0:0:0:
64,192,98697,128,0,98783:0:0:0:0:
448,192,98868,128,0,99097:0:0:0:0:
64,192,98868,128,0,98926:0:0:0:0:
192,192,98868,128,0,98983:0:0:0:0:
320,192,98868,128,0,99040:0:0:0:0:
64,192,99040,128,0,99154:0:0:0:0:
192,192,99097,128,0,99211:0:0:0:0:
320,192,99154,128,0,99326:0:0:0:0:
448,192,99211,128,0,99268:0:0:0:0:
192,192,99268,128,0,99383:0:0:0:0:
64,192,99326,128,0,99440:0:0:0:0:
448,192,99383,1,0,0:0:0:0:
320,192,99440,1,0,0:0:0:0:
192,192,99497,1,0,0:0:0:0:
448,192,99554,128,0,99668:0:0:0:0:
64,192,99554,1,0,0:0:0:0:
320,192,99554,128,0,99726:0:0:0:0:
192,192,99668,128,0,99783:0:0:0:0:
64,192,99726,128,0,99840:0:0:0:0:
448,192,99783,1,0,0:0:0:0:
320,192,99840,1,0,0:0:0:0:
320,192,99954,128,0,100068:0:0:0:0:
448,192,100011,128,0,100126:0:0:0:0:
64,192,100068,128,0,100183:0:0:0:0:
192,192,100068,128,0,100240:0:0:0:0:
320,192,100154,1,0,0:0:0:0:
448,192,100240,1,0,0:0:0:0:
192,192,100326,1,0,0:0:0:0:
320,192,100411,128,0,100497:0:0:0:0:
64,192,100411,1,0,0:0:0:0:
448,192,100497,128,0,100583:0:0:0:0:
64,192,100583,128,0,100783:0:0:0:0:
320,192,100583,1,0,0:0:0:0:
192,192,100583,128,0,100668:0:0:0:0:
448,192,100668,128,0,100754:0:0:0:0:
192,192,100754,128,0,100811:0:0:0:0:
320,192,100783,128,0,100840:0:0:0:0:
448,192,100811,128,0,100868:0:0:0:0:
64,192,100840,128,0,100926:0:0:0:0:
448,192,100926,128,0,101011:0:0:0:0:
320,192,100926,128,0,101097:0:0:0:0:
192,192,100926,1,0,0:0:0:0:
64,192,101011,1,0,0:0:0:0:
192,192,101097,1,0,0:0:0:0:
448,192,101097,128,0,101183:0:0:0:0:
320,192,101183,1,0,0:0:0:0:
64,192,101183,128,0,101268:0:0:0:0:
192,192,101268,128,0,101383:0:0:0:0:
320,192,101326,128,0,101440:0:0:0:0:
448,192,101383,128,0,101497:0:0:0:0:
64,192,101440,1,0,0:0:0:0:
192,192,101497,1,0,0:0:0:0:
320,192,101554,1,0,0:0:0:0:
448,192,101611,128,0,101697:0:0:0:0:
64,192,101611,128,0,101868:0:0:0:0:
192,192,101611,128,0,101783:0:0:0:0:
448,192,101783,1,0,0:0:0:0:
320,192,101840,1,0,0:0:0:0:
192,192,101897,1,0,0:0:0:0:
64,192,101954,128,0,102068:0:0:0:0:
192,192,102011,128,0,102126:0:0:0:0:
320,192,102068,128,0,102183:0:0:0:0:
448,192,102126,128,0,102240:0:0:0:0:
64,192,102183,1,0,0:0:0:0:
192,192,102240,1,0,0:0:0:0:
448,192,102297,128,0,102554:0:0:0:0:
320,192,102297,128,0,102468:0:0:0:0:
64,192,102297,128,0,102383:0:0:0:0:
64,192,102468,1,0,0:0:0:0:
192,192,102526,1,0,0:0:0:0:
320,192,102583,1,0,0:0:0:0:
64,192,102640,128,0,102697:0:0:0:0:
448,192,102640,128,0,102754:0:0:0:0:
64,192,102754,128,0,102811:0:0:0:0:
320,192,102811,128,0,102926:0:0:0:0:
448,192,102811,1,0,0:0:0:0:
64,192,102868,128,0,102926:0:0:0:0:
448,192,102983,128,0,103097:0:0:0:0:
192,192,103097,128,0,103211:0:0:0:0:
64,192,103154,128,0,103268:0:0:0:0:
448,192,103154,1,0,0:0:0:0:
320,192,103211,1,0,0:0:0:0:
192,192,103268,1,0,0:0:0:0:
320,192,103326,1,0,0:0:0:0:
448,192,103326,128,0,103440:0:0:0:0:
64,192,103326,1,0,0:0:0:0:
192,192,103440,128,0,103554:0:0:0:0:
448,192,103497,1,0,0:0:0:0:
320,192,103554,128,0,103668:0:0:0:0:
64,192,103668,128,0,104268:0:0:0:0:
192,192,103668,128,0,103840:0:0:0:0:
448,192,103668,128,0,103754:0:0:0:0:
320,192,103840,128,0,104268:0:0:0:0:
448,192,103840,1,0,0:0:0:0:
192,192,103926,1,0,0:0:0:0:
448,192,104011,1,0,0:0:0:0:
192,192,104097,128,0,104268:0:0:0:0:
448,192,104183,128,0,104268:0:0:0:0:
64,192,104354,1,0,0:0:0:0:
320,192,104354,128,0,104526:0:0:0:0:
448,192,104354,128,0,104440:0:0:0:0:
192,192,104440,128,0,104611:0:0:0:0:
64,192,104526,128,0,104611:0:0:0:0:
448,192,104526,1,0,0:0:0:0:
320,192,104611,1,0,0:0:0:0:
448,192,104697,1,0,0:0:0:0:
64,192,104697,128,0,104783:0:0:0:0:
192,192,104697,128,0,104868:0:0:0:0:
320,192,104783,128,0,104954:0:0:0:0:
448,192,104868,128,0,104954:0:0:0:0:
64,192,104868,1,0,0:0:0:0:
192,192,104954,1,0,0:0:0:0:
64,192,105040,128,0,105154:0:0:0:0:
320,192,105040,1,0,0:0:0:0:
448,192,105040,1,0,0:0:0:0:
192,192,105126,128,0,105183:0:0:0:0:
320,192,105154,128,0,105211:0:0:0:0:
448,192,105183,128,0,105297:0:0:0:0:
64,192,105211,128,0,105297:0:0:0:0:
320,192,105297,128,0,105383:0:0:0:0:
64,192,105383,128,0,105468:0:0:0:0:
192,192,105383,1,0,0:0:0:0:
448,192,105383,128,0,105468:0:0:0:0:
320,192,105468,128,0,105554:0:0:0:0:
64,192,105554,128,0,105611:0:0:0:0:
192,192,105583,128,0,105668:0:0:0:0:
320,192,105611,128,0,105726:0:0:0:0:
448,192,105640,128,0,105783:0:0:0:0:
192,192,105726,1,0,0:0:0:0:
64,192,105726,1,0,0:0:0:0:
320,192,105811,1,0,0:0:0:0:
448,192,105897,128,0,105983:0:0:0:0:
192,192,105926,128,0,106068:0:0:0:0:
320,192,106068,128,0,106154:0:0:0:0:
64,192,106068,1,0,0:0:0:0:
448,192,106097,128,0,106240:0:0:0:0:
192,192,106240,128,0,106326:0:0:0:0:
64,192,106268,128,0,106411:0:0:0:0:
192,192,106411,128,0,106497:0:0:0:0:
448,192,106411,1,0,0:0:0:0:
320,192,106411,1,0,0:0:0:0:
448,192,106497,128,0,106668:0:0:0:0:
192,192,106583,1,0,0:0:0:0:
192,192,106668,128,0,106840:0:0:0:0:
448,192,106754,1,0,0:0:0:0:
320,192,106754,1,0,0:0:0:0:
64,192,106754,1,0,0:0:0:0:
448,192,106840,128,0,107011:0:0:0:0:
192,192,106926,128,0,107011:0:0:0:0:
64,192,107011,1,0,0:0:0:0:
320,192,107097,1,0,0:0:0:0:
192,192,107097,1,0,0:0:0:0:
448,192,107097,128,0,107211:0:0:0:0:
64,192,107268,1,0,0:0:0:0:
448,192,107268,128,0,107397:0:0:0:0:
320,192,107268,128,0,107397:0:0:0:0:
192,192,107268,1,0,0:0:0:0:
448,192,107440,1,0,0:0:0:0:
320,192,107440,1,0,0:0:0:0:
64,192,107440,128,0,107568:0:0:0:0:
64,192,107611,1,0,0:0:0:0:
192,192,107611,1,0,0:0:0:0:
320,192,107611,128,0,107740:0:0:0:0:
320,192,107783,1,0,0:0:0:0:
448,192,107783,1,0,0:0:0:0:
64,192,107783,128,0,107897:0:0:0:0:
192,192,107783,128,0,107897:0:0:0:0:
192,192,107954,1,0,0:0:0:0:
448,192,107954,1,0,0:0:0:0:
64,192,107954,1,0,0:0:0:0:
320,192,108011,1,0,0:0:0:0:
192,192,108068,1,0,0:0:0:0:
320,192,108126,1,0,0:0:0:0:
64,192,108126,1,0,0:0:0:0:
448,192,108126,128,0,108240:0:0:0:0:
192,192,108240,128,0,108354:0:0:0:0:
64,192,108297,1,0,0:0:0:0:
448,192,108297,1,0,0:0:0:0:
320,192,108354,128,0,108468:0:0:0:0:
64,192,108468,1,0,0:0:0:0:
448,192,108468,1,0,0:0:0:0:
192,192,108526,1,0,0:0:0:0:
320,192,108583,1,0,0:0:0:0:
448,192,108640,128,0,108754:0:0:0:0:
320,192,108697,128,0,108868:0:0:0:0:
192,192,108754,128,0,108983:0:0:0:0:
64,192,108811,128,0,109097:0:0:0:0:
448,192,108983,1,0,0:0:0:0:
320,192,109040,1,0,0:0:0:0:
192,192,109097,1,0,0:0:0:0:
64,192,109154,1,0,0:0:0:0:
448,192,109211,1,0,0:0:0:0:
320,192,109268,1,0,0:0:0:0:
64,192,109326,128,0,109440:0:0:0:0:
192,192,109383,128,0,109554:0:0:0:0:
320,192,109440,128,0,109668:0:0:0:0:
448,192,109497,128,0,109783:0:0:0:0:
64,192,109497,1,0,0:0:0:0:
192,192,109611,1,0,0:0:0:0:
320,192,109726,1,0,0:0:0:0:
64,192,109840,1,0,0:0:0:0:
192,192,109840,1,0,0:0:0:0:
448,192,109840,1,0,0:0:0:0:
320,192,109926,1,0,0:0:0:0:
192,192,110011,1,0,0:0:0:0:
448,192,110097,1,0,0:0:0:0:
192,192,110183,1,0,0:0:0:0:
448,192,110183,1,0,0:0:0:0:
64,192,110183,1,0,0:0:0:0:
320,192,110183,1,0,0:0:0:0:
192,192,110354,1,0,0:0:0:0:
448,192,110440,1,0,0:0:0:0:
320,192,110526,1,0,0:0:0:0:
192,192,110526,1,0,0:0:0:0:
64,192,110526,1,0,0:0:0:0:
448,192,110611,1,0,0:0:0:0:
64,192,110697,1,0,0:0:0:0:
320,192,110783,1,0,0:0:0:0:
320,192,110868,1,0,0:0:0:0:
448,192,110868,1,0,0:0:0:0:
64,192,110868,1,0,0:0:0:0:
192,192,110868,1,0,0:0:0:0:
448,192,111040,1,0,0:0:0:0:
192,192,111126,1,0,0:0:0:0:
64,192,111211,1,0,0:0:0:0:
320,192,111211,1,0,0:0:0:0:
448,192,111211,1,0,0:0:0:0:
192,192,111297,1,0,0:0:0:0:
320,192,111383,1,0,0:0:0:0:
64,192,111468,1,0,0:0:0:0:
192,192,111554,1,0,0:0:0:0:
448,192,111554,1,0,0:0:0:0:
64,192,111554,1,0,0:0:0:0:
320,192,111554,1,0,0:0:0:0:
320,192,111726,1,0,0:0:0:0:
64,192,111811,1,0,0:0:0:0:
192,192,111897,1,0,0:0:0:0:
320,192,111897,1,0,0:0:0:0:
448,192,111897,1,0,0:0:0:0:
64,192,111983,1,0,0:0:0:0:
448,192,112068,1,0,0:0:0:0:
192,192,112154,1,0,0:0:0:0:
320,192,112240,1,0,0:0:0:0:
448,192,112240,1,0,0:0:0:0:
64,192,112240,1,0,0:0:0:0:
192,192,112240,1,0,0:0:0:0:
64,192,112411,1,0,0:0:0:0:
320,192,112497,1,0,0:0:0:0:
192,192,112583,1,0,0:0:0:0:
64,192,112583,1,0,0:0:0:0:
448,192,112583,1,0,0:0:0:0:
320,192,112668,1,0,0:0:0:0:
192,192,112754,1,0,0:0:0:0:
448,192,112840,1,0,0:0:0:0:
192,192,112926,1,0,0:0:0:0:
448,192,112926,1,0,0:0:0:0:
64,192,112926,1,0,0:0:0:0:
320,192,112926,1,0,0:0:0:0:
192,192,113097,1,0,0:0:0:0:
448,192,113183,1,0,0:0:0:0:
192,192,113268,1,0,0:0:0:0:
320,192,113268,1,0,0:0:0:0:
64,192,113268,1,0,0:0:0:0:
448,192,113354,1,0,0:0:0:0:
64,192,113440,1,0,0:0:0:0:
320,192,113526,1,0,0:0:0:0:
64,192,113611,1,0,0:0:0:0:
448,192,113611,1,0,0:0:0:0:
320,192,113611,1,0,0:0:0:0:
192,192,113611,1,0,0:0:0:0:
448,192,113783,1,0,0:0:0:0:
192,192,113868,1,0,0:0:0:0:
320,192,113954,1,0,0:0:0:0:
448,192,113954,1,0,0:0:0:0:
64,192,113954,1,0,0:0:0:0:
192,192,114040,1,0,0:0:0:0:
320,192,114126,1,0,0:0:0:0:
64,192,114211,1,0,0:0:0:0:
320,192,114297,1,0,0:0:0:0:
64,192,114297,1,0,0:0:0:0:
448,192,114297,1,0,0:0:0:0:
192,192,114297,1,0,0:0:0:0:
320,192,114468,1,0,0:0:0:0:
64,192,114554,1,0,0:0:0:0:
192,192,114640,1,0,0:0:0:0:
448,192,114640,1,0,0:0:0:0:
320,192,114640,1,0,0:0:0:0:
64,192,114726,1,0,0:0:0:0:
448,192,114811,1,0,0:0:0:0:
192,192,114897,1,0,0:0:0:0:
448,192,114983,1,0,0:0:0:0:
64,192,114983,1,0,0:0:0:0:
192,192,114983,1,0,0:0:0:0:
320,192,114983,1,0,0:0:0:0:
448,192,115154,1,0,0:0:0:0:
192,192,115240,1,0,0:0:0:0:
448,192,115326,1,0,0:0:0:0:
320,192,115326,1,0,0:0:0:0:
64,192,115326,1,0,0:0:0:0:
192,192,115411,1,0,0:0:0:0:
320,192,115497,1,0,0:0:0:0:
64,192,115583,1,0,0:0:0:0:
320,192,115668,1,0,0:0:0:0:
64,192,115668,1,0,0:0:0:0:
448,192,115668,1,0,0:0:0:0:
192,192,115668,1,0,0:0:0:0:
320,192,115840,1,0,0:0:0:0:
64,192,115926,1,0,0:0:0:0:
192,192,116011,1,0,0:0:0:0:
320,192,116011,1,0,0:0:0:0:
448,192,116011,1,0,0:0:0:0:
64,192,116097,1,0,0:0:0:0:
448,192,116183,1,0,0:0:0:0:
192,192,116268,1,0,0:0:0:0:
192,192,116354,1,0,0:0:0:0:
64,192,116354,1,0,0:0:0:0:
448,192,116354,1,0,0:0:0:0:
320,192,116354,1,0,0:0:0:0:
64,192,116526,1,0,0:0:0:0:
320,192,116611,1,0,0:0:0:0:
448,192,116697,1,0,0:0:0:0:
192,192,116697,1,0,0:0:0:0:
64,192,116697,1,0,0:0:0:0:
320,192,116783,1,0,0:0:0:0:
192,192,116868,1,0,0:0:0:0:
448,192,116954,1,0,0:0:0:0:
320,192,117040,1,0,0:0:0:0:
64,192,117040,1,0,0:0:0:0:
448,192,117040,1,0,0:0:0:0:
192,192,117040,1,0,0:0:0:0:
192,192,117211,1,0,0:0:0:0:
448,192,117297,1,0,0:0:0:0:
320,192,117383,1,0,0:0:0:0:
192,192,117383,1,0,0:0:0:0:
64,192,117383,1,0,0:0:0:0:
448,192,117468,1,0,0:0:0:0:
64,192,117554,1,0,0:0:0:0:
320,192,117640,1,0,0:0:0:0:
192,192,117726,1,0,0:0:0:0:
64,192,117726,1,0,0:0:0:0:
448,192,117726,1,0,0:0:0:0:
320,192,117726,1,0,0:0:0:0:
448,192,117897,1,0,0:0:0:0:
192,192,117983,1,0,0:0:0:0:
320,192,118068,1,0,0:0:0:0:
448,192,118068,1,0,0:0:0:0:
64,192,118068,1,0,0:0:0:0:
192,192,118154,1,0,0:0:0:0:
320,192,118240,1,0,0:0:0:0:
64,192,118326,1,0,0:0:0:0:
320,192,118411,1,0,0:0:0:0:
64,192,118411,1,0,0:0:0:0:
448,192,118411,1,0,0:0:0:0:
192,192,118411,1,0,0:0:0:0:
320,192,118583,1,0,0:0:0:0:
64,192,118668,1,0,0:0:0:0:
320,192,118754,1,0,0:0:0:0:
192,192,118754,1,0,0:0:0:0:
448,192,118754,1,0,0:0:0:0:
64,192,118840,1,0,0:0:0:0:
448,192,118926,1,0,0:0:0:0:
192,192,119011,1,0,0:0:0:0:
448,192,119097,1,0,0:0:0:0:
64,192,119097,1,0,0:0:0:0:
192,192,119097,1,0,0:0:0:0:
320,192,119097,1,0,0:0:0:0:
64,192,119268,1,0,0:0:0:0:
320,192,119354,1,0,0:0:0:0:
192,192,119440,1,0,0:0:0:0:
64,192,119440,1,0,0:0:0:0:
448,192,119440,1,0,0:0:0:0:
320,192,119526,1,0,0:0:0:0:
192,192,119611,1,0,0:0:0:0:
448,192,119697,1,0,0:0:0:0:
192,192,119783,1,0,0:0:0:0:
448,192,119783,1,0,0:0:0:0:
64,192,119783,1,0,0:0:0:0:
320,192,119783,1,0,0:0:0:0:
320,192,119954,1,0,0:0:0:0:
448,192,120040,1,0,0:0:0:0:
320,192,120126,1,0,0:0:0:0:
64,192,120126,1,0,0:0:0:0:
192,192,120126,1,0,0:0:0:0:
64,192,120211,1,0,0:0:0:0:
448,192,120297,1,0,0:0:0:0:
320,192,120297,1,0,0:0:0:0:
192,192,120297,1,0,0:0:0:0:
448,192,120383,1,0,0:0:0:0:
64,192,120468,1,0,0:0:0:0:
192,192,120468,1,0,0:0:0:0:
64,192,120554,1,0,0:0:0:0:
192,192,120554,1,0,0:0:0:0:
448,192,120640,1,0,0:0:0:0:
320,192,120640,1,0,0:0:0:0:
448,192,120726,1,0,0:0:0:0:
320,192,120726,1,0,0:0:0:0:
192,192,120811,1,0,0:0:0:0:
64,192,120811,1,0,0:0:0:0:
320,192,120897,1,0,0:0:0:0:
192,192,120983,1,0,0:0:0:0:
448,192,121068,1,0,0:0:0:0:
64,192,121154,1,0,0:0:0:0:
320,192,121154,1,0,0:0:0:0:
192,192,121154,1,0,0:0:0:0:
448,192,121154,1,0,0:0:0:0:
64,192,121240,1,0,0:0:0:0:
192,192,121326,1,0,0:0:0:0:
448,192,121411,1,0,0:0:0:0:
64,192,121497,1,0,0:0:0:0:
192,192,121497,1,0,0:0:0:0:
320,192,121497,1,0,0:0:0:0:
448,192,121583,1,0,0:0:0:0:
64,192,121668,1,0,0:0:0:0:
320,192,121754,1,0,0:0:0:0:
64,192,121840,1,0,0:0:0:0:
192,192,121840,1,0,0:0:0:0:
320,192,121840,1,0,0:0:0:0:
448,192,121840,1,0,0:0:0:0:
192,192,121926,1,0,0:0:0:0:
448,192,122011,1,0,0:0:0:0:
192,192,122097,1,0,0:0:0:0:
448,192,122183,1,0,0:0:0:0:
320,192,122183,1,0,0:0:0:0:
64,192,122183,1,0,0:0:0:0:
192,192,122268,1,0,0:0:0:0:
320,192,122354,1,0,0:0:0:0:
64,192,122440,1,0,0:0:0:0:
64,192,122526,1,0,0:0:0:0:
320,192,122526,1,0,0:0:0:0:
192,192,122526,1,0,0:0:0:0:
448,192,122526,1,0,0:0:0:0:
448,192,122611,1,0,0:0:0:0:
320,192,122697,1,0,0:0:0:0:
64,192,122783,1,0,0:0:0:0:
448,192,122868,1,0,0:0:0:0:
320,192,122868,1,0,0:0:0:0:
192,192,122868,1,0,0:0:0:0:
64,192,122954,1,0,0:0:0:0:
448,192,123040,1,0,0:0:0:0:
192,192,123126,1,0,0:0:0:0:
64,192,123211,1,0,0:0:0:0:
192,192,123211,1,0,0:0:0:0:
320,192,123211,1,0,0:0:0:0:
448,192,123211,1,0,0:0:0:0:
320,192,123297,1,0,0:0:0:0:
64,192,123383,1,0,0:0:0:0:
320,192,123468,1,0,0:0:0:0:
448,192,123554,1,0,0:0:0:0:
64,192,123554,1,0,0:0:0:0:
192,192,123554,1,0,0:0:0:0:
320,192,123640,1,0,0:0:0:0:
192,192,123726,1,0,0:0:0:0:
448,192,123811,1,0,0:0:0:0:
64,192,123897,1,0,0:0:0:0:
320,192,123897,1,0,0:0:0:0:
192,192,123897,1,0,0:0:0:0:
448,192,123897,1,0,0:0:0:0:
64,192,123983,1,0,0:0:0:0:
192,192,124068,1,0,0:0:0:0:
448,192,124154,1,0,0:0:0:0:
64,192,124240,1,0,0:0:0:0:
320,192,124240,1,0,0:0:0:0:
192,192,124240,1,0,0:0:0:0:
448,192,124326,1,0,0:0:0:0:
64,192,124411,1,0,0:0:0:0:
320,192,124497,1,0,0:0:0:0:
320,192,124583,1,0,0:0:0:0:
192,192,124583,1,0,0:0:0:0:
64,192,124583,1,0,0:0:0:0:
448,192,124583,1,0,0:0:0:0:
192,192,124668,1,0,0:0:0:0:
448,192,124754,1,0,0:0:0:0:
192,192,124840,1,0,0:0:0:0:
64,192,124926,1,0,0:0:0:0:
448,192,124926,1,0,0:0:0:0:
320,192,124926,1,0,0:0:0:0:
192,192,125011,1,0,0:0:0:0:
320,192,125097,1,0,0:0:0:0:
64,192,125183,5,0,0:0:0:0:
448,192,125268,1,0,0:0:0:0:
192,192,125268,1,0,0:0:0:0:
320,192,125268,1,0,0:0:0:0:
64,192,125268,1,0,0:0:0:0:
448,192,125354,1,0,0:0:0:0:
320,192,125440,1,0,0:0:0:0:
64,192,125526,1,0,0:0:0:0:
320,192,125611,1,0,0:0:0:0:
448,192,125611,1,0,0:0:0:0:
192,192,125611,1,0,0:0:0:0:
64,192,125697,1,0,0:0:0:0:
320,192,125783,1,0,0:0:0:0:
192,192,125868,1,0,0:0:0:0:
64,192,125954,1,0,0:0:0:0:
448,192,125954,1,0,0:0:0:0:
320,192,126040,1,0,0:0:0:0:
192,192,126126,1,0,0:0:0:0:
448,192,126211,1,0,0:0:0:0:
448,192,126297,5,0,0:0:0:0:
192,192,126297,128,0,126383:0:0:0:0:
320,192,126297,1,0,0:0:0:0:
64,192,126297,128,0,126383:0:0:0:0:
448,192,126468,128,0,126554:0:0:0:0:
192,192,126468,128,0,126554:0:0:0:0:
320,192,126640,128,0,126726:0:0:0:0:
448,192,126640,128,0,126726:0:0:0:0:
64,192,126640,1,0,0:0:0:0:
192,192,126640,1,0,0:0:0:0:
320,192,126811,128,0,126897:0:0:0:0:
64,192,126811,128,0,126897:0:0:0:0:
320,192,126983,1,0,0:0:0:0:
448,192,126983,128,0,127068:0:0:0:0:
64,192,126983,1,0,0:0:0:0:
192,192,126983,128,0,127068:0:0:0:0:
192,192,127154,128,0,127240:0:0:0:0:
64,192,127154,128,0,127240:0:0:0:0:
448,192,127154,1,0,0:0:0:0:
320,192,127154,1,0,0:0:0:0:
192,192,127326,1,0,0:0:0:0:
320,192,127326,1,0,0:0:0:0:
192,192,127497,128,0,127754:0:0:0:0:
64,192,127497,128,0,127754:0:0:0:0:
448,192,127497,128,0,127754:0:0:0:0:
320,192,127497,128,0,127754:0:0:0:0:
64,192,127840,128,0,127926:0:0:0:0:
320,192,127840,128,0,127926:0:0:0:0:
192,192,128011,128,0,128097:0:0:0:0:
64,192,128011,128,0,128097:0:0:0:0:
320,192,128011,1,0,0:0:0:0:
448,192,128011,1,0,0:0:0:0:
448,192,128183,128,0,128268:0:0:0:0:
192,192,128183,128,0,128268:0:0:0:0:
192,192,128354,1,0,0:0:0:0:
320,192,128354,128,0,128440:0:0:0:0:
448,192,128354,1,0,0:0:0:0:
64,192,128354,128,0,128440:0:0:0:0:
320,192,128526,128,0,128611:0:0:0:0:
448,192,128526,128,0,128611:0:0:0:0:
64,192,128526,1,0,0:0:0:0:
192,192,128526,1,0,0:0:0:0:
320,192,128697,1,0,0:0:0:0:
192,192,128697,1,0,0:0:0:0:
320,192,128868,128,0,129126:0:0:0:0:
448,192,128868,128,0,129126:0:0:0:0:
64,192,128868,128,0,129126:0:0:0:0:
192,192,128868,128,0,129126:0:0:0:0:
320,192,129211,128,0,129297:0:0:0:0:
64,192,129211,128,0,129297:0:0:0:0:
192,192,129383,128,0,129468:0:0:0:0:
320,192,129383,128,0,129468:0:0:0:0:
64,192,129383,128,0,129640:0:0:0:0:
448,192,129383,128,0,129640:0:0:0:0:
320,192,129554,1,0,0:0:0:0:
192,192,129554,1,0,0:0:0:0:
64,192,129726,1,0,0:0:0:0:
192,192,129726,1,0,0:0:0:0:
320,192,129726,128,0,129811:0:0:0:0:
448,192,129726,128,0,129811:0:0:0:0:
64,192,129897,128,0,129983:0:0:0:0:
192,192,129897,128,0,129983:0:0:0:0:
448,192,129897,1,0,0:0:0:0:
320,192,129897,1,0,0:0:0:0:
320,192,130068,1,0,0:0:0:0:
192,192,130068,1,0,0:0:0:0:
192,192,130240,128,0,130668:0:0:0:0:
64,192,130240,128,0,131011:0:0:0:0:
320,192,130240,128,0,130326:0:0:0:0:
448,192,130240,128,0,130326:0:0:0:0:
448,192,130411,1,0,0:0:0:0:
320,192,130411,1,0,0:0:0:0:
320,192,130583,1,0,0:0:0:0:
320,192,130754,1,0,0:0:0:0:
192,192,130754,1,0,0:0:0:0:
192,192,130926,1,0,0:0:0:0:
192,192,131097,128,0,131183:0:0:0:0:
64,192,131097,128,0,131183:0:0:0:0:
448,192,131183,128,0,131268:0:0:0:0:
320,192,131183,128,0,131268:0:0:0:0:
64,192,131268,128,0,131354:0:0:0:0:
192,192,131268,128,0,131354:0:0:0:0:
448,192,131440,128,0,131697:0:0:0:0:
320,192,131440,1,0,0:0:0:0:
192,192,131440,1,0,0:0:0:0:
64,192,131440,1,0,0:0:0:0:
320,192,131611,128,0,131868:0:0:0:0:
448,192,131783,128,0,132040:0:0:0:0:
64,192,131783,128,0,131868:0:0:0:0:
192,192,131783,128,0,131868:0:0:0:0:
320,192,131954,1,0,0:0:0:0:
320,192,132126,128,0,132211:0:0:0:0:
192,192,132126,128,0,132211:0:0:0:0:
448,192,132126,128,0,132383:0:0:0:0:
64,192,132297,1,0,0:0:0:0:
320,192,132297,128,0,132554:0:0:0:0:
192,192,132468,128,0,132554:0:0:0:0:
448,192,132468,128,0,132554:0:0:0:0:
64,192,132468,128,0,132554:0:0:0:0:
192,192,132640,1,0,0:0:0:0:
320,192,132640,128,0,132897:0:0:0:0:
192,192,132811,128,0,133240:0:0:0:0:
448,192,132811,128,0,132897:0:0:0:0:
64,192,132811,128,0,132897:0:0:0:0:
320,192,132983,1,0,0:0:0:0:
64,192,133154,128,0,133240:0:0:0:0:
448,192,133154,128,0,133240:0:0:0:0:
320,192,133154,128,0,133240:0:0:0:0:
64,192,133326,128,0,133754:0:0:0:0:
320,192,133326,1,0,0:0:0:0:
320,192,133497,128,0,133583:0:0:0:0:
448,192,133497,128,0,133583:0:0:0:0:
192,192,133497,128,0,133583:0:0:0:0:
192,192,133668,1,0,0:0:0:0:
64,192,133840,128,0,133926:0:0:0:0:
320,192,133840,128,0,133926:0:0:0:0:
448,192,133840,128,0,134097:0:0:0:0:
192,192,134011,1,0,0:0:0:0:
448,192,134183,128,0,134268:0:0:0:0:
320,192,134183,128,0,134268:0:0:0:0:
192,192,134183,128,0,134440:0:0:0:0:
64,192,134354,1,0,0:0:0:0:
320,192,134526,128,0,134611:0:0:0:0:
448,192,134526,128,0,134611:0:0:0:0:
64,192,134526,128,0,134783:0:0:0:0:
192,192,134697,1,0,0:0:0:0:
64,192,134868,128,0,135126:0:0:0:0:
320,192,134868,128,0,134954:0:0:0:0:
192,192,134868,128,0,134954:0:0:0:0:
192,192,135040,128,0,135297:0:0:0:0:
448,192,135040,1,0,0:0:0:0:
448,192,135211,128,0,135297:0:0:0:0:
64,192,135211,128,0,135297:0:0:0:0:
320,192,135211,128,0,135297:0:0:0:0:
192,192,135383,128,0,135640:0:0:0:0:
320,192,135383,1,0,0:0:0:0:
320,192,135554,128,0,135983:0:0:0:0:
448,192,135554,128,0,135640:0:0:0:0:
64,192,135554,128,0,135640:0:0:0:0:
192,192,135726,1,0,0:0:0:0:
448,192,135897,128,0,135983:0:0:0:0:
192,192,135897,128,0,135983:0:0:0:0:
64,192,135897,128,0,135983:0:0:0:0:
448,192,136068,128,0,136497:0:0:0:0:
192,192,136068,1,0,0:0:0:0:
192,192,136240,128,0,136326:0:0:0:0:
320,192,136240,128,0,136326:0:0:0:0:
64,192,136240,128,0,136326:0:0:0:0:
320,192,136411,1,0,0:0:0:0:
64,192,136583,128,0,136840:0:0:0:0:
192,192,136583,128,0,136668:0:0:0:0:
448,192,136583,128,0,136668:0:0:0:0:
320,192,136754,1,0,0:0:0:0:
320,192,136926,128,0,137183:0:0:0:0:
192,192,136926,128,0,137011:0:0:0:0:
64,192,136926,128,0,137011:0:0:0:0:
448,192,137097,1,0,0:0:0:0:
64,192,137268,128,0,137697:0:0:0:0:
448,192,137268,128,0,137354:0:0:0:0:
320,192,137268,128,0,137354:0:0:0:0:
192,192,137440,1,0,0:0:0:0:
448,192,137611,128,0,137697:0:0:0:0:
320,192,137611,128,0,137697:0:0:0:0:
192,192,137611,128,0,137697:0:0:0:0:
448,192,137783,1,0,0:0:0:0:
192,192,137783,128,0,138211:0:0:0:0:
448,192,137954,128,0,138040:0:0:0:0:
320,192,137954,128,0,138040:0:0:0:0:
64,192,137954,128,0,138040:0:0:0:0:
320,192,138126,1,0,0:0:0:0:
320,192,138297,128,0,139411:0:0:0:0:
64,192,138297,128,0,138383:0:0:0:0:
192,192,138297,128,0,138383:0:0:0:0:
448,192,138468,1,0,0:0:0:0:
192,192,138640,128,0,138726:0:0:0:0:
448,192,138640,128,0,138726:0:0:0:0:
64,192,138640,128,0,138726:0:0:0:0:
192,192,138811,1,0,0:0:0:0:
448,192,138983,128,0,139068:0:0:0:0:
192,192,138983,128,0,139068:0:0:0:0:
64,192,138983,128,0,139068:0:0:0:0:
64,192,139154,1,0,0:0:0:0:
448,192,139326,128,0,139411:0:0:0:0:
192,192,139326,128,0,139411:0:0:0:0:
64,192,139326,128,0,139411:0:0:0:0:
320,192,139497,1,0,0:0:0:0:
64,192,139668,128,0,139754:0:0:0:0:
448,192,139668,128,0,139754:0:0:0:0:
320,192,139668,128,0,140097:0:0:0:0:
192,192,139840,1,0,0:0:0:0:
448,192,140011,128,0,140440:0:0:0:0:
64,192,140011,128,0,140097:0:0:0:0:
192,192,140011,128,0,140097:0:0:0:0:
320,192,140183,1,0,0:0:0:0:
64,192,140354,128,0,140440:0:0:0:0:
192,192,140354,128,0,140440:0:0:0:0:
320,192,140354,128,0,140440:0:0:0:0:
64,192,140526,1,0,0:0:0:0:
320,192,140526,128,0,140954:0:0:0:0:
64,192,140697,128,0,140783:0:0:0:0:
192,192,140697,128,0,140783:0:0:0:0:
448,192,140697,128,0,140783:0:0:0:0:
192,192,140868,1,0,0:0:0:0:
192,192,141040,128,0,142154:0:0:0:0:
448,192,141040,128,0,141126:0:0:0:0:
320,192,141040,128,0,141126:0:0:0:0:
64,192,141211,1,0,0:0:0:0:
320,192,141383,128,0,141468:0:0:0:0:
64,192,141383,128,0,141468:0:0:0:0:
448,192,141383,128,0,141468:0:0:0:0:
320,192,141554,1,0,0:0:0:0:
64,192,141726,128,0,141811:0:0:0:0:
320,192,141726,128,0,141811:0:0:0:0:
448,192,141726,128,0,141811:0:0:0:0:
448,192,141897,1,0,0:0:0:0:
64,192,142068,128,0,142154:0:0:0:0:
320,192,142068,128,0,142154:0:0:0:0:
448,192,142068,128,0,142154:0:0:0:0:
192,192,142240,128,0,142326:0:0:0:0:
64,192,142240,128,0,142326:0:0:0:0:
192,192,142411,128,0,142497:0:0:0:0:
64,192,142411,128,0,142497:0:0:0:0:
448,192,142411,128,0,142497:0:0:0:0:
320,192,142583,128,0,142668:0:0:0:0:
448,192,142583,128,0,142668:0:0:0:0:
448,192,142754,128,0,142926:0:0:0:0:
192,192,142754,1,0,0:0:0:0:
320,192,142754,1,0,0:0:0:0:
64,192,142754,1,0,0:0:0:0:
320,192,142926,1,0,0:0:0:0:
192,192,143011,1,0,0:0:0:0:
448,192,143011,1,0,0:0:0:0:
64,192,143097,1,0,0:0:0:0:
320,192,143097,1,0,0:0:0:0:
192,192,143268,1,0,0:0:0:0:
320,192,143268,128,0,143440:0:0:0:0:
64,192,143268,1,0,0:0:0:0:
448,192,143440,1,0,0:0:0:0:
320,192,143526,1,0,0:0:0:0:
64,192,143526,1,0,0:0:0:0:
448,192,143611,1,0,0:0:0:0:
192,192,143611,128,0,143783:0:0:0:0:
448,192,143783,1,0,0:0:0:0:
320,192,143783,128,0,143954:0:0:0:0:
64,192,143783,1,0,0:0:0:0:
448,192,143954,1,0,0:0:0:0:
192,192,143954,1,0,0:0:0:0:
64,192,143954,1,0,0:0:0:0:
192,192,144126,1,0,0:0:0:0:
320,192,144126,1,0,0:0:0:0:
448,192,144126,1,0,0:0:0:0:
64,192,144297,128,0,144468:0:0:0:0:
448,192,144383,1,0,0:0:0:0:
192,192,144383,1,0,0:0:0:0:
320,192,144468,1,0,0:0:0:0:
448,192,144640,1,0,0:0:0:0:
64,192,144640,1,0,0:0:0:0:
320,192,144640,1,0,0:0:0:0:
192,192,144811,128,0,144983:0:0:0:0:
64,192,144897,1,0,0:0:0:0:
320,192,144897,1,0,0:0:0:0:
448,192,144983,1,0,0:0:0:0:
448,192,145154,1,0,0:0:0:0:
64,192,145154,128,0,145240:0:0:0:0:
192,192,145197,128,0,145283:0:0:0:0:
320,192,145240,128,0,145326:0:0:0:0:
448,192,145283,128,0,145368:0:0:0:0:
64,192,145326,1,0,0:0:0:0:
192,192,145368,1,0,0:0:0:0:
320,192,145411,1,0,0:0:0:0:
448,192,145454,1,0,0:0:0:0:
64,192,145497,128,0,145668:0:0:0:0:
192,192,145497,1,0,0:0:0:0:
192,192,145668,1,0,0:0:0:0:
320,192,145754,1,0,0:0:0:0:
64,192,145754,1,0,0:0:0:0:
448,192,145840,1,0,0:0:0:0:
192,192,145840,1,0,0:0:0:0:
320,192,146011,1,0,0:0:0:0:
192,192,146011,128,0,146183:0:0:0:0:
448,192,146011,1,0,0:0:0:0:
64,192,146183,1,0,0:0:0:0:
192,192,146268,1,0,0:0:0:0:
448,192,146268,1,0,0:0:0:0:
64,192,146354,1,0,0:0:0:0:
320,192,146354,128,0,146526:0:0:0:0:
64,192,146526,1,0,0:0:0:0:
192,192,146526,128,0,146697:0:0:0:0:
448,192,146526,1,0,0:0:0:0:
64,192,146697,1,0,0:0:0:0:
320,192,146697,1,0,0:0:0:0:
448,192,146697,1,0,0:0:0:0:
320,192,146868,1,0,0:0:0:0:
192,192,146868,1,0,0:0:0:0:
64,192,146868,1,0,0:0:0:0:
448,192,147040,128,0,147211:0:0:0:0:
64,192,147126,1,0,0:0:0:0:
320,192,147126,1,0,0:0:0:0:
192,192,147211,1,0,0:0:0:0:
64,192,147383,1,0,0:0:0:0:
448,192,147383,1,0,0:0:0:0:
192,192,147383,1,0,0:0:0:0:
64,192,147554,1,0,0:0:0:0:
448,192,147554,128,0,147640:0:0:0:0:
320,192,147597,128,0,147683:0:0:0:0:
192,192,147640,128,0,147726:0:0:0:0:
64,192,147683,128,0,147768:0:0:0:0:
448,192,147726,1,0,0:0:0:0:
320,192,147768,1,0,0:0:0:0:
192,192,147811,1,0,0:0:0:0:
64,192,147854,1,0,0:0:0:0:
320,192,147897,1,0,0:0:0:0:
448,192,147897,128,0,148068:0:0:0:0:
320,192,148068,1,0,0:0:0:0:
64,192,148068,1,0,0:0:0:0:
192,192,148154,1,0,0:0:0:0:
448,192,148240,1,0,0:0:0:0:
320,192,148240,1,0,0:0:0:0:
64,192,148240,128,0,148411:0:0:0:0:
448,192,148411,1,0,0:0:0:0:
320,192,148411,1,0,0:0:0:0:
192,192,148411,1,0,0:0:0:0:
448,192,148583,1,0,0:0:0:0:
320,192,148583,1,0,0:0:0:0:
64,192,148583,128,0,148754:0:0:0:0:
320,192,148754,128,0,148926:0:0:0:0:
448,192,148754,1,0,0:0:0:0:
192,192,148754,1,0,0:0:0:0:
448,192,148926,1,0,0:0:0:0:
64,192,148926,1,0,0:0:0:0:
192,192,148926,1,0,0:0:0:0:
320,192,149097,1,0,0:0:0:0:
64,192,149097,1,0,0:0:0:0:
192,192,149097,128,0,149268:0:0:0:0:
448,192,149268,128,0,149440:0:0:0:0:
320,192,149268,1,0,0:0:0:0:
64,192,149268,1,0,0:0:0:0:
64,192,149440,1,0,0:0:0:0:
192,192,149440,1,0,0:0:0:0:
320,192,149440,1,0,0:0:0:0:
448,192,149611,1,0,0:0:0:0:
320,192,149611,1,0,0:0:0:0:
192,192,149611,1,0,0:0:0:0:
192,192,149783,128,0,149954:0:0:0:0:
64,192,149783,1,0,0:0:0:0:
448,192,149783,1,0,0:0:0:0:
64,192,149954,1,0,0:0:0:0:
448,192,149954,128,0,150040:0:0:0:0:
320,192,149997,128,0,150083:0:0:0:0:
192,192,150040,128,0,150126:0:0:0:0:
64,192,150083,128,0,150168:0:0:0:0:
448,192,150126,1,0,0:0:0:0:
320,192,150168,1,0,0:0:0:0:
192,192,150211,1,0,0:0:0:0:
64,192,150254,1,0,0:0:0:0:
448,192,150297,128,0,150468:0:0:0:0:
320,192,150297,1,0,0:0:0:0:
64,192,150468,1,0,0:0:0:0:
192,192,150468,1,0,0:0:0:0:
320,192,150468,1,0,0:0:0:0:
448,192,150640,1,0,0:0:0:0:
320,192,150640,1,0,0:0:0:0:
64,192,150640,128,0,150811:0:0:0:0:
448,192,150811,1,0,0:0:0:0:
320,192,150811,1,0,0:0:0:0:
192,192,150811,1,0,0:0:0:0:
192,192,150983,128,0,151926:0:0:0:0:
64,192,150983,128,0,151754:0:0:0:0:
448,192,151326,128,0,152268:0:0:0:0:
320,192,151497,128,0,152954:0:0:0:0:
64,192,151840,128,0,152268:0:0:0:0:
192,192,152011,128,0,152954:0:0:0:0:
448,192,152354,128,0,152954:0:0:0:0:
64,192,152354,128,0,152954:0:0:0:0:
320,192,153040,1,0,0:0:0:0:
448,192,153040,1,0,0:0:0:0:
64,192,153040,1,0,0:0:0:0:
192,192,153040,1,0,0:0:0:0:
320,192,153297,1,0,0:0:0:0:
448,192,153297,1,0,0:0:0:0:
64,192,153297,1,0,0:0:0:0:
192,192,153297,1,0,0:0:0:0:
448,192,153468,1,0,0:0:0:0:
320,192,153468,1,0,0:0:0:0:
192,192,153468,1,0,0:0:0:0:
320,192,153554,1,0,0:0:0:0:
192,192,153554,1,0,0:0:0:0:
64,192,153554,1,0,0:0:0:0:
192,192,153726,128,0,153897:0:0:0:0:
448,192,153726,128,0,153783:0:0:0:0:
64,192,153726,128,0,153954:0:0:0:0:
320,192,153726,128,0,153840:0:0:0:0:
448,192,153897,1,0,0:0:0:0:
320,192,153954,1,0,0:0:0:0:
192,192,154011,1,0,0:0:0:0:
64,192,154068,128,0,154154:0:0:0:0:
448,192,154068,1,0,0:0:0:0:
192,192,154126,128,0,154240:0:0:0:0:
320,192,154183,128,0,154326:0:0:0:0:
448,192,154240,128,0,154411:0:0:0:0:
64,192,154297,1,0,0:0:0:0:
192,192,154354,1,0,0:0:0:0:
320,192,154411,1,0,0:0:0:0:
192,192,154497,1,0,0:0:0:0:
64,192,154583,1,0,0:0:0:0:
448,192,154583,1,0,0:0:0:0:
320,192,154640,1,0,0:0:0:0:
192,192,154697,1,0,0:0:0:0:
320,192,154754,1,0,0:0:0:0:
448,192,154754,128,0,154868:0:0:0:0:
64,192,154754,1,0,0:0:0:0:
192,192,154868,128,0,154983:0:0:0:0:
64,192,154926,128,0,155040:0:0:0:0:
448,192,154983,128,0,155097:0:0:0:0:
320,192,155097,128,0,155211:0:0:0:0:
64,192,155097,128,0,155326:0:0:0:0:
192,192,155097,128,0,155268:0:0:0:0:
448,192,155268,1,0,0:0:0:0:
320,192,155326,1,0,0:0:0:0:
192,192,155383,1,0,0:0:0:0:
320,192,155440,1,0,0:0:0:0:
64,192,155440,128,0,155554:0:0:0:0:
448,192,155440,1,0,0:0:0:0:
192,192,155554,128,0,155668:0:0:0:0:
448,192,155611,1,0,0:0:0:0:
64,192,155611,1,0,0:0:0:0:
320,192,155668,128,0,155783:0:0:0:0:
448,192,155783,128,0,155897:0:0:0:0:
64,192,155783,1,0,0:0:0:0:
192,192,155868,1,0,0:0:0:0:
64,192,155954,128,0,156040:0:0:0:0:
448,192,155954,1,0,0:0:0:0:
320,192,155954,1,0,0:0:0:0:
192,192,156040,128,0,156126:0:0:0:0:
64,192,156126,128,0,156297:0:0:0:0:
448,192,156126,1,0,0:0:0:0:
320,192,156126,1,0,0:0:0:0:
192,192,156211,128,0,156354:0:0:0:0:
320,192,156297,128,0,156411:0:0:0:0:
448,192,156383,128,0,156468:0:0:0:0:
64,192,156468,128,0,156726:0:0:0:0:
192,192,156468,128,0,156640:0:0:0:0:
320,192,156468,128,0,156554:0:0:0:0:
320,192,156611,1,0,0:0:0:0:
448,192,156611,1,0,0:0:0:0:
448,192,156726,1,0,0:0:0:0:
192,192,156811,128,0,156983:0:0:0:0:
64,192,156811,128,0,157068:0:0:0:0:
320,192,156840,1,0,0:0:0:0:
448,192,156954,1,0,0:0:0:0:
320,192,156954,1,0,0:0:0:0:
448,192,157068,1,0,0:0:0:0:
64,192,157154,1,0,0:0:0:0:
192,192,157240,1,0,0:0:0:0:
448,192,157326,128,0,157440:0:0:0:0:
64,192,157326,1,0,0:0:0:0:
320,192,157383,128,0,157497:0:0:0:0:
192,192,157440,128,0,157554:0:0:0:0:
448,192,157497,1,0,0:0:0:0:
64,192,157497,1,0,0:0:0:0:
320,192,157554,1,0,0:0:0:0:
64,192,157611,128,0,157726:0:0:0:0:
192,192,157668,128,0,157783:0:0:0:0:
320,192,157726,128,0,157840:0:0:0:0:
448,192,157783,1,0,0:0:0:0:
64,192,157840,128,0,157926:0:0:0:0:
192,192,157840,128,0,158097:0:0:0:0:
64,192,158011,128,0,158097:0:0:0:0:
320,192,158011,128,0,158268:0:0:0:0:
448,192,158011,128,0,158097:0:0:0:0:
64,192,158183,128,0,158268:0:0:0:0:
448,192,158183,1,0,0:0:0:0:
192,192,158268,128,0,158354:0:0:0:0:
64,192,158354,128,0,158526:0:0:0:0:
448,192,158354,1,0,0:0:0:0:
320,192,158354,1,0,0:0:0:0:
192,192,158440,128,0,158611:0:0:0:0:
448,192,158526,1,0,0:0:0:0:
320,192,158611,128,0,158697:0:0:0:0:
448,192,158697,128,0,158783:0:0:0:0:
192,192,158697,1,0,0:0:0:0:
64,192,158697,1,0,0:0:0:0:
320,192,158783,128,0,158954:0:0:0:0:
64,192,158868,128,0,159040:0:0:0:0:
448,192,158868,1,0,0:0:0:0:
192,192,158954,128,0,159097:0:0:0:0:
320,192,159040,128,0,159154:0:0:0:0:
448,192,159126,128,0,159211:0:0:0:0:
320,192,159211,128,0,159326:0:0:0:0:
64,192,159211,128,0,159440:0:0:0:0:
192,192,159211,128,0,159383:0:0:0:0:
448,192,159383,1,0,0:0:0:0:
320,192,159440,1,0,0:0:0:0:
192,192,159497,1,0,0:0:0:0:
64,192,159554,128,0,159640:0:0:0:0:
448,192,159554,1,0,0:0:0:0:
192,192,159611,128,0,159726:0:0:0:0:
320,192,159668,128,0,159811:0:0:0:0:
448,192,159726,128,0,159897:0:0:0:0:
64,192,159783,1,0,0:0:0:0:
192,192,159840,1,0,0:0:0:0:
320,192,159897,1,0,0:0:0:0:
192,192,159983,1,0,0:0:0:0:
64,192,160068,1,0,0:0:0:0:
448,192,160068,1,0,0:0:0:0:
320,192,160126,1,0,0:0:0:0:
192,192,160183,1,0,0:0:0:0:
320,192,160240,1,0,0:0:0:0:
448,192,160240,128,0,160354:0:0:0:0:
64,192,160240,1,0,0:0:0:0:
192,192,160354,128,0,160468:0:0:0:0:
64,192,160411,128,0,160526:0:0:0:0:
448,192,160468,128,0,160583:0:0:0:0:
320,192,160583,128,0,160697:0:0:0:0:
64,192,160583,128,0,160811:0:0:0:0:
192,192,160583,128,0,160754:0:0:0:0:
448,192,160754,1,0,0:0:0:0:
320,192,160811,1,0,0:0:0:0:
192,192,160868,1,0,0:0:0:0:
64,192,160926,128,0,161040:0:0:0:0:
448,192,160926,1,0,0:0:0:0:
320,192,160926,1,0,0:0:0:0:
192,192,161040,128,0,161154:0:0:0:0:
448,192,161097,1,0,0:0:0:0:
64,192,161097,1,0,0:0:0:0:
320,192,161154,128,0,161268:0:0:0:0:
448,192,161268,128,0,161383:0:0:0:0:
64,192,161268,1,0,0:0:0:0:
192,192,161354,1,0,0:0:0:0:
64,192,161440,128,0,161526:0:0:0:0:
448,192,161440,1,0,0:0:0:0:
320,192,161440,1,0,0:0:0:0:
192,192,161526,128,0,161611:0:0:0:0:
64,192,161611,128,0,161783:0:0:0:0:
448,192,161611,1,0,0:0:0:0:
320,192,161611,1,0,0:0:0:0:
192,192,161697,128,0,161840:0:0:0:0:
320,192,161783,128,0,161897:0:0:0:0:
448,192,161868,128,0,161954:0:0:0:0:
320,192,161954,128,0,162068:0:0:0:0:
64,192,161954,128,0,162183:0:0:0:0:
192,192,161954,128,0,162126:0:0:0:0:
448,192,162126,1,0,0:0:0:0:
320,192,162183,1,0,0:0:0:0:
192,192,162240,1,0,0:0:0:0:
64,192,162297,128,0,162383:0:0:0:0:
448,192,162297,1,0,0:0:0:0:
192,192,162354,128,0,162468:0:0:0:0:
320,192,162411,128,0,162554:0:0:0:0:
448,192,162468,128,0,162640:0:0:0:0:
64,192,162526,1,0,0:0:0:0:
192,192,162583,1,0,0:0:0:0:
320,192,162640,1,0,0:0:0:0:
192,192,162754,128,0,162868:0:0:0:0:
64,192,162811,128,0,162926:0:0:0:0:
448,192,162811,1,0,0:0:0:0:
320,192,162868,1,0,0:0:0:0:
192,192,162926,1,0,0:0:0:0:
448,192,162983,128,0,163154:0:0:0:0:
64,192,162983,1,0,0:0:0:0:
320,192,163040,128,0,163183:0:0:0:0:
192,192,163097,128,0,163211:0:0:0:0:
64,192,163154,128,0,163240:0:0:0:0:
448,192,163240,1,0,0:0:0:0:
320,192,163326,128,0,163411:0:0:0:0:
64,192,163326,128,0,163583:0:0:0:0:
192,192,163326,128,0,163411:0:0:0:0:
192,192,163497,128,0,163583:0:0:0:0:
448,192,163497,128,0,163583:0:0:0:0:
320,192,163497,128,0,163583:0:0:0:0:
320,192,163668,128,0,163754:0:0:0:0:
448,192,163668,128,0,163926:0:0:0:0:
192,192,163668,128,0,163754:0:0:0:0:
320,192,163840,128,0,163926:0:0:0:0:
192,192,163840,128,0,163926:0:0:0:0:
64,192,163840,128,0,163926:0:0:0:0:
64,192,164011,128,0,164097:0:0:0:0:
448,192,164011,1,0,0:0:0:0:
192,192,164097,128,0,164183:0:0:0:0:
448,192,164183,128,0,164268:0:0:0:0:
64,192,164183,128,0,164268:0:0:0:0:
320,192,164183,128,0,164354:0:0:0:0:
448,192,164354,128,0,164526:0:0:0:0:
192,192,164354,1,0,0:0:0:0:
64,192,164354,1,0,0:0:0:0:
320,192,164440,128,0,164583:0:0:0:0:
192,192,164526,128,0,164640:0:0:0:0:
64,192,164611,128,0,164697:0:0:0:0:
320,192,164697,128,0,164868:0:0:0:0:
192,192,164697,128,0,164811:0:0:0:0:
448,192,164697,128,0,164926:0:0:0:0:
64,192,164868,1,0,0:0:0:0:
192,192,164926,1,0,0:0:0:0:
320,192,164983,1,0,0:0:0:0:
448,192,165040,128,0,165126:0:0:0:0:
64,192,165040,1,0,0:0:0:0:
320,192,165097,128,0,165211:0:0:0:0:
192,192,165154,128,0,165297:0:0:0:0:
64,192,165211,128,0,165383:0:0:0:0:
448,192,165268,1,0,0:0:0:0:
320,192,165326,1,0,0:0:0:0:
192,192,165383,1,0,0:0:0:0:
320,192,165468,1,0,0:0:0:0:
448,192,165554,1,0,0:0:0:0:
64,192,165554,1,0,0:0:0:0:
192,192,165611,1,0,0:0:0:0:
320,192,165668,1,0,0:0:0:0:
192,192,165726,1,0,0:0:0:0:
64,192,165726,128,0,165840:0:0:0:0:
448,192,165726,1,0,0:0:0:0:
320,192,165840,128,0,165954:0:0:0:0:
448,192,165897,128,0,166011:0:0:0:0:
64,192,165954,128,0,166068:0:0:0:0:
192,192,166068,128,0,166183:0:0:0:0:
448,192,166068,128,0,166297:0:0:0:0:
320,192,166068,128,0,166240:0:0:0:0:
64,192,166240,1,0,0:0:0:0:
192,192,166297,1,0,0:0:0:0:
320,192,166354,1,0,0:0:0:0:
192,192,166411,1,0,0:0:0:0:
448,192,166411,128,0,166526:0:0:0:0:
64,192,166411,1,0,0:0:0:0:
320,192,166526,128,0,166640:0:0:0:0:
64,192,166583,1,0,0:0:0:0:
448,192,166583,1,0,0:0:0:0:
192,192,166640,128,0,166754:0:0:0:0:
64,192,166754,128,0,166868:0:0:0:0:
448,192,166754,1,0,0:0:0:0:
320,192,166840,1,0,0:0:0:0:
448,192,166926,128,0,167011:0:0:0:0:
64,192,166926,1,0,0:0:0:0:
192,192,166926,1,0,0:0:0:0:
320,192,167011,128,0,167097:0:0:0:0:
448,192,167097,128,0,167268:0:0:0:0:
64,192,167097,1,0,0:0:0:0:
192,192,167097,1,0,0:0:0:0:
320,192,167183,128,0,167326:0:0:0:0:
192,192,167268,128,0,167383:0:0:0:0:
64,192,167354,128,0,167440:0:0:0:0:
448,192,167440,128,0,167697:0:0:0:0:
320,192,167440,128,0,167611:0:0:0:0:
192,192,167440,128,0,167526:0:0:0:0:
192,192,167583,1,0,0:0:0:0:
64,192,167583,1,0,0:0:0:0:
64,192,167697,1,0,0:0:0:0:
448,192,167783,128,0,168040:0:0:0:0:
320,192,167783,128,0,167954:0:0:0:0:
192,192,167811,1,0,0:0:0:0:
64,192,167926,1,0,0:0:0:0:
192,192,167926,1,0,0:0:0:0:
64,192,168040,1,0,0:0:0:0:
448,192,168126,1,0,0:0:0:0:
320,192,168211,1,0,0:0:0:0:
64,192,168297,128,0,168411:0:0:0:0:
448,192,168297,1,0,0:0:0:0:
192,192,168354,128,0,168468:0:0:0:0:
320,192,168411,128,0,168526:0:0:0:0:
64,192,168468,1,0,0:0:0:0:
448,192,168468,1,0,0:0:0:0:
192,192,168526,1,0,0:0:0:0:
448,192,168583,128,0,168697:0:0:0:0:
320,192,168640,128,0,168754:0:0:0:0:
192,192,168697,128,0,168811:0:0:0:0:
64,192,168754,1,0,0:0:0:0:
320,192,168811,128,0,169068:0:0:0:0:
448,192,168811,128,0,168897:0:0:0:0:
448,192,168983,128,0,169068:0:0:0:0:
192,192,168983,128,0,169240:0:0:0:0:
64,192,168983,128,0,169068:0:0:0:0:
448,192,169154,128,0,169240:0:0:0:0:
64,192,169154,1,0,0:0:0:0:
320,192,169240,128,0,169326:0:0:0:0:
448,192,169326,128,0,169497:0:0:0:0:
64,192,169326,1,0,0:0:0:0:
192,192,169326,1,0,0:0:0:0:
320,192,169411,128,0,169583:0:0:0:0:
64,192,169497,1,0,0:0:0:0:
192,192,169583,128,0,169668:0:0:0:0:
64,192,169668,128,0,169754:0:0:0:0:
320,192,169668,1,0,0:0:0:0:
448,192,169668,1,0,0:0:0:0:
192,192,169754,128,0,169926:0:0:0:0:
448,192,169840,128,0,170011:0:0:0:0:
64,192,169840,1,0,0:0:0:0:
320,192,169926,128,0,170068:0:0:0:0:
192,192,170011,128,0,170126:0:0:0:0:
64,192,170097,128,0,170183:0:0:0:0:
192,192,170183,128,0,170297:0:0:0:0:
448,192,170183,128,0,170411:0:0:0:0:
320,192,170183,128,0,170354:0:0:0:0:
64,192,170354,1,0,0:0:0:0:
192,192,170411,1,0,0:0:0:0:
320,192,170468,1,0,0:0:0:0:
448,192,170526,128,0,170611:0:0:0:0:
64,192,170526,1,0,0:0:0:0:
320,192,170583,128,0,170697:0:0:0:0:
192,192,170640,128,0,170783:0:0:0:0:
64,192,170697,128,0,170868:0:0:0:0:
448,192,170754,1,0,0:0:0:0:
320,192,170811,1,0,0:0:0:0:
192,192,170868,1,0,0:0:0:0:
320,192,170954,1,0,0:0:0:0:
448,192,171040,1,0,0:0:0:0:
64,192,171040,1,0,0:0:0:0:
192,192,171097,1,0,0:0:0:0:
320,192,171154,1,0,0:0:0:0:
192,192,171211,1,0,0:0:0:0:
64,192,171211,128,0,171326:0:0:0:0:
448,192,171211,1,0,0:0:0:0:
320,192,171326,128,0,171440:0:0:0:0:
448,192,171383,128,0,171497:0:0:0:0:
64,192,171440,128,0,171554:0:0:0:0:
192,192,171554,128,0,171668:0:0:0:0:
448,192,171554,128,0,171783:0:0:0:0:
320,192,171554,128,0,171726:0:0:0:0:
64,192,171726,1,0,0:0:0:0:
192,192,171783,1,0,0:0:0:0:
320,192,171840,1,0,0:0:0:0:
448,192,171897,128,0,172011:0:0:0:0:
64,192,171897,1,0,0:0:0:0:
192,192,171897,1,0,0:0:0:0:
320,192,172011,128,0,172126:0:0:0:0:
64,192,172068,1,0,0:0:0:0:
448,192,172068,1,0,0:0:0:0:
192,192,172126,128,0,172240:0:0:0:0:
64,192,172240,128,0,172354:0:0:0:0:
448,192,172240,1,0,0:0:0:0:
320,192,172326,1,0,0:0:0:0:
448,192,172411,128,0,172497:0:0:0:0:
64,192,172411,1,0,0:0:0:0:
192,192,172411,1,0,0:0:0:0:
320,192,172497,128,0,172583:0:0:0:0:
448,192,172583,128,0,172754:0:0:0:0:
64,192,172583,1,0,0:0:0:0:
192,192,172583,1,0,0:0:0:0:
320,192,172668,128,0,172811:0:0:0:0:
192,192,172754,128,0,172868:0:0:0:0:
64,192,172840,128,0,172926:0:0:0:0:
192,192,172926,128,0,173040:0:0:0:0:
448,192,172926,128,0,173154:0:0:0:0:
320,192,172926,128,0,173097:0:0:0:0:
64,192,173097,1,0,0:0:0:0:
192,192,173154,1,0,0:0:0:0:
320,192,173211,1,0,0:0:0:0:
448,192,173268,128,0,173354:0:0:0:0:
64,192,173268,1,0,0:0:0:0:
320,192,173326,128,0,173440:0:0:0:0:
192,192,173383,128,0,173526:0:0:0:0:
64,192,173440,128,0,173611:0:0:0:0:
448,192,173497,1,0,0:0:0:0:
320,192,173554,1,0,0:0:0:0:
192,192,173611,1,0,0:0:0:0:
320,192,173726,128,0,173840:0:0:0:0:
448,192,173783,128,0,173897:0:0:0:0:
64,192,173783,1,0,0:0:0:0:
192,192,173840,1,0,0:0:0:0:
320,192,173897,1,0,0:0:0:0:
64,192,173954,128,0,174126:0:0:0:0:
448,192,173954,1,0,0:0:0:0:
192,192,174011,128,0,174154:0:0:0:0:
320,192,174068,128,0,174183:0:0:0:0:
448,192,174126,128,0,174211:0:0:0:0:
64,192,174211,1,0,0:0:0:0:
448,192,174297,1,0,0:0:0:0:
320,192,174297,1,0,0:0:0:0:
448,192,174468,1,0,0:0:0:0:
192,192,174468,1,0,0:0:0:0:
64,192,174640,1,0,0:0:0:0:
320,192,174640,1,0,0:0:0:0:
64,192,174811,1,0,0:0:0:0:
192,192,174811,1,0,0:0:0:0:
320,192,174897,1,0,0:0:0:0:
192,192,174983,128,0,175154:0:0:0:0:
64,192,174983,1,0,0:0:0:0:
448,192,174983,1,0,0:0:0:0:
320,192,175154,128,0,175326:0:0:0:0:
64,192,175154,1,0,0:0:0:0:
448,192,175154,1,0,0:0:0:0:
64,192,175326,128,0,175411:0:0:0:0:
448,192,175326,1,0,0:0:0:0:
192,192,175383,128,0,175497:0:0:0:0:
320,192,175440,128,0,175583:0:0:0:0:
448,192,175497,128,0,175668:0:0:0:0:
64,192,175554,1,0,0:0:0:0:
192,192,175611,1,0,0:0:0:0:
64,192,175668,1,0,0:0:0:0:
320,192,175668,1,0,0:0:0:0:
64,192,175840,1,0,0:0:0:0:
192,192,175897,1,0,0:0:0:0:
320,192,175954,1,0,0:0:0:0:
64,192,176011,1,0,0:0:0:0:
192,192,176068,1,0,0:0:0:0:
320,192,176126,1,0,0:0:0:0:
64,192,176183,1,0,0:0:0:0:
192,192,176268,1,0,0:0:0:0:
448,192,176354,1,0,0:0:0:0:
64,192,176354,1,0,0:0:0:0:
320,192,176354,1,0,0:0:0:0:
448,192,176526,1,0,0:0:0:0:
192,192,176583,1,0,0:0:0:0:
64,192,176640,1,0,0:0:0:0:
320,192,176697,1,0,0:0:0:0:
192,192,176811,1,0,0:0:0:0:
448,192,176868,1,0,0:0:0:0:
320,192,176868,1,0,0:0:0:0:
64,192,176926,1,0,0:0:0:0:
448,192,177040,1,0,0:0:0:0:
192,192,177126,1,0,0:0:0:0:
320,192,177154,1,0,0:0:0:0:
448,192,177183,1,0,0:0:0:0:
64,192,177211,1,0,0:0:0:0:
192,192,177268,1,0,0:0:0:0:
320,192,177326,1,0,0:0:0:0:
64,192,177383,1,0,0:0:0:0:
448,192,177383,1,0,0:0:0:0:
192,192,177497,1,0,0:0:0:0:
64,192,177554,1,0,0:0:0:0:
320,192,177611,1,0,0:0:0:0:
64,192,177726,1,0,0:0:0:0:
192,192,177726,1,0,0:0:0:0:
448,192,177726,1,0,0:0:0:0:
320,192,177897,1,0,0:0:0:0:
448,192,177897,1,0,0:0:0:0:
192,192,177983,1,0,0:0:0:0:
320,192,178068,1,0,0:0:0:0:
448,192,178068,1,0,0:0:0:0:
192,192,178154,1,0,0:0:0:0:
448,192,178240,1,0,0:0:0:0:
320,192,178297,1,0,0:0:0:0:
192,192,178354,1,0,0:0:0:0:
64,192,178411,1,0,0:0:0:0:
320,192,178411,1,0,0:0:0:0:
448,192,178411,1,0,0:0:0:0:
192,192,178526,1,0,0:0:0:0:
64,192,178583,1,0,0:0:0:0:
320,192,178640,1,0,0:0:0:0:
192,192,178697,1,0,0:0:0:0:
448,192,178754,1,0,0:0:0:0:
64,192,178754,1,0,0:0:0:0:
320,192,178811,1,0,0:0:0:0:
192,192,178868,1,0,0:0:0:0:
448,192,178926,1,0,0:0:0:0:
320,192,178983,1,0,0:0:0:0:
64,192,179040,1,0,0:0:0:0:
448,192,179097,1,0,0:0:0:0:
320,192,179097,1,0,0:0:0:0:
192,192,179097,1,0,0:0:0:0:
64,192,179226,1,0,0:0:0:0:
192,192,179268,1,0,0:0:0:0:
448,192,179311,1,0,0:0:0:0:
320,192,179354,1,0,0:0:0:0:
64,192,179397,1,0,0:0:0:0:
192,192,179440,1,0,0:0:0:0:
320,192,179526,1,0,0:0:0:0:
448,192,179568,1,0,0:0:0:0:
192,192,179611,1,0,0:0:0:0:
64,192,179611,1,0,0:0:0:0:
320,192,179654,1,0,0:0:0:0:
448,192,179697,1,0,0:0:0:0:
192,192,179740,1,0,0:0:0:0:
64,192,179783,1,0,0:0:0:0:
320,192,179868,1,0,0:0:0:0:
192,192,179954,1,0,0:0:0:0:
64,192,179954,1,0,0:0:0:0:
448,192,179954,1,0,0:0:0:0:
64,192,180126,1,0,0:0:0:0:
192,192,180126,1,0,0:0:0:0:
320,192,180211,1,0,0:0:0:0:
64,192,180297,1,0,0:0:0:0:
192,192,180297,1,0,0:0:0:0:
320,192,180383,1,0,0:0:0:0:
448,192,180468,1,0,0:0:0:0:
192,192,180468,1,0,0:0:0:0:
64,192,180468,1,0,0:0:0:0:
320,192,180554,1,0,0:0:0:0:
448,192,180640,1,0,0:0:0:0:
64,192,180640,1,0,0:0:0:0:
192,192,180726,1,0,0:0:0:0:
448,192,180811,1,0,0:0:0:0:
320,192,180811,1,0,0:0:0:0:
64,192,180811,1,0,0:0:0:0:
448,192,180897,1,0,0:0:0:0:
320,192,180897,1,0,0:0:0:0:
64,192,180983,1,0,0:0:0:0:
192,192,180983,1,0,0:0:0:0:
192,192,181068,1,0,0:0:0:0:
64,192,181068,1,0,0:0:0:0:
448,192,181154,128,0,181240:0:0:0:0:
320,192,181154,128,0,181240:0:0:0:0:
320,192,181326,1,0,0:0:0:0:
64,192,181326,1,0,0:0:0:0:
64,192,181497,128,0,181583:0:0:0:0:
192,192,181497,128,0,181583:0:0:0:0:
320,192,181497,1,0,0:0:0:0:
448,192,181497,1,0,0:0:0:0:
448,192,181668,1,0,0:0:0:0:
192,192,181668,1,0,0:0:0:0:
64,192,181840,1,0,0:0:0:0:
448,192,181840,128,0,181926:0:0:0:0:
192,192,181840,1,0,0:0:0:0:
320,192,181840,128,0,181926:0:0:0:0:
192,192,182011,128,0,182097:0:0:0:0:
64,192,182011,128,0,182097:0:0:0:0:
320,192,182011,1,0,0:0:0:0:
448,192,182011,1,0,0:0:0:0:
320,192,182183,1,0,0:0:0:0:
192,192,182183,1,0,0:0:0:0:
320,192,182354,128,0,182611:0:0:0:0:
448,192,182354,128,0,182611:0:0:0:0:
64,192,182354,128,0,182611:0:0:0:0:
192,192,182354,128,0,182611:0:0:0:0:
448,192,182697,1,0,0:0:0:0:
192,192,182697,1,0,0:0:0:0:
320,192,182868,128,0,182954:0:0:0:0:
448,192,182868,128,0,182954:0:0:0:0:
192,192,182868,1,0,0:0:0:0:
64,192,182868,1,0,0:0:0:0:
64,192,183040,1,0,0:0:0:0:
320,192,183040,1,0,0:0:0:0:
448,192,183211,1,0,0:0:0:0:
64,192,183211,128,0,183297:0:0:0:0:
192,192,183211,128,0,183297:0:0:0:0:
320,192,183211,1,0,0:0:0:0:
320,192,183383,128,0,183468:0:0:0:0:
448,192,183383,128,0,183468:0:0:0:0:
64,192,183383,1,0,0:0:0:0:
192,192,183383,1,0,0:0:0:0:
192,192,183554,1,0,0:0:0:0:
320,192,183554,1,0,0:0:0:0:
192,192,183726,128,0,183983:0:0:0:0:
64,192,183726,128,0,183983:0:0:0:0:
448,192,183726,128,0,183983:0:0:0:0:
320,192,183726,128,0,183983:0:0:0:0:
320,192,184068,1,0,0:0:0:0:
64,192,184068,1,0,0:0:0:0:
192,192,184240,128,0,184326:0:0:0:0:
64,192,184240,128,0,184326:0:0:0:0:
448,192,184240,1,0,0:0:0:0:
320,192,184240,1,0,0:0:0:0:
448,192,184411,1,0,0:0:0:0:
192,192,184411,1,0,0:0:0:0:
64,192,184583,1,0,0:0:0:0:
448,192,184583,128,0,184668:0:0:0:0:
192,192,184583,1,0,0:0:0:0:
320,192,184583,128,0,184668:0:0:0:0:
192,192,184754,128,0,184840:0:0:0:0:
64,192,184754,128,0,184840:0:0:0:0:
320,192,184754,1,0,0:0:0:0:
448,192,184754,1,0,0:0:0:0:
192,192,184926,1,0,0:0:0:0:
320,192,184926,1,0,0:0:0:0:
192,192,185097,128,0,185526:0:0:0:0:
64,192,185097,128,0,185868:0:0:0:0:
320,192,185097,128,0,185183:0:0:0:0:
448,192,185097,128,0,185183:0:0:0:0:
448,192,185268,1,0,0:0:0:0:
320,192,185268,1,0,0:0:0:0:
320,192,185440,1,0,0:0:0:0:
448,192,185526,1,0,0:0:0:0:
320,192,185611,1,0,0:0:0:0:
192,192,185611,1,0,0:0:0:0:
192,192,185783,1,0,0:0:0:0:
320,192,185868,1,0,0:0:0:0:
448,192,185954,1,0,0:0:0:0:
64,192,185954,1,0,0:0:0:0:
192,192,186040,1,0,0:0:0:0:
448,192,186126,1,0,0:0:0:0:
320,192,186126,1,0,0:0:0:0:
192,192,186211,1,0,0:0:0:0:
448,192,186297,128,0,186383:0:0:0:0:
64,192,186297,1,0,0:0:0:0:
320,192,186354,128,0,186468:0:0:0:0:
192,192,186411,128,0,186554:0:0:0:0:
64,192,186468,128,0,186640:0:0:0:0:
448,192,186526,1,0,0:0:0:0:
320,192,186583,1,0,0:0:0:0:
448,192,186640,1,0,0:0:0:0:
192,192,186640,1,0,0:0:0:0:
64,192,186811,1,0,0:0:0:0:
320,192,186897,1,0,0:0:0:0:
64,192,186983,1,0,0:0:0:0:
192,192,187097,1,0,0:0:0:0:
64,192,187154,1,0,0:0:0:0:
320,192,187211,1,0,0:0:0:0:
448,192,187326,1,0,0:0:0:0:
192,192,187326,1,0,0:0:0:0:
64,192,187326,1,0,0:0:0:0:
320,192,187411,1,0,0:0:0:0:
64,192,187497,1,0,0:0:0:0:
192,192,187554,1,0,0:0:0:0:
320,192,187611,1,0,0:0:0:0:
64,192,187668,1,0,0:0:0:0:
192,192,187783,1,0,0:0:0:0:
448,192,187840,1,0,0:0:0:0:
64,192,187840,1,0,0:0:0:0:
320,192,187897,1,0,0:0:0:0:
448,192,188011,1,0,0:0:0:0:
320,192,188097,1,0,0:0:0:0:
192,192,188126,1,0,0:0:0:0:
64,192,188154,1,0,0:0:0:0:
448,192,188183,1,0,0:0:0:0:
320,192,188240,1,0,0:0:0:0:
192,192,188297,1,0,0:0:0:0:
448,192,188354,1,0,0:0:0:0:
64,192,188354,1,0,0:0:0:0:
320,192,188468,1,0,0:0:0:0:
448,192,188526,1,0,0:0:0:0:
192,192,188583,1,0,0:0:0:0:
448,192,188697,1,0,0:0:0:0:
320,192,188697,1,0,0:0:0:0:
64,192,188697,1,0,0:0:0:0:
192,192,188868,1,0,0:0:0:0:
64,192,188868,1,0,0:0:0:0:
320,192,188954,1,0,0:0:0:0:
192,192,189040,1,0,0:0:0:0:
64,192,189040,1,0,0:0:0:0:
320,192,189126,1,0,0:0:0:0:
64,192,189211,1,0,0:0:0:0:
192,192,189268,1,0,0:0:0:0:
320,192,189326,1,0,0:0:0:0:
448,192,189383,1,0,0:0:0:0:
192,192,189383,1,0,0:0:0:0:
64,192,189383,1,0,0:0:0:0:
320,192,189497,1,0,0:0:0:0:
448,192,189554,1,0,0:0:0:0:
192,192,189611,1,0,0:0:0:0:
320,192,189668,1,0,0:0:0:0:
64,192,189726,1,0,0:0:0:0:
448,192,189726,1,0,0:0:0:0:
192,192,189783,1,0,0:0:0:0:
320,192,189840,1,0,0:0:0:0:
64,192,189897,1,0,0:0:0:0:
192,192,189954,1,0,0:0:0:0:
448,192,190011,1,0,0:0:0:0:
64,192,190068,1,0,0:0:0:0:
192,192,190068,1,0,0:0:0:0:
320,192,190068,1,0,0:0:0:0:
448,192,190183,1,0,0:0:0:0:
320,192,190240,1,0,0:0:0:0:
192,192,190326,1,0,0:0:0:0:
448,192,190411,1,0,0:0:0:0:
192,192,190497,1,0,0:0:0:0:
320,192,190583,1,0,0:0:0:0:
64,192,190583,1,0,0:0:0:0:
448,192,190583,1,0,0:0:0:0:
192,192,190668,1,0,0:0:0:0:
448,192,190754,1,0,0:0:0:0:
320,192,190840,1,0,0:0:0:0:
192,192,190926,1,0,0:0:0:0:
64,192,190926,1,0,0:0:0:0:
448,192,190926,1,0,0:0:0:0:
320,192,191097,1,0,0:0:0:0:
64,192,191097,1,0,0:0:0:0:
448,192,191097,1,0,0:0:0:0:
192,192,191268,1,0,0:0:0:0:
320,192,191268,1,0,0:0:0:0:
192,192,191440,1,0,0:0:0:0:
64,192,191440,1,0,0:0:0:0:
448,192,191440,1,0,0:0:0:0:
320,192,191611,1,0,0:0:0:0:
448,192,191611,1,0,0:0:0:0:
64,192,191611,1,0,0:0:0:0:
448,192,191783,1,0,0:0:0:0:
320,192,191840,1,0,0:0:0:0:
192,192,191897,1,0,0:0:0:0:
448,192,191954,1,0,0:0:0:0:
64,192,191954,1,0,0:0:0:0:
320,192,192040,1,0,0:0:0:0:
448,192,192126,1,0,0:0:0:0:
64,192,192126,128,0,192211:0:0:0:0:
192,192,192126,128,0,192211:0:0:0:0:
448,192,192297,1,0,0:0:0:0:
192,192,192297,1,0,0:0:0:0:
320,192,192468,128,0,192554:0:0:0:0:
448,192,192468,128,0,192554:0:0:0:0:
192,192,192468,1,0,0:0:0:0:
64,192,192468,1,0,0:0:0:0:
320,192,192640,1,0,0:0:0:0:
64,192,192640,1,0,0:0:0:0:
448,192,192811,1,0,0:0:0:0:
320,192,192811,1,0,0:0:0:0:
192,192,192811,128,0,192897:0:0:0:0:
64,192,192811,128,0,192897:0:0:0:0:
192,192,192983,1,0,0:0:0:0:
64,192,192983,1,0,0:0:0:0:
320,192,192983,128,0,193068:0:0:0:0:
448,192,192983,128,0,193068:0:0:0:0:
192,192,193154,1,0,0:0:0:0:
320,192,193154,1,0,0:0:0:0:
192,192,193326,128,0,193583:0:0:0:0:
64,192,193326,128,0,193583:0:0:0:0:
448,192,193326,128,0,193583:0:0:0:0:
320,192,193326,128,0,193583:0:0:0:0:
320,192,193668,1,0,0:0:0:0:
64,192,193668,1,0,0:0:0:0:
192,192,193840,128,0,193926:0:0:0:0:
64,192,193840,128,0,193926:0:0:0:0:
320,192,193840,1,0,0:0:0:0:
448,192,193840,1,0,0:0:0:0:
448,192,194011,1,0,0:0:0:0:
192,192,194011,1,0,0:0:0:0:
64,192,194183,1,0,0:0:0:0:
192,192,194183,1,0,0:0:0:0:
320,192,194183,128,0,194268:0:0:0:0:
448,192,194183,128,0,194268:0:0:0:0:
320,192,194354,1,0,0:0:0:0:
448,192,194354,1,0,0:0:0:0:
192,192,194354,128,0,194440:0:0:0:0:
64,192,194354,128,0,194440:0:0:0:0:
320,192,194526,1,0,0:0:0:0:
192,192,194526,1,0,0:0:0:0:
320,192,194697,128,0,194954:0:0:0:0:
448,192,194697,128,0,194954:0:0:0:0:
64,192,194697,128,0,194954:0:0:0:0:
192,192,194697,128,0,194954:0:0:0:0:
448,192,195040,1,0,0:0:0:0:
192,192,195040,1,0,0:0:0:0:
320,192,195211,128,0,195297:0:0:0:0:
448,192,195211,128,0,195297:0:0:0:0:
64,192,195211,1,0,0:0:0:0:
192,192,195211,1,0,0:0:0:0:
320,192,195383,1,0,0:0:0:0:
64,192,195383,1,0,0:0:0:0:
192,192,195554,128,0,195640:0:0:0:0:
64,192,195554,128,0,195640:0:0:0:0:
448,192,195554,1,0,0:0:0:0:
320,192,195554,1,0,0:0:0:0:
320,192,195726,128,0,195811:0:0:0:0:
448,192,195726,128,0,195811:0:0:0:0:
192,192,195726,1,0,0:0:0:0:
64,192,195726,1,0,0:0:0:0:
320,192,195897,1,0,0:0:0:0:
192,192,195897,1,0,0:0:0:0:
192,192,196068,128,0,196497:0:0:0:0:
64,192,196068,128,0,196840:0:0:0:0:
320,192,196068,128,0,196154:0:0:0:0:
448,192,196068,128,0,196154:0:0:0:0:
448,192,196240,1,0,0:0:0:0:
320,192,196240,1,0,0:0:0:0:
320,192,196411,1,0,0:0:0:0:
320,192,196583,1,0,0:0:0:0:
192,192,196583,1,0,0:0:0:0:
192,192,196754,1,0,0:0:0:0:
448,192,196840,1,0,0:0:0:0:
320,192,196840,1,0,0:0:0:0:
192,192,196926,1,0,0:0:0:0:
64,192,196926,1,0,0:0:0:0:
192,192,197097,1,0,0:0:0:0:
320,192,197097,1,0,0:0:0:0:
320,192,197268,1,0,0:0:0:0:
64,192,197268,1,0,0:0:0:0:
192,192,197268,1,0,0:0:0:0:
448,192,197268,128,0,197526:0:0:0:0:
192,192,197611,1,0,0:0:0:0:
320,192,197611,128,0,199411:0:0:0:0:
64,192,197611,1,0,0:0:0:0:
448,192,197611,128,0,198897:0:0:0:0:
192,192,197954,1,0,0:0:0:0:
192,192,198126,1,0,0:0:0:0:
192,192,198297,128,0,198897:0:0:0:0:
64,192,198640,1,0,0:0:0:0:
64,192,198811,1,0,0:0:0:0:
448,192,198983,128,0,200268:0:0:0:0:
64,192,198983,128,0,199926:0:0:0:0:
192,192,198983,1,0,0:0:0:0:
192,192,199154,1,0,0:0:0:0:
320,192,199497,128,0,200268:0:0:0:0:
192,192,199668,1,0,0:0:0:0:
192,192,200011,1,0,0:0:0:0:
64,192,200011,128,0,200611:0:0:0:0:
448,192,200354,128,0,201126:0:0:0:0:
192,192,200354,128,0,200783:0:0:0:0:
320,192,200354,1,0,0:0:0:0:
320,192,200697,1,0,0:0:0:0:
64,192,200697,128,0,201297:0:0:0:0:
320,192,200868,1,0,0:0:0:0:
192,192,200868,128,0,201640:0:0:0:0:
448,192,201211,128,0,201640:0:0:0:0:
320,192,201383,1,0,0:0:0:0:
64,192,201383,128,0,202154:0:0:0:0:
192,192,201726,128,0,201983:0:0:0:0:
320,192,201726,128,0,201811:0:0:0:0:
448,192,201726,1,0,0:0:0:0:
448,192,201897,1,0,0:0:0:0:
320,192,201897,128,0,202326:0:0:0:0:
192,192,202068,128,0,202668:0:0:0:0:
448,192,202240,1,0,0:0:0:0:
64,192,202240,128,0,203011:0:0:0:0:
320,192,202411,1,0,0:0:0:0:
192,192,202754,1,0,0:0:0:0:
448,192,202754,1,0,0:0:0:0:
192,192,203097,128,0,204897:0:0:0:0:
64,192,203097,128,0,204383:0:0:0:0:
448,192,203097,1,0,0:0:0:0:
320,192,203440,1,0,0:0:0:0:
320,192,203611,1,0,0:0:0:0:
320,192,203783,128,0,204383:0:0:0:0:
448,192,204126,1,0,0:0:0:0:
448,192,204297,1,0,0:0:0:0:
64,192,204468,128,0,205754:0:0:0:0:
448,192,204468,128,0,205411:0:0:0:0:
320,192,204468,1,0,0:0:0:0:
320,192,204640,1,0,0:0:0:0:
192,192,204983,128,0,205754:0:0:0:0:
320,192,205154,1,0,0:0:0:0:
320,192,205497,1,0,0:0:0:0:
448,192,205497,128,0,206097:0:0:0:0:
64,192,205840,128,0,206611:0:0:0:0:
320,192,205840,128,0,206268:0:0:0:0:
192,192,205840,1,0,0:0:0:0:
192,192,206183,1,0,0:0:0:0:
448,192,206183,128,0,206783:0:0:0:0:
192,192,206354,1,0,0:0:0:0:
320,192,206354,128,0,207126:0:0:0:0:
64,192,206697,128,0,207126:0:0:0:0:
192,192,206868,1,0,0:0:0:0:
448,192,206868,128,0,207640:0:0:0:0:
320,192,207211,128,0,207468:0:0:0:0:
192,192,207211,128,0,207297:0:0:0:0:
64,192,207211,1,0,0:0:0:0:
64,192,207383,1,0,0:0:0:0:
192,192,207383,128,0,207811:0:0:0:0:
320,192,207554,128,0,208154:0:0:0:0:
64,192,207726,1,0,0:0:0:0:
448,192,207726,128,0,208497:0:0:0:0:
192,192,207897,1,0,0:0:0:0:
320,192,208240,1,0,0:0:0:0:
64,192,208240,1,0,0:0:0:0:
192,192,208583,1,0,0:0:0:0:
320,192,208583,128,0,210383:0:0:0:0:
64,192,208583,1,0,0:0:0:0:
448,192,208583,128,0,209868:0:0:0:0:
192,192,208926,1,0,0:0:0:0:
192,192,209097,1,0,0:0:0:0:
192,192,209268,128,0,209868:0:0:0:0:
64,192,209611,1,0,0:0:0:0:
64,192,209783,1,0,0:0:0:0:
448,192,209954,128,0,211240:0:0:0:0:
64,192,209954,128,0,210897:0:0:0:0:
192,192,209954,1,0,0:0:0:0:
192,192,210126,1,0,0:0:0:0:
320,192,210468,128,0,211240:0:0:0:0:
192,192,210640,1,0,0:0:0:0:
192,192,210983,1,0,0:0:0:0:
64,192,210983,128,0,211583:0:0:0:0:
448,192,211326,128,0,212097:0:0:0:0:
192,192,211326,128,0,211754:0:0:0:0:
320,192,211326,1,0,0:0:0:0:
320,192,211668,1,0,0:0:0:0:
64,192,211668,128,0,212268:0:0:0:0:
320,192,211840,1,0,0:0:0:0:
192,192,211840,128,0,212611:0:0:0:0:
448,192,212183,128,0,212611:0:0:0:0:
320,192,212354,1,0,0:0:0:0:
64,192,212354,128,0,213126:0:0:0:0:
192,192,212697,128,0,212954:0:0:0:0:
320,192,212697,128,0,212783:0:0:0:0:
448,192,212697,1,0,0:0:0:0:
448,192,212868,1,0,0:0:0:0:
320,192,212868,128,0,213297:0:0:0:0:
192,192,213040,128,0,213640:0:0:0:0:
448,192,213211,1,0,0:0:0:0:
64,192,213211,128,0,213983:0:0:0:0:
320,192,213383,1,0,0:0:0:0:
192,192,213726,1,0,0:0:0:0:
448,192,213726,1,0,0:0:0:0:
64,192,214068,128,0,215011:0:0:0:0:
320,192,214068,128,0,214668:0:0:0:0:
192,192,214068,128,0,214668:0:0:0:0:
192,192,214754,128,0,215354:0:0:0:0:
448,192,214754,128,0,215354:0:0:0:0:
320,192,214754,1,0,0:0:0:0:
64,192,215097,128,0,216040:0:0:0:0:
320,192,215440,128,0,216040:0:0:0:0:
448,192,215440,128,0,215697:0:0:0:0:
192,192,215440,1,0,0:0:0:0:
448,192,215783,128,0,216726:0:0:0:0:
192,192,216126,128,0,216726:0:0:0:0:
320,192,216126,128,0,216726:0:0:0:0:
64,192,216126,1,0,0:0:0:0:
64,192,216811,128,0,217754:0:0:0:0:
320,192,216811,128,0,217411:0:0:0:0:
192,192,216811,128,0,217411:0:0:0:0:
192,192,217497,128,0,218097:0:0:0:0:
448,192,217497,128,0,218097:0:0:0:0:
320,192,217497,1,0,0:0:0:0:
64,192,217840,128,0,218440:0:0:0:0:
448,192,218183,128,0,218783:0:0:0:0:
320,192,218183,1,0,0:0:0:0:
192,192,218183,1,0,0:0:0:0:
64,192,218526,128,0,219126:0:0:0:0:
448,192,218868,1,0,0:0:0:0:
192,192,219211,1,0,0:0:0:0:
64,192,219211,1,0,0:0:0:0:
448,192,219211,1,0,0:0:0:0:
320,192,219211,1,0,0:0:0:0:
320,192,219554,1,0,0:0:0:0:
192,192,219554,1,0,0:0:0:0:
448,192,219554,128,0,219811:0:0:0:0:
64,192,219554,1,0,0:0:0:0:
320,192,219726,128,0,219983:0:0:0:0:
192,192,219726,1,0,0:0:0:0:
192,192,219897,128,0,220154:0:0:0:0:
448,192,219897,1,0,0:0:0:0:
448,192,220068,128,0,220326:0:0:0:0:
320,192,220068,1,0,0:0:0:0:
192,192,220240,1,0,0:0:0:0:
64,192,220240,1,0,0:0:0:0:
320,192,220411,1,0,0:0:0:0:
448,192,220411,128,0,220668:0:0:0:0:
192,192,220583,1,0,0:0:0:0:
320,192,220583,128,0,220840:0:0:0:0:
192,192,220754,128,0,221011:0:0:0:0:
448,192,220754,1,0,0:0:0:0:
320,192,220926,1,0,0:0:0:0:
64,192,220926,1,0,0:0:0:0:
192,192,221097,128,0,221354:0:0:0:0:
320,192,221097,1,0,0:0:0:0:
320,192,221268,128,0,221526:0:0:0:0:
448,192,221268,1,0,0:0:0:0:
448,192,221440,128,0,221697:0:0:0:0:
192,192,221440,1,0,0:0:0:0:
320,192,221611,1,0,0:0:0:0:
192,192,221611,128,0,221868:0:0:0:0:
320,192,221783,128,0,222040:0:0:0:0:
448,192,221783,1,0,0:0:0:0:
192,192,221954,1,0,0:0:0:0:
448,192,221954,128,0,222211:0:0:0:0:
320,192,222126,1,0,0:0:0:0:
448,192,222297,1,0,0:0:0:0:
64,192,222297,128,0,222554:0:0:0:0:
192,192,222468,128,0,222726:0:0:0:0:
320,192,222468,1,0,0:0:0:0:
320,192,222640,128,0,222897:0:0:0:0:
64,192,222640,1,0,0:0:0:0:
64,192,222811,128,0,223068:0:0:0:0:
192,192,222811,1,0,0:0:0:0:
320,192,222983,1,0,0:0:0:0:
448,192,222983,1,0,0:0:0:0:
192,192,223154,1,0,0:0:0:0:
64,192,223154,128,0,223411:0:0:0:0:
320,192,223326,1,0,0:0:0:0:
192,192,223326,128,0,223583:0:0:0:0:
320,192,223497,128,0,223754:0:0:0:0:
64,192,223497,1,0,0:0:0:0:
448,192,223668,128,0,223926:0:0:0:0:
192,192,223668,1,0,0:0:0:0:
64,192,223840,1,0,0:0:0:0:
320,192,223840,128,0,224097:0:0:0:0:
448,192,224011,1,0,0:0:0:0:
192,192,224011,128,0,224268:0:0:0:0:
64,192,224183,128,0,224440:0:0:0:0:
320,192,224183,1,0,0:0:0:0:
192,192,224354,1,0,0:0:0:0:
320,192,224354,128,0,224611:0:0:0:0:
192,192,224526,128,0,224783:0:0:0:0:
64,192,224526,1,0,0:0:0:0:
320,192,224697,1,0,0:0:0:0:
64,192,224697,128,0,224954:0:0:0:0:
192,192,224868,1,0,0:0:0:0:
320,192,224868,128,0,225126:0:0:0:0:
448,192,225040,128,0,225297:0:0:0:0:
64,192,225040,1,0,0:0:0:0:
192,192,225211,128,0,225297:0:0:0:0:
320,192,225211,1,0,0:0:0:0:
192,192,225383,128,0,225640:0:0:0:0:
448,192,225383,1,0,0:0:0:0:
320,192,225554,128,0,225640:0:0:0:0:
64,192,225554,1,0,0:0:0:0:
192,192,225726,1,0,0:0:0:0:
320,192,225726,128,0,225983:0:0:0:0:
64,192,225897,1,0,0:0:0:0:
448,192,225897,128,0,226154:0:0:0:0:
320,192,226068,1,0,0:0:0:0:
192,192,226068,1,0,0:0:0:0:
448,192,226240,1,0,0:0:0:0:
64,192,226240,128,0,226668:0:0:0:0:
192,192,226411,1,0,0:0:0:0:
448,192,226411,1,0,0:0:0:0:
320,192,226583,128,0,226668:0:0:0:0:
192,192,226583,1,0,0:0:0:0:
320,192,226754,128,0,227011:0:0:0:0:
64,192,226754,1,0,0:0:0:0:
192,192,226926,128,0,227011:0:0:0:0:
448,192,226926,1,0,0:0:0:0:
320,192,227097,1,0,0:0:0:0:
192,192,227097,128,0,227354:0:0:0:0:
448,192,227268,1,0,0:0:0:0:
64,192,227268,128,0,227526:0:0:0:0:
192,192,227440,1,0,0:0:0:0:
320,192,227440,1,0,0:0:0:0:
448,192,227611,128,0,228040:0:0:0:0:
64,192,227611,1,0,0:0:0:0:
320,192,227783,1,0,0:0:0:0:
64,192,227783,1,0,0:0:0:0:
192,192,227954,128,0,228040:0:0:0:0:
320,192,227954,1,0,0:0:0:0:
448,192,228126,1,0,0:0:0:0:
192,192,228126,128,0,228383:0:0:0:0:
64,192,228297,1,0,0:0:0:0:
320,192,228297,128,0,228383:0:0:0:0:
320,192,228468,128,0,228726:0:0:0:0:
192,192,228468,1,0,0:0:0:0:
448,192,228640,128,0,228897:0:0:0:0:
64,192,228640,1,0,0:0:0:0:
192,192,228811,1,0,0:0:0:0:
320,192,228811,1,0,0:0:0:0:
64,192,228983,128,0,229411:0:0:0:0:
448,192,228983,1,0,0:0:0:0:
192,192,229154,128,0,229240:0:0:0:0:
448,192,229154,128,0,229240:0:0:0:0:
192,192,229326,128,0,229411:0:0:0:0:
320,192,229326,128,0,229411:0:0:0:0:
64,192,229497,128,0,229583:0:0:0:0:
320,192,229497,128,0,229754:0:0:0:0:
448,192,229668,128,0,229754:0:0:0:0:
192,192,229668,128,0,229754:0:0:0:0:
192,192,229840,128,0,230440:0:0:0:0:
320,192,229840,128,0,229926:0:0:0:0:
64,192,230011,128,0,230097:0:0:0:0:
320,192,230011,128,0,230440:0:0:0:0:
448,192,230183,128,0,230268:0:0:0:0:
64,192,230183,128,0,230440:0:0:0:0:
448,192,230354,128,0,230440:0:0:0:0:
320,192,230526,1,0,0:0:0:0:
64,192,230526,1,0,0:0:0:0:
192,192,230526,1,0,0:0:0:0:
448,192,230526,1,0,0:0:0:0:
64,192,230697,1,0,0:0:0:0:
192,192,230697,1,0,0:0:0:0:
448,192,230697,1,0,0:0:0:0:
320,192,230783,1,0,0:0:0:0:
448,192,230868,1,0,0:0:0:0:
64,192,230868,1,0,0:0:0:0:
192,192,230868,1,0,0:0:0:0:
320,192,231040,1,0,0:0:0:0:
64,192,231040,1,0,0:0:0:0:
448,192,231040,1,0,0:0:0:0:
320,192,231211,1,0,0:0:0:0:
192,192,231211,1,0,0:0:0:0:
64,192,231211,1,0,0:0:0:0:
448,192,231297,1,0,0:0:0:0:
320,192,231383,1,0,0:0:0:0:
64,192,231383,1,0,0:0:0:0:
192,192,231383,1,0,0:0:0:0:
448,192,231554,1,0,0:0:0:0:
320,192,231554,1,0,0:0:0:0:
64,192,231554,1,0,0:0:0:0:
448,192,231726,1,0,0:0:0:0:
192,192,231726,1,0,0:0:0:0:
64,192,231726,1,0,0:0:0:0:
320,192,231811,1,0,0:0:0:0:
448,192,231897,1,0,0:0:0:0:
64,192,231897,1,0,0:0:0:0:
192,192,231983,1,0,0:0:0:0:
448,192,232068,1,0,0:0:0:0:
320,192,232068,1,0,0:0:0:0:
64,192,232154,1,0,0:0:0:0:
320,192,232240,1,0,0:0:0:0:
448,192,232240,1,0,0:0:0:0:
192,192,232240,1,0,0:0:0:0:
448,192,232411,1,0,0:0:0:0:
64,192,232411,1,0,0:0:0:0:
192,192,232411,1,0,0:0:0:0:
320,192,232497,1,0,0:0:0:0:
64,192,232583,1,0,0:0:0:0:
448,192,232583,1,0,0:0:0:0:
192,192,232668,1,0,0:0:0:0:
448,192,232754,1,0,0:0:0:0:
320,192,232754,1,0,0:0:0:0:
64,192,232754,1,0,0:0:0:0:
320,192,232926,1,0,0:0:0:0:
448,192,232926,1,0,0:0:0:0:
64,192,232926,1,0,0:0:0:0:
192,192,233011,1,0,0:0:0:0:
320,192,233097,1,0,0:0:0:0:
448,192,233097,1,0,0:0:0:0:
64,192,233183,1,0,0:0:0:0:
192,192,233268,1,0,0:0:0:0:
448,192,233268,1,0,0:0:0:0:
320,192,233268,1,0,0:0:0:0:
448,192,233440,1,0,0:0:0:0:
320,192,233440,1,0,0:0:0:0:
64,192,233440,1,0,0:0:0:0:
192,192,233526,1,0,0:0:0:0:
64,192,233611,1,0,0:0:0:0:
448,192,233611,1,0,0:0:0:0:
320,192,233611,1,0,0:0:0:0:
192,192,233783,1,0,0:0:0:0:
448,192,233783,1,0,0:0:0:0:
64,192,233783,1,0,0:0:0:0:
192,192,233954,1,0,0:0:0:0:
320,192,233954,1,0,0:0:0:0:
448,192,233954,1,0,0:0:0:0:
64,192,234040,1,0,0:0:0:0:
192,192,234126,1,0,0:0:0:0:
448,192,234126,1,0,0:0:0:0:
320,192,234126,1,0,0:0:0:0:
64,192,234297,1,0,0:0:0:0:
192,192,234297,1,0,0:0:0:0:
448,192,234297,1,0,0:0:0:0:
64,192,234468,1,0,0:0:0:0:
320,192,234468,1,0,0:0:0:0:
448,192,234468,1,0,0:0:0:0:
192,192,234554,1,0,0:0:0:0:
64,192,234640,1,0,0:0:0:0:
448,192,234640,1,0,0:0:0:0:
320,192,234726,1,0,0:0:0:0:
64,192,234811,1,0,0:0:0:0:
192,192,234811,1,0,0:0:0:0:
448,192,234897,1,0,0:0:0:0:
192,192,234983,1,0,0:0:0:0:
64,192,234983,1,0,0:0:0:0:
320,192,234983,1,0,0:0:0:0:
64,192,235154,1,0,0:0:0:0:
448,192,235154,1,0,0:0:0:0:
320,192,235154,1,0,0:0:0:0:
192,192,235240,1,0,0:0:0:0:
64,192,235326,1,0,0:0:0:0:
448,192,235326,1,0,0:0:0:0:
320,192,235411,1,0,0:0:0:0:
64,192,235497,1,0,0:0:0:0:
192,192,235497,1,0,0:0:0:0:
448,192,235497,1,0,0:0:0:0:
320,192,235668,1,0,0:0:0:0:
192,192,235668,1,0,0:0:0:0:
64,192,235668,1,0,0:0:0:0:
448,192,235754,1,0,0:0:0:0:
192,192,235840,1,0,0:0:0:0:
64,192,235840,1,0,0:0:0:0:
320,192,235926,1,0,0:0:0:0:
64,192,236011,1,0,0:0:0:0:
192,192,236011,1,0,0:0:0:0:
448,192,236097,1,0,0:0:0:0:
320,192,236097,1,0,0:0:0:0:
192,192,236183,1,0,0:0:0:0:
64,192,236183,1,0,0:0:0:0:
320,192,236268,1,0,0:0:0:0:
64,192,236354,1,0,0:0:0:0:
448,192,236354,1,0,0:0:0:0:
192,192,236440,1,0,0:0:0:0:
320,192,236440,1,0,0:0:0:0:
64,192,236526,1,0,0:0:0:0:
448,192,236526,1,0,0:0:0:0:
192,192,236611,1,0,0:0:0:0:
320,192,236697,1,0,0:0:0:0:
448,192,236697,1,0,0:0:0:0:
64,192,236783,1,0,0:0:0:0:
192,192,236783,1,0,0:0:0:0:
448,192,236868,1,0,0:0:0:0:
320,192,236868,1,0,0:0:0:0:
64,192,236954,1,0,0:0:0:0:
192,192,236954,1,0,0:0:0:0:
320,192,237040,1,0,0:0:0:0:
64,192,237126,1,0,0:0:0:0:
448,192,237211,1,0,0:0:0:0:
320,192,237211,1,0,0:0:0:0:
64,192,237297,1,0,0:0:0:0:
192,192,237297,1,0,0:0:0:0:
320,192,237383,1,0,0:0:0:0:
448,192,237383,1,0,0:0:0:0:
64,192,237468,1,0,0:0:0:0:
192,192,237468,1,0,0:0:0:0:
320,192,237554,1,0,0:0:0:0:
448,192,237554,1,0,0:0:0:0:
192,192,237640,1,0,0:0:0:0:
64,192,237726,1,0,0:0:0:0:
448,192,237726,1,0,0:0:0:0:
320,192,237811,1,0,0:0:0:0:
192,192,237811,1,0,0:0:0:0:
64,192,237897,1,0,0:0:0:0:
448,192,237897,1,0,0:0:0:0:
320,192,237983,1,0,0:0:0:0:
64,192,238068,1,0,0:0:0:0:
192,192,238068,1,0,0:0:0:0:
448,192,238154,1,0,0:0:0:0:
320,192,238154,1,0,0:0:0:0:
192,192,238240,1,0,0:0:0:0:
64,192,238240,1,0,0:0:0:0:
448,192,238326,1,0,0:0:0:0:
320,192,238326,1,0,0:0:0:0:
192,192,238411,1,0,0:0:0:0:
448,192,238497,1,0,0:0:0:0:
192,192,238583,1,0,0:0:0:0:
64,192,238583,1,0,0:0:0:0:
448,192,238668,1,0,0:0:0:0:
320,192,238668,1,0,0:0:0:0:
192,192,238754,1,0,0:0:0:0:
64,192,238754,1,0,0:0:0:0:
448,192,238797,1,0,0:0:0:0:
320,192,238840,1,0,0:0:0:0:
192,192,238883,1,0,0:0:0:0:
64,192,238926,1,0,0:0:0:0:
320,192,238968,1,0,0:0:0:0:
448,192,239011,1,0,0:0:0:0:
64,192,239054,1,0,0:0:0:0:
192,192,239097,1,0,0:0:0:0:
448,192,239140,1,0,0:0:0:0:
64,192,239183,1,0,0:0:0:0:
192,192,239226,1,0,0:0:0:0:
320,192,239268,1,0,0:0:0:0:
448,192,239311,1,0,0:0:0:0:
192,192,239354,1,0,0:0:0:0:
64,192,239397,1,0,0:0:0:0:
448,192,239440,1,0,0:0:0:0:
320,192,239483,1,0,0:0:0:0:
64,192,239526,1,0,0:0:0:0:
448,192,239568,1,0,0:0:0:0:
320,192,239611,1,0,0:0:0:0:
192,192,239654,1,0,0:0:0:0:
64,192,239697,1,0,0:0:0:0:
320,192,239740,1,0,0:0:0:0:
448,192,239783,1,0,0:0:0:0:
64,192,239826,1,0,0:0:0:0:
192,192,239868,1,0,0:0:0:0:
448,192,239911,1,0,0:0:0:0:
64,192,239954,1,0,0:0:0:0:
192,192,239997,1,0,0:0:0:0:
320,192,240040,1,0,0:0:0:0:
448,192,240083,1,0,0:0:0:0:
64,192,240126,1,0,0:0:0:0:
192,192,240126,1,0,0:0:0:0:
448,192,240240,1,0,0:0:0:0:
64,192,240297,1,0,0:0:0:0:
192,192,240354,1,0,0:0:0:0:
320,192,240411,1,0,0:0:0:0:
64,192,240468,1,0,0:0:0:0:
448,192,240468,1,0,0:0:0:0:
192,192,240583,1,0,0:0:0:0:
448,192,240640,1,0,0:0:0:0:
320,192,240640,1,0,0:0:0:0:
64,192,240754,1,0,0:0:0:0:
192,192,240811,1,0,0:0:0:0:
320,192,240811,1,0,0:0:0:0:
320,192,240926,1,0,0:0:0:0:
64,192,240983,1,0,0:0:0:0:
192,192,240983,1,0,0:0:0:0:
448,192,241097,1,0,0:0:0:0:
320,192,241154,1,0,0:0:0:0:
192,192,241154,128,0,241411:0:0:0:0:
64,192,241154,128,0,241411:0:0:0:0:
192,192,241497,1,0,0:0:0:0:
64,192,241497,1,0,0:0:0:0:
448,192,241554,1,0,0:0:0:0:
320,192,241611,1,0,0:0:0:0:
64,192,241668,1,0,0:0:0:0:
320,192,241726,1,0,0:0:0:0:
192,192,241783,1,0,0:0:0:0:
448,192,241840,1,0,0:0:0:0:
64,192,241840,1,0,0:0:0:0:
320,192,241897,1,0,0:0:0:0:
64,192,241954,1,0,0:0:0:0:
192,192,242011,1,0,0:0:0:0:
320,192,242068,1,0,0:0:0:0:
448,192,242126,1,0,0:0:0:0:
192,192,242183,1,0,0:0:0:0:
64,192,242183,1,0,0:0:0:0:
320,192,242268,1,0,0:0:0:0:
448,192,242354,1,0,0:0:0:0:
192,192,242411,1,0,0:0:0:0:
64,192,242468,1,0,0:0:0:0:
320,192,242526,1,0,0:0:0:0:
448,192,242526,1,0,0:0:0:0:
192,192,242583,1,0,0:0:0:0:
448,192,242640,1,0,0:0:0:0:
320,192,242697,1,0,0:0:0:0:
192,192,242754,1,0,0:0:0:0:
64,192,242811,1,0,0:0:0:0:
320,192,242868,1,0,0:0:0:0:
448,192,242868,1,0,0:0:0:0:
192,192,242954,1,0,0:0:0:0:
64,192,243040,1,0,0:0:0:0:
320,192,243097,1,0,0:0:0:0:
448,192,243154,1,0,0:0:0:0:
192,192,243211,1,0,0:0:0:0:
64,192,243211,1,0,0:0:0:0:
320,192,243268,1,0,0:0:0:0:
64,192,243326,1,0,0:0:0:0:
192,192,243383,1,0,0:0:0:0:
448,192,243440,1,0,0:0:0:0:
320,192,243497,1,0,0:0:0:0:
64,192,243554,1,0,0:0:0:0:
192,192,243554,1,0,0:0:0:0:
448,192,243611,1,0,0:0:0:0:
320,192,243668,1,0,0:0:0:0:
64,192,243726,1,0,0:0:0:0:
320,192,243783,1,0,0:0:0:0:
192,192,243840,1,0,0:0:0:0:
448,192,243897,1,0,0:0:0:0:
64,192,243897,1,0,0:0:0:0:
320,192,243954,1,0,0:0:0:0:
192,192,244011,1,0,0:0:0:0:
64,192,244068,1,0,0:0:0:0:
192,192,244154,1,0,0:0:0:0:
320,192,244240,1,0,0:0:0:0:
448,192,244240,1,0,0:0:0:0:
64,192,244297,1,0,0:0:0:0:
192,192,244354,1,0,0:0:0:0:
448,192,244411,1,0,0:0:0:0:
192,192,244468,1,0,0:0:0:0:
320,192,244526,1,0,0:0:0:0:
64,192,244583,1,0,0:0:0:0:
448,192,244583,1,0,0:0:0:0:
192,192,244640,1,0,0:0:0:0:
448,192,244697,1,0,0:0:0:0:
320,192,244754,1,0,0:0:0:0:
192,192,244811,1,0,0:0:0:0:
64,192,244868,1,0,0:0:0:0:
320,192,244926,1,0,0:0:0:0:
448,192,244926,1,0,0:0:0:0:
192,192,245011,1,0,0:0:0:0:
64,192,245097,1,0,0:0:0:0:
320,192,245154,1,0,0:0:0:0:
448,192,245211,1,0,0:0:0:0:
192,192,245268,1,0,0:0:0:0:
64,192,245268,1,0,0:0:0:0:
320,192,245326,1,0,0:0:0:0:
64,192,245383,1,0,0:0:0:0:
192,192,245440,1,0,0:0:0:0:
320,192,245497,1,0,0:0:0:0:
448,192,245554,1,0,0:0:0:0:
192,192,245611,1,0,0:0:0:0:
64,192,245611,1,0,0:0:0:0:
320,192,245697,1,0,0:0:0:0:
448,192,245783,1,0,0:0:0:0:
192,192,245840,1,0,0:0:0:0:
64,192,245897,1,0,0:0:0:0:
320,192,245954,1,0,0:0:0:0:
448,192,245954,1,0,0:0:0:0:
192,192,246011,1,0,0:0:0:0:
448,192,246068,1,0,0:0:0:0:
320,192,246126,1,0,0:0:0:0:
64,192,246183,1,0,0:0:0:0:
192,192,246240,1,0,0:0:0:0:
320,192,246297,1,0,0:0:0:0:
448,192,246297,1,0,0:0:0:0:
64,192,246354,1,0,0:0:0:0:
192,192,246411,1,0,0:0:0:0:
448,192,246468,1,0,0:0:0:0:
192,192,246526,1,0,0:0:0:0:
320,192,246583,1,0,0:0:0:0:
64,192,246640,1,0,0:0:0:0:
448,192,246640,1,0,0:0:0:0:
192,192,246697,1,0,0:0:0:0:
320,192,246754,1,0,0:0:0:0:
64,192,246811,1,0,0:0:0:0:
320,192,246868,1,0,0:0:0:0:
448,192,246926,1,0,0:0:0:0:
192,192,246983,1,0,0:0:0:0:
64,192,246983,1,0,0:0:0:0:
320,192,247040,1,0,0:0:0:0:
448,192,247097,1,0,0:0:0:0:
192,192,247154,1,0,0:0:0:0:
320,192,247240,1,0,0:0:0:0:
64,192,247326,1,0,0:0:0:0:
448,192,247326,1,0,0:0:0:0:
192,192,247383,1,0,0:0:0:0:
320,192,247440,1,0,0:0:0:0:
448,192,247497,1,0,0:0:0:0:
320,192,247583,1,0,0:0:0:0:
448,192,247668,1,0,0:0:0:0:
64,192,247668,1,0,0:0:0:0:
192,192,247726,1,0,0:0:0:0:
320,192,247783,1,0,0:0:0:0:
64,192,247840,1,0,0:0:0:0:
320,192,247897,1,0,0:0:0:0:
192,192,247954,1,0,0:0:0:0:
448,192,248011,1,0,0:0:0:0:
64,192,248011,1,0,0:0:0:0:
320,192,248097,1,0,0:0:0:0:
448,192,248183,1,0,0:0:0:0:
192,192,248240,1,0,0:0:0:0:
64,192,248297,1,0,0:0:0:0:
320,192,248354,1,0,0:0:0:0:
448,192,248354,1,0,0:0:0:0:
192,192,248411,1,0,0:0:0:0:
64,192,248468,1,0,0:0:0:0:
320,192,248526,1,0,0:0:0:0:
192,192,248611,1,0,0:0:0:0:
448,192,248697,1,0,0:0:0:0:
64,192,248697,1,0,0:0:0:0:
320,192,248754,1,0,0:0:0:0:
192,192,248811,1,0,0:0:0:0:
64,192,248868,1,0,0:0:0:0:
192,192,248954,1,0,0:0:0:0:
64,192,249040,1,0,0:0:0:0:
448,192,249040,1,0,0:0:0:0:
320,192,249097,1,0,0:0:0:0:
192,192,249154,1,0,0:0:0:0:
448,192,249211,1,0,0:0:0:0:
192,192,249268,1,0,0:0:0:0:
320,192,249326,1,0,0:0:0:0:
448,192,249383,1,0,0:0:0:0:
64,192,249383,1,0,0:0:0:0:
192,192,249468,1,0,0:0:0:0:
64,192,249554,1,0,0:0:0:0:
320,192,249611,1,0,0:0:0:0:
448,192,249668,1,0,0:0:0:0:
192,192,249726,1,0,0:0:0:0:
64,192,249726,1,0,0:0:0:0:
320,192,249783,1,0,0:0:0:0:
448,192,249840,1,0,0:0:0:0:
192,192,249897,1,0,0:0:0:0:
320,192,249983,1,0,0:0:0:0:
64,192,250068,1,0,0:0:0:0:
448,192,250068,1,0,0:0:0:0:
192,192,250126,1,0,0:0:0:0:
320,192,250183,1,0,0:0:0:0:
448,192,250240,1,0,0:0:0:0:
320,192,250326,1,0,0:0:0:0:
448,192,250411,1,0,0:0:0:0:
64,192,250411,1,0,0:0:0:0:
192,192,250468,1,0,0:0:0:0:
320,192,250526,1,0,0:0:0:0:
64,192,250583,1,0,0:0:0:0:
320,192,250640,1,0,0:0:0:0:
192,192,250697,1,0,0:0:0:0:
64,192,250754,1,0,0:0:0:0:
448,192,250754,1,0,0:0:0:0:
320,192,250840,1,0,0:0:0:0:
448,192,250926,1,0,0:0:0:0:
192,192,250983,1,0,0:0:0:0:
64,192,251040,1,0,0:0:0:0:
320,192,251097,1,0,0:0:0:0:
448,192,251097,1,0,0:0:0:0:
192,192,251154,1,0,0:0:0:0:
64,192,251211,1,0,0:0:0:0:
320,192,251268,1,0,0:0:0:0:
192,192,251354,1,0,0:0:0:0:
64,192,251440,1,0,0:0:0:0:
448,192,251440,1,0,0:0:0:0:
320,192,251497,1,0,0:0:0:0:
192,192,251554,1,0,0:0:0:0:
64,192,251611,1,0,0:0:0:0:
192,192,251697,1,0,0:0:0:0:
64,192,251783,1,0,0:0:0:0:
448,192,251783,1,0,0:0:0:0:
320,192,251868,1,0,0:0:0:0:
448,192,251954,1,0,0:0:0:0:
64,192,251954,1,0,0:0:0:0:
192,192,252040,1,0,0:0:0:0:
320,192,252126,1,0,0:0:0:0:
448,192,252126,1,0,0:0:0:0:
448,192,252211,1,0,0:0:0:0:
320,192,252211,1,0,0:0:0:0:
192,192,252297,1,0,0:0:0:0:
64,192,252297,1,0,0:0:0:0:
64,192,252383,1,0,0:0:0:0:
192,192,252383,1,0,0:0:0:0:
320,192,252468,1,0,0:0:0:0:
448,192,252468,1,0,0:0:0:0:
64,192,252526,1,0,0:0:0:0:
192,192,252583,1,0,0:0:0:0:
448,192,252640,1,0,0:0:0:0:
192,192,252697,1,0,0:0:0:0:
320,192,252754,1,0,0:0:0:0:
64,192,252811,1,0,0:0:0:0:
448,192,252811,1,0,0:0:0:0:
192,192,252868,1,0,0:0:0:0:
448,192,252926,1,0,0:0:0:0:
320,192,252983,1,0,0:0:0:0:
192,192,253040,1,0,0:0:0:0:
64,192,253097,1,0,0:0:0:0:
320,192,253154,1,0,0:0:0:0:
448,192,253154,1,0,0:0:0:0:
192,192,253240,1,0,0:0:0:0:
64,192,253326,1,0,0:0:0:0:
320,192,253383,1,0,0:0:0:0:
448,192,253440,1,0,0:0:0:0:
192,192,253497,1,0,0:0:0:0:
64,192,253497,1,0,0:0:0:0:
320,192,253554,1,0,0:0:0:0:
64,192,253611,1,0,0:0:0:0:
192,192,253668,1,0,0:0:0:0:
320,192,253726,1,0,0:0:0:0:
448,192,253783,1,0,0:0:0:0:
192,192,253840,1,0,0:0:0:0:
64,192,253840,1,0,0:0:0:0:
320,192,253926,1,0,0:0:0:0:
448,192,254011,1,0,0:0:0:0:
192,192,254068,1,0,0:0:0:0:
64,192,254126,1,0,0:0:0:0:
320,192,254183,1,0,0:0:0:0:
448,192,254183,1,0,0:0:0:0:
192,192,254240,1,0,0:0:0:0:
448,192,254297,1,0,0:0:0:0:
320,192,254354,1,0,0:0:0:0:
64,192,254411,1,0,0:0:0:0:
192,192,254468,1,0,0:0:0:0:
448,192,254526,1,0,0:0:0:0:
320,192,254526,1,0,0:0:0:0:
64,192,254583,1,0,0:0:0:0:
192,192,254640,1,0,0:0:0:0:
448,192,254697,1,0,0:0:0:0:
192,192,254754,1,0,0:0:0:0:
320,192,254811,1,0,0:0:0:0:
64,192,254868,1,0,0:0:0:0:
448,192,254868,1,0,0:0:0:0:
192,192,254926,1,0,0:0:0:0:
320,192,254983,1,0,0:0:0:0:
448,192,255040,1,0,0:0:0:0:
320,192,255126,1,0,0:0:0:0:
192,192,255211,1,0,0:0:0:0:
64,192,255211,1,0,0:0:0:0:
448,192,255268,1,0,0:0:0:0:
320,192,255326,1,0,0:0:0:0:
64,192,255383,1,0,0:0:0:0:
320,192,255440,1,0,0:0:0:0:
192,192,255497,1,0,0:0:0:0:
448,192,255554,1,0,0:0:0:0:
64,192,255554,1,0,0:0:0:0:
320,192,255611,1,0,0:0:0:0:
64,192,255668,1,0,0:0:0:0:
192,192,255726,1,0,0:0:0:0:
320,192,255783,1,0,0:0:0:0:
448,192,255840,1,0,0:0:0:0:
192,192,255897,1,0,0:0:0:0:
64,192,255897,1,0,0:0:0:0:
320,192,255983,1,0,0:0:0:0:
448,192,256068,1,0,0:0:0:0:
192,192,256126,1,0,0:0:0:0:
64,192,256183,1,0,0:0:0:0:
320,192,256240,1,0,0:0:0:0:
448,192,256240,1,0,0:0:0:0:
192,192,256297,1,0,0:0:0:0:
448,192,256354,1,0,0:0:0:0:
320,192,256411,1,0,0:0:0:0:
192,192,256468,5,0,0:0:0:0:
64,192,256526,1,0,0:0:0:0:
320,192,256583,1,0,0:0:0:0:
448,192,256583,1,0,0:0:0:0:
192,192,256668,1,0,0:0:0:0:
64,192,256754,1,0,0:0:0:0:
320,192,256811,1,0,0:0:0:0:
448,192,256868,1,0,0:0:0:0:
192,192,256926,1,0,0:0:0:0:
64,192,256926,1,0,0:0:0:0:
320,192,256983,1,0,0:0:0:0:
64,192,257040,1,0,0:0:0:0:
192,192,257097,1,0,0:0:0:0:
448,192,257154,1,0,0:0:0:0:
320,192,257211,1,0,0:0:0:0:
192,192,257268,1,0,0:0:0:0:
64,192,257268,1,0,0:0:0:0:
448,192,257326,1,0,0:0:0:0:
320,192,257383,1,0,0:0:0:0:
192,192,257440,1,0,0:0:0:0:
64,192,257440,1,0,0:0:0:0:
320,192,257497,1,0,0:0:0:0:
448,192,257554,1,0,0:0:0:0:
64,192,257611,5,0,0:0:0:0:
192,192,257611,1,0,0:0:0:0:
64,192,257697,1,0,0:0:0:0:
192,192,257697,1,0,0:0:0:0:
448,192,257783,1,0,0:0:0:0:
320,192,257783,1,0,0:0:0:0:
448,192,257868,1,0,0:0:0:0:
320,192,257868,1,0,0:0:0:0:
64,192,257954,1,0,0:0:0:0:
192,192,257954,1,0,0:0:0:0:
448,192,258011,1,0,0:0:0:0:
320,192,258068,1,0,0:0:0:0:
192,192,258126,1,0,0:0:0:0:
64,192,258126,1,0,0:0:0:0:
448,192,258211,1,0,0:0:0:0:
64,192,258297,1,0,0:0:0:0:
192,192,258297,1,0,0:0:0:0:
320,192,258354,1,0,0:0:0:0:
448,192,258411,1,0,0:0:0:0:
192,192,258468,1,0,0:0:0:0:
64,192,258468,1,0,0:0:0:0:
320,192,258554,1,0,0:0:0:0:
64,192,258640,1,0,0:0:0:0:
448,192,258640,1,0,0:0:0:0:
192,192,258697,1,0,0:0:0:0:
320,192,258754,1,0,0:0:0:0:
448,192,258811,1,0,0:0:0:0:
64,192,258811,1,0,0:0:0:0:
192,192,258868,1,0,0:0:0:0:
320,192,258926,1,0,0:0:0:0:
448,192,258983,1,0,0:0:0:0:
64,192,258983,1,0,0:0:0:0:
192,192,259068,1,0,0:0:0:0:
448,192,259154,1,0,0:0:0:0:
320,192,259154,1,0,0:0:0:0:
64,192,259211,1,0,0:0:0:0:
192,192,259268,1,0,0:0:0:0:
448,192,259326,1,0,0:0:0:0:
320,192,259326,1,0,0:0:0:0:
64,192,259383,1,0,0:0:0:0:
192,192,259440,1,0,0:0:0:0:
320,192,259497,1,0,0:0:0:0:
448,192,259497,1,0,0:0:0:0:
64,192,259583,1,0,0:0:0:0:
448,192,259668,1,0,0:0:0:0:
320,192,259668,1,0,0:0:0:0:
192,192,259726,1,0,0:0:0:0:
64,192,259783,1,0,0:0:0:0:
448,192,259840,1,0,0:0:0:0:
320,192,259840,1,0,0:0:0:0:
192,192,259926,1,0,0:0:0:0:
448,192,260011,1,0,0:0:0:0:
64,192,260011,1,0,0:0:0:0:
320,192,260068,1,0,0:0:0:0:
192,192,260126,1,0,0:0:0:0:
448,192,260183,1,0,0:0:0:0:
64,192,260183,1,0,0:0:0:0:
320,192,260240,1,0,0:0:0:0:
192,192,260297,1,0,0:0:0:0:
448,192,260354,1,0,0:0:0:0:
64,192,260354,1,0,0:0:0:0:
320,192,260440,1,0,0:0:0:0:
64,192,260526,1,0,0:0:0:0:
192,192,260526,1,0,0:0:0:0:
448,192,260583,1,0,0:0:0:0:
320,192,260640,1,0,0:0:0:0:
64,192,260697,1,0,0:0:0:0:
192,192,260697,1,0,0:0:0:0:
448,192,260783,1,0,0:0:0:0:
320,192,260783,1,0,0:0:0:0:
192,192,260868,1,0,0:0:0:0:
64,192,260868,1,0,0:0:0:0:
320,192,260954,1,0,0:0:0:0:
448,192,261040,1,0,0:0:0:0:
64,192,261040,1,0,0:0:0:0:
320,192,261126,1,0,0:0:0:0:
192,192,261126,1,0,0:0:0:0:
448,192,261211,1,0,0:0:0:0:
64,192,261211,1,0,0:0:0:0:
192,192,261297,1,0,0:0:0:0:
448,192,261383,1,0,0:0:0:0:
320,192,261383,1,0,0:0:0:0:
64,192,261468,1,0,0:0:0:0:
192,192,261468,1,0,0:0:0:0:
320,192,261554,1,0,0:0:0:0:
448,192,261554,1,0,0:0:0:0:
64,192,261640,1,0,0:0:0:0:
192,192,261640,1,0,0:0:0:0:
320,192,261726,1,0,0:0:0:0:
64,192,261811,1,0,0:0:0:0:
320,192,261897,1,0,0:0:0:0:
448,192,261897,1,0,0:0:0:0:
64,192,261983,128,0,262326:0:0:0:0:
192,192,261983,1,0,0:0:0:0:
64,192,262411,128,0,262668:0:0:0:0:
64,192,262754,128,0,263354:0:0:0:0:
448,192,262926,128,0,263354:0:0:0:0:
192,192,263097,128,0,263354:0:0:0:0:
192,192,263440,128,0,263526:0:0:0:0:
448,192,263440,1,0,0:0:0:0:
64,192,263440,128,0,263697:0:0:0:0:
320,192,263526,128,0,263611:0:0:0:0:
448,192,263611,128,0,263697:0:0:0:0:
192,192,263611,128,0,263868:0:0:0:0:
64,192,263783,128,0,263868:0:0:0:0:
320,192,263783,128,0,264040:0:0:0:0:
448,192,263783,1,0,0:0:0:0:
64,192,263954,128,0,264040:0:0:0:0:
192,192,263954,128,0,264040:0:0:0:0:
448,192,264040,128,0,264126:0:0:0:0:
320,192,264126,128,0,264211:0:0:0:0:
64,192,264126,1,0,0:0:0:0:
192,192,264126,128,0,264383:0:0:0:0:
320,192,264297,128,0,264383:0:0:0:0:
448,192,264297,128,0,264383:0:0:0:0:
64,192,264383,128,0,264468:0:0:0:0:
192,192,264468,1,0,0:0:0:0:
448,192,264468,128,0,264554:0:0:0:0:
320,192,264468,128,0,264726:0:0:0:0:
192,192,264640,128,0,264726:0:0:0:0:
64,192,264640,128,0,264726:0:0:0:0:
448,192,264726,128,0,264811:0:0:0:0:
320,192,264811,1,0,0:0:0:0:
192,192,264811,128,0,264897:0:0:0:0:
64,192,264811,128,0,265068:0:0:0:0:
448,192,264897,128,0,264983:0:0:0:0:
192,192,264983,128,0,265240:0:0:0:0:
320,192,264983,128,0,265068:0:0:0:0:
448,192,265154,1,0,0:0:0:0:
64,192,265154,128,0,265240:0:0:0:0:
320,192,265154,128,0,265411:0:0:0:0:
192,192,265326,128,0,265411:0:0:0:0:
64,192,265326,128,0,265411:0:0:0:0:
448,192,265411,128,0,265497:0:0:0:0:
320,192,265497,128,0,265583:0:0:0:0:
64,192,265497,1,0,0:0:0:0:
192,192,265497,128,0,265754:0:0:0:0:
448,192,265668,128,0,265754:0:0:0:0:
320,192,265668,128,0,265754:0:0:0:0:
64,192,265754,128,0,265840:0:0:0:0:
320,192,265840,128,0,266097:0:0:0:0:
192,192,265840,1,0,0:0:0:0:
448,192,265840,128,0,266097:0:0:0:0:
192,192,266011,128,0,266097:0:0:0:0:
64,192,266011,128,0,266097:0:0:0:0:
320,192,266183,128,0,266268:0:0:0:0:
64,192,266183,1,0,0:0:0:0:
448,192,266183,128,0,266440:0:0:0:0:
192,192,266268,128,0,266354:0:0:0:0:
64,192,266354,128,0,266440:0:0:0:0:
320,192,266354,128,0,266611:0:0:0:0:
448,192,266526,128,0,266611:0:0:0:0:
192,192,266526,128,0,266783:0:0:0:0:
64,192,266526,1,0,0:0:0:0:
448,192,266697,128,0,266783:0:0:0:0:
320,192,266697,128,0,266783:0:0:0:0:
64,192,266783,128,0,266868:0:0:0:0:
192,192,266868,128,0,266954:0:0:0:0:
448,192,266868,1,0,0:0:0:0:
320,192,266868,128,0,267126:0:0:0:0:
192,192,267040,128,0,267126:0:0:0:0:
64,192,267040,128,0,267126:0:0:0:0:
448,192,267126,128,0,267211:0:0:0:0:
320,192,267211,1,0,0:0:0:0:
64,192,267211,128,0,267297:0:0:0:0:
192,192,267211,128,0,267468:0:0:0:0:
320,192,267383,128,0,267468:0:0:0:0:
448,192,267383,128,0,267468:0:0:0:0:
64,192,267468,128,0,267554:0:0:0:0:
192,192,267554,1,0,0:0:0:0:
320,192,267554,128,0,267640:0:0:0:0:
448,192,267554,128,0,267811:0:0:0:0:
64,192,267640,128,0,267726:0:0:0:0:
320,192,267726,128,0,267983:0:0:0:0:
192,192,267726,128,0,267811:0:0:0:0:
64,192,267897,1,0,0:0:0:0:
448,192,267897,128,0,267983:0:0:0:0:
192,192,267897,128,0,268154:0:0:0:0:
320,192,268068,128,0,268154:0:0:0:0:
448,192,268068,128,0,268154:0:0:0:0:
64,192,268154,128,0,268240:0:0:0:0:
192,192,268240,128,0,268326:0:0:0:0:
448,192,268240,1,0,0:0:0:0:
320,192,268240,128,0,268497:0:0:0:0:
192,192,268411,128,0,268497:0:0:0:0:
448,192,268411,128,0,268497:0:0:0:0:
64,192,268497,128,0,268583:0:0:0:0:
192,192,268583,1,0,0:0:0:0:
448,192,268583,128,0,268668:0:0:0:0:
320,192,268583,128,0,268668:0:0:0:0:
64,192,268668,128,0,268754:0:0:0:0:
320,192,268754,128,0,268840:0:0:0:0:
192,192,268754,128,0,268840:0:0:0:0:
448,192,268840,128,0,268926:0:0:0:0:
320,192,268926,1,0,0:0:0:0:
64,192,268926,128,0,269011:0:0:0:0:
192,192,268926,128,0,269183:0:0:0:0:
448,192,269011,128,0,269097:0:0:0:0:
320,192,269097,128,0,269183:0:0:0:0:
64,192,269097,128,0,269354:0:0:0:0:
192,192,269268,128,0,269354:0:0:0:0:
320,192,269268,1,0,0:0:0:0:
448,192,269268,128,0,269526:0:0:0:0:
192,192,269440,128,0,269526:0:0:0:0:
64,192,269440,128,0,269526:0:0:0:0:
320,192,269526,128,0,269611:0:0:0:0:
192,192,269611,1,0,0:0:0:0:
448,192,269611,128,0,269697:0:0:0:0:
64,192,269611,128,0,269868:0:0:0:0:
320,192,269783,128,0,269868:0:0:0:0:
448,192,269783,128,0,269868:0:0:0:0:
192,192,269868,128,0,269954:0:0:0:0:
320,192,269954,128,0,270040:0:0:0:0:
64,192,269954,1,0,0:0:0:0:
448,192,269954,128,0,270211:0:0:0:0:
192,192,270126,128,0,270211:0:0:0:0:
64,192,270126,128,0,270211:0:0:0:0:
320,192,270211,128,0,270297:0:0:0:0:
192,192,270297,128,0,270554:0:0:0:0:
448,192,270297,1,0,0:0:0:0:
64,192,270297,128,0,270383:0:0:0:0:
320,192,270383,128,0,270468:0:0:0:0:
64,192,270468,128,0,270726:0:0:0:0:
448,192,270468,128,0,270554:0:0:0:0:
192,192,270640,128,0,270726:0:0:0:0:
320,192,270640,1,0,0:0:0:0:
448,192,270640,128,0,270897:0:0:0:0:
192,192,270811,128,0,270897:0:0:0:0:
64,192,270811,128,0,270897:0:0:0:0:
320,192,270897,128,0,270983:0:0:0:0:
192,192,270983,1,0,0:0:0:0:
448,192,270983,128,0,271068:0:0:0:0:
64,192,270983,128,0,271240:0:0:0:0:
320,192,271154,128,0,271240:0:0:0:0:
448,192,271154,128,0,271240:0:0:0:0:
192,192,271240,128,0,271326:0:0:0:0:
320,192,271326,128,0,271583:0:0:0:0:
448,192,271326,128,0,271583:0:0:0:0:
64,192,271326,1,0,0:0:0:0:
192,192,271497,128,0,271583:0:0:0:0:
64,192,271497,128,0,271583:0:0:0:0:
448,192,271668,128,0,271754:0:0:0:0:
192,192,271668,1,0,0:0:0:0:
320,192,271668,128,0,271926:0:0:0:0:
64,192,271754,128,0,271840:0:0:0:0:
192,192,271840,128,0,271926:0:0:0:0:
448,192,271840,128,0,272097:0:0:0:0:
320,192,272011,128,0,272097:0:0:0:0:
192,192,272011,1,0,0:0:0:0:
64,192,272011,128,0,272268:0:0:0:0:
320,192,272183,128,0,272268:0:0:0:0:
448,192,272183,128,0,272268:0:0:0:0:
192,192,272268,128,0,272354:0:0:0:0:
320,192,272354,1,0,0:0:0:0:
64,192,272354,128,0,272440:0:0:0:0:
448,192,272354,128,0,272611:0:0:0:0:
192,192,272526,128,0,272611:0:0:0:0:
64,192,272526,128,0,272611:0:0:0:0:
320,192,272611,128,0,272697:0:0:0:0:
192,192,272697,128,0,272783:0:0:0:0:
448,192,272697,1,0,0:0:0:0:
64,192,272697,128,0,272954:0:0:0:0:
320,192,272868,128,0,272954:0:0:0:0:
448,192,272868,128,0,272954:0:0:0:0:
192,192,272954,128,0,273040:0:0:0:0:
320,192,273040,128,0,273297:0:0:0:0:
64,192,273040,1,0,0:0:0:0:
448,192,273040,128,0,273126:0:0:0:0:
192,192,273126,128,0,273211:0:0:0:0:
448,192,273211,128,0,273468:0:0:0:0:
64,192,273211,128,0,273297:0:0:0:0:
320,192,273383,128,0,273468:0:0:0:0:
192,192,273383,1,0,0:0:0:0:
64,192,273383,128,0,273640:0:0:0:0:
448,192,273554,128,0,273640:0:0:0:0:
192,192,273554,128,0,273640:0:0:0:0:
320,192,273640,128,0,273726:0:0:0:0:
192,192,273726,128,0,273811:0:0:0:0:
448,192,273726,1,0,0:0:0:0:
64,192,273726,128,0,273811:0:0:0:0:
320,192,273811,128,0,273897:0:0:0:0:
448,192,273897,128,0,273983:0:0:0:0:
64,192,273897,128,0,273983:0:0:0:0:
192,192,273983,128,0,274068:0:0:0:0:
448,192,274068,1,0,0:0:0:0:
320,192,274068,1,0,0:0:0:0:
64,192,274068,1,0,0:0:0:0:
448,192,274154,1,0,0:0:0:0:
320,192,274154,1,0,0:0:0:0:
64,192,274240,1,0,0:0:0:0:
192,192,274240,1,0,0:0:0:0:
64,192,274326,1,0,0:0:0:0:
192,192,274326,1,0,0:0:0:0:
320,192,274411,128,0,274497:0:0:0:0:
448,192,274411,128,0,274668:0:0:0:0:
192,192,274497,128,0,274583:0:0:0:0:
64,192,274583,128,0,274668:0:0:0:0:
320,192,274583,128,0,274840:0:0:0:0:
448,192,274754,128,0,274840:0:0:0:0:
192,192,274754,128,0,275011:0:0:0:0:
64,192,274754,1,0,0:0:0:0:
448,192,274926,128,0,275011:0:0:0:0:
320,192,274926,128,0,275011:0:0:0:0:
64,192,275011,128,0,275097:0:0:0:0:
192,192,275097,128,0,275183:0:0:0:0:
448,192,275097,1,0,0:0:0:0:
320,192,275097,128,0,275354:0:0:0:0:
192,192,275268,128,0,275354:0:0:0:0:
64,192,275268,128,0,275354:0:0:0:0:
448,192,275354,128,0,275440:0:0:0:0:
320,192,275440,1,0,0:0:0:0:
64,192,275440,128,0,275526:0:0:0:0:
192,192,275440,128,0,275697:0:0:0:0:
320,192,275611,128,0,275697:0:0:0:0:
448,192,275611,128,0,275697:0:0:0:0:
64,192,275697,128,0,275783:0:0:0:0:
192,192,275783,1,0,0:0:0:0:
320,192,275783,128,0,275868:0:0:0:0:
448,192,275783,128,0,276040:0:0:0:0:
64,192,275868,128,0,275954:0:0:0:0:
320,192,275954,128,0,276211:0:0:0:0:
192,192,275954,128,0,276040:0:0:0:0:
64,192,276126,1,0,0:0:0:0:
448,192,276126,128,0,276211:0:0:0:0:
192,192,276126,128,0,276383:0:0:0:0:
320,192,276297,128,0,276383:0:0:0:0:
448,192,276297,128,0,276383:0:0:0:0:
64,192,276383,128,0,276468:0:0:0:0:
192,192,276468,128,0,276554:0:0:0:0:
448,192,276468,1,0,0:0:0:0:
320,192,276468,128,0,276726:0:0:0:0:
64,192,276640,128,0,276726:0:0:0:0:
192,192,276640,128,0,276726:0:0:0:0:
448,192,276726,128,0,276811:0:0:0:0:
192,192,276811,128,0,277068:0:0:0:0:
320,192,276811,1,0,0:0:0:0:
64,192,276811,128,0,277068:0:0:0:0:
320,192,276983,128,0,277068:0:0:0:0:
448,192,276983,128,0,277068:0:0:0:0:
192,192,277154,128,0,277240:0:0:0:0:
448,192,277154,1,0,0:0:0:0:
64,192,277154,128,0,277411:0:0:0:0:
320,192,277240,128,0,277326:0:0:0:0:
448,192,277326,128,0,277411:0:0:0:0:
192,192,277326,128,0,277583:0:0:0:0:
64,192,277497,128,0,277583:0:0:0:0:
320,192,277497,128,0,277754:0:0:0:0:
448,192,277497,1,0,0:0:0:0:
64,192,277668,128,0,277754:0:0:0:0:
192,192,277668,128,0,277754:0:0:0:0:
448,192,277754,128,0,277840:0:0:0:0:
320,192,277840,128,0,277926:0:0:0:0:
64,192,277840,1,0,0:0:0:0:
192,192,277840,128,0,278097:0:0:0:0:
320,192,278011,128,0,278097:0:0:0:0:
448,192,278011,128,0,278097:0:0:0:0:
64,192,278097,128,0,278183:0:0:0:0:
192,192,278183,1,0,0:0:0:0:
448,192,278183,128,0,278268:0:0:0:0:
320,192,278183,128,0,278440:0:0:0:0:
192,192,278354,128,0,278440:0:0:0:0:
64,192,278354,128,0,278440:0:0:0:0:
448,192,278440,128,0,278526:0:0:0:0:
320,192,278526,1,0,0:0:0:0:
192,192,278526,128,0,278611:0:0:0:0:
64,192,278526,128,0,278783:0:0:0:0:
448,192,278611,128,0,278697:0:0:0:0:
192,192,278697,128,0,278954:0:0:0:0:
320,192,278697,128,0,278783:0:0:0:0:
448,192,278868,128,0,278954:0:0:0:0:
64,192,278868,1,0,0:0:0:0:
320,192,278868,128,0,279126:0:0:0:0:
448,192,279040,128,0,279126:0:0:0:0:
64,192,279040,128,0,279126:0:0:0:0:
192,192,279126,128,0,279211:0:0:0:0:
64,192,279211,128,0,279297:0:0:0:0:
320,192,279211,1,0,0:0:0:0:
448,192,279211,128,0,279468:0:0:0:0:
192,192,279383,128,0,279468:0:0:0:0:
64,192,279383,128,0,279468:0:0:0:0:
320,192,279468,128,0,279554:0:0:0:0:
192,192,279554,1,0,0:0:0:0:
64,192,279554,1,0,0:0:0:0:
448,192,279554,1,0,0:0:0:0:
64,192,279640,1,0,0:0:0:0:
192,192,279640,1,0,0:0:0:0:
448,192,279726,1,0,0:0:0:0:
320,192,279726,1,0,0:0:0:0:
448,192,279811,1,0,0:0:0:0:
320,192,279811,1,0,0:0:0:0:
192,192,279897,128,0,279983:0:0:0:0:
64,192,279897,128,0,279983:0:0:0:0:
320,192,279983,128,0,280068:0:0:0:0:
448,192,280068,128,0,280326:0:0:0:0:
64,192,280068,1,0,0:0:0:0:
192,192,280068,1,0,0:0:0:0:
192,192,280240,128,0,280497:0:0:0:0:
64,192,280240,1,0,0:0:0:0:
320,192,280240,1,0,0:0:0:0:
320,192,280411,128,0,280668:0:0:0:0:
448,192,280411,1,0,0:0:0:0:
64,192,280411,1,0,0:0:0:0:
448,192,280583,1,0,0:0:0:0:
192,192,280583,1,0,0:0:0:0:
64,192,280583,128,0,280840:0:0:0:0:
448,192,280754,1,0,0:0:0:0:
320,192,280754,1,0,0:0:0:0:
192,192,280754,128,0,281011:0:0:0:0:
448,192,280926,1,0,0:0:0:0:
64,192,280926,1,0,0:0:0:0:
320,192,280926,128,0,281183:0:0:0:0:
64,192,281097,1,0,0:0:0:0:
192,192,281097,1,0,0:0:0:0:
448,192,281097,128,0,281354:0:0:0:0:
320,192,281268,128,0,281354:0:0:0:0:
192,192,281268,128,0,281354:0:0:0:0:
64,192,281268,128,0,281526:0:0:0:0:
448,192,281440,1,0,0:0:0:0:
192,192,281440,1,0,0:0:0:0:
320,192,281440,128,0,281697:0:0:0:0:
448,192,281611,1,0,0:0:0:0:
64,192,281611,1,0,0:0:0:0:
192,192,281611,128,0,281868:0:0:0:0:
448,192,281783,128,0,282040:0:0:0:0:
320,192,281783,1,0,0:0:0:0:
64,192,281783,1,0,0:0:0:0:
320,192,281954,128,0,282211:0:0:0:0:
192,192,281954,128,0,282040:0:0:0:0:
64,192,281954,128,0,282040:0:0:0:0:
448,192,282126,1,0,0:0:0:0:
64,192,282126,1,0,0:0:0:0:
192,192,282126,128,0,282383:0:0:0:0:
448,192,282297,1,0,0:0:0:0:
320,192,282297,1,0,0:0:0:0:
64,192,282297,128,0,282554:0:0:0:0:
448,192,282468,128,0,282640:0:0:0:0:
320,192,282468,1,0,0:0:0:0:
192,192,282468,1,0,0:0:0:0:
64,192,282640,1,0,0:0:0:0:
192,192,282640,1,0,0:0:0:0:
320,192,282640,1,0,0:0:0:0:
448,192,282726,1,0,0:0:0:0:
64,192,282811,1,0,0:0:0:0:
192,192,282811,1,0,0:0:0:0:
320,192,282897,1,0,0:0:0:0:
448,192,282983,1,0,0:0:0:0:
64,192,282983,1,0,0:0:0:0:
192,192,282983,1,0,0:0:0:0:
320,192,283068,1,0,0:0:0:0:
448,192,283154,1,0,0:0:0:0:
64,192,283154,1,0,0:0:0:0:
192,192,283240,1,0,0:0:0:0:
448,192,283326,1,0,0:0:0:0:
320,192,283326,1,0,0:0:0:0:
64,192,283326,1,0,0:0:0:0:
192,192,283411,1,0,0:0:0:0:
448,192,283497,1,0,0:0:0:0:
320,192,283497,1,0,0:0:0:0:
64,192,283583,1,0,0:0:0:0:
448,192,283668,1,0,0:0:0:0:
320,192,283668,1,0,0:0:0:0:
192,192,283668,1,0,0:0:0:0:
64,192,283754,1,0,0:0:0:0:
320,192,283840,1,0,0:0:0:0:
192,192,283840,1,0,0:0:0:0:
448,192,283926,1,0,0:0:0:0:
192,192,284011,128,0,284097:0:0:0:0:
64,192,284011,128,0,284097:0:0:0:0:
192,192,284183,128,0,284268:0:0:0:0:
64,192,284183,128,0,284268:0:0:0:0:
64,192,284354,128,0,284440:0:0:0:0:
192,192,284354,128,0,284440:0:0:0:0:
192,192,284526,128,0,284611:0:0:0:0:
64,192,284526,128,0,284611:0:0:0:0:
448,192,284611,128,0,284697:0:0:0:0:
320,192,284611,128,0,284697:0:0:0:0:
192,192,284697,128,0,284783:0:0:0:0:
64,192,284697,128,0,284954:0:0:0:0:
320,192,284868,128,0,284954:0:0:0:0:
192,192,284868,128,0,285126:0:0:0:0:
448,192,285040,128,0,285297:0:0:0:0:
320,192,285040,128,0,285297:0:0:0:0:
64,192,285040,128,0,285126:0:0:0:0:
448,192,285383,5,0,0:0:0:0:
320,192,285383,1,0,0:0:0:0:
64,192,285383,1,0,0:0:0:0:
192,192,285468,1,0,0:0:0:0:
320,192,285554,1,0,0:0:0:0:
64,192,285554,1,0,0:0:0:0:
192,192,285726,1,0,0:0:0:0:
320,192,285726,1,0,0:0:0:0:
448,192,285726,1,0,0:0:0:0:
192,192,285897,1,0,0:0:0:0:
448,192,285897,1,0,0:0:0:0:
320,192,285983,1,0,0:0:0:0:
448,192,286068,1,0,0:0:0:0:
192,192,286068,1,0,0:0:0:0:
64,192,286068,1,0,0:0:0:0:
320,192,286154,1,0,0:0:0:0:
192,192,286240,1,0,0:0:0:0:
64,192,286240,1,0,0:0:0:0:
320,192,286326,1,0,0:0:0:0:
448,192,286411,1,0,0:0:0:0:
192,192,286411,1,0,0:0:0:0:
64,192,286411,1,0,0:0:0:0:
448,192,286583,1,0,0:0:0:0:
320,192,286583,1,0,0:0:0:0:
192,192,286668,1,0,0:0:0:0:
320,192,286754,1,0,0:0:0:0:
448,192,286754,1,0,0:0:0:0:
64,192,286754,1,0,0:0:0:0:
192,192,286840,1,0,0:0:0:0:
320,192,286926,1,0,0:0:0:0:
64,192,286926,1,0,0:0:0:0:
448,192,287097,1,0,0:0:0:0:
192,192,287097,1,0,0:0:0:0:
64,192,287097,1,0,0:0:0:0:
192,192,287268,1,0,0:0:0:0:
448,192,287268,1,0,0:0:0:0:
320,192,287354,1,0,0:0:0:0:
448,192,287440,1,0,0:0:0:0:
64,192,287440,1,0,0:0:0:0:
192,192,287440,1,0,0:0:0:0:
192,192,287611,1,0,0:0:0:0:
64,192,287611,1,0,0:0:0:0:
320,192,287697,1,0,0:0:0:0:
192,192,287783,1,0,0:0:0:0:
64,192,287783,1,0,0:0:0:0:
448,192,287783,1,0,0:0:0:0:
448,192,287954,1,0,0:0:0:0:
320,192,287954,1,0,0:0:0:0:
448,192,288126,5,0,0:0:0:0:
320,192,288126,1,0,0:0:0:0:
64,192,288126,1,0,0:0:0:0:
192,192,288211,1,0,0:0:0:0:
320,192,288297,1,0,0:0:0:0:
64,192,288297,1,0,0:0:0:0:
448,192,288468,1,0,0:0:0:0:
320,192,288468,1,0,0:0:0:0:
192,192,288468,1,0,0:0:0:0:
192,192,288640,1,0,0:0:0:0:
448,192,288640,1,0,0:0:0:0:
320,192,288726,1,0,0:0:0:0:
448,192,288811,1,0,0:0:0:0:
192,192,288811,1,0,0:0:0:0:
64,192,288811,1,0,0:0:0:0:
320,192,288897,1,0,0:0:0:0:
192,192,288983,1,0,0:0:0:0:
64,192,288983,1,0,0:0:0:0:
320,192,289068,1,0,0:0:0:0:
448,192,289154,1,0,0:0:0:0:
192,192,289154,1,0,0:0:0:0:
64,192,289154,1,0,0:0:0:0:
448,192,289326,1,0,0:0:0:0:
320,192,289326,1,0,0:0:0:0:
192,192,289411,1,0,0:0:0:0:
320,192,289497,1,0,0:0:0:0:
448,192,289497,1,0,0:0:0:0:
64,192,289497,1,0,0:0:0:0:
192,192,289583,1,0,0:0:0:0:
320,192,289668,1,0,0:0:0:0:
64,192,289668,1,0,0:0:0:0:
448,192,289840,1,0,0:0:0:0:
64,192,289840,1,0,0:0:0:0:
192,192,289840,1,0,0:0:0:0:
192,192,290011,1,0,0:0:0:0:
448,192,290011,1,0,0:0:0:0:
320,192,290097,1,0,0:0:0:0:
64,192,290183,1,0,0:0:0:0:
192,192,290183,1,0,0:0:0:0:
448,192,290183,1,0,0:0:0:0:
448,192,290268,1,0,0:0:0:0:
192,192,290354,1,0,0:0:0:0:
192,192,290440,1,0,0:0:0:0:
64,192,290526,1,0,0:0:0:0:
448,192,290526,1,0,0:0:0:0:
320,192,290526,1,0,0:0:0:0:
192,192,290611,1,0,0:0:0:0:
448,192,290697,1,0,0:0:0:0:
64,192,290697,1,0,0:0:0:0:
320,192,290783,1,0,0:0:0:0:
64,192,290868,5,0,0:0:0:0:
192,192,290868,1,0,0:0:0:0:
448,192,290868,1,0,0:0:0:0:
320,192,290954,1,0,0:0:0:0:
192,192,291040,1,0,0:0:0:0:
448,192,291040,1,0,0:0:0:0:
64,192,291211,1,0,0:0:0:0:
192,192,291211,1,0,0:0:0:0:
320,192,291211,1,0,0:0:0:0:
320,192,291383,1,0,0:0:0:0:
64,192,291383,1,0,0:0:0:0:
192,192,291468,1,0,0:0:0:0:
64,192,291554,1,0,0:0:0:0:
320,192,291554,1,0,0:0:0:0:
448,192,291554,1,0,0:0:0:0:
192,192,291640,1,0,0:0:0:0:
320,192,291726,1,0,0:0:0:0:
448,192,291726,1,0,0:0:0:0:
192,192,291811,1,0,0:0:0:0:
64,192,291897,1,0,0:0:0:0:
320,192,291897,1,0,0:0:0:0:
448,192,291897,1,0,0:0:0:0:
64,192,292068,1,0,0:0:0:0:
192,192,292068,1,0,0:0:0:0:
320,192,292154,1,0,0:0:0:0:
192,192,292240,1,0,0:0:0:0:
64,192,292240,1,0,0:0:0:0:
448,192,292240,1,0,0:0:0:0:
320,192,292326,1,0,0:0:0:0:
192,192,292411,1,0,0:0:0:0:
448,192,292411,1,0,0:0:0:0:
448,192,292583,1,0,0:0:0:0:
320,192,292583,1,0,0:0:0:0:
64,192,292583,1,0,0:0:0:0:
320,192,292754,1,0,0:0:0:0:
64,192,292754,1,0,0:0:0:0:
192,192,292840,1,0,0:0:0:0:
64,192,292926,1,0,0:0:0:0:
448,192,292926,1,0,0:0:0:0:
320,192,292926,1,0,0:0:0:0:
320,192,293097,1,0,0:0:0:0:
448,192,293097,1,0,0:0:0:0:
192,192,293183,1,0,0:0:0:0:
320,192,293268,1,0,0:0:0:0:
448,192,293268,1,0,0:0:0:0:
64,192,293268,1,0,0:0:0:0:
64,192,293440,1,0,0:0:0:0:
192,192,293440,1,0,0:0:0:0:
64,192,293611,5,0,0:0:0:0:
192,192,293611,1,0,0:0:0:0:
448,192,293611,1,0,0:0:0:0:
320,192,293697,1,0,0:0:0:0:
192,192,293783,1,0,0:0:0:0:
448,192,293783,1,0,0:0:0:0:
64,192,293954,1,0,0:0:0:0:
192,192,293954,1,0,0:0:0:0:
320,192,293954,1,0,0:0:0:0:
320,192,294126,1,0,0:0:0:0:
64,192,294126,1,0,0:0:0:0:
192,192,294211,1,0,0:0:0:0:
64,192,294297,1,0,0:0:0:0:
320,192,294297,1,0,0:0:0:0:
448,192,294297,1,0,0:0:0:0:
192,192,294383,1,0,0:0:0:0:
320,192,294468,1,0,0:0:0:0:
448,192,294468,1,0,0:0:0:0:
192,192,294554,1,0,0:0:0:0:
64,192,294640,1,0,0:0:0:0:
320,192,294640,1,0,0:0:0:0:
448,192,294640,1,0,0:0:0:0:
64,192,294811,1,0,0:0:0:0:
192,192,294811,1,0,0:0:0:0:
320,192,294897,1,0,0:0:0:0:
192,192,294983,1,0,0:0:0:0:
64,192,294983,1,0,0:0:0:0:
448,192,294983,1,0,0:0:0:0:
320,192,295068,1,0,0:0:0:0:
192,192,295154,1,0,0:0:0:0:
448,192,295154,1,0,0:0:0:0:
192,192,295240,1,0,0:0:0:0:
64,192,295326,1,0,0:0:0:0:
448,192,295326,1,0,0:0:0:0:
320,192,295326,1,0,0:0:0:0:
448,192,295497,1,0,0:0:0:0:
320,192,295497,1,0,0:0:0:0:
192,192,295583,1,0,0:0:0:0:
448,192,295668,1,0,0:0:0:0:
320,192,295668,1,0,0:0:0:0:
64,192,295668,1,0,0:0:0:0:
448,192,295754,1,0,0:0:0:0:
320,192,295840,1,0,0:0:0:0:
64,192,295840,1,0,0:0:0:0:
192,192,295840,1,0,0:0:0:0:
64,192,295926,1,0,0:0:0:0:
448,192,296011,1,0,0:0:0:0:
320,192,296011,1,0,0:0:0:0:
320,192,296097,1,0,0:0:0:0:
448,192,296097,1,0,0:0:0:0:
192,192,296183,1,0,0:0:0:0:
64,192,296183,1,0,0:0:0:0:
192,192,296268,1,0,0:0:0:0:
64,192,296268,1,0,0:0:0:0:
448,192,296354,5,0,0:0:0:0:
320,192,296354,1,0,0:0:0:0:
192,192,296440,1,0,0:0:0:0:
320,192,296526,1,0,0:0:0:0:
64,192,296526,1,0,0:0:0:0:
448,192,296697,1,0,0:0:0:0:
320,192,296697,1,0,0:0:0:0:
192,192,296697,1,0,0:0:0:0:
192,192,296868,1,0,0:0:0:0:
448,192,296868,1,0,0:0:0:0:
320,192,296954,1,0,0:0:0:0:
448,192,297040,1,0,0:0:0:0:
192,192,297040,1,0,0:0:0:0:
64,192,297040,1,0,0:0:0:0:
320,192,297126,1,0,0:0:0:0:
192,192,297211,1,0,0:0:0:0:
64,192,297211,1,0,0:0:0:0:
320,192,297297,1,0,0:0:0:0:
448,192,297383,1,0,0:0:0:0:
192,192,297383,1,0,0:0:0:0:
64,192,297383,1,0,0:0:0:0:
448,192,297554,1,0,0:0:0:0:
320,192,297554,1,0,0:0:0:0:
192,192,297640,1,0,0:0:0:0:
320,192,297726,1,0,0:0:0:0:
448,192,297726,1,0,0:0:0:0:
64,192,297726,1,0,0:0:0:0:
192,192,297811,1,0,0:0:0:0:
320,192,297897,1,0,0:0:0:0:
64,192,297897,1,0,0:0:0:0:
64,192,298068,1,0,0:0:0:0:
192,192,298068,1,0,0:0:0:0:
448,192,298068,1,0,0:0:0:0:
192,192,298240,1,0,0:0:0:0:
448,192,298240,1,0,0:0:0:0:
320,192,298326,1,0,0:0:0:0:
448,192,298411,1,0,0:0:0:0:
64,192,298411,1,0,0:0:0:0:
192,192,298411,1,0,0:0:0:0:
192,192,298583,1,0,0:0:0:0:
64,192,298583,1,0,0:0:0:0:
320,192,298668,1,0,0:0:0:0:
192,192,298754,1,0,0:0:0:0:
64,192,298754,1,0,0:0:0:0:
448,192,298754,1,0,0:0:0:0:
448,192,298926,1,0,0:0:0:0:
320,192,298926,1,0,0:0:0:0:
448,192,299097,5,0,0:0:0:0:
320,192,299097,1,0,0:0:0:0:
64,192,299097,1,0,0:0:0:0:
192,192,299183,1,0,0:0:0:0:
320,192,299268,1,0,0:0:0:0:
64,192,299268,1,0,0:0:0:0:
448,192,299440,1,0,0:0:0:0:
320,192,299440,1,0,0:0:0:0:
192,192,299440,1,0,0:0:0:0:
192,192,299611,1,0,0:0:0:0:
448,192,299611,1,0,0:0:0:0:
320,192,299697,1,0,0:0:0:0:
448,192,299783,1,0,0:0:0:0:
192,192,299783,1,0,0:0:0:0:
64,192,299783,1,0,0:0:0:0:
320,192,299868,1,0,0:0:0:0:
192,192,299954,1,0,0:0:0:0:
64,192,299954,1,0,0:0:0:0:
320,192,300040,1,0,0:0:0:0:
448,192,300126,1,0,0:0:0:0:
192,192,300126,1,0,0:0:0:0:
64,192,300126,1,0,0:0:0:0:
448,192,300297,1,0,0:0:0:0:
320,192,300297,1,0,0:0:0:0:
192,192,300383,1,0,0:0:0:0:
320,192,300468,1,0,0:0:0:0:
448,192,300468,1,0,0:0:0:0:
64,192,300468,1,0,0:0:0:0:
192,192,300554,1,0,0:0:0:0:
64,192,300640,1,0,0:0:0:0:
320,192,300640,1,0,0:0:0:0:
64,192,300811,5,0,0:0:0:0:
192,192,300811,1,0,0:0:0:0:
448,192,300811,1,0,0:0:0:0:
448,192,300983,1,0,0:0:0:0:
192,192,300983,1,0,0:0:0:0:
320,192,301068,1,0,0:0:0:0:
64,192,301154,1,0,0:0:0:0:
192,192,301154,1,0,0:0:0:0:
448,192,301154,1,0,0:0:0:0:
64,192,301240,1,0,0:0:0:0:
192,192,301326,1,0,0:0:0:0:
448,192,301326,1,0,0:0:0:0:
320,192,301326,1,0,0:0:0:0:
448,192,301411,1,0,0:0:0:0:
64,192,301497,1,0,0:0:0:0:
192,192,301497,1,0,0:0:0:0:
192,192,301583,1,0,0:0:0:0:
64,192,301583,1,0,0:0:0:0:
320,192,301668,1,0,0:0:0:0:
448,192,301668,1,0,0:0:0:0:
320,192,301754,1,0,0:0:0:0:
448,192,301754,1,0,0:0:0:0:
192,192,301840,5,0,0:0:0:0:
64,192,301840,1,0,0:0:0:0:
320,192,301926,1,0,0:0:0:0:
64,192,302011,1,0,0:0:0:0:
448,192,302011,1,0,0:0:0:0:
192,192,302011,1,0,0:0:0:0:
448,192,302183,1,0,0:0:0:0:
192,192,302183,1,0,0:0:0:0:
320,192,302183,1,0,0:0:0:0:
192,192,302354,1,0,0:0:0:0:
64,192,302354,1,0,0:0:0:0:
448,192,302354,1,0,0:0:0:0:
320,192,302526,1,0,0:0:0:0:
192,192,302526,1,0,0:0:0:0:
64,192,302526,1,0,0:0:0:0:
448,192,302611,1,0,0:0:0:0:
64,192,302697,1,0,0:0:0:0:
192,192,302697,1,0,0:0:0:0:
320,192,302783,1,0,0:0:0:0:
64,192,302868,1,0,0:0:0:0:
192,192,302868,1,0,0:0:0:0:
448,192,302868,1,0,0:0:0:0:
320,192,303040,1,0,0:0:0:0:
448,192,303040,1,0,0:0:0:0:
192,192,303040,1,0,0:0:0:0:
64,192,303211,1,0,0:0:0:0:
448,192,303211,1,0,0:0:0:0:
192,192,303211,1,0,0:0:0:0:
192,192,303297,1,0,0:0:0:0:
448,192,303383,1,0,0:0:0:0:
64,192,303383,1,0,0:0:0:0:
320,192,303383,1,0,0:0:0:0:
64,192,303554,1,0,0:0:0:0:
192,192,303554,1,0,0:0:0:0:
320,192,303554,1,0,0:0:0:0:
64,192,303726,1,0,0:0:0:0:
320,192,303726,1,0,0:0:0:0:
448,192,303726,1,0,0:0:0:0:
192,192,303897,1,0,0:0:0:0:
320,192,303897,1,0,0:0:0:0:
448,192,303897,1,0,0:0:0:0:
448,192,304068,1,0,0:0:0:0:
320,192,304068,1,0,0:0:0:0:
192,192,304068,1,0,0:0:0:0:
64,192,304154,1,0,0:0:0:0:
448,192,304240,1,0,0:0:0:0:
320,192,304240,1,0,0:0:0:0:
192,192,304240,1,0,0:0:0:0:
448,192,304411,1,0,0:0:0:0:
64,192,304411,1,0,0:0:0:0:
320,192,304411,1,0,0:0:0:0:
64,192,304583,1,0,0:0:0:0:
192,192,304583,1,0,0:0:0:0:
320,192,304583,1,0,0:0:0:0:
448,192,304668,1,0,0:0:0:0:
64,192,304754,1,0,0:0:0:0:
192,192,304754,1,0,0:0:0:0:
320,192,304840,1,0,0:0:0:0:
64,192,304926,1,0,0:0:0:0:
192,192,304926,1,0,0:0:0:0:
448,192,304926,1,0,0:0:0:0:
320,192,305011,1,0,0:0:0:0:
64,192,305097,1,0,0:0:0:0:
448,192,305097,1,0,0:0:0:0:
192,192,305183,1,0,0:0:0:0:
320,192,305268,1,0,0:0:0:0:
64,192,305268,1,0,0:0:0:0:
448,192,305268,1,0,0:0:0:0:
192,192,305354,1,0,0:0:0:0:
320,192,305440,1,0,0:0:0:0:
448,192,305440,1,0,0:0:0:0:
64,192,305526,1,0,0:0:0:0:
320,192,305611,1,0,0:0:0:0:
448,192,305611,1,0,0:0:0:0:
192,192,305611,1,0,0:0:0:0:
64,192,305697,1,0,0:0:0:0:
448,192,305783,1,0,0:0:0:0:
192,192,305783,1,0,0:0:0:0:
320,192,305868,1,0,0:0:0:0:
448,192,305954,1,0,0:0:0:0:
64,192,305954,1,0,0:0:0:0:
192,192,306011,1,0,0:0:0:0:
320,192,306068,1,0,0:0:0:0:
448,192,306126,128,0,306240:0:0:0:0:
320,192,306183,128,0,306354:0:0:0:0:
192,192,306240,128,0,306468:0:0:0:0:
64,192,306297,128,0,306583:0:0:0:0:
448,192,306468,1,0,0:0:0:0:
320,192,306526,1,0,0:0:0:0:
192,192,306583,1,0,0:0:0:0:
64,192,306640,1,0,0:0:0:0:
448,192,306697,1,0,0:0:0:0:
320,192,306754,1,0,0:0:0:0:
192,192,306811,128,0,306983:0:0:0:0:
64,192,306811,128,0,306897:0:0:0:0:
320,192,306983,128,0,307068:0:0:0:0:
64,192,306983,128,0,307154:0:0:0:0:
448,192,307154,128,0,307240:0:0:0:0:
320,192,307154,128,0,307326:0:0:0:0:
64,192,307240,128,0,307411:0:0:0:0:
