osu file format v14

[General]
AudioFilename: audio.mp3
AudioLeadIn: 0
PreviewTime: -1
Countdown: 0
SampleSet: Soft
StackLeniency: 0.5
Mode: 3
LetterboxInBreaks: 0
SpecialStyle: 0
WidescreenStoryboard: 0

[Editor]
Bookmarks: 22069,27555,33041,44012,54984,65955,76927,82412
DistanceSpacing: 0.6
BeatDivisor: 4
GridSize: 4
TimelineZoom: 2

[Metadata]
Title:Lost Emotion (Amane UK Hardcore Remix)
TitleUnicode:Lost Emotion (Amane UK Hardcore Remix)
Artist:Masayoshi Minoshima feat. nomico
ArtistUnicode:Masayoshi Minoshima feat. nomico
Creator:ATing
Version:Lost Kokoro
Source:東方心綺楼 ~ Hopeless Masquerade.
Tags:alstroemeria records c88 東方 Project marathon reitasei 12 pop culture 4 3 hata no kokoro theme edm 秦 の こころ Shinkirou touhou JeirYagtama den0saur ln
BeatmapID:1934023
BeatmapSetID:925930

[Difficulty]
HPDrainRate:8
CircleSize:4
OverallDifficulty:8
ApproachRate:5
SliderMultiplier:1.4
SliderTickRate:1

[Events]
//Background and Video events
0,0,"koikokoro.jpg",0,0
//Break Periods
//Storyboard Layer 0 (Background)
//Storyboard Layer 1 (Fail)
//Storyboard Layer 2 (Pass)
//Storyboard Layer 3 (Foreground)
//Storyboard Sound Samples

[TimingPoints]
127,342.857142857143,4,2,0,100,1,0

[HitObjects]
448,192,127,5,0,0:0:0:0:
64,192,127,1,0,0:0:0:0:
320,192,212,1,0,0:0:0:0:
192,192,298,1,0,0:0:0:0:
192,192,469,1,0,0:0:0:0:
448,192,469,1,0,0:0:0:0:
320,192,641,1,0,0:0:0:0:
192,192,727,1,0,0:0:0:0:
64,192,812,1,0,0:0:0:0:
448,192,812,1,0,0:0:0:0:
192,192,984,1,0,0:0:0:0:
192,192,1155,1,0,0:0:0:0:
448,192,1155,1,0,0:0:0:0:
320,192,1327,1,0,0:0:0:0:
192,192,1412,1,0,0:0:0:0:
64,192,1498,1,0,0:0:0:0:
448,192,1498,1,0,0:0:0:0:
192,192,1584,1,0,0:0:0:0:
320,192,1669,1,0,0:0:0:0:
64,192,1841,1,0,0:0:0:0:
320,192,1841,1,0,0:0:0:0:
192,192,2012,1,0,0:0:0:0:
320,192,2098,1,0,0:0:0:0:
64,192,2184,1,0,0:0:0:0:
448,192,2184,1,0,0:0:0:0:
192,192,2355,1,0,0:0:0:0:
448,192,2441,1,0,0:0:0:0:
320,192,2527,1,0,0:0:0:0:
64,192,2527,1,0,0:0:0:0:
320,192,2698,1,0,0:0:0:0:
64,192,2869,1,0,0:0:0:0:
448,192,2869,1,0,0:0:0:0:
192,192,2955,1,0,0:0:0:0:
320,192,3041,1,0,0:0:0:0:
320,192,3212,1,0,0:0:0:0:
448,192,3212,1,0,0:0:0:0:
192,192,3384,1,0,0:0:0:0:
320,192,3469,1,0,0:0:0:0:
64,192,3555,1,0,0:0:0:0:
448,192,3555,1,0,0:0:0:0:
320,192,3727,1,0,0:0:0:0:
320,192,3898,1,0,0:0:0:0:
448,192,3898,1,0,0:0:0:0:
192,192,4069,1,0,0:0:0:0:
320,192,4155,1,0,0:0:0:0:
64,192,4241,1,0,0:0:0:0:
448,192,4241,1,0,0:0:0:0:
320,192,4327,1,0,0:0:0:0:
192,192,4412,1,0,0:0:0:0:
192,192,4584,1,0,0:0:0:0:
64,192,4584,1,0,0:0:0:0:
320,192,4755,1,0,0:0:0:0:
192,192,4841,1,0,0:0:0:0:
448,192,4927,1,0,0:0:0:0:
320,192,4927,1,0,0:0:0:0:
64,192,5012,1,0,0:0:0:0:
448,192,5098,1,0,0:0:0:0:
64,192,5184,1,0,0:0:0:0:
448,192,5269,1,0,0:0:0:0:
320,192,5269,1,0,0:0:0:0:
192,192,5355,1,0,0:0:0:0:
320,192,5441,1,0,0:0:0:0:
192,192,5527,1,0,0:0:0:0:
64,192,5612,1,0,0:0:0:0:
448,192,5612,1,0,0:0:0:0:
320,192,5698,1,0,0:0:0:0:
192,192,5784,1,0,0:0:0:0:
448,192,5955,1,0,0:0:0:0:
192,192,5955,1,0,0:0:0:0:
320,192,6127,1,0,0:0:0:0:
448,192,6212,1,0,0:0:0:0:
64,192,6298,1,0,0:0:0:0:
320,192,6298,1,0,0:0:0:0:
192,192,6469,1,0,0:0:0:0:
448,192,6641,1,0,0:0:0:0:
192,192,6641,1,0,0:0:0:0:
320,192,6812,1,0,0:0:0:0:
192,192,6898,1,0,0:0:0:0:
64,192,6984,1,0,0:0:0:0:
448,192,6984,1,0,0:0:0:0:
192,192,7069,1,0,0:0:0:0:
320,192,7155,1,0,0:0:0:0:
64,192,7327,1,0,0:0:0:0:
320,192,7327,1,0,0:0:0:0:
192,192,7498,1,0,0:0:0:0:
64,192,7584,1,0,0:0:0:0:
448,192,7669,1,0,0:0:0:0:
192,192,7669,1,0,0:0:0:0:
320,192,7841,1,0,0:0:0:0:
192,192,7927,1,0,0:0:0:0:
64,192,8012,1,0,0:0:0:0:
320,192,8012,1,0,0:0:0:0:
320,192,8184,1,0,0:0:0:0:
448,192,8355,1,0,0:0:0:0:
64,192,8355,1,0,0:0:0:0:
192,192,8441,1,0,0:0:0:0:
320,192,8527,1,0,0:0:0:0:
320,192,8698,1,0,0:0:0:0:
448,192,8698,1,0,0:0:0:0:
192,192,8869,1,0,0:0:0:0:
448,192,8955,1,0,0:0:0:0:
192,192,9041,1,0,0:0:0:0:
64,192,9041,1,0,0:0:0:0:
320,192,9212,1,0,0:0:0:0:
448,192,9384,1,0,0:0:0:0:
320,192,9384,1,0,0:0:0:0:
192,192,9555,1,0,0:0:0:0:
320,192,9641,1,0,0:0:0:0:
64,192,9727,1,0,0:0:0:0:
448,192,9727,1,0,0:0:0:0:
192,192,9812,1,0,0:0:0:0:
448,192,9898,1,0,0:0:0:0:
192,192,10069,1,0,0:0:0:0:
64,192,10069,1,0,0:0:0:0:
192,192,10241,1,0,0:0:0:0:
448,192,10412,128,0,10498:0:0:0:0:
320,192,10412,128,0,10498:0:0:0:0:
64,192,10412,1,0,0:0:0:0:
192,192,10584,128,0,10669:0:0:0:0:
64,192,10584,128,0,10669:0:0:0:0:
448,192,10584,1,0,0:0:0:0:
320,192,10755,1,0,0:0:0:0:
448,192,10755,1,0,0:0:0:0:
192,192,10841,1,0,0:0:0:0:
64,192,10841,1,0,0:0:0:0:
320,192,10927,1,0,0:0:0:0:
448,192,10927,1,0,0:0:0:0:
192,192,11012,1,0,0:0:0:0:
64,192,11012,1,0,0:0:0:0:
64,192,11098,1,0,0:0:0:0:
320,192,11098,1,0,0:0:0:0:
448,192,11098,1,0,0:0:0:0:
192,192,11184,1,0,0:0:0:0:
64,192,11269,1,0,0:0:0:0:
320,192,11355,1,0,0:0:0:0:
448,192,11355,1,0,0:0:0:0:
192,192,11441,1,0,0:0:0:0:
64,192,11441,1,0,0:0:0:0:
320,192,11612,1,0,0:0:0:0:
448,192,11612,1,0,0:0:0:0:
64,192,11698,1,0,0:0:0:0:
192,192,11784,1,0,0:0:0:0:
448,192,11784,1,0,0:0:0:0:
320,192,11869,1,0,0:0:0:0:
64,192,11869,1,0,0:0:0:0:
192,192,11955,1,0,0:0:0:0:
448,192,12041,1,0,0:0:0:0:
64,192,12127,1,0,0:0:0:0:
192,192,12127,1,0,0:0:0:0:
448,192,12298,1,0,0:0:0:0:
320,192,12298,1,0,0:0:0:0:
192,192,12384,1,0,0:0:0:0:
448,192,12469,1,0,0:0:0:0:
64,192,12469,1,0,0:0:0:0:
320,192,12555,1,0,0:0:0:0:
192,192,12641,1,0,0:0:0:0:
64,192,12727,1,0,0:0:0:0:
320,192,12727,1,0,0:0:0:0:
448,192,12812,1,0,0:0:0:0:
192,192,12812,1,0,0:0:0:0:
64,192,12984,1,0,0:0:0:0:
320,192,12984,1,0,0:0:0:0:
192,192,13069,1,0,0:0:0:0:
448,192,13155,1,0,0:0:0:0:
64,192,13155,1,0,0:0:0:0:
192,192,13241,1,0,0:0:0:0:
320,192,13241,1,0,0:0:0:0:
448,192,13327,1,0,0:0:0:0:
320,192,13412,1,0,0:0:0:0:
192,192,13498,1,0,0:0:0:0:
64,192,13498,1,0,0:0:0:0:
448,192,13669,1,0,0:0:0:0:
64,192,13669,1,0,0:0:0:0:
64,192,13841,1,0,0:0:0:0:
320,192,13841,1,0,0:0:0:0:
448,192,13841,1,0,0:0:0:0:
192,192,13927,1,0,0:0:0:0:
64,192,14012,1,0,0:0:0:0:
192,192,14098,1,0,0:0:0:0:
448,192,14098,1,0,0:0:0:0:
320,192,14184,1,0,0:0:0:0:
64,192,14184,1,0,0:0:0:0:
192,192,14355,1,0,0:0:0:0:
448,192,14355,1,0,0:0:0:0:
320,192,14441,1,0,0:0:0:0:
64,192,14527,1,0,0:0:0:0:
192,192,14527,1,0,0:0:0:0:
320,192,14612,1,0,0:0:0:0:
448,192,14612,1,0,0:0:0:0:
64,192,14698,1,0,0:0:0:0:
192,192,14784,1,0,0:0:0:0:
448,192,14869,1,0,0:0:0:0:
64,192,14869,1,0,0:0:0:0:
192,192,15041,1,0,0:0:0:0:
448,192,15041,1,0,0:0:0:0:
320,192,15127,1,0,0:0:0:0:
64,192,15212,1,0,0:0:0:0:
192,192,15212,1,0,0:0:0:0:
448,192,15298,1,0,0:0:0:0:
64,192,15384,1,0,0:0:0:0:
320,192,15469,1,0,0:0:0:0:
448,192,15469,1,0,0:0:0:0:
192,192,15555,1,0,0:0:0:0:
64,192,15555,1,0,0:0:0:0:
320,192,15727,1,0,0:0:0:0:
448,192,15727,1,0,0:0:0:0:
192,192,15812,1,0,0:0:0:0:
64,192,15898,1,0,0:0:0:0:
448,192,15898,1,0,0:0:0:0:
192,192,15984,1,0,0:0:0:0:
320,192,15984,1,0,0:0:0:0:
64,192,16069,1,0,0:0:0:0:
320,192,16155,1,0,0:0:0:0:
448,192,16241,1,0,0:0:0:0:
64,192,16241,1,0,0:0:0:0:
192,192,16327,1,0,0:0:0:0:
448,192,16412,1,0,0:0:0:0:
64,192,16412,1,0,0:0:0:0:
320,192,16498,1,0,0:0:0:0:
64,192,16584,1,0,0:0:0:0:
448,192,16584,1,0,0:0:0:0:
192,192,16669,1,0,0:0:0:0:
320,192,16755,1,0,0:0:0:0:
448,192,16755,1,0,0:0:0:0:
192,192,16841,1,0,0:0:0:0:
64,192,16927,1,0,0:0:0:0:
448,192,16927,1,0,0:0:0:0:
320,192,17012,1,0,0:0:0:0:
192,192,17098,1,0,0:0:0:0:
64,192,17098,1,0,0:0:0:0:
320,192,17184,1,0,0:0:0:0:
448,192,17269,1,0,0:0:0:0:
64,192,17269,1,0,0:0:0:0:
192,192,17355,1,0,0:0:0:0:
448,192,17441,1,0,0:0:0:0:
320,192,17441,1,0,0:0:0:0:
192,192,17527,1,0,0:0:0:0:
64,192,17612,1,0,0:0:0:0:
448,192,17612,1,0,0:0:0:0:
320,192,17698,1,0,0:0:0:0:
64,192,17784,1,0,0:0:0:0:
192,192,17784,1,0,0:0:0:0:
320,192,17869,1,0,0:0:0:0:
448,192,17955,1,0,0:0:0:0:
64,192,17955,1,0,0:0:0:0:
192,192,18041,1,0,0:0:0:0:
64,192,18127,1,0,0:0:0:0:
320,192,18127,1,0,0:0:0:0:
192,192,18212,1,0,0:0:0:0:
64,192,18298,1,0,0:0:0:0:
448,192,18298,1,0,0:0:0:0:
320,192,18384,1,0,0:0:0:0:
448,192,18469,1,0,0:0:0:0:
192,192,18469,1,0,0:0:0:0:
320,192,18555,1,0,0:0:0:0:
64,192,18641,1,0,0:0:0:0:
448,192,18641,1,0,0:0:0:0:
192,192,18727,1,0,0:0:0:0:
64,192,18812,1,0,0:0:0:0:
320,192,18812,1,0,0:0:0:0:
192,192,18898,1,0,0:0:0:0:
64,192,18984,1,0,0:0:0:0:
448,192,18984,1,0,0:0:0:0:
320,192,19069,1,0,0:0:0:0:
448,192,19155,1,0,0:0:0:0:
192,192,19155,1,0,0:0:0:0:
320,192,19241,1,0,0:0:0:0:
192,192,19327,1,0,0:0:0:0:
64,192,19327,1,0,0:0:0:0:
320,192,19412,1,0,0:0:0:0:
448,192,19412,1,0,0:0:0:0:
192,192,19498,1,0,0:0:0:0:
64,192,19498,1,0,0:0:0:0:
320,192,19584,1,0,0:0:0:0:
448,192,19669,1,0,0:0:0:0:
64,192,19669,1,0,0:0:0:0:
192,192,19755,1,0,0:0:0:0:
320,192,19755,1,0,0:0:0:0:
448,192,19841,1,0,0:0:0:0:
64,192,19841,1,0,0:0:0:0:
192,192,19927,1,0,0:0:0:0:
448,192,20012,1,0,0:0:0:0:
320,192,20012,1,0,0:0:0:0:
192,192,20098,1,0,0:0:0:0:
64,192,20098,1,0,0:0:0:0:
320,192,20184,1,0,0:0:0:0:
448,192,20184,1,0,0:0:0:0:
192,192,20269,1,0,0:0:0:0:
448,192,20355,1,0,0:0:0:0:
64,192,20355,1,0,0:0:0:0:
320,192,20441,1,0,0:0:0:0:
192,192,20441,1,0,0:0:0:0:
64,192,21384,128,0,22069:0:0:0:0:
192,192,22069,1,0,0:0:0:0:
448,192,22069,1,0,0:0:0:0:
64,192,22155,1,0,0:0:0:0:
320,192,22241,1,0,0:0:0:0:
320,192,22412,1,0,0:0:0:0:
64,192,22412,1,0,0:0:0:0:
448,192,22412,1,0,0:0:0:0:
192,192,22498,1,0,0:0:0:0:
448,192,22584,1,0,0:0:0:0:
320,192,22669,1,0,0:0:0:0:
64,192,22755,1,0,0:0:0:0:
448,192,22755,1,0,0:0:0:0:
192,192,22927,1,0,0:0:0:0:
192,192,23098,1,0,0:0:0:0:
64,192,23098,1,0,0:0:0:0:
448,192,23098,1,0,0:0:0:0:
320,192,23269,1,0,0:0:0:0:
64,192,23355,1,0,0:0:0:0:
448,192,23441,1,0,0:0:0:0:
192,192,23441,1,0,0:0:0:0:
64,192,23527,1,0,0:0:0:0:
320,192,23612,1,0,0:0:0:0:
64,192,23784,1,0,0:0:0:0:
320,192,23784,1,0,0:0:0:0:
448,192,23784,1,0,0:0:0:0:
192,192,23955,1,0,0:0:0:0:
320,192,24041,1,0,0:0:0:0:
192,192,24127,1,0,0:0:0:0:
64,192,24127,1,0,0:0:0:0:
448,192,24298,1,0,0:0:0:0:
320,192,24384,1,0,0:0:0:0:
192,192,24469,1,0,0:0:0:0:
64,192,24469,1,0,0:0:0:0:
448,192,24469,1,0,0:0:0:0:
192,192,24641,1,0,0:0:0:0:
64,192,24812,1,0,0:0:0:0:
320,192,24812,1,0,0:0:0:0:
192,192,24898,1,0,0:0:0:0:
448,192,24984,1,0,0:0:0:0:
448,192,25155,1,0,0:0:0:0:
64,192,25155,1,0,0:0:0:0:
320,192,25155,1,0,0:0:0:0:
320,192,25327,1,0,0:0:0:0:
192,192,25412,1,0,0:0:0:0:
320,192,25498,1,0,0:0:0:0:
448,192,25498,1,0,0:0:0:0:
64,192,25669,1,0,0:0:0:0:
64,192,25841,1,0,0:0:0:0:
192,192,25841,1,0,0:0:0:0:
448,192,25841,1,0,0:0:0:0:
320,192,26012,1,0,0:0:0:0:
64,192,26098,1,0,0:0:0:0:
192,192,26184,1,0,0:0:0:0:
320,192,26184,1,0,0:0:0:0:
64,192,26269,1,0,0:0:0:0:
448,192,26355,1,0,0:0:0:0:
448,192,26527,1,0,0:0:0:0:
64,192,26527,1,0,0:0:0:0:
320,192,26527,1,0,0:0:0:0:
192,192,26698,1,0,0:0:0:0:
320,192,26784,1,0,0:0:0:0:
64,192,26869,1,0,0:0:0:0:
192,192,26869,1,0,0:0:0:0:
448,192,27041,1,0,0:0:0:0:
192,192,27127,1,0,0:0:0:0:
64,192,27212,1,0,0:0:0:0:
448,192,27212,1,0,0:0:0:0:
320,192,27212,1,0,0:0:0:0:
192,192,27298,1,0,0:0:0:0:
320,192,27384,1,0,0:0:0:0:
192,192,27469,1,0,0:0:0:0:
64,192,27555,1,0,0:0:0:0:
448,192,27555,1,0,0:0:0:0:
320,192,27641,1,0,0:0:0:0:
192,192,27727,1,0,0:0:0:0:
192,192,27898,1,0,0:0:0:0:
448,192,27898,1,0,0:0:0:0:
64,192,27898,1,0,0:0:0:0:
320,192,28069,1,0,0:0:0:0:
192,192,28155,1,0,0:0:0:0:
64,192,28241,1,0,0:0:0:0:
320,192,28241,1,0,0:0:0:0:
448,192,28412,1,0,0:0:0:0:
448,192,28584,1,0,0:0:0:0:
64,192,28584,1,0,0:0:0:0:
192,192,28584,1,0,0:0:0:0:
320,192,28755,1,0,0:0:0:0:
448,192,28841,1,0,0:0:0:0:
64,192,28927,1,0,0:0:0:0:
192,192,28927,1,0,0:0:0:0:
320,192,29012,1,0,0:0:0:0:
192,192,29098,1,0,0:0:0:0:
192,192,29269,1,0,0:0:0:0:
448,192,29269,1,0,0:0:0:0:
64,192,29269,1,0,0:0:0:0:
320,192,29441,1,0,0:0:0:0:
192,192,29527,1,0,0:0:0:0:
448,192,29612,1,0,0:0:0:0:
320,192,29612,1,0,0:0:0:0:
192,192,29784,1,0,0:0:0:0:
320,192,29869,1,0,0:0:0:0:
448,192,29955,1,0,0:0:0:0:
64,192,29955,1,0,0:0:0:0:
192,192,29955,1,0,0:0:0:0:
448,192,30127,1,0,0:0:0:0:
192,192,30298,1,0,0:0:0:0:
320,192,30298,1,0,0:0:0:0:
448,192,30384,1,0,0:0:0:0:
64,192,30469,1,0,0:0:0:0:
64,192,30641,1,0,0:0:0:0:
192,192,30641,1,0,0:0:0:0:
448,192,30641,1,0,0:0:0:0:
320,192,30812,1,0,0:0:0:0:
192,192,30898,1,0,0:0:0:0:
64,192,30984,1,0,0:0:0:0:
448,192,30984,1,0,0:0:0:0:
320,192,31155,1,0,0:0:0:0:
320,192,31327,1,0,0:0:0:0:
64,192,31327,1,0,0:0:0:0:
448,192,31327,1,0,0:0:0:0:
192,192,31498,1,0,0:0:0:0:
320,192,31584,1,0,0:0:0:0:
448,192,31669,1,0,0:0:0:0:
64,192,31669,1,0,0:0:0:0:
320,192,31755,1,0,0:0:0:0:
64,192,31841,1,0,0:0:0:0:
64,192,32012,1,0,0:0:0:0:
448,192,32012,1,0,0:0:0:0:
192,192,32012,1,0,0:0:0:0:
320,192,32184,1,0,0:0:0:0:
192,192,32269,1,0,0:0:0:0:
448,192,32355,128,0,32441:0:0:0:0:
320,192,32355,128,0,32441:0:0:0:0:
64,192,32355,1,0,0:0:0:0:
64,192,32527,128,0,32612:0:0:0:0:
192,192,32527,128,0,32612:0:0:0:0:
448,192,32527,1,0,0:0:0:0:
320,192,32698,1,0,0:0:0:0:
448,192,32698,1,0,0:0:0:0:
192,192,32784,1,0,0:0:0:0:
64,192,32784,1,0,0:0:0:0:
448,192,32869,1,0,0:0:0:0:
320,192,32869,1,0,0:0:0:0:
64,192,32955,1,0,0:0:0:0:
192,192,32955,1,0,0:0:0:0:
320,192,33041,1,0,0:0:0:0:
64,192,33041,128,0,33212:0:0:0:0:
448,192,33041,128,0,33127:0:0:0:0:
192,192,33127,128,0,33212:0:0:0:0:
448,192,33212,128,0,33384:0:0:0:0:
192,192,33384,128,0,33555:0:0:0:0:
64,192,33384,1,0,0:0:0:0:
320,192,33384,128,0,33469:0:0:0:0:
320,192,33555,128,0,33727:0:0:0:0:
192,192,33641,128,0,33727:0:0:0:0:
448,192,33727,128,0,33898:0:0:0:0:
64,192,33727,1,0,0:0:0:0:
192,192,33898,128,0,34069:0:0:0:0:
320,192,34069,128,0,34241:0:0:0:0:
64,192,34069,1,0,0:0:0:0:
448,192,34069,128,0,34155:0:0:0:0:
64,192,34241,128,0,34327:0:0:0:0:
192,192,34327,128,0,34412:0:0:0:0:
448,192,34412,128,0,34584:0:0:0:0:
320,192,34412,128,0,34498:0:0:0:0:
64,192,34498,128,0,34584:0:0:0:0:
192,192,34584,128,0,34755:0:0:0:0:
320,192,34755,128,0,34927:0:0:0:0:
64,192,34755,1,0,0:0:0:0:
448,192,34755,128,0,34841:0:0:0:0:
64,192,34927,128,0,35098:0:0:0:0:
192,192,35012,128,0,35098:0:0:0:0:
320,192,35098,128,0,35269:0:0:0:0:
448,192,35098,1,0,0:0:0:0:
192,192,35269,128,0,35441:0:0:0:0:
64,192,35355,128,0,35441:0:0:0:0:
448,192,35441,128,0,35612:0:0:0:0:
320,192,35441,128,0,35527:0:0:0:0:
192,192,35612,128,0,35784:0:0:0:0:
64,192,35784,128,0,35955:0:0:0:0:
448,192,35784,128,0,35869:0:0:0:0:
192,192,35869,128,0,35955:0:0:0:0:
448,192,35955,128,0,36127:0:0:0:0:
192,192,36127,128,0,36298:0:0:0:0:
64,192,36127,1,0,0:0:0:0:
320,192,36127,128,0,36212:0:0:0:0:
320,192,36298,128,0,36469:0:0:0:0:
192,192,36384,128,0,36469:0:0:0:0:
448,192,36469,128,0,36641:0:0:0:0:
64,192,36469,128,0,36555:0:0:0:0:
64,192,36641,128,0,36812:0:0:0:0:
320,192,36812,128,0,36984:0:0:0:0:
192,192,36812,1,0,0:0:0:0:
448,192,36812,128,0,36898:0:0:0:0:
64,192,36984,128,0,37069:0:0:0:0:
192,192,37069,128,0,37155:0:0:0:0:
448,192,37155,128,0,37327:0:0:0:0:
320,192,37155,128,0,37241:0:0:0:0:
64,192,37241,128,0,37327:0:0:0:0:
192,192,37327,128,0,37498:0:0:0:0:
320,192,37498,128,0,37669:0:0:0:0:
64,192,37498,1,0,0:0:0:0:
448,192,37498,128,0,37584:0:0:0:0:
64,192,37669,128,0,37841:0:0:0:0:
192,192,37755,128,0,37841:0:0:0:0:
320,192,37841,128,0,38012:0:0:0:0:
448,192,37841,128,0,37927:0:0:0:0:
192,192,38012,128,0,38184:0:0:0:0:
64,192,38012,128,0,38098:0:0:0:0:
320,192,38184,1,0,0:0:0:0:
448,192,38184,1,0,0:0:0:0:
192,192,38269,1,0,0:0:0:0:
64,192,38269,1,0,0:0:0:0:
320,192,38355,1,0,0:0:0:0:
448,192,38355,1,0,0:0:0:0:
192,192,38441,1,0,0:0:0:0:
64,192,38441,1,0,0:0:0:0:
64,192,38527,1,0,0:0:0:0:
320,192,38527,1,0,0:0:0:0:
448,192,38527,1,0,0:0:0:0:
192,192,38612,1,0,0:0:0:0:
320,192,38698,1,0,0:0:0:0:
448,192,38698,1,0,0:0:0:0:
192,192,38784,1,0,0:0:0:0:
448,192,38869,1,0,0:0:0:0:
64,192,38869,1,0,0:0:0:0:
320,192,38955,1,0,0:0:0:0:
64,192,39041,1,0,0:0:0:0:
448,192,39041,1,0,0:0:0:0:
320,192,39127,1,0,0:0:0:0:
64,192,39212,1,0,0:0:0:0:
192,192,39212,1,0,0:0:0:0:
320,192,39298,1,0,0:0:0:0:
64,192,39384,1,0,0:0:0:0:
192,192,39384,1,0,0:0:0:0:
320,192,39469,1,0,0:0:0:0:
64,192,39555,1,0,0:0:0:0:
448,192,39555,1,0,0:0:0:0:
192,192,39641,1,0,0:0:0:0:
64,192,39727,1,0,0:0:0:0:
448,192,39727,1,0,0:0:0:0:
192,192,39812,1,0,0:0:0:0:
320,192,39898,1,0,0:0:0:0:
448,192,39898,1,0,0:0:0:0:
64,192,39984,1,0,0:0:0:0:
320,192,40069,1,0,0:0:0:0:
448,192,40069,1,0,0:0:0:0:
64,192,40155,1,0,0:0:0:0:
192,192,40241,1,0,0:0:0:0:
448,192,40241,1,0,0:0:0:0:
320,192,40327,1,0,0:0:0:0:
192,192,40412,1,0,0:0:0:0:
448,192,40412,1,0,0:0:0:0:
320,192,40498,1,0,0:0:0:0:
64,192,40584,1,0,0:0:0:0:
192,192,40584,1,0,0:0:0:0:
448,192,40669,1,0,0:0:0:0:
64,192,40755,1,0,0:0:0:0:
192,192,40755,1,0,0:0:0:0:
448,192,40841,1,0,0:0:0:0:
64,192,40927,1,0,0:0:0:0:
320,192,40927,1,0,0:0:0:0:
192,192,41012,1,0,0:0:0:0:
64,192,41098,1,0,0:0:0:0:
320,192,41098,1,0,0:0:0:0:
192,192,41184,1,0,0:0:0:0:
320,192,41269,1,0,0:0:0:0:
448,192,41269,1,0,0:0:0:0:
64,192,41355,1,0,0:0:0:0:
192,192,41355,1,0,0:0:0:0:
320,192,41441,1,0,0:0:0:0:
448,192,41441,1,0,0:0:0:0:
192,192,41527,1,0,0:0:0:0:
64,192,41612,1,0,0:0:0:0:
448,192,41612,1,0,0:0:0:0:
320,192,41698,1,0,0:0:0:0:
192,192,41698,1,0,0:0:0:0:
64,192,41784,1,0,0:0:0:0:
448,192,41784,1,0,0:0:0:0:
320,192,41869,1,0,0:0:0:0:
64,192,41955,1,0,0:0:0:0:
192,192,41955,1,0,0:0:0:0:
320,192,42041,1,0,0:0:0:0:
448,192,42041,1,0,0:0:0:0:
64,192,42127,1,0,0:0:0:0:
192,192,42127,1,0,0:0:0:0:
320,192,42212,1,0,0:0:0:0:
64,192,42298,1,0,0:0:0:0:
448,192,42298,1,0,0:0:0:0:
320,192,42384,1,0,0:0:0:0:
192,192,42384,1,0,0:0:0:0:
64,192,42469,1,0,0:0:0:0:
448,192,42469,1,0,0:0:0:0:
192,192,42555,1,0,0:0:0:0:
320,192,42555,1,0,0:0:0:0:
448,192,42641,1,0,0:0:0:0:
64,192,42641,1,0,0:0:0:0:
192,192,42812,1,0,0:0:0:0:
448,192,42812,1,0,0:0:0:0:
320,192,42984,1,0,0:0:0:0:
448,192,42984,1,0,0:0:0:0:
64,192,42984,1,0,0:0:0:0:
192,192,43155,1,0,0:0:0:0:
320,192,43241,1,0,0:0:0:0:
64,192,43327,1,0,0:0:0:0:
192,192,43327,1,0,0:0:0:0:
448,192,43498,1,0,0:0:0:0:
64,192,43498,1,0,0:0:0:0:
320,192,43669,1,0,0:0:0:0:
448,192,43669,1,0,0:0:0:0:
64,192,43669,1,0,0:0:0:0:
192,192,43669,1,0,0:0:0:0:
448,192,44012,1,0,0:0:0:0:
320,192,44012,1,0,0:0:0:0:
64,192,44012,128,0,45384:0:0:0:0:
448,192,45384,128,0,46069:0:0:0:0:
320,192,46069,128,0,46755:0:0:0:0:
64,192,46755,128,0,48127:0:0:0:0:
448,192,48127,128,0,49498:0:0:0:0:
192,192,49498,128,0,50869:0:0:0:0:
448,192,50869,128,0,51555:0:0:0:0:
320,192,51555,128,0,52241:0:0:0:0:
192,192,52241,128,0,53612:0:0:0:0:
448,192,53612,128,0,54984:0:0:0:0:
64,192,54984,5,0,0:0:0:0:
64,192,55155,128,0,55327:0:0:0:0:
448,192,55155,1,0,0:0:0:0:
320,192,55327,1,0,0:0:0:0:
320,192,55498,128,0,55669:0:0:0:0:
192,192,55498,1,0,0:0:0:0:
64,192,55669,1,0,0:0:0:0:
64,192,55841,128,0,56012:0:0:0:0:
448,192,55841,1,0,0:0:0:0:
320,192,56012,1,0,0:0:0:0:
320,192,56184,128,0,56355:0:0:0:0:
64,192,56184,1,0,0:0:0:0:
192,192,56355,1,0,0:0:0:0:
192,192,56527,128,0,56698:0:0:0:0:
448,192,56527,1,0,0:0:0:0:
320,192,56698,1,0,0:0:0:0:
320,192,56869,128,0,57041:0:0:0:0:
64,192,56869,1,0,0:0:0:0:
192,192,57041,1,0,0:0:0:0:
192,192,57212,128,0,57384:0:0:0:0:
448,192,57212,1,0,0:0:0:0:
320,192,57384,1,0,0:0:0:0:
320,192,57555,128,0,57727:0:0:0:0:
192,192,57555,1,0,0:0:0:0:
64,192,57727,1,0,0:0:0:0:
64,192,57898,128,0,58069:0:0:0:0:
448,192,57898,1,0,0:0:0:0:
320,192,58069,1,0,0:0:0:0:
320,192,58241,128,0,58412:0:0:0:0:
192,192,58241,1,0,0:0:0:0:
64,192,58412,1,0,0:0:0:0:
64,192,58584,128,0,58755:0:0:0:0:
448,192,58584,1,0,0:0:0:0:
320,192,58755,1,0,0:0:0:0:
320,192,58927,128,0,59098:0:0:0:0:
448,192,58927,1,0,0:0:0:0:
192,192,59098,1,0,0:0:0:0:
192,192,59269,128,0,59441:0:0:0:0:
64,192,59269,1,0,0:0:0:0:
448,192,59441,1,0,0:0:0:0:
448,192,59612,128,0,59784:0:0:0:0:
320,192,59612,1,0,0:0:0:0:
192,192,59784,1,0,0:0:0:0:
192,192,59955,128,0,60127:0:0:0:0:
64,192,59955,1,0,0:0:0:0:
448,192,60127,1,0,0:0:0:0:
448,192,60298,128,0,60469:0:0:0:0:
320,192,60298,1,0,0:0:0:0:
192,192,60469,1,0,0:0:0:0:
192,192,60641,128,0,60812:0:0:0:0:
64,192,60641,1,0,0:0:0:0:
320,192,60812,1,0,0:0:0:0:
320,192,60984,128,0,61155:0:0:0:0:
448,192,60984,1,0,0:0:0:0:
192,192,61155,1,0,0:0:0:0:
192,192,61327,128,0,61498:0:0:0:0:
64,192,61327,1,0,0:0:0:0:
320,192,61498,1,0,0:0:0:0:
320,192,61669,128,0,61841:0:0:0:0:
448,192,61669,1,0,0:0:0:0:
64,192,61841,1,0,0:0:0:0:
64,192,62012,128,0,62184:0:0:0:0:
192,192,62012,1,0,0:0:0:0:
448,192,62184,1,0,0:0:0:0:
448,192,62355,128,0,62527:0:0:0:0:
320,192,62355,1,0,0:0:0:0:
64,192,62527,1,0,0:0:0:0:
64,192,62698,128,0,62869:0:0:0:0:
192,192,62698,1,0,0:0:0:0:
448,192,62869,1,0,0:0:0:0:
448,192,63041,128,0,63212:0:0:0:0:
192,192,63041,1,0,0:0:0:0:
320,192,63212,1,0,0:0:0:0:
320,192,63384,128,0,63555:0:0:0:0:
192,192,63384,1,0,0:0:0:0:
64,192,63555,1,0,0:0:0:0:
64,192,63727,128,0,63898:0:0:0:0:
448,192,63727,1,0,0:0:0:0:
320,192,63898,1,0,0:0:0:0:
320,192,64069,128,0,64241:0:0:0:0:
192,192,64069,1,0,0:0:0:0:
64,192,64241,1,0,0:0:0:0:
448,192,64412,1,0,0:0:0:0:
64,192,64412,128,0,64584:0:0:0:0:
320,192,64584,1,0,0:0:0:0:
64,192,64755,1,0,0:0:0:0:
320,192,64755,128,0,64927:0:0:0:0:
192,192,64927,1,0,0:0:0:0:
192,192,65098,128,0,65269:0:0:0:0:
448,192,65098,1,0,0:0:0:0:
320,192,65269,1,0,0:0:0:0:
320,192,65441,128,0,65612:0:0:0:0:
64,192,65441,1,0,0:0:0:0:
192,192,65612,1,0,0:0:0:0:
192,192,65784,128,0,65955:0:0:0:0:
448,192,65784,1,0,0:0:0:0:
64,192,65955,128,0,66041:0:0:0:0:
448,192,65955,1,0,0:0:0:0:
320,192,65955,1,0,0:0:0:0:
64,192,66127,128,0,66298:0:0:0:0:
448,192,66127,128,0,66212:0:0:0:0:
448,192,66298,1,0,0:0:0:0:
320,192,66298,128,0,66384:0:0:0:0:
320,192,66469,128,0,66641:0:0:0:0:
192,192,66469,128,0,66555:0:0:0:0:
64,192,66641,128,0,66727:0:0:0:0:
448,192,66641,1,0,0:0:0:0:
64,192,66812,128,0,66984:0:0:0:0:
448,192,66812,128,0,66898:0:0:0:0:
320,192,66984,128,0,67069:0:0:0:0:
448,192,66984,1,0,0:0:0:0:
320,192,67155,128,0,67327:0:0:0:0:
64,192,67155,128,0,67241:0:0:0:0:
192,192,67327,128,0,67412:0:0:0:0:
64,192,67327,1,0,0:0:0:0:
192,192,67498,128,0,67669:0:0:0:0:
448,192,67498,128,0,67584:0:0:0:0:
320,192,67669,128,0,67755:0:0:0:0:
64,192,67669,1,0,0:0:0:0:
320,192,67841,128,0,68012:0:0:0:0:
64,192,67841,128,0,67927:0:0:0:0:
192,192,68012,128,0,68098:0:0:0:0:
64,192,68012,1,0,0:0:0:0:
192,192,68184,128,0,68355:0:0:0:0:
448,192,68184,128,0,68269:0:0:0:0:
320,192,68355,128,0,68441:0:0:0:0:
64,192,68355,1,0,0:0:0:0:
320,192,68527,128,0,68698:0:0:0:0:
192,192,68527,128,0,68612:0:0:0:0:
64,192,68698,128,0,68784:0:0:0:0:
448,192,68698,1,0,0:0:0:0:
64,192,68869,128,0,69041:0:0:0:0:
448,192,68869,128,0,68955:0:0:0:0:
320,192,69041,128,0,69127:0:0:0:0:
448,192,69041,1,0,0:0:0:0:
320,192,69212,128,0,69384:0:0:0:0:
192,192,69212,128,0,69298:0:0:0:0:
64,192,69384,128,0,69469:0:0:0:0:
448,192,69384,1,0,0:0:0:0:
64,192,69555,128,0,69727:0:0:0:0:
448,192,69555,128,0,69641:0:0:0:0:
320,192,69727,128,0,69812:0:0:0:0:
448,192,69727,1,0,0:0:0:0:
320,192,69898,128,0,70069:0:0:0:0:
64,192,69898,128,0,69984:0:0:0:0:
192,192,70069,128,0,70155:0:0:0:0:
64,192,70069,1,0,0:0:0:0:
192,192,70241,128,0,70412:0:0:0:0:
320,192,70241,128,0,70327:0:0:0:0:
448,192,70412,128,0,70498:0:0:0:0:
64,192,70412,1,0,0:0:0:0:
448,192,70584,128,0,70755:0:0:0:0:
320,192,70584,128,0,70669:0:0:0:0:
192,192,70755,128,0,70841:0:0:0:0:
64,192,70755,1,0,0:0:0:0:
192,192,70927,128,0,71098:0:0:0:0:
320,192,70927,128,0,71012:0:0:0:0:
448,192,71098,128,0,71184:0:0:0:0:
64,192,71098,1,0,0:0:0:0:
448,192,71269,128,0,71441:0:0:0:0:
320,192,71269,128,0,71355:0:0:0:0:
192,192,71441,128,0,71527:0:0:0:0:
64,192,71441,1,0,0:0:0:0:
192,192,71612,128,0,71784:0:0:0:0:
320,192,71612,128,0,71698:0:0:0:0:
320,192,71784,128,0,71869:0:0:0:0:
448,192,71784,1,0,0:0:0:0:
320,192,71955,128,0,72127:0:0:0:0:
192,192,71955,128,0,72041:0:0:0:0:
192,192,72127,128,0,72212:0:0:0:0:
64,192,72127,1,0,0:0:0:0:
192,192,72298,128,0,72469:0:0:0:0:
320,192,72298,128,0,72384:0:0:0:0:
320,192,72469,128,0,72555:0:0:0:0:
448,192,72469,1,0,0:0:0:0:
320,192,72641,128,0,72812:0:0:0:0:
192,192,72641,128,0,72727:0:0:0:0:
64,192,72812,128,0,72898:0:0:0:0:
448,192,72812,1,0,0:0:0:0:
64,192,72984,128,0,73155:0:0:0:0:
448,192,72984,128,0,73069:0:0:0:0:
448,192,73155,128,0,73241:0:0:0:0:
192,192,73155,1,0,0:0:0:0:
448,192,73327,128,0,73498:0:0:0:0:
64,192,73327,128,0,73412:0:0:0:0:
64,192,73498,128,0,73584:0:0:0:0:
320,192,73498,1,0,0:0:0:0:
64,192,73669,128,0,73841:0:0:0:0:
448,192,73669,128,0,73755:0:0:0:0:
448,192,73841,128,0,73927:0:0:0:0:
192,192,73841,1,0,0:0:0:0:
448,192,74012,128,0,74184:0:0:0:0:
64,192,74012,128,0,74098:0:0:0:0:
64,192,74184,128,0,74269:0:0:0:0:
320,192,74184,1,0,0:0:0:0:
64,192,74355,128,0,74527:0:0:0:0:
320,192,74355,128,0,74441:0:0:0:0:
448,192,74527,128,0,74612:0:0:0:0:
192,192,74527,1,0,0:0:0:0:
448,192,74698,128,0,74869:0:0:0:0:
192,192,74698,128,0,74784:0:0:0:0:
64,192,74869,128,0,74955:0:0:0:0:
320,192,74869,1,0,0:0:0:0:
64,192,75041,128,0,75212:0:0:0:0:
320,192,75041,128,0,75127:0:0:0:0:
192,192,75212,1,0,0:0:0:0:
448,192,75212,128,0,75298:0:0:0:0:
448,192,75384,128,0,75555:0:0:0:0:
192,192,75384,128,0,75469:0:0:0:0:
320,192,75555,128,0,75641:0:0:0:0:
64,192,75555,1,0,0:0:0:0:
320,192,75727,128,0,75898:0:0:0:0:
64,192,75727,128,0,75812:0:0:0:0:
448,192,75898,1,0,0:0:0:0:
192,192,75898,128,0,75984:0:0:0:0:
192,192,76069,128,0,76241:0:0:0:0:
448,192,76069,128,0,76155:0:0:0:0:
320,192,76241,128,0,76327:0:0:0:0:
64,192,76241,1,0,0:0:0:0:
320,192,76412,128,0,76584:0:0:0:0:
64,192,76412,128,0,76498:0:0:0:0:
448,192,76584,1,0,0:0:0:0:
192,192,76584,128,0,76669:0:0:0:0:
448,192,76755,128,0,76841:0:0:0:0:
192,192,76755,128,0,76927:0:0:0:0:
64,192,76927,1,0,0:0:0:0:
320,192,76927,1,0,0:0:0:0:
448,192,77098,1,0,0:0:0:0:
64,192,77184,1,0,0:0:0:0:
448,192,77269,1,0,0:0:0:0:
64,192,77441,1,0,0:0:0:0:
320,192,77612,1,0,0:0:0:0:
64,192,77698,1,0,0:0:0:0:
320,192,77784,1,0,0:0:0:0:
64,192,77955,1,0,0:0:0:0:
64,192,78127,1,0,0:0:0:0:
192,192,78298,1,0,0:0:0:0:
320,192,78298,1,0,0:0:0:0:
448,192,78469,1,0,0:0:0:0:
192,192,78555,1,0,0:0:0:0:
448,192,78641,1,0,0:0:0:0:
192,192,78812,1,0,0:0:0:0:
320,192,78984,1,0,0:0:0:0:
192,192,79069,1,0,0:0:0:0:
320,192,79155,1,0,0:0:0:0:
192,192,79327,1,0,0:0:0:0:
192,192,79498,1,0,0:0:0:0:
320,192,79669,1,0,0:0:0:0:
448,192,79669,1,0,0:0:0:0:
64,192,79841,1,0,0:0:0:0:
320,192,79927,1,0,0:0:0:0:
64,192,80012,1,0,0:0:0:0:
320,192,80184,1,0,0:0:0:0:
192,192,80355,1,0,0:0:0:0:
320,192,80441,1,0,0:0:0:0:
192,192,80527,1,0,0:0:0:0:
320,192,80698,1,0,0:0:0:0:
320,192,80869,1,0,0:0:0:0:
448,192,81041,1,0,0:0:0:0:
64,192,81041,1,0,0:0:0:0:
192,192,81212,1,0,0:0:0:0:
448,192,81298,1,0,0:0:0:0:
192,192,81384,1,0,0:0:0:0:
448,192,81555,1,0,0:0:0:0:
64,192,81727,1,0,0:0:0:0:
448,192,81812,1,0,0:0:0:0:
64,192,81898,1,0,0:0:0:0:
448,192,82069,1,0,0:0:0:0:
448,192,82241,1,0,0:0:0:0:
448,192,82412,128,0,82498:0:0:0:0:
64,192,82412,128,0,82669:0:0:0:0:
192,192,82412,128,0,82498:0:0:0:0:
448,192,82584,128,0,82669:0:0:0:0:
192,192,82755,128,0,83012:0:0:0:0:
320,192,82755,128,0,82841:0:0:0:0:
448,192,82927,128,0,83012:0:0:0:0:
320,192,82927,128,0,83012:0:0:0:0:
320,192,83098,128,0,83355:0:0:0:0:
64,192,83098,128,0,83184:0:0:0:0:
64,192,83269,128,0,83355:0:0:0:0:
192,192,83269,128,0,83355:0:0:0:0:
448,192,83441,128,0,83698:0:0:0:0:
192,192,83441,128,0,83527:0:0:0:0:
64,192,83612,128,0,83698:0:0:0:0:
192,192,83612,128,0,83698:0:0:0:0:
64,192,83784,128,0,84041:0:0:0:0:
320,192,83784,128,0,83869:0:0:0:0:
448,192,83784,128,0,83869:0:0:0:0:
320,192,83955,128,0,84041:0:0:0:0:
192,192,83955,128,0,84041:0:0:0:0:
192,192,84127,128,0,84384:0:0:0:0:
448,192,84127,128,0,84212:0:0:0:0:
320,192,84298,128,0,84384:0:0:0:0:
448,192,84298,128,0,84384:0:0:0:0:
320,192,84469,128,0,84727:0:0:0:0:
192,192,84469,128,0,84555:0:0:0:0:
64,192,84469,128,0,84555:0:0:0:0:
192,192,84641,128,0,84727:0:0:0:0:
448,192,84641,128,0,84727:0:0:0:0:
448,192,84812,128,0,85069:0:0:0:0:
64,192,84812,128,0,84898:0:0:0:0:
192,192,84984,128,0,85069:0:0:0:0:
320,192,84984,128,0,85069:0:0:0:0:
320,192,85155,1,0,0:0:0:0:
448,192,85155,1,0,0:0:0:0:
64,192,85155,1,0,0:0:0:0:
192,192,85241,1,0,0:0:0:0:
320,192,85327,1,0,0:0:0:0:
448,192,85327,1,0,0:0:0:0:
192,192,85412,1,0,0:0:0:0:
320,192,85498,1,0,0:0:0:0:
448,192,85498,1,0,0:0:0:0:
64,192,85498,1,0,0:0:0:0:
192,192,85584,1,0,0:0:0:0:
320,192,85669,1,0,0:0:0:0:
448,192,85669,1,0,0:0:0:0:
192,192,85841,1,0,0:0:0:0:
64,192,85841,1,0,0:0:0:0:
448,192,85841,1,0,0:0:0:0:
320,192,85927,1,0,0:0:0:0:
192,192,86012,1,0,0:0:0:0:
64,192,86012,1,0,0:0:0:0:
320,192,86184,1,0,0:0:0:0:
448,192,86184,1,0,0:0:0:0:
64,192,86184,1,0,0:0:0:0:
192,192,86269,1,0,0:0:0:0:
320,192,86355,1,0,0:0:0:0:
448,192,86355,1,0,0:0:0:0:
64,192,86355,1,0,0:0:0:0:
192,192,86441,1,0,0:0:0:0:
64,192,87898,128,0,88498:0:0:0:0:
192,192,87898,128,0,88498:0:0:0:0:
320,192,87898,128,0,88498:0:0:0:0:
448,192,87898,128,0,88498:0:0:0:0:
64,192,88584,128,0,88927:0:0:0:0:
320,192,88584,1,0,0:0:0:0:
448,192,88584,128,0,88669:0:0:0:0:
192,192,88669,128,0,89012:0:0:0:0:
320,192,88755,128,0,88927:0:0:0:0:
448,192,88841,1,0,0:0:0:0:
448,192,89012,128,0,89184:0:0:0:0:
320,192,89098,128,0,89269:0:0:0:0:
64,192,89098,1,0,0:0:0:0:
192,192,89184,128,0,89355:0:0:0:0:
64,192,89269,128,0,89441:0:0:0:0:
448,192,89355,1,0,0:0:0:0:
320,192,89441,1,0,0:0:0:0:
320,192,89527,1,0,0:0:0:0:
448,192,89612,1,0,0:0:0:0:
192,192,89612,128,0,89784:0:0:0:0:
448,192,89698,1,0,0:0:0:0:
64,192,89784,1,0,0:0:0:0:
320,192,89784,128,0,89955:0:0:0:0:
64,192,89869,1,0,0:0:0:0:
448,192,89955,1,0,0:0:0:0:
192,192,89955,128,0,90127:0:0:0:0:
448,192,90041,1,0,0:0:0:0:
64,192,90127,1,0,0:0:0:0:
320,192,90127,128,0,90212:0:0:0:0:
64,192,90212,1,0,0:0:0:0:
192,192,90298,128,0,90384:0:0:0:0:
448,192,90298,128,0,90384:0:0:0:0:
192,192,90469,128,0,90555:0:0:0:0:
448,192,90469,128,0,90555:0:0:0:0:
448,192,90641,1,0,0:0:0:0:
64,192,90641,128,0,90984:0:0:0:0:
320,192,90812,128,0,91155:0:0:0:0:
192,192,90984,128,0,91327:0:0:0:0:
448,192,91155,128,0,91498:0:0:0:0:
320,192,91327,128,0,91669:0:0:0:0:
64,192,91327,1,0,0:0:0:0:
64,192,91498,128,0,91841:0:0:0:0:
448,192,91669,128,0,92012:0:0:0:0:
192,192,91669,1,0,0:0:0:0:
192,192,91841,128,0,92184:0:0:0:0:
320,192,91841,1,0,0:0:0:0:
320,192,92012,128,0,92355:0:0:0:0:
64,192,92012,1,0,0:0:0:0:
64,192,92184,128,0,92527:0:0:0:0:
448,192,92184,1,0,0:0:0:0:
448,192,92355,128,0,92698:0:0:0:0:
192,192,92355,1,0,0:0:0:0:
192,192,92527,128,0,92869:0:0:0:0:
320,192,92698,128,0,93041:0:0:0:0:
64,192,92698,1,0,0:0:0:0:
64,192,92869,128,0,93212:0:0:0:0:
448,192,92869,1,0,0:0:0:0:
448,192,93041,128,0,93298:0:0:0:0:
192,192,93041,1,0,0:0:0:0:
320,192,93212,128,0,93384:0:0:0:0:
64,192,93384,128,0,93555:0:0:0:0:
192,192,93384,128,0,93469:0:0:0:0:
448,192,93469,128,0,93641:0:0:0:0:
320,192,93555,128,0,93727:0:0:0:0:
192,192,93641,128,0,93812:0:0:0:0:
64,192,93727,128,0,93898:0:0:0:0:
448,192,93812,1,0,0:0:0:0:
320,192,93898,1,0,0:0:0:0:
192,192,93984,1,0,0:0:0:0:
448,192,94069,1,0,0:0:0:0:
64,192,94069,1,0,0:0:0:0:
320,192,94069,128,0,94241:0:0:0:0:
64,192,94155,1,0,0:0:0:0:
448,192,94241,1,0,0:0:0:0:
192,192,94241,128,0,94412:0:0:0:0:
448,192,94327,1,0,0:0:0:0:
64,192,94412,1,0,0:0:0:0:
320,192,94412,128,0,94584:0:0:0:0:
64,192,94498,1,0,0:0:0:0:
448,192,94584,1,0,0:0:0:0:
192,192,94584,128,0,94669:0:0:0:0:
448,192,94669,1,0,0:0:0:0:
64,192,94927,128,0,95012:0:0:0:0:
320,192,94927,128,0,95012:0:0:0:0:
64,192,95098,128,0,95184:0:0:0:0:
320,192,95098,128,0,95184:0:0:0:0:
448,192,95098,128,0,95184:0:0:0:0:
192,192,95269,128,0,95355:0:0:0:0:
448,192,95269,128,0,95355:0:0:0:0:
192,192,95441,128,0,95527:0:0:0:0:
448,192,95441,128,0,95784:0:0:0:0:
64,192,95441,128,0,95698:0:0:0:0:
320,192,95527,128,0,95612:0:0:0:0:
192,192,95612,128,0,96041:0:0:0:0:
320,192,95698,128,0,96041:0:0:0:0:
64,192,95784,128,0,95869:0:0:0:0:
448,192,95869,128,0,96041:0:0:0:0:
64,192,95955,128,0,96041:0:0:0:0:
320,192,96127,128,0,96469:0:0:0:0:
64,192,96127,1,0,0:0:0:0:
448,192,96298,128,0,96641:0:0:0:0:
64,192,96469,128,0,96812:0:0:0:0:
192,192,96641,128,0,96984:0:0:0:0:
320,192,96812,128,0,97155:0:0:0:0:
448,192,96812,1,0,0:0:0:0:
64,192,96984,128,0,97327:0:0:0:0:
448,192,97155,128,0,97412:0:0:0:0:
192,192,97155,1,0,0:0:0:0:
192,192,97327,128,0,97412:0:0:0:0:
320,192,97327,128,0,97498:0:0:0:0:
64,192,97498,128,0,97669:0:0:0:0:
448,192,97498,128,0,97584:0:0:0:0:
192,192,97584,128,0,97755:0:0:0:0:
320,192,97669,128,0,97841:0:0:0:0:
448,192,97755,128,0,97927:0:0:0:0:
64,192,97755,1,0,0:0:0:0:
192,192,97841,128,0,98184:0:0:0:0:
448,192,98012,128,0,98355:0:0:0:0:
64,192,98012,1,0,0:0:0:0:
64,192,98184,128,0,98527:0:0:0:0:
320,192,98184,1,0,0:0:0:0:
320,192,98355,128,0,98784:0:0:0:0:
192,192,98527,128,0,98784:0:0:0:0:
448,192,98527,1,0,0:0:0:0:
64,192,98698,128,0,98784:0:0:0:0:
64,192,98869,128,0,99469:0:0:0:0:
192,192,98869,128,0,99469:0:0:0:0:
320,192,98869,128,0,99469:0:0:0:0:
448,192,98869,128,0,99469:0:0:0:0:
448,192,99555,128,0,99898:0:0:0:0:
64,192,99555,128,0,99641:0:0:0:0:
192,192,99555,1,0,0:0:0:0:
320,192,99641,128,0,99984:0:0:0:0:
192,192,99727,128,0,99898:0:0:0:0:
64,192,99812,1,0,0:0:0:0:
64,192,99984,128,0,100155:0:0:0:0:
192,192,100069,128,0,100241:0:0:0:0:
448,192,100069,1,0,0:0:0:0:
320,192,100155,128,0,100327:0:0:0:0:
448,192,100241,128,0,100412:0:0:0:0:
64,192,100327,1,0,0:0:0:0:
192,192,100412,1,0,0:0:0:0:
192,192,100498,1,0,0:0:0:0:
320,192,100584,128,0,100755:0:0:0:0:
64,192,100584,1,0,0:0:0:0:
64,192,100669,1,0,0:0:0:0:
448,192,100755,1,0,0:0:0:0:
192,192,100755,128,0,100927:0:0:0:0:
448,192,100841,1,0,0:0:0:0:
320,192,100927,128,0,101098:0:0:0:0:
64,192,100927,1,0,0:0:0:0:
64,192,101012,1,0,0:0:0:0:
192,192,101098,128,0,101184:0:0:0:0:
448,192,101098,1,0,0:0:0:0:
448,192,101184,1,0,0:0:0:0:
320,192,101269,128,0,101355:0:0:0:0:
64,192,101269,128,0,101355:0:0:0:0:
320,192,101441,128,0,101527:0:0:0:0:
64,192,101441,128,0,101527:0:0:0:0:
448,192,101612,1,0,0:0:0:0:
64,192,101612,128,0,101955:0:0:0:0:
320,192,101784,128,0,102127:0:0:0:0:
192,192,101955,128,0,102298:0:0:0:0:
448,192,102127,128,0,102469:0:0:0:0:
320,192,102298,128,0,102641:0:0:0:0:
64,192,102298,1,0,0:0:0:0:
64,192,102469,128,0,102812:0:0:0:0:
448,192,102641,128,0,102984:0:0:0:0:
192,192,102641,1,0,0:0:0:0:
192,192,102812,128,0,103155:0:0:0:0:
320,192,102812,1,0,0:0:0:0:
320,192,102984,128,0,103327:0:0:0:0:
64,192,102984,1,0,0:0:0:0:
64,192,103155,128,0,103498:0:0:0:0:
448,192,103155,1,0,0:0:0:0:
448,192,103327,128,0,103669:0:0:0:0:
192,192,103327,1,0,0:0:0:0:
192,192,103498,128,0,103841:0:0:0:0:
320,192,103669,128,0,104012:0:0:0:0:
64,192,103669,1,0,0:0:0:0:
64,192,103841,128,0,104184:0:0:0:0:
448,192,103841,1,0,0:0:0:0:
448,192,104012,128,0,104355:0:0:0:0:
192,192,104012,1,0,0:0:0:0:
320,192,104184,128,0,104441:0:0:0:0:
192,192,104355,128,0,104527:0:0:0:0:
64,192,104355,128,0,104612:0:0:0:0:
448,192,104441,1,0,0:0:0:0:
320,192,104527,1,0,0:0:0:0:
192,192,104612,1,0,0:0:0:0:
64,192,104698,128,0,104955:0:0:0:0:
320,192,104698,1,0,0:0:0:0:
448,192,104698,1,0,0:0:0:0:
192,192,104784,128,0,104955:0:0:0:0:
320,192,104869,128,0,104955:0:0:0:0:
448,192,104955,1,0,0:0:0:0:
64,192,105041,128,0,105127:0:0:0:0:
192,192,105041,1,0,0:0:0:0:
320,192,105127,128,0,105212:0:0:0:0:
192,192,105212,128,0,105298:0:0:0:0:
448,192,105298,128,0,105384:0:0:0:0:
64,192,105384,1,0,0:0:0:0:
320,192,105384,128,0,105469:0:0:0:0:
192,192,105469,128,0,105555:0:0:0:0:
448,192,105555,128,0,105641:0:0:0:0:
320,192,105641,128,0,105727:0:0:0:0:
448,192,105727,128,0,105812:0:0:0:0:
64,192,105727,1,0,0:0:0:0:
192,192,105812,128,0,105898:0:0:0:0:
320,192,105898,128,0,105984:0:0:0:0:
64,192,105984,128,0,106069:0:0:0:0:
192,192,106069,128,0,106155:0:0:0:0:
320,192,106069,128,0,106155:0:0:0:0:
64,192,106155,128,0,106241:0:0:0:0:
320,192,106241,128,0,106327:0:0:0:0:
192,192,106327,128,0,106412:0:0:0:0:
448,192,106412,128,0,106498:0:0:0:0:
64,192,106412,1,0,0:0:0:0:
320,192,106498,128,0,106584:0:0:0:0:
448,192,106584,128,0,106669:0:0:0:0:
192,192,106669,128,0,106755:0:0:0:0:
320,192,106755,128,0,106841:0:0:0:0:
448,192,106755,1,0,0:0:0:0:
64,192,106841,128,0,106927:0:0:0:0:
192,192,106927,128,0,107012:0:0:0:0:
64,192,107012,128,0,107098:0:0:0:0:
448,192,107098,1,0,0:0:0:0:
320,192,107098,128,0,107441:0:0:0:0:
192,192,107269,128,0,107612:0:0:0:0:
64,192,107269,1,0,0:0:0:0:
64,192,107441,128,0,107784:0:0:0:0:
448,192,107441,1,0,0:0:0:0:
448,192,107612,128,0,107955:0:0:0:0:
320,192,107612,1,0,0:0:0:0:
320,192,107784,128,0,108127:0:0:0:0:
192,192,107784,1,0,0:0:0:0:
192,192,107955,128,0,108298:0:0:0:0:
64,192,107955,1,0,0:0:0:0:
64,192,108127,128,0,108298:0:0:0:0:
448,192,108127,1,0,0:0:0:0:
320,192,108298,1,0,0:0:0:0:
448,192,108298,1,0,0:0:0:0:
64,192,108469,128,0,108812:0:0:0:0:
448,192,108469,128,0,109412:0:0:0:0:
192,192,108984,128,0,109412:0:0:0:0:
64,192,108984,128,0,109755:0:0:0:0:
320,192,109498,128,0,109755:0:0:0:0:
192,192,109498,128,0,109755:0:0:0:0:
448,192,109498,128,0,109755:0:0:0:0:
