osu file format v14

[General]
AudioFilename: audio.mp3
AudioLeadIn: 0
PreviewTime: 241340
Countdown: 0
SampleSet: Normal
StackLeniency: 0.7
Mode: 1
LetterboxInBreaks: 0
WidescreenStoryboard: 1

[Editor]
DistanceSpacing: 0.9
BeatDivisor: 4
GridSize: 32
TimelineZoom: 3

[Metadata]
Title:Lost Emotion (Amane UK Hardcore Remix)
TitleUnicode:Lost Emotion (Amane UK Hardcore Remix)
Artist:Masayoshi Minoshima feat. nomico
ArtistUnicode:Masayoshi Minoshima feat. nomico
Creator:A-40
Version:Emotionless
Source:東方心綺楼 ~ Hopeless Masquerade.
Tags:alstroemeria records c88 東方project marathon pop culture 4 3 秦こころ hata no kokoro theme edm shinkirou touhou 天音 例大祭 reitaisai 12 亡失のエモーション The Lost Emotion Boushitsu japanese electronic video game zun th13.5 rolling contact 簑島正佳 alst
BeatmapID:2865712
BeatmapSetID:1387524

[Difficulty]
HPDrainRate:5
CircleSize:5
OverallDifficulty:6.5
ApproachRate:5
SliderMultiplier:1.4
SliderTickRate:1

[Events]
//Background and Video events
0,0,"bg.jpg",0,0
//Break Periods
//Storyboard Layer 0 (Background)
//Storyboard Layer 1 (Fail)
//Storyboard Layer 2 (Pass)
//Storyboard Layer 3 (Foreground)
//Storyboard Layer 4 (Overlay)
//Storyboard Sound Samples

[TimingPoints]
151,342.857142857143,4,1,0,85,1,0
42832,-102.040816326531,4,1,0,85,0,0
43004,-104.166666666667,4,1,0,85,0,0
43175,-106.382978723404,4,1,0,85,0,0
43261,-107.52688172043,4,1,0,85,0,0
43347,-108.695652173913,4,1,0,85,0,0
43518,-109.89010989011,4,1,0,85,0,0
43689,-111.111111111111,4,1,0,85,0,0
44032,-113.636363636364,4,1,0,70,0,0
76947,-100,4,1,0,85,0,0
87922,-95.2380952380952,4,1,0,90,0,1
108493,-95.2380952380952,4,1,0,90,0,0
109865,-100,4,1,0,85,0,0
126322,-90.9090909090909,4,1,0,85,0,0
130436,-95.6937799043062,4,1,0,85,0,0
130604,-101.010101010101,4,1,0,85,0,0
130689,-102.040816326531,4,1,0,85,0,0
130775,-103.092783505155,4,1,0,85,0,0
130947,-104.166666666667,4,1,0,85,0,0
131032,-105.263157894737,4,1,0,85,0,0
131118,-106.382978723404,4,1,0,85,0,0
131204,-107.52688172043,4,1,0,85,0,0
131289,-108.695652173913,4,1,0,85,0,0
131461,-111.111111111111,4,1,0,85,0,0
131804,-113.636363636364,4,1,0,70,0,0
142775,-100,4,1,0,85,0,0
153061,-99.009900990099,4,1,0,85,0,0
153318,-98.0392156862745,4,1,0,85,0,0
153489,-97.0873786407767,4,1,0,85,0,0
153575,-96.1538461538461,4,1,0,85,0,0
153751,-95.2380952380952,4,1,0,95,0,1
174322,-95.2380952380952,4,1,0,95,0,0
174489,-96.1538461538461,4,1,0,95,0,0
174661,-97.0873786407767,4,1,0,95,0,0
174832,-98.0392156862745,4,1,0,95,0,0
175004,-99.009900990099,4,1,0,95,0,0
175175,-100,4,1,0,95,0,0
175693,-105.263157894737,4,1,0,95,0,1
181175,-86.9565217391304,4,1,0,95,0,1
185289,-88.4955752212389,4,1,0,95,0,1
185375,-89.6458987001345,4,1,0,95,0,1
185461,-90.9090909090909,4,1,0,95,0,1
185632,-91.743119266055,4,1,0,95,0,1
185804,-93.4579439252336,4,1,0,95,0,1
185889,-94.3396226415094,4,1,0,95,0,1
185975,-95.2380952380952,4,1,0,95,0,1
186061,-96.1538461538461,4,1,0,95,0,1
186147,-97.0873786407767,4,1,0,95,0,1
186318,-99.009900990099,4,1,0,95,0,1
186404,-100,4,1,0,95,0,1
186489,-101.010101010101,4,1,0,95,0,1
186661,-105.263157894737,4,1,0,95,0,1
192147,-86.9565217391304,4,1,0,95,0,1
196262,-88.4955752212389,4,1,0,95,0,1
196432,-90.9090909090909,4,1,0,95,0,1
196604,-93.4579439252336,4,1,0,95,0,1
196775,-95.2380952380952,4,1,0,95,0,1
196861,-97.0873786407767,4,1,0,95,0,1
196947,-99.009900990099,4,1,0,95,0,1
197118,-102.040816326531,4,1,0,95,0,1
197289,-105.263157894737,4,1,0,95,0,1
197636,-120.481927710843,4,1,0,70,0,0
219233,-116.959064327485,4,1,0,70,0,0
219576,-113.636363636364,4,1,0,70,0,0
230547,-100,4,1,0,85,0,0
235861,-97.5609756097561,4,1,0,85,0,0
236032,-95.2380952380952,4,1,0,85,0,0
241522,-90.9090909090909,4,1,0,100,0,1
262093,-90.9090909090909,4,1,0,100,0,0
263465,-90.9090909090909,4,1,0,100,0,1
284204,-91.743119266055,4,1,0,100,0,1
284375,-92.5925925925926,4,1,0,100,0,1
284547,-93.4579439252336,4,1,0,100,0,1
284632,-94.3396226415094,4,1,0,100,0,1
284718,-95.2380952380952,4,1,0,100,0,1
284889,-96.1538461538461,4,1,0,100,0,1
285061,-97.0873786407767,4,1,0,100,0,1
285408,-100,4,1,0,85,0,0

[HitObjects]
256,192,151,5,12,0:0:0:0:
256,192,322,1,0,0:0:0:0:
256,192,493,1,8,0:0:0:0:
256,192,665,1,8,0:0:0:0:
256,192,751,1,0,0:0:0:0:
256,192,836,1,0,0:0:0:0:
256,192,922,1,8,0:0:0:0:
256,192,1093,1,8,0:0:0:0:
256,192,1179,1,0,0:0:0:0:
256,192,1351,1,8,0:0:0:0:
256,192,1522,1,0,0:0:0:0:
256,192,1608,1,0,0:0:0:0:
256,192,1693,1,8,0:0:0:0:
256,192,1865,1,8,0:0:0:0:
256,192,2036,1,0,0:0:0:0:
256,192,2208,1,8,0:0:0:0:
256,192,2379,1,0,0:0:0:0:
256,192,2465,1,8,0:0:0:0:
256,192,2551,1,0,0:0:0:0:
256,192,2722,1,8,0:0:0:0:
256,192,2893,1,0,0:0:0:0:
256,192,2979,1,0,0:0:0:0:
256,192,3065,1,8,0:0:0:0:
256,192,3236,1,8,0:0:0:0:
256,192,3408,1,8,0:0:0:0:
256,192,3493,1,8,0:0:0:0:
256,192,3579,1,0,0:0:0:0:
256,192,3665,1,8,0:0:0:0:
256,192,3836,1,8,0:0:0:0:
256,192,3922,1,0,0:0:0:0:
256,192,4093,1,8,0:0:0:0:
256,192,4265,1,0,0:0:0:0:
256,192,4351,1,0,0:0:0:0:
256,192,4436,1,8,0:0:0:0:
256,192,4608,1,8,0:0:0:0:
256,192,4779,1,0,0:0:0:0:
256,192,4865,1,8,0:0:0:0:
256,192,4951,1,0,0:0:0:0:
256,192,5122,1,8,0:0:0:0:
256,192,5208,1,8,0:0:0:0:
256,192,5293,1,0,0:0:0:0:
256,192,5465,1,8,0:0:0:0:
256,192,5636,1,0,0:0:0:0:
256,192,5722,1,8,0:0:0:0:
256,192,5808,1,0,0:0:0:0:
256,192,5979,1,8,0:0:0:0:
256,192,6151,1,8,0:0:0:0:
256,192,6236,1,0,0:0:0:0:
256,192,6322,1,0,0:0:0:0:
256,192,6408,1,8,0:0:0:0:
256,192,6579,1,8,0:0:0:0:
256,192,6665,1,0,0:0:0:0:
256,192,6836,1,8,0:0:0:0:
256,192,7008,1,0,0:0:0:0:
256,192,7093,1,0,0:0:0:0:
256,192,7179,1,8,0:0:0:0:
256,192,7351,1,8,0:0:0:0:
256,192,7522,1,0,0:0:0:0:
256,192,7693,1,8,0:0:0:0:
256,192,7865,1,0,0:0:0:0:
256,192,7951,1,8,0:0:0:0:
256,192,8036,1,0,0:0:0:0:
256,192,8208,1,8,0:0:0:0:
256,192,8379,1,0,0:0:0:0:
256,192,8465,1,0,0:0:0:0:
256,192,8551,1,8,0:0:0:0:
256,192,8722,1,8,0:0:0:0:
256,192,8893,1,8,0:0:0:0:
256,192,8979,1,8,0:0:0:0:
256,192,9065,1,0,0:0:0:0:
256,192,9151,1,8,0:0:0:0:
256,192,9322,1,8,0:0:0:0:
256,192,9408,1,0,0:0:0:0:
256,192,9579,1,0,0:0:0:0:
256,192,9751,1,8,0:0:0:0:
256,192,9922,1,0,0:0:0:0:
256,192,10008,1,0,0:0:0:0:
256,192,10093,1,8,0:0:0:0:
256,192,10265,1,8,0:0:0:0:
256,192,10436,1,8,0:0:0:0:
256,192,10522,1,8,0:0:0:0:
256,192,10608,1,0,0:0:0:0:
256,192,10779,1,8,0:0:0:0:
256,192,10865,1,8,0:0:0:0:
256,192,10951,1,0,0:0:0:0:
256,192,11036,1,0,0:0:0:0:
256,192,11122,1,12,0:0:0:0:
256,192,11379,1,8,0:0:0:0:
256,192,11465,1,0,0:0:0:0:
256,192,11636,1,8,0:0:0:0:
256,192,11808,1,0,0:0:0:0:
256,192,11893,1,8,0:0:0:0:
256,192,12065,1,8,0:0:0:0:
256,192,12151,1,0,0:0:0:0:
256,192,12322,1,8,0:0:0:0:
256,192,12408,1,8,0:0:0:0:
256,192,12493,1,0,0:0:0:0:
256,192,12751,1,0,0:0:0:0:
256,192,12836,1,8,0:0:0:0:
256,192,13008,1,8,0:0:0:0:
256,192,13179,1,0,0:0:0:0:
256,192,13265,1,8,0:0:0:0:
256,192,13351,1,0,0:0:0:0:
256,192,13522,1,8,0:0:0:0:
256,192,13608,1,8,0:0:0:0:
256,192,13693,1,0,0:0:0:0:
256,192,13779,1,0,0:0:0:0:
256,192,13865,1,12,0:0:0:0:
256,192,14122,1,8,0:0:0:0:
256,192,14208,1,0,0:0:0:0:
256,192,14379,1,8,0:0:0:0:
256,192,14551,1,0,0:0:0:0:
256,192,14636,1,8,0:0:0:0:
256,192,14808,1,8,0:0:0:0:
256,192,14893,1,0,0:0:0:0:
256,192,15065,1,8,0:0:0:0:
256,192,15151,1,8,0:0:0:0:
256,192,15236,1,0,0:0:0:0:
256,192,15493,1,0,0:0:0:0:
256,192,15579,1,8,0:0:0:0:
256,192,15751,1,8,0:0:0:0:
256,192,15922,1,0,0:0:0:0:
256,192,16008,1,8,0:0:0:0:
256,192,16093,1,0,0:0:0:0:
256,192,16265,1,0,0:0:0:0:
256,192,16436,1,8,0:0:0:0:
256,192,16608,1,12,0:0:0:0:
256,192,16779,1,0,0:0:0:0:
256,192,16951,1,8,0:0:0:0:
256,192,17036,1,8,0:0:0:0:
256,192,17122,1,0,0:0:0:0:
256,192,17293,1,8,0:0:0:0:
256,192,17465,1,8,0:0:0:0:
256,192,17636,1,0,0:0:0:0:
256,192,17722,1,0,0:0:0:0:
256,192,17808,1,8,0:0:0:0:
256,192,17979,1,12,0:0:0:0:
256,192,18151,1,0,0:0:0:0:
256,192,18322,1,8,0:0:0:0:
256,192,18408,1,8,0:0:0:0:
256,192,18493,1,0,0:0:0:0:
256,192,18579,1,0,0:0:0:0:
256,192,18665,1,8,0:0:0:0:
256,192,18836,1,8,0:0:0:0:
256,192,18922,1,8,0:0:0:0:
256,192,19008,1,0,0:0:0:0:
256,192,19179,1,8,0:0:0:0:
256,192,19351,1,0,0:0:0:0:
256,192,19436,1,0,0:0:0:0:
256,192,19522,1,8,0:0:0:0:
256,192,19608,1,0,0:0:0:0:
256,192,19693,1,8,0:0:0:0:
256,192,19779,1,8,0:0:0:0:
256,192,19865,1,0,0:0:0:0:
256,192,19951,1,8,0:0:0:0:
256,192,20036,1,0,0:0:0:0:
256,192,20122,1,0,0:0:0:0:
256,192,20208,1,8,0:0:0:0:
256,192,20293,1,8,0:0:0:0:
256,192,20379,1,0,0:0:0:0:
256,192,20465,1,8,0:0:0:0:
256,192,22093,1,12,0:0:0:0:
256,192,22265,1,0,0:0:0:0:
256,192,22436,1,8,0:0:0:0:
256,192,22608,1,0,0:0:0:0:
256,192,22693,1,8,0:0:0:0:
256,192,22779,1,0,0:0:0:0:
256,192,22951,1,8,0:0:0:0:
256,192,23122,1,8,0:0:0:0:
256,192,23293,1,0,0:0:0:0:
256,192,23379,1,0,0:0:0:0:
256,192,23465,1,8,0:0:0:0:
256,192,23636,1,8,0:0:0:0:
256,192,23808,1,8,0:0:0:0:
256,192,23979,1,0,0:0:0:0:
256,192,24065,1,0,0:0:0:0:
256,192,24151,1,8,0:0:0:0:
256,192,24322,1,0,0:0:0:0:
256,192,24493,1,8,0:0:0:0:
256,192,24665,1,8,0:0:0:0:
256,192,24836,1,0,0:0:0:0:
256,192,24922,1,0,0:0:0:0:
256,192,25008,1,8,0:0:0:0:
256,192,25179,1,8,0:0:0:0:
256,192,25351,1,0,0:0:0:0:
256,192,25436,1,8,0:0:0:0:
256,192,25522,1,0,0:0:0:0:
256,192,25693,1,8,0:0:0:0:
256,192,25865,1,8,0:0:0:0:
256,192,26036,1,0,0:0:0:0:
256,192,26122,1,0,0:0:0:0:
256,192,26208,1,8,0:0:0:0:
256,192,26379,1,8,0:0:0:0:
256,192,26551,1,8,0:0:0:0:
256,192,26722,1,0,0:0:0:0:
256,192,26808,1,0,0:0:0:0:
256,192,26893,1,8,0:0:0:0:
256,192,27065,1,0,0:0:0:0:
256,192,27236,1,8,0:0:0:0:
256,192,27408,1,0,0:0:0:0:
256,192,27579,1,0,0:0:0:0:
256,192,27665,1,0,0:0:0:0:
256,192,27751,1,8,0:0:0:0:
256,192,27922,1,8,0:0:0:0:
256,192,28093,1,0,0:0:0:0:
256,192,28179,1,8,0:0:0:0:
256,192,28265,1,0,0:0:0:0:
256,192,28436,1,8,0:0:0:0:
256,192,28608,1,8,0:0:0:0:
256,192,28693,1,8,0:0:0:0:
256,192,28779,1,0,0:0:0:0:
256,192,28865,1,0,0:0:0:0:
256,192,28951,1,8,0:0:0:0:
256,192,29122,1,8,0:0:0:0:
256,192,29293,1,8,0:0:0:0:
256,192,29465,1,0,0:0:0:0:
256,192,29551,1,0,0:0:0:0:
256,192,29636,1,8,0:0:0:0:
256,192,29808,1,0,0:0:0:0:
256,192,29979,1,8,0:0:0:0:
256,192,30065,1,0,0:0:0:0:
256,192,30151,1,8,0:0:0:0:
256,192,30322,1,0,0:0:0:0:
256,192,30408,1,0,0:0:0:0:
256,192,30493,1,8,0:0:0:0:
256,192,30665,1,8,0:0:0:0:
256,192,30836,1,0,0:0:0:0:
256,192,30922,1,8,0:0:0:0:
256,192,31008,1,0,0:0:0:0:
256,192,31179,1,8,0:0:0:0:
256,192,31351,1,8,0:0:0:0:
256,192,31436,1,8,0:0:0:0:
256,192,31522,1,0,0:0:0:0:
256,192,31608,1,0,0:0:0:0:
256,192,31693,1,8,0:0:0:0:
256,192,31865,1,8,0:0:0:0:
256,192,32036,1,8,0:0:0:0:
256,192,32208,1,0,0:0:0:0:
256,192,32293,1,0,0:0:0:0:
256,192,32379,1,8,0:0:0:0:
256,192,32551,1,0,0:0:0:0:
256,192,32722,1,8,0:0:0:0:
256,192,32808,1,8,0:0:0:0:
256,192,32893,1,0,0:0:0:0:
256,192,32979,1,0,0:0:0:0:
256,192,33065,1,12,0:0:0:0:
256,192,33236,1,0,0:0:0:0:
256,192,33322,1,0,0:0:0:0:
256,192,33408,1,8,0:0:0:0:
256,192,33579,1,0,0:0:0:0:
256,192,33751,1,8,0:0:0:0:
256,192,33836,1,8,0:0:0:0:
256,192,33922,1,0,0:0:0:0:
256,192,34008,1,0,0:0:0:0:
256,192,34093,1,8,0:0:0:0:
256,192,34265,1,0,0:0:0:0:
256,192,34436,1,8,0:0:0:0:
256,192,34608,1,0,0:0:0:0:
256,192,34693,1,0,0:0:0:0:
256,192,34779,1,8,0:0:0:0:
256,192,34951,1,8,0:0:0:0:
256,192,35122,1,0,0:0:0:0:
256,192,35208,1,0,0:0:0:0:
256,192,35293,1,8,0:0:0:0:
256,192,35379,1,0,0:0:0:0:
256,192,35465,1,8,0:0:0:0:
256,192,35636,1,8,0:0:0:0:
256,192,35808,1,0,0:0:0:0:
256,192,35979,1,0,0:0:0:0:
256,192,36065,1,0,0:0:0:0:
256,192,36151,1,8,0:0:0:0:
256,192,36322,1,0,0:0:0:0:
256,192,36493,1,8,0:0:0:0:
256,192,36579,1,0,0:0:0:0:
256,192,36665,1,0,0:0:0:0:
256,192,36751,1,0,0:0:0:0:
256,192,36836,1,8,0:0:0:0:
256,192,37008,1,0,0:0:0:0:
256,192,37179,1,8,0:0:0:0:
256,192,37351,1,0,0:0:0:0:
256,192,37436,1,0,0:0:0:0:
256,192,37522,1,8,0:0:0:0:
256,192,37693,1,8,0:0:0:0:
256,192,37865,1,0,0:0:0:0:
256,192,37951,1,0,0:0:0:0:
256,192,38036,1,8,0:0:0:0:
256,192,38122,1,8,0:0:0:0:
256,192,38208,1,0,0:0:0:0:
256,192,38293,1,0,0:0:0:0:
256,192,38379,1,0,0:0:0:0:
256,192,38465,1,0,0:0:0:0:
256,192,38551,1,12,0:0:0:0:
256,192,38722,1,0,0:0:0:0:
256,192,38893,1,8,0:0:0:0:
256,192,38979,1,8,0:0:0:0:
256,192,39065,1,0,0:0:0:0:
256,192,39236,1,8,0:0:0:0:
256,192,39408,1,8,0:0:0:0:
256,192,39579,1,0,0:0:0:0:
256,192,39665,1,0,0:0:0:0:
256,192,39751,1,8,0:0:0:0:
256,192,39922,1,12,0:0:0:0:
256,192,40093,1,0,0:0:0:0:
256,192,40265,1,8,0:0:0:0:
256,192,40351,1,8,0:0:0:0:
256,192,40436,1,0,0:0:0:0:
256,192,40522,1,0,0:0:0:0:
256,192,40608,1,12,0:0:0:0:
256,192,40779,1,8,0:0:0:0:
256,192,40951,1,0,0:0:0:0:
256,192,41036,1,0,0:0:0:0:
256,192,41122,1,8,0:0:0:0:
256,192,41293,1,0,0:0:0:0:
256,192,41379,1,0,0:0:0:0:
256,192,41465,1,8,0:0:0:0:
256,192,41551,1,0,0:0:0:0:
256,192,41636,1,8,0:0:0:0:
256,192,41722,1,8,0:0:0:0:
256,192,41808,1,0,0:0:0:0:
256,192,41893,1,8,0:0:0:0:
256,192,41979,1,0,0:0:0:0:
256,192,42065,1,0,0:0:0:0:
256,192,42151,1,8,0:0:0:0:
256,192,42236,1,0,0:0:0:0:
256,192,42322,1,8,0:0:0:0:
256,192,42408,1,8,0:0:0:0:
256,192,42493,1,0,0:0:0:0:
256,192,42579,1,0,0:0:0:0:
256,192,42665,1,8,0:0:0:0:
256,192,42836,1,0,0:0:0:0:
256,192,43008,1,8,0:0:0:0:
256,192,43179,1,0,0:0:0:0:
256,192,43265,1,0,0:0:0:0:
256,192,43351,1,0,0:0:0:0:
256,192,43522,1,0,0:0:0:0:
256,192,43693,1,8,0:0:0:0:
256,192,44036,1,12,0:0:0:0:
256,192,44208,1,0,0:0:0:0:
256,192,44379,1,0,0:0:0:0:
256,192,44551,1,8,0:0:0:0:
256,192,44893,1,0,0:0:0:0:
256,192,45065,1,0,0:0:0:0:
256,192,45236,1,8,0:0:0:0:
256,192,45579,1,8,0:0:0:0:
256,192,45751,1,8,0:0:0:0:
256,192,45922,1,0,0:0:0:0:
256,192,46093,1,0,0:0:0:0:
256,192,46265,1,8,0:0:0:0:
256,192,46436,1,8,0:0:0:0:
256,192,46779,1,0,0:0:0:0:
256,192,46951,1,0,0:0:0:0:
256,192,47122,1,8,0:0:0:0:
256,192,47293,1,0,0:0:0:0:
256,192,47636,1,8,0:0:0:0:
256,192,47808,1,0,0:0:0:0:
256,192,47979,1,8,0:0:0:0:
256,192,48322,1,8,0:0:0:0:
256,192,48493,1,0,0:0:0:0:
256,192,48665,1,8,0:0:0:0:
256,192,48836,1,8,0:0:0:0:
256,192,49008,1,0,0:0:0:0:
256,192,49179,1,8,0:0:0:0:
256,192,49351,1,0,0:0:0:0:
256,192,49522,1,8,0:0:0:0:
256,192,49865,1,8,0:0:0:0:
256,192,50208,1,8,0:0:0:0:
256,192,50379,1,0,0:0:0:0:
256,192,50722,1,8,0:0:0:0:
256,192,51236,1,8,0:0:0:0:
256,192,51579,1,8,0:0:0:0:
256,192,51751,1,0,0:0:0:0:
256,192,52093,1,8,0:0:0:0:
256,192,52608,1,8,0:0:0:0:
256,192,52951,1,8,0:0:0:0:
256,192,53122,1,0,0:0:0:0:
256,192,53465,1,8,0:0:0:0:
256,192,53979,1,8,0:0:0:0:
256,192,54322,1,8,0:0:0:0:
256,192,54493,1,0,0:0:0:0:
256,192,55008,1,0,0:0:0:0:
256,192,55179,1,0,0:0:0:0:
256,192,55351,1,8,0:0:0:0:
256,192,55522,1,0,0:0:0:0:
256,192,55865,1,0,0:0:0:0:
256,192,56036,1,8,0:0:0:0:
256,192,56208,1,8,0:0:0:0:
256,192,56551,1,0,0:0:0:0:
256,192,56722,1,8,0:0:0:0:
256,192,56893,1,0,0:0:0:0:
256,192,57065,1,8,0:0:0:0:
256,192,57236,1,8,0:0:0:0:
256,192,57408,1,8,0:0:0:0:
256,192,57751,1,0,0:0:0:0:
256,192,57922,1,8,0:0:0:0:
256,192,58093,1,8,0:0:0:0:
256,192,58265,1,0,0:0:0:0:
256,192,58608,1,8,0:0:0:0:
256,192,58779,1,0,0:0:0:0:
256,192,58951,1,8,0:0:0:0:
256,192,59293,1,8,0:0:0:0:
256,192,59465,1,8,0:0:0:0:
256,192,59636,1,0,0:0:0:0:
256,192,59808,1,0,0:0:0:0:
256,192,59979,1,8,0:0:0:0:
256,192,60151,1,0,0:0:0:0:
256,192,60322,1,8,0:0:0:0:
256,192,60493,1,8,0:0:0:0:
256,192,60836,1,8,0:0:0:0:
256,192,61179,1,8,0:0:0:0:
256,192,61351,1,0,0:0:0:0:
256,192,61693,1,8,0:0:0:0:
256,192,62208,1,8,0:0:0:0:
256,192,62551,1,8,0:0:0:0:
256,192,62722,1,0,0:0:0:0:
256,192,63065,1,8,0:0:0:0:
256,192,63579,1,8,0:0:0:0:
256,192,63922,1,8,0:0:0:0:
256,192,64093,1,0,0:0:0:0:
256,192,64436,1,8,0:0:0:0:
256,192,64951,1,8,0:0:0:0:
256,192,65293,1,8,0:0:0:0:
256,192,65465,1,0,0:0:0:0:
256,192,65979,1,12,0:0:0:0:
256,192,66151,1,8,0:0:0:0:
256,192,66322,1,0,0:0:0:0:
256,192,66493,1,8,0:0:0:0:
256,192,66836,1,0,0:0:0:0:
256,192,67008,1,0,0:0:0:0:
256,192,67179,1,8,0:0:0:0:
256,192,67522,1,0,0:0:0:0:
256,192,67693,1,0,0:0:0:0:
256,192,67865,1,8,0:0:0:0:
256,192,68036,1,8,0:0:0:0:
256,192,68208,1,0,0:0:0:0:
256,192,68379,1,8,0:0:0:0:
256,192,68722,1,0,0:0:0:0:
256,192,68893,1,0,0:0:0:0:
256,192,69065,1,8,0:0:0:0:
256,192,69236,1,0,0:0:0:0:
256,192,69579,1,8,0:0:0:0:
256,192,69751,1,8,0:0:0:0:
256,192,69922,1,0,0:0:0:0:
256,192,70265,1,0,0:0:0:0:
256,192,70436,1,0,0:0:0:0:
256,192,70608,1,8,0:0:0:0:
256,192,70779,1,0,0:0:0:0:
256,192,70951,1,0,0:0:0:0:
256,192,71122,1,8,0:0:0:0:
256,192,71293,1,8,0:0:0:0:
256,192,71465,1,0,0:0:0:0:
256,192,71808,1,0,0:0:0:0:
256,192,71979,1,8,0:0:0:0:
256,192,72151,1,8,0:0:0:0:
256,192,72322,1,0,0:0:0:0:
256,192,72665,1,8,0:0:0:0:
256,192,72836,1,0,0:0:0:0:
256,192,73179,1,0,0:0:0:0:
256,192,73351,1,8,0:0:0:0:
256,192,73522,1,8,0:0:0:0:
256,192,73693,1,0,0:0:0:0:
256,192,74036,1,8,0:0:0:0:
256,192,74208,1,0,0:0:0:0:
256,192,74551,1,0,0:0:0:0:
256,192,74722,1,8,0:0:0:0:
256,192,74893,1,8,0:0:0:0:
256,192,75065,1,0,0:0:0:0:
256,192,75408,1,8,0:0:0:0:
256,192,75579,1,0,0:0:0:0:
256,192,75922,1,0,0:0:0:0:
256,192,76093,1,8,0:0:0:0:
256,192,76265,1,8,0:0:0:0:
256,192,76436,1,0,0:0:0:0:
256,192,76951,1,12,0:0:0:0:
256,192,77122,1,0,0:0:0:0:
256,192,77208,1,8,0:0:0:0:
256,192,77293,1,0,0:0:0:0:
256,192,77465,1,8,0:0:0:0:
256,192,77636,1,0,0:0:0:0:
256,192,77808,1,8,0:0:0:0:
256,192,77893,1,8,0:0:0:0:
256,192,77979,1,0,0:0:0:0:
256,192,78065,1,0,0:0:0:0:
256,192,78151,1,8,0:0:0:0:
256,192,78322,1,0,0:0:0:0:
256,192,78493,1,0,0:0:0:0:
256,192,78579,1,0,0:0:0:0:
256,192,78665,1,8,0:0:0:0:
256,192,78836,1,0,0:0:0:0:
256,192,79008,1,8,0:0:0:0:
256,192,79093,1,8,0:0:0:0:
256,192,79179,1,0,0:0:0:0:
256,192,79265,1,0,0:0:0:0:
256,192,79351,1,8,0:0:0:0:
256,192,79522,1,0,0:0:0:0:
256,192,79693,1,12,0:0:0:0:
256,192,79865,1,0,0:0:0:0:
256,192,79951,1,8,0:0:0:0:
256,192,80036,1,0,0:0:0:0:
256,192,80208,1,8,0:0:0:0:
256,192,80379,1,0,0:0:0:0:
256,192,80551,1,8,0:0:0:0:
256,192,80636,1,8,0:0:0:0:
256,192,80722,1,0,0:0:0:0:
256,192,80808,1,8,0:0:0:0:
256,192,80893,1,0,0:0:0:0:
256,192,81065,1,8,0:0:0:0:
256,192,81236,1,0,0:0:0:0:
256,192,81322,1,0,0:0:0:0:
256,192,81408,1,8,0:0:0:0:
256,192,81579,1,8,0:0:0:0:
256,192,81751,1,0,0:0:0:0:
256,192,81836,1,0,0:0:0:0:
256,192,81922,1,8,0:0:0:0:
256,192,82008,1,0,0:0:0:0:
256,192,82093,1,8,0:0:0:0:
256,192,82265,1,0,0:0:0:0:
256,192,82436,1,12,0:0:0:0:
256,192,82608,1,0,0:0:0:0:
256,192,82779,1,8,0:0:0:0:
256,192,82865,1,8,0:0:0:0:
256,192,82951,1,0,0:0:0:0:
256,192,83122,1,8,0:0:0:0:
256,192,83293,1,8,0:0:0:0:
256,192,83465,1,0,0:0:0:0:
256,192,83551,1,0,0:0:0:0:
256,192,83636,1,8,0:0:0:0:
256,192,83808,1,12,0:0:0:0:
256,192,83979,1,0,0:0:0:0:
256,192,84151,1,8,0:0:0:0:
256,192,84236,1,8,0:0:0:0:
256,192,84322,1,0,0:0:0:0:
256,192,84408,1,0,0:0:0:0:
256,192,84493,1,12,0:0:0:0:
256,192,84665,1,8,0:0:0:0:
256,192,84836,1,0,0:0:0:0:
256,192,84922,1,0,0:0:0:0:
256,192,85008,1,8,0:0:0:0:
256,192,85179,1,0,0:0:0:0:
256,192,85265,1,0,0:0:0:0:
256,192,85351,1,8,0:0:0:0:
256,192,85436,1,0,0:0:0:0:
256,192,85522,1,8,0:0:0:0:
256,192,85608,1,8,0:0:0:0:
256,192,85693,1,0,0:0:0:0:
256,192,85779,1,8,0:0:0:0:
256,192,85865,1,0,0:0:0:0:
256,192,85951,1,0,0:0:0:0:
256,192,86036,1,8,0:0:0:0:
256,192,86122,1,8,0:0:0:0:
256,192,86208,1,0,0:0:0:0:
256,192,86293,1,8,0:0:0:0:
256,192,86379,1,0,0:0:0:0:
256,192,86465,1,8,0:0:0:0:
256,192,87922,1,12,0:0:0:0:
256,192,88608,1,8,0:0:0:0:
256,192,88693,1,0,0:0:0:0:
256,192,88779,1,8,0:0:0:0:
256,192,88951,1,0,0:0:0:0:
256,192,89036,1,0,0:0:0:0:
256,192,89122,1,8,0:0:0:0:
256,192,89465,1,8,0:0:0:0:
256,192,89551,1,0,0:0:0:0:
256,192,89636,1,8,0:0:0:0:
256,192,89722,1,8,0:0:0:0:
256,192,89808,1,0,0:0:0:0:
256,192,89893,1,0,0:0:0:0:
256,192,89979,1,8,0:0:0:0:
256,192,90065,1,0,0:0:0:0:
256,192,90151,1,0,0:0:0:0:
256,192,90236,1,0,0:0:0:0:
256,192,90322,1,8,0:0:0:0:
256,192,90365,1,8,0:0:0:0:
256,192,90493,1,0,0:0:0:0:
256,192,90536,1,0,0:0:0:0:
256,192,90665,1,8,0:0:0:0:
256,192,90836,1,8,0:0:0:0:
256,192,90922,1,0,0:0:0:0:
256,192,91008,1,8,0:0:0:0:
256,192,91065,1,0,0:0:0:0:
256,192,91122,1,0,0:0:0:0:
256,192,91179,1,8,0:0:0:0:
256,192,91351,1,8,0:0:0:0:
256,192,91522,1,0,0:0:0:0:
256,192,91579,1,0,0:0:0:0:
256,192,91636,1,0,0:0:0:0:
256,192,91693,1,8,0:0:0:0:
256,192,91808,1,8,0:0:0:0:
256,192,91922,1,8,0:0:0:0:
256,192,92208,1,8,0:0:0:0:
256,192,92379,1,0,0:0:0:0:
256,192,92493,1,8,0:0:0:0:
256,192,92608,1,8,0:0:0:0:
256,192,92722,1,0,0:0:0:0:
256,192,92893,1,0,0:0:0:0:
256,192,92979,1,0,0:0:0:0:
256,192,93065,1,8,0:0:0:0:
256,192,93151,1,0,0:0:0:0:
256,192,93236,1,8,0:0:0:0:
256,192,93408,1,0,0:0:0:0:
256,192,93579,1,8,0:0:0:0:
256,192,93922,1,8,0:0:0:0:
256,192,94093,1,0,0:0:0:0:
256,192,94179,1,0,0:0:0:0:
256,192,94265,1,8,0:0:0:0:
256,192,94351,1,0,0:0:0:0:
256,192,94436,1,8,0:0:0:0:
256,192,94522,1,8,0:0:0:0:
256,192,94608,1,0,0:0:0:0:
256,192,94779,1,0,0:0:0:0:
256,192,94951,1,8,0:0:0:0:
256,192,94993,1,8,0:0:0:0:
256,192,95122,1,8,0:0:0:0:
256,192,95165,1,8,0:0:0:0:
256,192,95293,1,8,0:0:0:0:
256,192,95336,1,8,0:0:0:0:
256,192,95465,1,0,0:0:0:0:
256,192,95551,1,0,0:0:0:0:
256,192,95636,1,8,0:0:0:0:
256,192,95693,1,0,0:0:0:0:
256,192,95751,1,0,0:0:0:0:
256,192,95808,1,8,0:0:0:0:
256,192,95979,1,8,0:0:0:0:
256,192,96151,1,0,0:0:0:0:
256,192,96265,1,8,0:0:0:0:
256,192,96379,1,8,0:0:0:0:
256,192,96493,1,8,0:0:0:0:
256,192,96608,1,0,0:0:0:0:
256,192,96722,1,8,0:0:0:0:
256,192,96836,1,0,0:0:0:0:
256,192,97008,1,0,0:0:0:0:
256,192,97065,1,0,0:0:0:0:
256,192,97122,1,0,0:0:0:0:
256,192,97179,1,8,0:0:0:0:
256,192,97293,1,8,0:0:0:0:
256,192,97408,1,8,0:0:0:0:
256,192,97522,1,0,0:0:0:0:
256,192,97693,1,8,0:0:0:0:
256,192,97779,1,0,0:0:0:0:
256,192,97865,1,8,0:0:0:0:
256,192,97979,1,8,0:0:0:0:
256,192,98093,1,8,0:0:0:0:
256,192,98208,1,0,0:0:0:0:
256,192,98379,1,0,0:0:0:0:
256,192,98465,1,0,0:0:0:0:
256,192,98551,1,8,0:0:0:0:
256,192,98636,1,0,0:0:0:0:
256,192,98722,1,8,0:0:0:0:
256,192,98893,1,0,0:0:0:0:
256,192,99579,1,12,0:0:0:0:
256,192,99751,1,0,0:0:0:0:
256,192,99922,1,0,0:0:0:0:
256,192,100008,1,0,0:0:0:0:
256,192,100093,1,8,0:0:0:0:
256,192,100436,1,8,0:0:0:0:
256,192,100522,1,0,0:0:0:0:
256,192,100608,1,8,0:0:0:0:
256,192,100693,1,8,0:0:0:0:
256,192,100779,1,0,0:0:0:0:
256,192,100865,1,0,0:0:0:0:
256,192,100951,1,8,0:0:0:0:
256,192,101036,1,0,0:0:0:0:
256,192,101122,1,0,0:0:0:0:
256,192,101208,1,0,0:0:0:0:
256,192,101293,1,8,0:0:0:0:
256,192,101336,1,8,0:0:0:0:
256,192,101465,1,0,0:0:0:0:
256,192,101508,1,0,0:0:0:0:
256,192,101636,1,8,0:0:0:0:
256,192,101808,1,8,0:0:0:0:
256,192,101893,1,0,0:0:0:0:
256,192,101979,1,8,0:0:0:0:
256,192,102036,1,0,0:0:0:0:
256,192,102093,1,0,0:0:0:0:
256,192,102151,1,8,0:0:0:0:
256,192,102322,1,8,0:0:0:0:
256,192,102493,1,0,0:0:0:0:
256,192,102551,1,0,0:0:0:0:
256,192,102608,1,0,0:0:0:0:
256,192,102665,1,8,0:0:0:0:
256,192,102779,1,8,0:0:0:0:
256,192,102893,1,8,0:0:0:0:
256,192,103179,1,8,0:0:0:0:
256,192,103351,1,0,0:0:0:0:
256,192,103465,1,8,0:0:0:0:
256,192,103579,1,8,0:0:0:0:
256,192,103693,1,0,0:0:0:0:
256,192,103865,1,0,0:0:0:0:
256,192,103951,1,0,0:0:0:0:
256,192,104036,1,8,0:0:0:0:
256,192,104122,1,0,0:0:0:0:
256,192,104208,1,8,0:0:0:0:
256,192,104379,1,0,0:0:0:0:
256,192,104551,1,0,0:0:0:0:
256,192,104636,1,0,0:0:0:0:
256,192,104722,1,8,0:0:0:0:
256,192,104893,1,8,0:0:0:0:
256,192,105065,1,0,0:0:0:0:
256,192,105151,1,0,0:0:0:0:
256,192,105236,1,8,0:0:0:0:
256,192,105322,1,0,0:0:0:0:
256,192,105408,1,8,0:0:0:0:
256,192,105493,1,8,0:0:0:0:
256,192,105579,1,0,0:0:0:0:
256,192,105665,1,8,0:0:0:0:
256,192,105751,1,0,0:0:0:0:
256,192,105922,1,8,0:0:0:0:
256,192,105965,1,8,0:0:0:0:
256,192,106093,1,8,0:0:0:0:
256,192,106136,1,8,0:0:0:0:
256,192,106265,1,8,0:0:0:0:
256,192,106308,1,8,0:0:0:0:
256,192,106436,1,0,0:0:0:0:
256,192,106522,1,0,0:0:0:0:
256,192,106608,1,8,0:0:0:0:
256,192,106665,1,0,0:0:0:0:
256,192,106722,1,0,0:0:0:0:
256,192,106779,1,8,0:0:0:0:
256,192,106951,1,8,0:0:0:0:
256,192,107036,1,8,0:0:0:0:
256,192,107122,1,0,0:0:0:0:
256,192,107236,1,0,0:0:0:0:
256,192,107351,1,8,0:0:0:0:
256,192,107465,1,8,0:0:0:0:
256,192,107579,1,0,0:0:0:0:
256,192,107693,1,0,0:0:0:0:
256,192,107808,1,8,0:0:0:0:
256,192,107979,1,0,0:0:0:0:
256,192,108036,1,0,0:0:0:0:
256,192,108093,1,0,0:0:0:0:
256,192,108151,1,8,0:0:0:0:
256,192,108265,1,8,0:0:0:0:
256,192,108379,1,8,0:0:0:0:
256,192,109522,1,0,0:0:0:0:
256,192,109865,1,12,0:0:0:0:
256,192,110036,1,0,0:0:0:0:
256,192,110122,1,8,0:0:0:0:
256,192,110208,1,0,0:0:0:0:
256,192,110379,1,0,0:0:0:0:
256,192,110551,1,8,0:0:0:0:
256,192,110636,1,8,0:0:0:0:
256,192,110722,1,0,0:0:0:0:
256,192,110893,1,8,0:0:0:0:
256,192,111065,1,0,0:0:0:0:
256,192,111408,1,8,0:0:0:0:
256,192,111493,1,8,0:0:0:0:
256,192,111579,1,0,0:0:0:0:
256,192,111751,1,0,0:0:0:0:
256,192,111922,1,8,0:0:0:0:
256,192,112008,1,0,0:0:0:0:
256,192,112093,1,8,0:0:0:0:
256,192,112265,1,8,0:0:0:0:
256,192,112436,1,0,0:0:0:0:
256,192,112779,1,0,0:0:0:0:
256,192,112865,1,0,0:0:0:0:
256,192,112951,1,8,0:0:0:0:
256,192,113122,1,0,0:0:0:0:
256,192,113293,1,8,0:0:0:0:
256,192,113379,1,0,0:0:0:0:
256,192,113465,1,8,0:0:0:0:
256,192,113636,1,0,0:0:0:0:
256,192,113808,1,8,0:0:0:0:
256,192,114151,1,8,0:0:0:0:
256,192,114322,1,0,0:0:0:0:
256,192,114493,1,0,0:0:0:0:
256,192,114665,1,8,0:0:0:0:
256,192,114751,1,8,0:0:0:0:
256,192,114836,1,0,0:0:0:0:
256,192,115008,1,8,0:0:0:0:
256,192,115351,1,8,0:0:0:0:
256,192,115522,1,8,0:0:0:0:
256,192,115608,1,0,0:0:0:0:
256,192,115693,1,8,0:0:0:0:
256,192,115865,1,8,0:0:0:0:
256,192,116036,1,0,0:0:0:0:
256,192,116122,1,0,0:0:0:0:
256,192,116208,1,8,0:0:0:0:
256,192,116379,1,8,0:0:0:0:
256,192,116551,1,0,0:0:0:0:
256,192,116893,1,8,0:0:0:0:
256,192,116979,1,8,0:0:0:0:
256,192,117065,1,0,0:0:0:0:
256,192,117236,1,8,0:0:0:0:
256,192,117408,1,0,0:0:0:0:
256,192,117493,1,0,0:0:0:0:
256,192,117579,1,8,0:0:0:0:
256,192,117751,1,0,0:0:0:0:
256,192,117922,1,8,0:0:0:0:
256,192,118265,1,8,0:0:0:0:
256,192,118351,1,0,0:0:0:0:
256,192,118436,1,8,0:0:0:0:
256,192,118608,1,0,0:0:0:0:
256,192,118779,1,0,0:0:0:0:
256,192,118865,1,0,0:0:0:0:
256,192,118951,1,8,0:0:0:0:
256,192,119122,1,8,0:0:0:0:
256,192,119293,1,0,0:0:0:0:
256,192,119465,1,0,0:0:0:0:
256,192,119551,1,8,0:0:0:0:
256,192,119636,1,8,0:0:0:0:
256,192,119722,1,0,0:0:0:0:
256,192,119808,1,8,0:0:0:0:
256,192,119979,1,8,0:0:0:0:
256,192,120151,1,0,0:0:0:0:
256,192,120322,1,8,0:0:0:0:
256,192,120493,1,0,0:0:0:0:
256,192,120579,1,0,0:0:0:0:
256,192,120665,1,0,0:0:0:0:
256,192,120751,1,0,0:0:0:0:
256,192,120836,1,12,0:0:0:0:
256,192,121008,1,0,0:0:0:0:
256,192,121093,1,0,0:0:0:0:
256,192,121179,1,8,0:0:0:0:
256,192,121351,1,0,0:0:0:0:
256,192,121522,1,8,0:0:0:0:
256,192,121608,1,0,0:0:0:0:
256,192,121693,1,8,0:0:0:0:
256,192,121865,1,8,0:0:0:0:
256,192,122036,1,0,0:0:0:0:
256,192,122379,1,0,0:0:0:0:
256,192,122465,1,8,0:0:0:0:
256,192,122551,1,0,0:0:0:0:
256,192,122722,1,0,0:0:0:0:
256,192,122893,1,8,0:0:0:0:
256,192,122979,1,0,0:0:0:0:
256,192,123065,1,8,0:0:0:0:
256,192,123236,1,8,0:0:0:0:
256,192,123408,1,0,0:0:0:0:
256,192,123751,1,8,0:0:0:0:
256,192,123836,1,8,0:0:0:0:
256,192,123922,1,0,0:0:0:0:
256,192,124093,1,0,0:0:0:0:
256,192,124265,1,8,0:0:0:0:
256,192,124351,1,0,0:0:0:0:
256,192,124436,1,8,0:0:0:0:
256,192,124608,1,8,0:0:0:0:
256,192,124779,1,0,0:0:0:0:
256,192,125122,1,8,0:0:0:0:
256,192,125293,1,8,0:0:0:0:
256,192,125465,1,0,0:0:0:0:
256,192,125636,1,8,0:0:0:0:
256,192,125722,1,8,0:0:0:0:
256,192,125808,1,0,0:0:0:0:
256,192,125979,1,8,0:0:0:0:
256,192,126322,1,4,0:0:0:0:
256,192,126665,1,12,0:0:0:0:
256,192,127008,1,4,0:0:0:0:
256,192,127179,1,4,0:0:0:0:
256,192,127522,1,4,0:0:0:0:
256,192,128036,1,12,0:0:0:0:
256,192,128379,1,4,0:0:0:0:
256,192,128551,1,4,0:0:0:0:
256,192,128893,1,12,0:0:0:0:
256,192,129408,1,12,0:0:0:0:
256,192,129751,1,4,0:0:0:0:
256,192,129922,1,12,0:0:0:0:
256,192,130265,1,4,0:0:0:0:
256,192,130436,1,8,0:0:0:0:
256,192,130608,1,0,0:0:0:0:
256,192,130693,1,0,0:0:0:0:
256,192,130779,1,8,0:0:0:0:
256,192,130951,1,0,0:0:0:0:
256,192,131036,1,0,0:0:0:0:
256,192,131122,1,8,0:0:0:0:
256,192,131208,1,0,0:0:0:0:
256,192,131293,1,8,0:0:0:0:
256,192,131465,1,0,0:0:0:0:
256,192,131808,1,12,0:0:0:0:
256,192,132151,1,8,0:0:0:0:
256,192,132322,1,0,0:0:0:0:
256,192,132665,1,0,0:0:0:0:
256,192,132836,1,0,0:0:0:0:
256,192,133008,1,8,0:0:0:0:
256,192,133351,1,8,0:0:0:0:
256,192,133865,1,0,0:0:0:0:
256,192,134208,1,8,0:0:0:0:
256,192,134551,1,8,0:0:0:0:
256,192,134893,1,0,0:0:0:0:
256,192,135065,1,0,0:0:0:0:
256,192,135408,1,8,0:0:0:0:
256,192,135579,1,0,0:0:0:0:
256,192,135751,1,0,0:0:0:0:
256,192,136093,1,8,0:0:0:0:
256,192,136608,1,8,0:0:0:0:
256,192,136779,1,0,0:0:0:0:
256,192,136951,1,8,0:0:0:0:
256,192,137293,1,0,0:0:0:0:
256,192,137808,1,8,0:0:0:0:
256,192,138322,1,0,0:0:0:0:
256,192,139693,1,8,0:0:0:0:
256,192,140036,1,0,0:0:0:0:
256,192,140551,1,8,0:0:0:0:
256,192,141065,1,8,0:0:0:0:
256,192,142779,1,12,0:0:0:0:
256,192,142951,1,0,0:0:0:0:
256,192,143036,1,8,0:0:0:0:
256,192,143122,1,0,0:0:0:0:
256,192,143293,1,8,0:0:0:0:
256,192,143465,1,0,0:0:0:0:
256,192,143636,1,0,0:0:0:0:
256,192,143722,1,8,0:0:0:0:
256,192,143808,1,0,0:0:0:0:
256,192,143893,1,0,0:0:0:0:
256,192,143979,1,8,0:0:0:0:
256,192,144151,1,0,0:0:0:0:
256,192,144322,1,8,0:0:0:0:
256,192,144408,1,0,0:0:0:0:
256,192,144493,1,8,0:0:0:0:
256,192,144665,1,0,0:0:0:0:
256,192,144836,1,8,0:0:0:0:
256,192,144922,1,8,0:0:0:0:
256,192,145008,1,0,0:0:0:0:
256,192,145093,1,0,0:0:0:0:
256,192,145179,1,8,0:0:0:0:
256,192,145351,1,0,0:0:0:0:
256,192,145522,1,12,0:0:0:0:
256,192,145693,1,0,0:0:0:0:
256,192,145779,1,8,0:0:0:0:
256,192,145865,1,0,0:0:0:0:
256,192,146036,1,8,0:0:0:0:
256,192,146208,1,0,0:0:0:0:
256,192,146379,1,8,0:0:0:0:
256,192,146465,1,0,0:0:0:0:
256,192,146551,1,8,0:0:0:0:
256,192,146636,1,8,0:0:0:0:
256,192,146722,1,0,0:0:0:0:
256,192,146893,1,8,0:0:0:0:
256,192,147065,1,0,0:0:0:0:
256,192,147151,1,0,0:0:0:0:
256,192,147236,1,8,0:0:0:0:
256,192,147408,1,8,0:0:0:0:
256,192,147579,1,0,0:0:0:0:
256,192,147665,1,8,0:0:0:0:
256,192,147751,1,0,0:0:0:0:
256,192,147836,1,0,0:0:0:0:
256,192,147922,1,8,0:0:0:0:
256,192,148093,1,0,0:0:0:0:
256,192,148265,1,12,0:0:0:0:
256,192,148436,1,0,0:0:0:0:
256,192,148608,1,8,0:0:0:0:
256,192,148693,1,0,0:0:0:0:
256,192,148779,1,8,0:0:0:0:
256,192,148951,1,8,0:0:0:0:
256,192,149122,1,0,0:0:0:0:
256,192,149293,1,0,0:0:0:0:
256,192,149379,1,0,0:0:0:0:
256,192,149465,1,8,0:0:0:0:
256,192,149636,1,12,0:0:0:0:
256,192,149808,1,0,0:0:0:0:
256,192,149979,1,8,0:0:0:0:
256,192,150065,1,8,0:0:0:0:
256,192,150151,1,0,0:0:0:0:
256,192,150236,1,0,0:0:0:0:
256,192,150322,1,8,0:0:0:0:
256,192,150493,1,8,0:0:0:0:
256,192,150665,1,0,0:0:0:0:
256,192,150751,1,0,0:0:0:0:
256,192,150836,1,8,0:0:0:0:
256,192,150922,1,8,0:0:0:0:
256,192,151008,1,0,0:0:0:0:
256,192,153065,1,0,0:0:0:0:
256,192,153322,1,8,0:0:0:0:
256,192,153493,1,8,0:0:0:0:
256,192,153579,1,0,0:0:0:0:
256,192,153751,1,12,0:0:0:0:
256,192,153922,1,0,0:0:0:0:
256,192,154008,1,0,0:0:0:0:
256,192,154093,1,8,0:0:0:0:
256,192,154265,1,0,0:0:0:0:
256,192,154436,1,8,0:0:0:0:
256,192,154522,1,8,0:0:0:0:
256,192,154608,1,0,0:0:0:0:
256,192,154665,1,0,0:0:0:0:
256,192,154722,1,0,0:0:0:0:
256,192,154779,1,8,0:0:0:0:
256,192,154893,1,8,0:0:0:0:
256,192,155008,1,8,0:0:0:0:
256,192,155122,1,0,0:0:0:0:
256,192,155293,1,8,0:0:0:0:
256,192,155379,1,8,0:0:0:0:
256,192,155465,1,0,0:0:0:0:
256,192,155579,1,8,0:0:0:0:
256,192,155693,1,8,0:0:0:0:
256,192,155808,1,0,0:0:0:0:
256,192,155893,1,0,0:0:0:0:
256,192,155979,1,8,0:0:0:0:
256,192,156065,1,0,0:0:0:0:
256,192,156151,1,8,0:0:0:0:
256,192,156236,1,8,0:0:0:0:
256,192,156322,1,0,0:0:0:0:
256,192,156493,1,0,0:0:0:0:
256,192,156608,1,8,0:0:0:0:
256,192,156722,1,8,0:0:0:0:
256,192,156836,1,0,0:0:0:0:
256,192,156951,1,8,0:0:0:0:
256,192,157065,1,8,0:0:0:0:
256,192,157179,1,0,0:0:0:0:
256,192,157265,1,0,0:0:0:0:
256,192,157351,1,8,0:0:0:0:
256,192,157522,1,8,0:0:0:0:
256,192,157608,1,0,0:0:0:0:
256,192,157693,1,8,0:0:0:0:
256,192,157865,1,8,0:0:0:0:
256,192,158036,1,0,0:0:0:0:
256,192,158122,1,0,0:0:0:0:
256,192,158208,1,8,0:0:0:0:
256,192,158293,1,0,0:0:0:0:
256,192,158379,1,8,0:0:0:0:
256,192,158465,1,8,0:0:0:0:
256,192,158551,1,0,0:0:0:0:
256,192,158722,1,8,0:0:0:0:
256,192,158808,1,8,0:0:0:0:
256,192,158893,1,0,0:0:0:0:
256,192,158979,1,0,0:0:0:0:
256,192,159065,1,8,0:0:0:0:
256,192,159151,1,0,0:0:0:0:
256,192,159236,1,8,0:0:0:0:
256,192,159408,1,0,0:0:0:0:
256,192,159493,1,0,0:0:0:0:
256,192,159579,1,8,0:0:0:0:
256,192,159751,1,0,0:0:0:0:
256,192,159922,1,8,0:0:0:0:
256,192,160008,1,8,0:0:0:0:
256,192,160093,1,0,0:0:0:0:
256,192,160151,1,0,0:0:0:0:
256,192,160208,1,0,0:0:0:0:
256,192,160265,1,8,0:0:0:0:
256,192,160379,1,8,0:0:0:0:
256,192,160493,1,8,0:0:0:0:
256,192,160608,1,0,0:0:0:0:
256,192,160779,1,8,0:0:0:0:
256,192,160865,1,8,0:0:0:0:
256,192,160951,1,0,0:0:0:0:
256,192,161065,1,8,0:0:0:0:
256,192,161179,1,8,0:0:0:0:
256,192,161293,1,0,0:0:0:0:
256,192,161379,1,0,0:0:0:0:
256,192,161465,1,8,0:0:0:0:
256,192,161551,1,8,0:0:0:0:
256,192,161636,1,0,0:0:0:0:
256,192,161722,1,8,0:0:0:0:
256,192,161808,1,0,0:0:0:0:
256,192,161979,1,8,0:0:0:0:
256,192,162151,1,0,0:0:0:0:
256,192,162236,1,0,0:0:0:0:
256,192,162322,1,8,0:0:0:0:
256,192,162379,1,0,0:0:0:0:
256,192,162436,1,0,0:0:0:0:
256,192,162493,1,8,0:0:0:0:
256,192,162665,1,8,0:0:0:0:
256,192,162751,1,8,0:0:0:0:
256,192,162836,1,0,0:0:0:0:
256,192,162922,1,0,0:0:0:0:
256,192,163008,1,8,0:0:0:0:
256,192,163122,1,8,0:0:0:0:
256,192,163236,1,8,0:0:0:0:
256,192,163351,1,0,0:0:0:0:
256,192,163522,1,8,0:0:0:0:
256,192,163565,1,8,0:0:0:0:
256,192,163693,1,8,0:0:0:0:
256,192,163736,1,8,0:0:0:0:
256,192,163865,1,8,0:0:0:0:
256,192,163908,1,8,0:0:0:0:
256,192,164036,1,0,0:0:0:0:
256,192,164208,1,8,0:0:0:0:
256,192,164293,1,0,0:0:0:0:
256,192,164379,1,8,0:0:0:0:
256,192,164436,1,0,0:0:0:0:
256,192,164493,1,0,0:0:0:0:
256,192,164551,1,8,0:0:0:0:
256,192,164722,1,12,0:0:0:0:
256,192,164893,1,0,0:0:0:0:
256,192,164979,1,0,0:0:0:0:
256,192,165065,1,8,0:0:0:0:
256,192,165236,1,0,0:0:0:0:
256,192,165408,1,8,0:0:0:0:
256,192,165493,1,8,0:0:0:0:
256,192,165579,1,0,0:0:0:0:
256,192,165636,1,0,0:0:0:0:
256,192,165693,1,0,0:0:0:0:
256,192,165751,1,8,0:0:0:0:
256,192,165865,1,8,0:0:0:0:
256,192,165979,1,8,0:0:0:0:
256,192,166093,1,0,0:0:0:0:
256,192,166265,1,8,0:0:0:0:
256,192,166351,1,8,0:0:0:0:
256,192,166436,1,0,0:0:0:0:
256,192,166551,1,8,0:0:0:0:
256,192,166665,1,8,0:0:0:0:
256,192,166779,1,0,0:0:0:0:
256,192,166865,1,0,0:0:0:0:
256,192,166951,1,8,0:0:0:0:
256,192,167036,1,8,0:0:0:0:
256,192,167122,1,0,0:0:0:0:
256,192,167208,1,8,0:0:0:0:
256,192,167293,1,0,0:0:0:0:
256,192,167465,1,0,0:0:0:0:
256,192,167579,1,8,0:0:0:0:
256,192,167693,1,8,0:0:0:0:
256,192,167808,1,0,0:0:0:0:
256,192,167922,1,8,0:0:0:0:
256,192,168036,1,8,0:0:0:0:
256,192,168151,1,0,0:0:0:0:
256,192,168236,1,0,0:0:0:0:
256,192,168322,1,8,0:0:0:0:
256,192,168493,1,8,0:0:0:0:
256,192,168579,1,0,0:0:0:0:
256,192,168665,1,8,0:0:0:0:
256,192,168836,1,0,0:0:0:0:
256,192,169008,1,8,0:0:0:0:
256,192,169093,1,0,0:0:0:0:
256,192,169179,1,8,0:0:0:0:
256,192,169265,1,8,0:0:0:0:
256,192,169351,1,0,0:0:0:0:
256,192,169436,1,8,0:0:0:0:
256,192,169522,1,0,0:0:0:0:
256,192,169693,1,8,0:0:0:0:
256,192,169779,1,8,0:0:0:0:
256,192,169865,1,0,0:0:0:0:
256,192,169951,1,0,0:0:0:0:
256,192,170036,1,8,0:0:0:0:
256,192,170122,1,0,0:0:0:0:
256,192,170208,1,8,0:0:0:0:
256,192,170379,1,0,0:0:0:0:
256,192,170465,1,0,0:0:0:0:
256,192,170551,1,8,0:0:0:0:
256,192,170722,1,0,0:0:0:0:
256,192,170893,1,8,0:0:0:0:
256,192,170979,1,8,0:0:0:0:
256,192,171065,1,0,0:0:0:0:
256,192,171122,1,0,0:0:0:0:
256,192,171179,1,0,0:0:0:0:
256,192,171236,1,8,0:0:0:0:
256,192,171351,1,8,0:0:0:0:
256,192,171465,1,8,0:0:0:0:
256,192,171579,1,0,0:0:0:0:
256,192,171665,1,0,0:0:0:0:
256,192,171751,1,8,0:0:0:0:
256,192,171922,1,8,0:0:0:0:
256,192,172036,1,8,0:0:0:0:
256,192,172151,1,8,0:0:0:0:
256,192,172265,1,0,0:0:0:0:
256,192,172351,1,0,0:0:0:0:
256,192,172436,1,8,0:0:0:0:
256,192,172522,1,0,0:0:0:0:
256,192,172608,1,8,0:0:0:0:
256,192,172693,1,8,0:0:0:0:
256,192,172779,1,0,0:0:0:0:
256,192,172951,1,8,0:0:0:0:
256,192,173122,1,0,0:0:0:0:
256,192,173208,1,0,0:0:0:0:
256,192,173293,1,8,0:0:0:0:
256,192,173351,1,0,0:0:0:0:
256,192,173408,1,0,0:0:0:0:
256,192,173465,1,8,0:0:0:0:
256,192,173636,1,8,0:0:0:0:
256,192,173722,1,8,0:0:0:0:
256,192,173808,1,0,0:0:0:0:
256,192,173893,1,0,0:0:0:0:
256,192,173979,1,8,0:0:0:0:
256,192,174093,1,8,0:0:0:0:
256,192,174208,1,8,0:0:0:0:
256,192,174322,1,0,0:0:0:0:
256,192,174493,1,8,0:0:0:0:
256,192,174536,1,8,0:0:0:0:
256,192,174665,1,8,0:0:0:0:
256,192,174708,1,8,0:0:0:0:
256,192,174836,1,8,0:0:0:0:
256,192,174879,1,8,0:0:0:0:
256,192,175008,1,0,0:0:0:0:
256,192,175179,1,8,0:0:0:0:
256,192,175265,1,0,0:0:0:0:
256,192,175351,1,8,0:0:0:0:
256,192,175693,1,12,0:0:0:0:
256,192,175865,1,8,0:0:0:0:
256,192,175951,1,0,0:0:0:0:
256,192,176036,1,8,0:0:0:0:
256,192,176093,1,0,0:0:0:0:
256,192,176151,1,0,0:0:0:0:
256,192,176208,1,8,0:0:0:0:
256,192,176379,1,0,0:0:0:0:
256,192,176551,1,0,0:0:0:0:
256,192,176608,1,0,0:0:0:0:
256,192,176665,1,0,0:0:0:0:
256,192,176722,1,8,0:0:0:0:
256,192,176836,1,8,0:0:0:0:
256,192,176951,1,8,0:0:0:0:
256,192,177236,1,8,0:0:0:0:
256,192,177322,1,8,0:0:0:0:
256,192,177408,1,0,0:0:0:0:
256,192,177522,1,8,0:0:0:0:
256,192,177636,1,8,0:0:0:0:
256,192,177751,1,0,0:0:0:0:
256,192,177922,1,8,0:0:0:0:
256,192,178008,1,8,0:0:0:0:
256,192,178093,1,0,0:0:0:0:
256,192,178179,1,8,0:0:0:0:
256,192,178265,1,0,0:0:0:0:
256,192,178436,1,0,0:0:0:0:
256,192,178608,1,8,0:0:0:0:
256,192,178693,1,8,0:0:0:0:
256,192,178779,1,0,0:0:0:0:
256,192,178951,1,0,0:0:0:0:
256,192,179122,1,8,0:0:0:0:
256,192,179208,1,0,0:0:0:0:
256,192,179293,1,8,0:0:0:0:
256,192,179465,1,0,0:0:0:0:
256,192,179551,1,0,0:0:0:0:
256,192,179636,1,8,0:0:0:0:
256,192,179979,1,8,0:0:0:0:
256,192,180151,1,0,0:0:0:0:
256,192,180236,1,0,0:0:0:0:
256,192,180322,1,8,0:0:0:0:
256,192,180408,1,0,0:0:0:0:
256,192,180493,1,8,0:0:0:0:
256,192,180579,1,8,0:0:0:0:
256,192,180665,1,0,0:0:0:0:
256,192,180751,1,0,0:0:0:0:
256,192,180836,1,8,0:0:0:0:
256,192,180922,1,0,0:0:0:0:
256,192,181008,1,0,0:0:0:0:
256,192,181093,1,0,0:0:0:0:
256,192,181179,1,12,0:0:0:0:
256,192,181522,1,12,0:0:0:0:
256,192,181865,1,12,0:0:0:0:
256,192,182036,1,4,0:0:0:0:
256,192,182379,1,12,0:0:0:0:
256,192,182893,1,12,0:0:0:0:
256,192,183236,1,12,0:0:0:0:
256,192,183408,1,4,0:0:0:0:
256,192,183751,1,12,0:0:0:0:
256,192,184265,1,12,0:0:0:0:
256,192,184608,1,12,0:0:0:0:
256,192,184779,1,4,0:0:0:0:
256,192,185122,1,12,0:0:0:0:
256,192,185293,1,0,0:0:0:0:
256,192,185379,1,8,0:0:0:0:
256,192,185465,1,0,0:0:0:0:
256,192,185636,1,8,0:0:0:0:
256,192,185808,1,0,0:0:0:0:
256,192,185893,1,0,0:0:0:0:
256,192,185979,1,8,0:0:0:0:
256,192,186065,1,0,0:0:0:0:
256,192,186151,1,8,0:0:0:0:
256,192,186322,1,0,0:0:0:0:
256,192,186408,1,0,0:0:0:0:
256,192,186493,1,8,0:0:0:0:
256,192,186665,1,12,0:0:0:0:
256,192,186836,1,0,0:0:0:0:
256,192,186922,1,0,0:0:0:0:
256,192,187008,1,8,0:0:0:0:
256,192,187122,1,8,0:0:0:0:
256,192,187236,1,0,0:0:0:0:
256,192,187351,1,8,0:0:0:0:
256,192,187522,1,0,0:0:0:0:
256,192,187579,1,0,0:0:0:0:
256,192,187636,1,0,0:0:0:0:
256,192,187693,1,8,0:0:0:0:
256,192,187808,1,8,0:0:0:0:
256,192,187922,1,8,0:0:0:0:
256,192,188208,1,8,0:0:0:0:
256,192,188293,1,8,0:0:0:0:
256,192,188379,1,0,0:0:0:0:
256,192,188493,1,8,0:0:0:0:
256,192,188608,1,8,0:0:0:0:
256,192,188722,1,0,0:0:0:0:
256,192,188893,1,8,0:0:0:0:
256,192,188979,1,8,0:0:0:0:
256,192,189065,1,0,0:0:0:0:
256,192,189151,1,8,0:0:0:0:
256,192,189236,1,0,0:0:0:0:
256,192,189408,1,0,0:0:0:0:
256,192,189579,1,8,0:0:0:0:
256,192,189636,1,8,0:0:0:0:
256,192,189693,1,8,0:0:0:0:
256,192,189751,1,0,0:0:0:0:
256,192,189836,1,0,0:0:0:0:
256,192,189922,1,8,0:0:0:0:
256,192,190008,1,8,0:0:0:0:
256,192,190093,1,0,0:0:0:0:
256,192,190265,1,8,0:0:0:0:
256,192,190351,1,8,0:0:0:0:
256,192,190436,1,0,0:0:0:0:
256,192,190522,1,0,0:0:0:0:
256,192,190608,1,8,0:0:0:0:
256,192,190951,1,8,0:0:0:0:
256,192,191122,1,0,0:0:0:0:
256,192,191208,1,0,0:0:0:0:
256,192,191293,1,8,0:0:0:0:
256,192,191379,1,0,0:0:0:0:
256,192,191465,1,8,0:0:0:0:
256,192,191636,1,0,0:0:0:0:
256,192,191722,1,0,0:0:0:0:
256,192,191808,1,8,0:0:0:0:
256,192,191865,1,0,0:0:0:0:
256,192,191922,1,0,0:0:0:0:
256,192,191979,1,8,0:0:0:0:
256,192,192151,1,12,0:0:0:0:
256,192,192493,1,12,0:0:0:0:
256,192,192836,1,12,0:0:0:0:
256,192,193008,1,4,0:0:0:0:
256,192,193351,1,12,0:0:0:0:
256,192,193865,1,12,0:0:0:0:
256,192,194208,1,12,0:0:0:0:
256,192,194379,1,4,0:0:0:0:
256,192,194722,1,12,0:0:0:0:
256,192,195236,1,12,0:0:0:0:
256,192,195579,1,12,0:0:0:0:
256,192,195751,1,4,0:0:0:0:
256,192,196093,1,12,0:0:0:0:
256,192,196265,1,0,0:0:0:0:
256,192,196436,1,0,0:0:0:0:
256,192,196608,1,8,0:0:0:0:
256,192,196779,1,0,0:0:0:0:
256,192,196865,1,0,0:0:0:0:
256,192,196951,1,0,0:0:0:0:
256,192,197122,1,0,0:0:0:0:
256,192,197293,1,8,0:0:0:0:
256,192,197636,1,12,0:0:0:0:
256,192,198322,1,0,0:0:0:0:
256,192,199008,1,0,0:0:0:0:
256,192,199522,1,8,0:0:0:0:
256,192,200036,1,8,0:0:0:0:
256,192,200379,1,0,0:0:0:0:
256,192,200722,1,0,0:0:0:0:
256,192,200893,1,8,0:0:0:0:
256,192,201236,1,8,0:0:0:0:
256,192,201408,1,0,0:0:0:0:
256,192,203122,1,0,0:0:0:0:
256,192,203808,1,8,0:0:0:0:
256,192,204493,1,0,0:0:0:0:
256,192,205008,1,8,0:0:0:0:
256,192,205522,1,0,0:0:0:0:
256,192,205865,1,8,0:0:0:0:
256,192,206208,1,0,0:0:0:0:
256,192,206379,1,8,0:0:0:0:
256,192,206722,1,8,0:0:0:0:
256,192,206893,1,0,0:0:0:0:
256,192,208608,1,12,0:0:0:0:
256,192,209293,1,0,0:0:0:0:
256,192,209979,1,8,0:0:0:0:
256,192,210493,1,8,0:0:0:0:
256,192,211008,1,0,0:0:0:0:
256,192,211351,1,0,0:0:0:0:
256,192,211693,1,0,0:0:0:0:
256,192,211865,1,8,0:0:0:0:
256,192,212208,1,8,0:0:0:0:
256,192,212379,1,0,0:0:0:0:
256,192,214093,1,0,0:0:0:0:
256,192,214779,1,0,0:0:0:0:
256,192,215122,1,0,0:0:0:0:
256,192,215808,1,8,0:0:0:0:
256,192,216836,1,0,0:0:0:0:
256,192,217522,1,8,0:0:0:0:
256,192,217865,1,8,0:0:0:0:
256,192,218551,1,8,0:0:0:0:
256,192,219236,1,4,0:0:0:0:
256,192,219579,1,12,0:0:0:0:
256,192,219922,1,0,0:0:0:0:
256,192,220093,1,8,0:0:0:0:
256,192,220436,1,0,0:0:0:0:
256,192,220608,1,0,0:0:0:0:
256,192,220779,1,8,0:0:0:0:
256,192,221122,1,8,0:0:0:0:
256,192,221293,1,8,0:0:0:0:
256,192,221465,1,0,0:0:0:0:
256,192,221636,1,0,0:0:0:0:
256,192,221808,1,8,0:0:0:0:
256,192,221979,1,0,0:0:0:0:
256,192,222322,1,8,0:0:0:0:
256,192,222493,1,0,0:0:0:0:
256,192,222665,1,8,0:0:0:0:
256,192,222836,1,8,0:0:0:0:
256,192,223179,1,8,0:0:0:0:
256,192,223351,1,8,0:0:0:0:
256,192,223522,1,0,0:0:0:0:
256,192,223865,1,0,0:0:0:0:
256,192,224036,1,8,0:0:0:0:
256,192,224208,1,0,0:0:0:0:
256,192,224379,1,8,0:0:0:0:
256,192,224551,1,8,0:0:0:0:
256,192,224722,1,0,0:0:0:0:
256,192,224893,1,0,0:0:0:0:
256,192,225065,1,8,0:0:0:0:
256,192,225408,1,0,0:0:0:0:
256,192,225751,1,8,0:0:0:0:
256,192,225922,1,0,0:0:0:0:
256,192,226265,1,8,0:0:0:0:
256,192,226779,1,8,0:0:0:0:
256,192,227122,1,8,0:0:0:0:
256,192,227293,1,0,0:0:0:0:
256,192,227636,1,8,0:0:0:0:
256,192,228151,1,8,0:0:0:0:
256,192,228493,1,8,0:0:0:0:
256,192,228665,1,0,0:0:0:0:
256,192,229008,1,8,0:0:0:0:
256,192,229179,1,0,0:0:0:0:
256,192,229351,1,0,0:0:0:0:
256,192,229522,1,0,0:0:0:0:
256,192,229693,1,8,0:0:0:0:
256,192,229865,1,8,0:0:0:0:
256,192,230036,1,0,0:0:0:0:
256,192,230551,1,12,0:0:0:0:
256,192,230722,1,0,0:0:0:0:
256,192,230808,1,8,0:0:0:0:
256,192,230893,1,0,0:0:0:0:
256,192,231065,1,8,0:0:0:0:
256,192,231236,1,0,0:0:0:0:
256,192,231408,1,8,0:0:0:0:
256,192,231493,1,0,0:0:0:0:
256,192,231579,1,8,0:0:0:0:
256,192,231665,1,8,0:0:0:0:
256,192,231751,1,0,0:0:0:0:
256,192,231922,1,0,0:0:0:0:
256,192,232093,1,8,0:0:0:0:
256,192,232179,1,0,0:0:0:0:
256,192,232265,1,8,0:0:0:0:
256,192,232436,1,0,0:0:0:0:
256,192,232608,1,8,0:0:0:0:
256,192,232693,1,8,0:0:0:0:
256,192,232779,1,0,0:0:0:0:
256,192,232865,1,0,0:0:0:0:
256,192,232951,1,8,0:0:0:0:
256,192,233122,1,0,0:0:0:0:
256,192,233293,1,12,0:0:0:0:
256,192,233465,1,0,0:0:0:0:
256,192,233551,1,0,0:0:0:0:
256,192,233636,1,8,0:0:0:0:
256,192,233808,1,8,0:0:0:0:
256,192,233979,1,0,0:0:0:0:
256,192,234151,1,8,0:0:0:0:
256,192,234236,1,8,0:0:0:0:
256,192,234322,1,0,0:0:0:0:
256,192,234408,1,8,0:0:0:0:
256,192,234493,1,0,0:0:0:0:
256,192,234665,1,8,0:0:0:0:
256,192,234836,1,0,0:0:0:0:
256,192,234922,1,8,0:0:0:0:
256,192,235008,1,0,0:0:0:0:
256,192,235179,1,8,0:0:0:0:
256,192,235351,1,0,0:0:0:0:
256,192,235436,1,0,0:0:0:0:
256,192,235522,1,8,0:0:0:0:
256,192,235608,1,8,0:0:0:0:
256,192,235693,1,0,0:0:0:0:
256,192,235865,1,8,0:0:0:0:
256,192,236036,1,0,0:0:0:0:
256,192,236122,1,0,0:0:0:0:
256,192,236208,1,8,0:0:0:0:
256,192,236293,1,0,0:0:0:0:
256,192,236379,1,8,0:0:0:0:
256,192,236465,1,8,0:0:0:0:
256,192,236551,1,0,0:0:0:0:
256,192,236636,1,0,0:0:0:0:
256,192,236722,1,8,0:0:0:0:
256,192,236808,1,0,0:0:0:0:
256,192,236893,1,8,0:0:0:0:
256,192,236979,1,8,0:0:0:0:
256,192,237065,1,0,0:0:0:0:
256,192,237151,1,8,0:0:0:0:
256,192,237236,1,0,0:0:0:0:
256,192,237322,1,0,0:0:0:0:
256,192,237408,1,8,0:0:0:0:
256,192,237493,1,8,0:0:0:0:
256,192,237579,1,0,0:0:0:0:
256,192,237665,1,8,0:0:0:0:
256,192,237751,1,0,0:0:0:0:
256,192,237836,1,0,0:0:0:0:
256,192,237922,1,8,0:0:0:0:
256,192,238008,1,8,0:0:0:0:
256,192,238093,1,0,0:0:0:0:
256,192,238179,1,0,0:0:0:0:
256,192,238265,1,8,0:0:0:0:
256,192,238351,1,0,0:0:0:0:
256,192,238436,1,8,0:0:0:0:
256,192,238522,1,8,0:0:0:0:
256,192,238608,1,0,0:0:0:0:
256,192,238693,1,0,0:0:0:0:
256,192,238779,1,8,0:0:0:0:
256,192,238836,1,8,0:0:0:0:
256,192,238893,1,8,0:0:0:0:
256,192,238951,1,0,0:0:0:0:
256,192,239036,1,0,0:0:0:0:
256,192,239122,1,8,0:0:0:0:
256,192,239179,1,8,0:0:0:0:
256,192,239236,1,8,0:0:0:0:
256,192,239293,1,0,0:0:0:0:
256,192,239379,1,0,0:0:0:0:
256,192,239465,1,8,0:0:0:0:
256,192,239522,1,0,0:0:0:0:
256,192,239579,1,0,0:0:0:0:
256,192,239636,1,8,0:0:0:0:
256,192,239722,1,0,0:0:0:0:
256,192,239808,1,8,0:0:0:0:
256,192,239865,1,0,0:0:0:0:
256,192,239922,1,0,0:0:0:0:
256,192,239979,1,8,0:0:0:0:
256,192,240065,1,0,0:0:0:0:
256,192,240151,1,8,0:0:0:0:
256,192,240236,1,8,0:0:0:0:
256,192,240322,1,0,0:0:0:0:
256,192,240408,1,8,0:0:0:0:
256,192,240493,1,0,0:0:0:0:
256,192,240579,1,0,0:0:0:0:
256,192,240665,1,8,0:0:0:0:
256,192,240751,1,0,0:0:0:0:
256,192,240836,1,8,0:0:0:0:
256,192,240922,1,8,0:0:0:0:
256,192,241008,1,0,0:0:0:0:
256,192,241093,1,0,0:0:0:0:
256,192,241522,1,12,0:0:0:0:
256,192,241693,1,0,0:0:0:0:
256,192,241779,1,0,0:0:0:0:
256,192,241865,1,8,0:0:0:0:
256,192,241951,1,0,0:0:0:0:
256,192,242036,1,8,0:0:0:0:
256,192,242208,1,0,0:0:0:0:
256,192,242379,1,8,0:0:0:0:
256,192,242465,1,8,0:0:0:0:
256,192,242551,1,0,0:0:0:0:
256,192,242636,1,0,0:0:0:0:
256,192,242722,1,8,0:0:0:0:
256,192,242893,1,0,0:0:0:0:
256,192,243065,1,8,0:0:0:0:
256,192,243151,1,0,0:0:0:0:
256,192,243236,1,8,0:0:0:0:
256,192,243322,1,8,0:0:0:0:
256,192,243408,1,0,0:0:0:0:
256,192,243493,1,0,0:0:0:0:
256,192,243579,1,8,0:0:0:0:
256,192,243751,1,0,0:0:0:0:
256,192,243836,1,8,0:0:0:0:
256,192,243922,1,0,0:0:0:0:
256,192,244093,1,8,0:0:0:0:
256,192,244265,1,0,0:0:0:0:
256,192,244351,1,8,0:0:0:0:
256,192,244436,1,0,0:0:0:0:
256,192,244522,1,0,0:0:0:0:
256,192,244608,1,8,0:0:0:0:
256,192,244693,1,0,0:0:0:0:
256,192,244779,1,8,0:0:0:0:
256,192,244951,1,0,0:0:0:0:
256,192,245122,1,8,0:0:0:0:
256,192,245208,1,8,0:0:0:0:
256,192,245293,1,0,0:0:0:0:
256,192,245379,1,8,0:0:0:0:
256,192,245465,1,0,0:0:0:0:
256,192,245636,1,0,0:0:0:0:
256,192,245808,1,8,0:0:0:0:
256,192,245893,1,0,0:0:0:0:
256,192,245979,1,8,0:0:0:0:
256,192,246065,1,8,0:0:0:0:
256,192,246151,1,0,0:0:0:0:
256,192,246236,1,8,0:0:0:0:
256,192,246322,1,0,0:0:0:0:
256,192,246493,1,8,0:0:0:0:
256,192,246579,1,8,0:0:0:0:
256,192,246665,1,0,0:0:0:0:
256,192,246836,1,0,0:0:0:0:
256,192,247008,1,8,0:0:0:0:
256,192,247179,1,0,0:0:0:0:
256,192,247265,1,0,0:0:0:0:
256,192,247351,1,8,0:0:0:0:
256,192,247522,1,0,0:0:0:0:
256,192,247608,1,0,0:0:0:0:
256,192,247693,1,8,0:0:0:0:
256,192,247779,1,8,0:0:0:0:
256,192,247865,1,0,0:0:0:0:
256,192,248036,1,0,0:0:0:0:
256,192,248208,1,8,0:0:0:0:
256,192,248293,1,8,0:0:0:0:
256,192,248379,1,0,0:0:0:0:
256,192,248551,1,0,0:0:0:0:
256,192,248722,1,8,0:0:0:0:
256,192,248808,1,0,0:0:0:0:
256,192,248893,1,0,0:0:0:0:
256,192,248979,1,0,0:0:0:0:
256,192,249065,1,8,0:0:0:0:
256,192,249151,1,8,0:0:0:0:
256,192,249236,1,0,0:0:0:0:
256,192,249408,1,0,0:0:0:0:
256,192,249579,1,8,0:0:0:0:
256,192,249665,1,8,0:0:0:0:
256,192,249751,1,0,0:0:0:0:
256,192,249922,1,0,0:0:0:0:
256,192,250093,1,8,0:0:0:0:
256,192,250179,1,0,0:0:0:0:
256,192,250265,1,8,0:0:0:0:
256,192,250351,1,8,0:0:0:0:
256,192,250436,1,0,0:0:0:0:
256,192,250522,1,8,0:0:0:0:
256,192,250608,1,0,0:0:0:0:
256,192,250779,1,0,0:0:0:0:
256,192,250951,1,8,0:0:0:0:
256,192,251036,1,8,0:0:0:0:
256,192,251122,1,0,0:0:0:0:
256,192,251293,1,0,0:0:0:0:
256,192,251465,1,8,0:0:0:0:
256,192,251551,1,8,0:0:0:0:
256,192,251636,1,0,0:0:0:0:
256,192,251722,1,0,0:0:0:0:
256,192,251808,1,8,0:0:0:0:
256,192,251979,1,0,0:0:0:0:
256,192,252151,1,0,0:0:0:0:
256,192,252236,1,0,0:0:0:0:
256,192,252322,1,0,0:0:0:0:
256,192,252408,1,0,0:0:0:0:
256,192,252493,1,12,0:0:0:0:
256,192,252665,1,0,0:0:0:0:
256,192,252751,1,8,0:0:0:0:
256,192,252836,1,8,0:0:0:0:
256,192,252922,1,0,0:0:0:0:
256,192,253008,1,8,0:0:0:0:
256,192,253179,1,0,0:0:0:0:
256,192,253351,1,8,0:0:0:0:
256,192,253436,1,8,0:0:0:0:
256,192,253522,1,0,0:0:0:0:
256,192,253608,1,8,0:0:0:0:
256,192,253693,1,0,0:0:0:0:
256,192,253865,1,0,0:0:0:0:
256,192,254036,1,8,0:0:0:0:
256,192,254122,1,8,0:0:0:0:
256,192,254208,1,0,0:0:0:0:
256,192,254293,1,8,0:0:0:0:
256,192,254379,1,0,0:0:0:0:
256,192,254465,1,0,0:0:0:0:
256,192,254551,1,8,0:0:0:0:
256,192,254722,1,0,0:0:0:0:
256,192,254808,1,8,0:0:0:0:
256,192,254893,1,0,0:0:0:0:
256,192,255065,1,0,0:0:0:0:
256,192,255236,1,8,0:0:0:0:
256,192,255322,1,0,0:0:0:0:
256,192,255408,1,8,0:0:0:0:
256,192,255493,1,8,0:0:0:0:
256,192,255579,1,0,0:0:0:0:
256,192,255665,1,8,0:0:0:0:
256,192,255751,1,0,0:0:0:0:
256,192,255922,1,0,0:0:0:0:
256,192,256093,1,8,0:0:0:0:
256,192,256179,1,8,0:0:0:0:
256,192,256265,1,0,0:0:0:0:
256,192,256351,1,0,0:0:0:0:
256,192,256436,1,8,0:0:0:0:
256,192,256608,1,0,0:0:0:0:
256,192,256779,1,8,0:0:0:0:
256,192,256865,1,0,0:0:0:0:
256,192,256951,1,8,0:0:0:0:
256,192,257036,1,8,0:0:0:0:
256,192,257122,1,0,0:0:0:0:
256,192,257208,1,0,0:0:0:0:
256,192,257293,1,8,0:0:0:0:
256,192,257465,1,0,0:0:0:0:
256,192,257551,1,8,0:0:0:0:
256,192,257636,1,8,0:0:0:0:
256,192,257722,1,8,0:0:0:0:
256,192,257808,1,0,0:0:0:0:
256,192,257893,1,0,0:0:0:0:
256,192,257979,1,12,0:0:0:0:
256,192,258151,1,0,0:0:0:0:
256,192,258236,1,0,0:0:0:0:
256,192,258322,1,8,0:0:0:0:
256,192,258493,1,0,0:0:0:0:
256,192,258579,1,0,0:0:0:0:
256,192,258665,1,8,0:0:0:0:
256,192,258751,1,8,0:0:0:0:
256,192,258836,1,0,0:0:0:0:
256,192,259008,1,0,0:0:0:0:
256,192,259093,1,0,0:0:0:0:
256,192,259179,1,8,0:0:0:0:
256,192,259265,1,0,0:0:0:0:
256,192,259351,1,12,0:0:0:0:
256,192,259522,1,0,0:0:0:0:
256,192,259693,1,8,0:0:0:0:
256,192,259779,1,0,0:0:0:0:
256,192,259865,1,0,0:0:0:0:
256,192,259951,1,0,0:0:0:0:
256,192,260036,1,12,0:0:0:0:
256,192,260208,1,8,0:0:0:0:
256,192,260379,1,0,0:0:0:0:
256,192,260465,1,0,0:0:0:0:
256,192,260551,1,8,0:0:0:0:
256,192,260722,1,0,0:0:0:0:
256,192,260808,1,0,0:0:0:0:
256,192,260893,1,8,0:0:0:0:
256,192,260979,1,0,0:0:0:0:
256,192,261065,1,8,0:0:0:0:
256,192,261151,1,8,0:0:0:0:
256,192,261236,1,0,0:0:0:0:
256,192,261322,1,8,0:0:0:0:
256,192,261408,1,0,0:0:0:0:
256,192,261493,1,0,0:0:0:0:
256,192,261579,1,8,0:0:0:0:
256,192,261665,1,8,0:0:0:0:
256,192,261751,1,0,0:0:0:0:
256,192,261836,1,8,0:0:0:0:
256,192,261922,1,8,0:0:0:0:
256,192,262008,1,8,0:0:0:0:
256,192,263465,1,12,0:0:0:0:
256,192,263636,1,0,0:0:0:0:
256,192,263722,1,8,0:0:0:0:
256,192,263808,1,0,0:0:0:0:
256,192,263893,1,0,0:0:0:0:
256,192,263979,1,8,0:0:0:0:
256,192,264065,1,0,0:0:0:0:
256,192,264151,1,8,0:0:0:0:
256,192,264322,1,0,0:0:0:0:
256,192,264408,1,0,0:0:0:0:
256,192,264493,1,8,0:0:0:0:
256,192,264665,1,8,0:0:0:0:
256,192,264751,1,0,0:0:0:0:
256,192,264836,1,8,0:0:0:0:
256,192,265008,1,0,0:0:0:0:
256,192,265093,1,0,0:0:0:0:
256,192,265179,1,8,0:0:0:0:
256,192,265265,1,0,0:0:0:0:
256,192,265351,1,8,0:0:0:0:
256,192,265436,1,8,0:0:0:0:
256,192,265522,1,0,0:0:0:0:
256,192,265693,1,0,0:0:0:0:
256,192,265865,1,8,0:0:0:0:
256,192,265951,1,0,0:0:0:0:
256,192,266036,1,0,0:0:0:0:
256,192,266122,1,0,0:0:0:0:
256,192,266208,1,8,0:0:0:0:
256,192,266379,1,0,0:0:0:0:
256,192,266465,1,0,0:0:0:0:
256,192,266551,1,8,0:0:0:0:
256,192,266636,1,8,0:0:0:0:
256,192,266722,1,0,0:0:0:0:
256,192,266808,1,8,0:0:0:0:
256,192,266893,1,0,0:0:0:0:
256,192,267065,1,8,0:0:0:0:
256,192,267151,1,0,0:0:0:0:
256,192,267236,1,8,0:0:0:0:
256,192,267408,1,0,0:0:0:0:
256,192,267493,1,0,0:0:0:0:
256,192,267579,1,8,0:0:0:0:
256,192,267751,1,8,0:0:0:0:
256,192,267836,1,0,0:0:0:0:
256,192,267922,1,8,0:0:0:0:
256,192,268008,1,8,0:0:0:0:
256,192,268093,1,0,0:0:0:0:
256,192,268179,1,8,0:0:0:0:
256,192,268265,1,0,0:0:0:0:
256,192,268436,1,0,0:0:0:0:
256,192,268608,1,8,0:0:0:0:
256,192,268693,1,8,0:0:0:0:
256,192,268779,1,0,0:0:0:0:
256,192,268865,1,0,0:0:0:0:
256,192,268951,1,8,0:0:0:0:
256,192,269122,1,8,0:0:0:0:
256,192,269208,1,8,0:0:0:0:
256,192,269293,1,0,0:0:0:0:
256,192,269379,1,0,0:0:0:0:
256,192,269465,1,8,0:0:0:0:
256,192,269551,1,0,0:0:0:0:
256,192,269636,1,8,0:0:0:0:
256,192,269808,1,0,0:0:0:0:
256,192,269893,1,0,0:0:0:0:
256,192,269979,1,8,0:0:0:0:
256,192,270151,1,8,0:0:0:0:
256,192,270236,1,0,0:0:0:0:
256,192,270322,1,8,0:0:0:0:
256,192,270493,1,0,0:0:0:0:
256,192,270579,1,8,0:0:0:0:
256,192,270665,1,8,0:0:0:0:
256,192,270751,1,8,0:0:0:0:
256,192,270836,1,0,0:0:0:0:
256,192,270922,1,0,0:0:0:0:
256,192,271008,1,8,0:0:0:0:
256,192,271179,1,0,0:0:0:0:
256,192,271351,1,0,0:0:0:0:
256,192,271436,1,8,0:0:0:0:
256,192,271522,1,0,0:0:0:0:
256,192,271608,1,0,0:0:0:0:
256,192,271693,1,8,0:0:0:0:
256,192,271865,1,0,0:0:0:0:
256,192,271951,1,0,0:0:0:0:
256,192,272036,1,8,0:0:0:0:
256,192,272122,1,0,0:0:0:0:
256,192,272208,1,8,0:0:0:0:
256,192,272293,1,8,0:0:0:0:
256,192,272379,1,0,0:0:0:0:
256,192,272551,1,8,0:0:0:0:
256,192,272636,1,0,0:0:0:0:
256,192,272722,1,8,0:0:0:0:
256,192,272893,1,0,0:0:0:0:
256,192,272979,1,0,0:0:0:0:
256,192,273065,1,8,0:0:0:0:
256,192,273236,1,0,0:0:0:0:
256,192,273322,1,8,0:0:0:0:
256,192,273408,1,0,0:0:0:0:
256,192,273493,1,0,0:0:0:0:
256,192,273579,1,8,0:0:0:0:
256,192,273665,1,8,0:0:0:0:
256,192,273751,1,0,0:0:0:0:
256,192,273922,1,8,0:0:0:0:
256,192,274093,1,0,0:0:0:0:
256,192,274179,1,0,0:0:0:0:
256,192,274265,1,0,0:0:0:0:
256,192,274351,1,0,0:0:0:0:
256,192,274436,1,12,0:0:0:0:
256,192,274608,1,0,0:0:0:0:
256,192,274693,1,8,0:0:0:0:
256,192,274779,1,8,0:0:0:0:
256,192,274865,1,8,0:0:0:0:
256,192,274951,1,0,0:0:0:0:
256,192,275036,1,0,0:0:0:0:
256,192,275122,1,8,0:0:0:0:
256,192,275293,1,0,0:0:0:0:
256,192,275379,1,0,0:0:0:0:
256,192,275465,1,8,0:0:0:0:
256,192,275636,1,8,0:0:0:0:
256,192,275722,1,0,0:0:0:0:
256,192,275808,1,8,0:0:0:0:
256,192,275979,1,0,0:0:0:0:
256,192,276065,1,8,0:0:0:0:
256,192,276151,1,8,0:0:0:0:
256,192,276236,1,0,0:0:0:0:
256,192,276322,1,8,0:0:0:0:
256,192,276408,1,8,0:0:0:0:
256,192,276493,1,0,0:0:0:0:
256,192,276665,1,0,0:0:0:0:
256,192,276836,1,8,0:0:0:0:
256,192,276922,1,8,0:0:0:0:
256,192,277008,1,0,0:0:0:0:
256,192,277093,1,0,0:0:0:0:
256,192,277179,1,8,0:0:0:0:
256,192,277351,1,8,0:0:0:0:
256,192,277436,1,0,0:0:0:0:
256,192,277522,1,8,0:0:0:0:
256,192,277608,1,8,0:0:0:0:
256,192,277693,1,0,0:0:0:0:
256,192,277779,1,8,0:0:0:0:
256,192,277865,1,0,0:0:0:0:
256,192,278036,1,8,0:0:0:0:
256,192,278122,1,0,0:0:0:0:
256,192,278208,1,8,0:0:0:0:
256,192,278379,1,0,0:0:0:0:
256,192,278465,1,0,0:0:0:0:
256,192,278551,1,8,0:0:0:0:
256,192,278722,1,8,0:0:0:0:
256,192,278808,1,8,0:0:0:0:
256,192,278893,1,0,0:0:0:0:
256,192,278979,1,0,0:0:0:0:
256,192,279065,1,8,0:0:0:0:
256,192,279151,1,8,0:0:0:0:
256,192,279236,1,0,0:0:0:0:
256,192,279408,1,8,0:0:0:0:
256,192,279493,1,8,0:0:0:0:
256,192,279579,1,0,0:0:0:0:
256,192,279665,1,0,0:0:0:0:
256,192,279751,1,0,0:0:0:0:
256,192,279836,1,0,0:0:0:0:
256,192,279922,1,12,0:0:0:0:
256,192,280093,1,8,0:0:0:0:
256,192,280179,1,0,0:0:0:0:
256,192,280265,1,0,0:0:0:0:
256,192,280351,1,0,0:0:0:0:
256,192,280436,1,8,0:0:0:0:
256,192,280522,1,0,0:0:0:0:
256,192,280608,1,8,0:0:0:0:
256,192,280779,1,0,0:0:0:0:
256,192,280865,1,0,0:0:0:0:
256,192,280951,1,8,0:0:0:0:
256,192,281122,1,8,0:0:0:0:
256,192,281208,1,0,0:0:0:0:
256,192,281293,1,12,0:0:0:0:
256,192,281465,1,8,0:0:0:0:
256,192,281551,1,0,0:0:0:0:
256,192,281636,1,8,0:0:0:0:
256,192,281722,1,8,0:0:0:0:
256,192,281808,1,0,0:0:0:0:
256,192,281893,1,0,0:0:0:0:
256,192,281979,1,12,0:0:0:0:
256,192,282151,1,8,0:0:0:0:
256,192,282322,1,0,0:0:0:0:
256,192,282408,1,0,0:0:0:0:
256,192,282493,1,8,0:0:0:0:
256,192,282665,1,0,0:0:0:0:
256,192,282751,1,0,0:0:0:0:
256,192,282836,1,8,0:0:0:0:
256,192,282922,1,0,0:0:0:0:
256,192,283008,1,8,0:0:0:0:
256,192,283093,1,8,0:0:0:0:
256,192,283179,1,0,0:0:0:0:
256,192,283265,1,8,0:0:0:0:
256,192,283351,1,0,0:0:0:0:
256,192,283436,1,0,0:0:0:0:
256,192,283522,1,8,0:0:0:0:
256,192,283608,1,0,0:0:0:0:
256,192,283693,1,8,0:0:0:0:
256,192,283779,1,8,0:0:0:0:
256,192,283865,1,0,0:0:0:0:
256,192,283951,1,0,0:0:0:0:
256,192,284036,1,8,0:0:0:0:
256,192,284208,1,0,0:0:0:0:
256,192,284379,1,8,0:0:0:0:
256,192,284551,1,0,0:0:0:0:
256,192,284636,1,0,0:0:0:0:
256,192,284722,1,0,0:0:0:0:
256,192,284893,1,0,0:0:0:0:
256,192,285065,1,8,0:0:0:0:
256,192,285408,5,12,0:0:0:0:
256,192,285579,1,0,0:0:0:0:
256,192,285751,1,8,0:0:0:0:
256,192,285922,1,8,0:0:0:0:
256,192,286008,1,0,0:0:0:0:
256,192,286093,1,0,0:0:0:0:
256,192,286179,1,8,0:0:0:0:
256,192,286351,1,8,0:0:0:0:
256,192,286436,1,0,0:0:0:0:
256,192,286608,1,8,0:0:0:0:
256,192,286779,1,0,0:0:0:0:
256,192,286865,1,0,0:0:0:0:
256,192,286951,1,8,0:0:0:0:
256,192,287036,1,0,0:0:0:0:
256,192,287122,1,8,0:0:0:0:
256,192,287293,1,0,0:0:0:0:
256,192,287465,1,8,0:0:0:0:
256,192,287551,1,8,0:0:0:0:
256,192,287636,1,0,0:0:0:0:
256,192,287722,1,0,0:0:0:0:
256,192,287808,1,8,0:0:0:0:
256,192,287979,1,8,0:0:0:0:
256,192,288151,1,0,0:0:0:0:
256,192,288236,1,8,0:0:0:0:
256,192,288322,1,0,0:0:0:0:
256,192,288493,1,8,0:0:0:0:
256,192,288665,1,8,0:0:0:0:
256,192,288751,1,8,0:0:0:0:
256,192,288836,1,0,0:0:0:0:
256,192,288922,1,8,0:0:0:0:
256,192,289093,1,8,0:0:0:0:
256,192,289179,1,0,0:0:0:0:
256,192,289351,1,8,0:0:0:0:
256,192,289522,1,0,0:0:0:0:
256,192,289608,1,0,0:0:0:0:
256,192,289693,1,8,0:0:0:0:
256,192,289779,1,8,0:0:0:0:
256,192,289865,1,0,0:0:0:0:
256,192,290036,1,0,0:0:0:0:
256,192,290208,1,8,0:0:0:0:
256,192,290293,1,0,0:0:0:0:
256,192,290379,1,8,0:0:0:0:
256,192,290465,1,8,0:0:0:0:
256,192,290551,1,0,0:0:0:0:
256,192,290722,1,8,0:0:0:0:
256,192,290893,1,0,0:0:0:0:
256,192,290979,1,8,0:0:0:0:
256,192,291065,1,0,0:0:0:0:
256,192,291236,1,8,0:0:0:0:
256,192,291408,1,8,0:0:0:0:
256,192,291493,1,0,0:0:0:0:
256,192,291579,1,0,0:0:0:0:
256,192,291665,1,8,0:0:0:0:
256,192,291836,1,8,0:0:0:0:
256,192,291922,1,0,0:0:0:0:
256,192,292093,1,8,0:0:0:0:
256,192,292265,1,0,0:0:0:0:
256,192,292351,1,0,0:0:0:0:
256,192,292436,1,8,0:0:0:0:
256,192,292522,1,0,0:0:0:0:
256,192,292608,1,8,0:0:0:0:
256,192,292779,1,0,0:0:0:0:
256,192,292951,1,8,0:0:0:0:
256,192,293036,1,0,0:0:0:0:
256,192,293122,1,0,0:0:0:0:
256,192,293208,1,8,0:0:0:0:
256,192,293293,1,0,0:0:0:0:
256,192,293465,1,8,0:0:0:0:
256,192,293636,1,0,0:0:0:0:
256,192,293722,1,8,0:0:0:0:
256,192,293808,1,0,0:0:0:0:
256,192,293979,1,8,0:0:0:0:
256,192,294151,1,8,0:0:0:0:
256,192,294236,1,8,0:0:0:0:
256,192,294322,1,0,0:0:0:0:
256,192,294408,1,8,0:0:0:0:
256,192,294579,1,8,0:0:0:0:
256,192,294665,1,0,0:0:0:0:
256,192,294836,1,0,0:0:0:0:
256,192,295008,1,8,0:0:0:0:
256,192,295093,1,0,0:0:0:0:
256,192,295179,1,8,0:0:0:0:
256,192,295265,1,8,0:0:0:0:
256,192,295351,1,0,0:0:0:0:
256,192,295436,1,8,0:0:0:0:
256,192,295522,1,0,0:0:0:0:
256,192,295693,1,8,0:0:0:0:
256,192,295779,1,8,0:0:0:0:
256,192,295865,1,0,0:0:0:0:
256,192,295951,1,0,0:0:0:0:
256,192,296036,1,8,0:0:0:0:
256,192,296122,1,8,0:0:0:0:
256,192,296208,1,0,0:0:0:0:
256,192,296293,1,0,0:0:0:0:
256,192,296379,5,12,0:0:0:0:
256,192,296551,1,0,0:0:0:0:
256,192,296722,1,8,0:0:0:0:
256,192,296893,1,8,0:0:0:0:
256,192,296979,1,0,0:0:0:0:
256,192,297065,1,0,0:0:0:0:
256,192,297151,1,8,0:0:0:0:
256,192,297322,1,8,0:0:0:0:
256,192,297408,1,0,0:0:0:0:
256,192,297579,1,8,0:0:0:0:
256,192,297751,1,0,0:0:0:0:
256,192,297836,1,8,0:0:0:0:
256,192,297922,1,8,0:0:0:0:
256,192,298008,1,0,0:0:0:0:
256,192,298093,1,8,0:0:0:0:
256,192,298265,1,0,0:0:0:0:
256,192,298436,1,8,0:0:0:0:
256,192,298522,1,0,0:0:0:0:
256,192,298608,1,0,0:0:0:0:
256,192,298693,1,8,0:0:0:0:
256,192,298779,1,0,0:0:0:0:
256,192,298951,1,8,0:0:0:0:
256,192,299122,1,0,0:0:0:0:
256,192,299208,1,8,0:0:0:0:
256,192,299293,1,0,0:0:0:0:
256,192,299465,1,8,0:0:0:0:
256,192,299636,1,8,0:0:0:0:
256,192,299722,1,8,0:0:0:0:
256,192,299808,1,0,0:0:0:0:
256,192,299893,1,8,0:0:0:0:
256,192,300065,1,8,0:0:0:0:
256,192,300151,1,0,0:0:0:0:
256,192,300322,1,8,0:0:0:0:
256,192,300493,1,0,0:0:0:0:
256,192,300579,1,0,0:0:0:0:
256,192,300665,1,8,0:0:0:0:
256,192,300751,1,0,0:0:0:0:
256,192,300836,1,8,0:0:0:0:
256,192,301008,1,0,0:0:0:0:
256,192,301179,1,8,0:0:0:0:
256,192,301265,1,8,0:0:0:0:
256,192,301351,1,0,0:0:0:0:
256,192,301436,1,8,0:0:0:0:
256,192,301522,1,0,0:0:0:0:
256,192,301608,1,0,0:0:0:0:
256,192,301693,1,0,0:0:0:0:
256,192,301779,1,0,0:0:0:0:
256,192,301865,1,12,0:0:0:0:
256,192,302036,1,0,0:0:0:0:
256,192,302208,1,8,0:0:0:0:
256,192,302293,1,8,0:0:0:0:
256,192,302379,1,0,0:0:0:0:
256,192,302551,1,8,0:0:0:0:
256,192,302722,1,8,0:0:0:0:
256,192,302893,1,0,0:0:0:0:
256,192,302979,1,0,0:0:0:0:
256,192,303065,1,8,0:0:0:0:
256,192,303236,1,12,0:0:0:0:
256,192,303408,1,0,0:0:0:0:
256,192,303579,1,8,0:0:0:0:
256,192,303665,1,8,0:0:0:0:
256,192,303751,1,0,0:0:0:0:
256,192,303836,1,0,0:0:0:0:
256,192,303922,1,12,0:0:0:0:
256,192,304093,1,8,0:0:0:0:
256,192,304179,1,8,0:0:0:0:
256,192,304265,1,0,0:0:0:0:
256,192,304436,1,8,0:0:0:0:
256,192,304608,1,0,0:0:0:0:
256,192,304693,1,0,0:0:0:0:
256,192,304779,1,8,0:0:0:0:
256,192,304865,1,0,0:0:0:0:
256,192,304951,1,8,0:0:0:0:
256,192,305036,1,8,0:0:0:0:
256,192,305122,1,0,0:0:0:0:
256,192,305208,1,8,0:0:0:0:
256,192,305293,1,0,0:0:0:0:
256,192,305379,1,0,0:0:0:0:
256,192,305465,1,8,0:0:0:0:
256,192,305551,1,0,0:0:0:0:
256,192,305636,1,8,0:0:0:0:
256,192,305722,1,8,0:0:0:0:
256,192,305808,1,0,0:0:0:0:
256,192,305893,1,0,0:0:0:0:
256,192,305979,1,8,0:0:0:0:
256,192,306151,1,0,0:0:0:0:
256,192,306322,1,0,0:0:0:0:
256,192,306493,1,8,0:0:0:0:
256,192,306836,1,0,0:0:0:0:
256,192,307008,1,8,0:0:0:0:
256,192,307179,1,0,0:0:0:0:
