osu file format v14

[General]
AudioFilename: ilias.mp3
AudioLeadIn: 0
PreviewTime: 68625
Countdown: 0
SampleSet: Soft
StackLeniency: 0.9
Mode: 0
LetterboxInBreaks: 0
StoryFireInFront: 0
EpilepsyWarning: 1
WidescreenStoryboard: 1

[Editor]
Bookmarks: 14541,28062,41583,55104,61865,68625,75386,82146,88907,95667,102428,109189
DistanceSpacing: 1.6
BeatDivisor: 12
GridSize: 4
TimelineZoom: 2.7

[Metadata]
Title:ILIAS
TitleUnicode:ILIAS
Artist:Masayoshi Minoshima feat. Sakaue Nachi
ArtistUnicode:Masayoshi Minoshima feat. 坂上なち
Creator:-kevincela-
Version:Another
Source:beatmania IIDX 20 tricoro
Tags:Damnae EvilElvis Priti HYPER ELECTRO Dubstep Techno Electronic BEMANI Konami Kiiwa alstroemeria records
BeatmapID:818368
BeatmapSetID:373543

[Difficulty]
HPDrainRate:7
CircleSize:4
OverallDifficulty:8
ApproachRate:9
SliderMultiplier:1.9
SliderTickRate:2

[Events]
//Background and Video events
0,0,"bg.png",0,0
//Break Periods
2,99670,101405
//Storyboard Layer 0 (Background)
//Storyboard Layer 1 (Fail)
//Storyboard Layer 2 (Pass)
//Storyboard Layer 3 (Foreground)
//Storyboard Sound Samples

[TimingPoints]
1020,422.535211267606,4,2,1,50,1,0
1020,-133.333333333333,4,2,1,50,0,0
7358,-66.6666666666667,4,1,1,40,0,1
7780,-133.333333333333,4,2,1,50,0,0
14012,-66.6666666666667,4,2,1,50,0,0
14083,-133.333333333333,4,2,1,50,0,0
14541,-100,4,2,1,50,0,0
26372,-83.3333333333333,4,2,1,50,0,0
28062,-200,4,2,1,50,0,0
28484,-76.9230769230769,4,2,1,50,0,0
28801,-100,4,2,1,50,0,0
35245,-76.9230769230769,4,2,1,50,0,0
35562,-100,4,2,1,50,0,0
38625,-76.9230769230769,4,2,1,50,0,0
39048,-100,4,2,1,50,0,0
39470,-76.9230769230769,4,2,1,50,0,0
41583,-133.333333333333,4,2,1,50,0,0
47921,-66.6666666666667,4,1,1,40,0,1
48343,-133.333333333333,4,2,1,50,0,0
54576,-66.6666666666667,4,2,1,50,0,0
54646,-133.333333333333,4,2,1,50,0,0
55104,-100,4,2,1,60,0,0
58062,-66.6666666666667,4,1,1,40,0,1
58484,-100,4,2,1,60,0,0
61442,-66.6666666666667,4,1,1,40,0,1
61865,-100,4,2,1,60,0,0
66724,-100,4,1,1,60,0,0
67146,-133.333333333333,4,2,1,50,0,0
67780,-133.333333333333,4,2,1,40,0,0
68203,-133.333333333333,4,2,1,30,0,0
68625,-76.9230769230769,4,1,1,60,0,1
82146,-133.333333333333,4,1,1,70,0,1
82569,-76.9230769230769,4,1,1,70,0,1
88907,-100,4,1,1,50,0,1
90174,-100,4,1,1,20,0,1
90386,-100,4,1,1,35,0,1
90597,-100,4,1,1,50,0,1
91020,-100,4,1,1,20,0,1
91231,-100,4,1,1,50,0,1
92076,-100,4,1,1,35,0,1
92287,-100,4,1,1,50,0,1
92710,-100,4,1,1,20,0,1
92921,-100,4,1,1,35,0,1
93132,-100,4,1,1,50,0,1
93555,-100,4,1,1,35,0,1
93766,-100,4,1,1,20,0,1
93977,-100,4,1,1,60,0,1
94822,-100,4,1,1,70,0,1
95667,-133.333333333333,4,2,1,50,0,0
96090,-100,4,2,1,60,0,0
96196,-100,4,2,1,40,0,0
99470,-100,4,2,1,20,0,0
102005,-50,4,1,1,40,0,1
102428,-100,4,2,1,50,0,0
102850,-90.9090909090909,4,2,1,50,0,0
104963,-90.9090909090909,4,2,1,60,0,0
105703,-90.9090909090909,4,1,1,60,0,0
106020,-90.9090909090909,4,2,1,60,0,0
109083,-100,4,2,1,70,0,0

[Colours]
Combo1 : 181,181,181
Combo2 : 173,255,95
Combo3 : 17,254,176
Combo4 : 255,88,100
Combo5 : 255,94,55

[HitObjects]
96,112,1020,6,0,L|8:104,2,71.2500027179719,4|0|0,1:0|0:0|0:0,0:0:0:0:
260,192,1865,2,0,L|424:180,1,142.500005435944,0|0,1:0|0:0,0:0:0:0:
488,144,2498,1,0,0:0:0:0:
408,24,2710,6,0,P|404:64|412:108,1,71.2500027179719,0|0,1:0|0:0,0:0:0:0:
484,236,3132,2,0,P|488:271|484:306,1,71.2500027179719,0|2,0:0|0:0,0:0:0:0:
402,181,3555,2,0,P|334:199|270:168,1,142.500005435944,0|2,1:0|0:0,0:0:0:0:
204,104,4189,1,2,0:0:0:0:
44,204,4400,6,0,P|107:174|174:193,1,142.500005435944,0|2,1:0|0:0,0:0:0:0:
244,260,5034,1,2,0:0:0:0:
380,180,5245,2,0,L|388:8,1,142.500005435944,0|0,1:0|1:0,0:0:0:0:
386,37,5773,1,0,0:0:0:0:
386,37,5879,1,0,1:0:0:0:
468,168,6090,6,0,L|488:252,1,71.2500027179719,2|0,0:0|0:0,0:0:0:0:
272,228,6512,2,0,L|292:159,1,71.2500027179719,0|0,1:0|1:0,0:0:0:0:
292,159,6829,1,0,1:0:0:0:
292,159,6935,1,0,1:2:0:0:
372,312,7146,1,0,1:0:0:0:
180,328,7358,6,0,B|116:304|44:313|44:313|84:304|124:264,1,213.750008153916,2|0,1:0|2:0,0:0:0:0:
160,208,7780,6,0,L|156:116,1,71.2500027179719,4|0,1:0|0:0,0:0:0:0:
224,40,8203,1,0,1:0:0:0:
224,40,8625,2,0,B|276:36|276:36|308:44|308:44|376:40,1,142.500005435944,0|0,1:0|0:0,0:0:0:0:
464,28,9259,1,0,0:0:0:0:
380,196,9470,6,0,P|368:160|364:116,1,71.2500027179719,0|0,1:0|0:0,0:0:0:0:
480,184,9893,2,0,P|480:240|472:296,1,106.875004076958,0|0,0:0|0:0,0:0:0:0:
388,336,10315,6,0,B|313:314|324:354|247:336,1,142.500005435944,0|0,1:0|1:0,0:0:0:0:
148,296,10949,1,0,0:0:0:0:
252,128,11160,6,0,P|284:176|276:272,1,142.500005435944,0|0,1:0|0:0,0:0:0:0:
160,156,11794,1,0,0:0:0:0:
372,168,12005,2,0,L|520:176,1,142.500005435944,0|0,1:0|0:0,0:0:0:0:
452,260,12639,1,0,1:0:0:0:
412,84,12850,22,0,L|504:88,1,71.2500027179719
372,168,13273,2,0,L|280:172,1,71.2500027179719,0|0,1:0|0:0,0:0:0:0:
300,171,13590,1,0,1:0:0:0:
300,171,13696,1,8,1:0:0:0:
168,288,13907,5,8,1:0:0:0:
168,288,14012,2,0,L|172:324,3,23.7500009059906,0|0|0|0,0:0|0:0|1:0|0:0,0:0:0:0:
108,208,14224,1,4,0:0:0:0:
113,158,14329,1,8,1:0:0:0:
120,109,14435,1,0,0:0:0:0:
126,58,14541,6,0,P|172:60|227:45,1,95,4|0,1:0|0:0,0:0:0:0:
428,104,14963,2,0,P|364:99|289:121,1,142.5,0|0,1:0|0:0,0:0:0:0:
216,192,15386,6,0,L|224:296,1,95,0|0,1:2|0:0,0:0:0:0:
289,121,15808,1,0,1:0:0:0:
289,121,16231,21,0,1:2:0:0:
223,286,16442,1,0,0:0:0:0:
104,156,16653,1,0,1:0:0:0:
289,121,16865,1,0,1:0:0:0:
320,121,16970,1,0,0:0:0:0:
345,141,17076,6,0,L|356:-4,1,142.5,0|0,1:2|0:0,0:0:0:0:
448,108,17498,2,0,L|439:214,1,95,4|0,1:0|0:0,0:0:0:0:
336,296,17921,6,0,P|292:300|220:284,1,95,0|0,1:0|0:0,0:0:0:0:
40,244,18343,2,0,P|86:236|133:240,1,95,0|4,1:0|0:0,0:0:0:0:
242,292,18660,1,0,0:0:0:0:
242,292,18766,2,0,L|236:172,1,95,0|0,1:0|0:0,0:0:0:0:
140,336,19189,1,0,1:0:0:0:
140,336,19611,5,0,1:0:0:0:
356,280,19822,1,0,0:0:0:0:
237,197,20034,1,0,1:0:0:0:
324,368,20245,1,0,1:0:0:0:
492,272,20456,2,0,L|480:108,1,142.5,4|0,1:0|0:0,0:0:0:0:
396,64,20879,21,2,0:0:0:0:
355,101,20984,1,8,0:0:0:0:
303,118,21090,1,2,0:0:0:0:
248,112,21195,1,8,0:0:0:0:
201,83,21301,6,0,L|188:24,1,47.5,4|0,1:0|0:0,0:0:0:0:
140,156,21512,2,0,L|153:215,1,47.5,6|0,0:0|0:0,0:0:0:0:
48,124,21724,2,0,L|64:16,1,95,8|2,1:0|0:0,0:0:0:0:
150,202,22146,2,0,L|136:295,1,95,0|2,1:0|0:0,0:0:0:0:
248,168,22569,1,8,1:0:0:0:
40,240,22780,5,2,0:0:0:0:
40,240,22886,1,0,0:0:0:0:
40,240,22991,1,0,1:0:0:0:
136,296,23203,1,2,0:0:0:0:
248,168,23414,1,8,1:0:0:0:
128,204,23626,1,2,0:0:0:0:
236,348,23836,2,0,L|352:340,1,95,0|0,1:0|0:0,0:0:0:0:
342,161,24259,2,0,L|226:169,1,95,8|2,1:0|0:0,0:0:0:0:
247,167,24576,1,0,0:0:0:0:
247,167,24681,5,2,1:0:0:0:
420,224,24893,1,4,3:0:0:0:
324,64,25104,1,8,1:0:0:0:
320,248,25315,2,0,L|324:304,1,47.5,4|0,0:0|0:0,0:0:0:0:
247,167,25527,21,2,1:0:0:0:
432,100,25738,1,4,3:0:0:0:
252,24,25949,2,0,L|110:37,1,142.5,8|12,1:0|0:0,0:0:0:0:
40,112,26372,5,2,0:1:0:0:
29,169,26477,1,0,0:0:0:0:
49,224,26583,1,12,0:0:0:0:
94,262,26688,1,2,0:1:0:0:
152,271,26794,2,0,L|220:256,1,56.9999982604981,0|12,0:0|0:0,0:0:0:0:
316,228,27005,5,0,0:0:0:0:
308,196,27111,2,0,L|294:140,1,56.9999982604981,2|12,0:1|0:0,0:0:0:0:
207,258,27322,5,2,0:1:0:0:
215,290,27428,2,0,L|228:345,1,56.9999982604981,12|2,0:0|0:1,0:0:0:0:
396,296,27639,2,0,B|412:240|412:240|384:128,1,170.999994781494,4|0,1:2|0:0,0:0:0:0:
299,80,28062,22,0,L|232:73,1,47.5,4|4,1:0|1:2,0:0:0:0:
129,65,28484,22,0,L|261:77,1,123.499994346619,0|2,0:0|0:0,0:0:0:0:
360,168,28801,1,0,0:0:0:0:
324,172,28907,2,0,L|229:180,1,95,0|2,1:0|0:0,0:0:0:0:
76,264,29329,2,0,P|136:260|240:304,1,142.5,0|0,1:0|0:0,0:0:0:0:
276,348,29752,5,0,1:0:0:0:
229,179,29963,1,2,0:0:0:0:
132,348,30174,1,0,1:0:0:0:
336,243,30386,1,2,0:0:0:0:
369,247,30491,1,0,0:0:0:0:
392,272,30597,22,0,L|404:168,1,95,0|0,1:0|0:0,0:0:0:0:
212,37,31020,2,0,L|228:178,1,142.5,4|0,1:0|0:0,0:0:0:0:
312,88,31442,5,0,1:0:0:0:
128,112,31653,1,0,1:0:0:0:
323,182,31865,2,0,L|312:88,1,95,2|0,0:0|1:0,0:0:0:0:
140,208,32287,21,2,0:0:0:0:
323,182,32498,1,0,1:0:0:0:
252,356,32710,2,0,L|239:247,1,95,0|0,1:0|0:0,0:0:0:0:
228,164,33027,1,0,1:0:0:0:
228,164,33132,21,4,1:2:0:0:
152,312,33343,1,0,0:0:0:0:
320,208,33555,1,0,1:0:0:0:
136,120,33766,1,4,1:2:0:0:
264,296,33977,2,0,L|405:279,1,142.5,0|0,1:0|0:0,0:0:0:0:
468,348,34400,5,0,1:0:0:0:
409,355,34505,1,8,0:0:0:0:
350,362,34611,1,0,0:0:0:0:
291,369,34716,1,8,0:0:0:0:
232,376,34822,6,0,L|160:368,1,47.5,4|0,1:0|0:0,0:0:0:0:
248,212,35034,2,0,L|320:204,1,47.5,4|0,1:0|0:0,0:0:0:0:
160,268,35245,2,0,B|144:212|144:212|164:140,1,123.499994346619,12|2,1:0|0:0,0:0:0:0:
200,56,35562,1,0,0:0:0:0:
200,56,35667,38,0,L|304:84,1,95,0|2,1:0|0:0,0:0:0:0:
161,149,36090,2,0,L|57:121,1,95,8|2,1:0|0:0,0:0:0:0:
88,224,36407,1,0,0:0:0:0:
88,224,36512,5,0,1:0:0:0:
256,176,36724,1,2,0:0:0:0:
364,340,36935,1,8,1:0:0:0:
196,292,37147,1,2,0:0:0:0:
352,104,37358,2,0,P|368:156|344:264,1,142.5,0|0,1:2|0:0,0:0:0:0:
256,176,37780,2,0,L|160:188,1,95,8|0,1:0|0:0,0:0:0:0:
355,241,38203,6,0,L|363:301,1,47.5,4|0,1:0|0:0,0:0:0:0:
200,288,38414,2,0,L|208:348,1,47.5,4|0,2:0|2:0,0:0:0:0:
256,176,38625,2,0,L|240:44,1,123.499994346619,8|2,1:0|2:1,0:0:0:0:
241,53,39048,6,0,L|289:60,1,47.5,4|0,1:0|0:0,0:0:0:0:
156,172,39259,2,0,L|96:164,1,47.5,4|0,2:2|2:0,0:0:0:0:
272,280,39470,2,0,L|404:296,1,123.499994346619,12|2,1:0|2:1,0:0:0:0:
394,294,39893,21,8,2:0:0:0:
421,248,39998,1,0,2:0:0:0:
430,195,40104,1,2,0:0:0:0:
420,142,40209,1,0,0:0:0:0:
392,96,40315,2,0,L|316:88,1,61.7499971733095,8|0,2:2|0:0,0:0:0:0:
244,152,40527,5,2,0:0:0:0:
212,156,40632,2,0,L|135:164,1,61.7499971733095,8|12,2:0|2:0,0:0:0:0:
80,256,40843,21,2,2:1:0:0:
112,260,40949,2,0,L|176:266,1,61.7499971733095,4|8,0:2|2:0,0:0:0:0:
280,328,41160,21,2,2:1:0:0:
384,316,41372,1,4,0:2:0:0:
490,301,41583,6,0,P|494:249|478:149,1,142.500005435944,4|2,1:0|0:0,0:0:0:0:
481,159,42428,2,0,L|326:169,1,142.500005435944,0|2,1:0|0:0,0:0:0:0:
248,208,43062,1,0,0:0:0:0:
128,148,43273,6,0,P|132:112|148:72,1,71.2500027179719,4|0,2:1|0:0,0:0:0:0:
248,208,43696,2,0,L|240:368,1,142.500005435944,2|0,0:0|1:0,0:0:0:0:
152,292,44329,1,0,0:0:0:0:
336,252,44541,2,0,L|424:232,1,71.2500027179719,2|2,0:0|0:0,0:0:0:0:
240,350,44963,6,0,L|90:384,1,142.500005435944,0|2,1:0|0:0,0:0:0:0:
8,320,45597,1,2,0:0:0:0:
212,244,45808,2,0,P|276:248|344:296,1,142.500005435944,0|2,1:0|0:0,0:0:0:0:
339,290,46442,1,2,0:0:0:0:
112,280,46653,38,0,B|108:228|108:228|128:176,1,106.875004076958,0|0,1:0|1:0,0:0:0:0:
212,244,47076,2,0,L|220:336,1,71.2500027179719,4|0,0:0|1:0,0:0:0:0:
218,314,47393,1,4,1:2:0:0:
218,314,47498,1,0,1:0:0:0:
264,168,47710,1,4,1:2:0:0:
312,32,47921,38,0,B|344:48|344:48|376:40|376:40|372:84|372:84|388:116|388:116|412:88|416:56,1,213.750008153916,2|0,1:0|2:0,0:0:0:0:
436,184,48343,6,0,P|476:136|496:52,1,142.500005435944,4|2,1:0|0:0,0:0:0:0:
344,192,49189,2,0,L|360:336,1,142.500005435944,0|2,1:0|0:0,0:0:0:0:
268,376,49822,1,0,0:0:0:0:
120,316,50034,6,0,L|24:308,1,71.2500027179719,0|0,1:0|0:0,0:0:0:0:
224,280,50456,2,0,P|232:236|208:136,1,142.500005435944,0|0,0:0|1:0,0:0:0:0:
211,141,51301,2,0,L|307:149,1,71.2500027179719,2|2,0:0|0:0,0:0:0:0:
120,60,51724,6,0,P|99:127|107:198,1,142.500005435944,0|2,1:0|0:0,0:0:0:0:
164,296,52358,1,2,0:0:0:0:
353,130,52569,2,0,L|185:142,1,142.500005435944,0|2,1:0|0:0,0:0:0:0:
107,198,53203,1,2,0:0:0:0:
236,360,53414,6,0,P|256:320|212:216,1,142.500005435944,0|0,1:0|0:0,0:0:0:0:
68,116,54048,1,0,0:0:0:0:
68,116,54153,1,0,1:0:0:0:
68,116,54259,1,8,0:1:0:0:
32,312,54470,21,8,1:0:0:0:
32,312,54576,2,0,L|36:356,3,23.7500009059906,4|0|8|0,2:2|0:0|1:0|0:0,0:0:0:0:
92,240,54788,1,4,2:0:0:0:
149,230,54893,1,0,0:0:0:0:
204,252,54999,1,0,0:2:0:0:
238,300,55104,6,0,L|136:324,1,95,4|4,1:0|0:0,0:0:0:0:
348,332,55527,2,0,L|450:308,1,95,8|4,1:0|0:0,0:0:0:0:
268,200,55949,1,0,1:0:0:0:
372,224,56160,1,10,1:0:0:0:
238,300,56372,1,10,1:0:0:0:
172,136,56583,6,0,P|220:100|308:92,1,142.5,4|0,0:0|0:0,0:0:0:0:
388,156,57005,2,0,P|395:215|358:295,1,142.5,8|0,1:0|0:0,0:0:0:0:
256,324,57428,2,0,P|200:300|149:228,1,142.5,4|0,0:0|0:0,0:0:0:0:
276,204,57850,1,8,1:0:0:0:
66,280,58062,22,0,P|75:178|169:140,1,213.750008153916,14|0,1:0|0:0,0:0:0:0:
276,204,58484,6,0,L|384:196,1,95,4|0,1:0|0:0,0:0:0:0:
160,287,58907,2,0,L|52:279,1,95,8|0,1:0|0:0,0:0:0:0:
264,320,59329,1,0,1:0:0:0:
172,184,59541,1,0,0:0:0:0:
184,372,59752,1,0,1:0:0:0:
260,144,59963,6,0,L|246:285,1,142.5,4|0,0:0|0:0,0:0:0:0:
316,336,60386,2,0,B|380:316|380:316|464:348,1,142.5,4|0,0:0|0:0,0:0:0:0:
512,284,60808,2,0,L|498:142,1,142.5,4|0,0:0|0:0,0:0:0:0:
484,40,61231,1,8,1:0:0:0:
340,84,61442,38,0,L|240:92,1,71.2500027179719,12|0,1:0|0:0,0:0:0:0:
152,120,61653,2,0,L|96:116,2,47.5000018119813,0|0|0,1:0|0:0|0:0,0:0:0:0:
228,168,61865,5,4,1:0:0:0:
272,264,62076,1,0,0:0:0:0:
184,336,62287,1,4,1:0:0:0:
140,236,62498,1,0,0:0:0:0:
332,172,62710,5,4,0:0:0:0:
284,372,62921,1,0,0:0:0:0:
140,236,63132,1,0,1:0:0:0:
368,312,63343,6,0,B|508:304|508:304|456:268,1,190,4|4,1:0|1:0,0:0:0:0:
332,172,63977,1,2,0:0:0:0:
196,324,64189,1,4,0:0:0:0:
368,312,64400,1,8,1:0:0:0:
208,180,64611,1,0,1:0:0:0:
44,288,64822,2,0,P|36:336|36:384,1,95,8|0,1:0|1:0,0:0:0:0:
208,180,65245,6,0,L|200:68,1,95,4|0,1:2|0:0,0:0:0:0:
216,288,65667,1,4,2:0:0:0:
328,120,65879,22,0,L|336:8,1,95,0|8,0:0|1:0,0:0:0:0:
312,224,66301,1,0,0:0:0:0:
201,85,66512,1,0,1:0:0:0:
108,284,66724,6,0,L|92:80,1,190,8|0,1:0|0:0,0:0:0:0:
204,188,67358,1,0,0:0:0:0:
168,364,67569,1,0,0:0:0:0:
276,252,67780,1,0,0:0:0:0:
258,340,67991,1,0,0:0:0:0:
356,300,68203,1,0,0:0:0:0:
351,321,68414,1,0,0:0:0:0:
452,324,68625,6,0,B|464:264|464:264|452:196,1,123.499994346619,4|2,1:0|0:0,0:0:0:0:
324,104,69048,2,0,L|188:120,1,123.499994346619,10|0,0:0|0:0,0:0:0:0:
108,132,69364,1,2,0:0:0:0:
108,132,69470,2,0,L|116:52,1,61.7499971733095,8|0,0:0|0:0,0:0:0:0:
201,118,69681,2,0,L|194:179,1,61.7499971733095,2|2,0:0|0:0,0:0:0:0:
132,232,69893,2,0,P|196:220|264:248,1,123.499994346619,8|0,0:0|0:0,0:0:0:0:
300,300,70210,1,2,0:0:0:0:
300,300,70315,6,0,L|296:160,1,123.499994346619,4|8,0:0|0:0,0:0:0:0:
432,100,70738,2,0,L|428:223,1,123.499994346619,10|0,0:0|0:0,0:0:0:0:
204,168,71160,1,10,0:0:0:0:
204,168,71266,2,0,P|230:113|284:84,1,123.499994346619,0|2,0:0|0:0,0:0:0:0:
256,252,71583,2,0,L|120:256,1,123.499994346619,8|2,0:0|0:0,0:0:0:0:
76,344,71900,1,10,0:0:0:0:
76,344,72005,22,0,L|212:340,1,123.499994346619,6|0,0:0|0:0,0:0:0:0:
335,164,72428,2,0,L|199:168,1,123.499994346619,10|2,0:0|0:0,0:0:0:0:
132,124,72745,1,8,0:0:0:0:
132,124,72850,2,0,P|128:88|132:44,1,61.7499971733095,4|0,0:2|0:0,0:0:0:0:
211,167,73062,2,0,P|211:197|208:228,1,61.7499971733095,0|8,0:0|0:0,0:0:0:0:
144,296,73273,2,0,P|188:316|272:292,1,123.499994346619,2|8,0:0|0:0,0:0:0:0:
336,240,73590,1,0,0:0:0:0:
312,148,73696,6,0,L|304:16,1,123.499994346619,6|8,0:0|0:0,0:0:0:0:
448,184,74118,2,0,L|440:307,1,123.499994346619,4|10,1:2|0:0,0:0:0:0:
272,364,74541,5,8,0:0:0:0:
211,363,74646,1,2,0:0:0:0:
159,331,74752,1,2,0:0:0:0:
132,276,74857,1,10,0:0:0:0:
137,216,74963,2,0,L|64:208,1,61.7499971733095,0|2,0:0|0:0,0:0:0:0:
240,256,75174,2,0,L|313:247,1,61.7499971733095,8|2,0:0|0:0,0:0:0:0:
420,196,75386,5,4,0:0:0:0:
296,352,75597,1,8,0:0:0:0:
212,168,75808,2,0,P|212:120|244:40,1,123.499994346619,8|0,0:0|0:0,0:0:0:0:
316,12,76125,1,8,0:0:0:0:
376,80,76231,2,0,P|380:108|376:160,1,61.7499971733095,10|0,0:0|0:0,0:0:0:0:
308,264,76442,2,0,P|303:233|304:202,1,61.7499971733095,0|8,0:0|0:0,0:0:0:0:
376,312,76653,2,0,L|232:328,1,123.499994346619,0|8,0:0|0:0,0:0:0:0:
152,376,76970,1,8,0:0:0:0:
152,376,77076,22,0,P|144:308|176:240,1,123.499994346619,6|0,0:0|0:0,0:0:0:0:
365,193,77498,2,0,P|384:250|375:311,1,123.499994346619,8|0,0:0|0:0,0:0:0:0:
248,156,77921,1,2,0:0:0:0:
248,156,78027,2,0,L|260:28,1,123.499994346619,0|8,0:0|0:0,0:0:0:0:
140,100,78343,2,0,L|151:222,1,123.499994346619,0|8,0:0|0:0,0:0:0:0:
108,308,78660,1,0,0:0:0:0:
184,360,78766,6,0,P|240:336|312:344,1,123.499994346619,14|0,0:0|0:0,0:0:0:0:
388,372,79083,1,8,0:0:0:0:
388,372,79189,2,0,L|384:296,2,61.7499971733095,0|0|8,0:0|0:0|0:0,0:0:0:0:
472,344,79505,2,0,L|464:192,1,123.499994346619,0|0,0:0|0:0,0:0:0:0:
408,148,79822,1,0,0:0:0:0:
332,188,79928,1,8,0:0:0:0:
252,140,80034,2,0,P|248:108|252:68,1,61.7499971733095,0|0,0:0|0:0,0:0:0:0:
180,200,80245,2,0,P|181:230|177:261,1,61.7499971733095,8|0,0:0|0:0,0:0:0:0:
96,148,80456,5,6,0:0:0:0:
92,136,80879,1,2,0:0:0:0:
88,124,81301,1,4,0:2:0:0:
160,56,81512,6,0,L|148:-4,3,41.1666647822063,4|0|0|0,0:2|0:0|0:0|0:0,0:0:0:0:
216,124,81829,1,8,0:0:0:0:
278,92,81935,1,4,0:2:0:0:
348,100,82041,1,8,0:0:0:0:
396,152,82146,6,0,L|388:240,1,71.2500027179719,6|4,0:0|0:0,0:0:0:0:
420,140,82569,6,0,L|405:296,1,123.499994346619,8|0,1:0|0:0,0:0:0:0:
344,320,82886,1,8,1:0:0:0:
264,280,82992,2,0,P|232:272|192:272,1,61.7499971733095,0|0,0:0|0:0,0:0:0:0:
120,316,83203,2,0,P|90:323|59:325,1,61.7499971733095,8|0,1:0|0:0,0:0:0:0:
4,248,83414,2,0,B|12:108,1,123.499994346619,8|0,1:0|0:0,0:0:0:0:
80,60,83730,1,0,0:0:0:0:
80,60,83836,6,0,B|132:84|132:84|204:72,1,123.499994346619,6|8,1:0|1:0,0:0:0:0:
344,168,84259,2,0,B|292:144|292:144|220:156,1,123.499994346619,8|0,1:0|0:0,0:0:0:0:
140,176,84576,1,8,1:0:0:0:
140,176,84682,2,0,L|144:256,1,61.7499971733095,0|0,0:0|0:0,0:0:0:0:
224,288,84893,2,0,L|220:368,1,61.7499971733095,8|0,1:0|0:0,0:0:0:0:
304,236,85104,1,8,1:0:0:0:
350,262,85209,1,0,0:0:0:0:
403,263,85315,1,4,1:2:0:0:
449,236,85420,1,0,0:0:0:0:
476,190,85527,6,0,L|492:320,1,123.499994346619,6|8,1:0|1:0,0:0:0:0:
376,156,85949,1,12,1:0:0:0:
504,16,86160,1,2,1:0:0:0:
272,60,86372,1,8,1:0:0:0:
272,60,86477,2,0,L|394:44,1,123.499994346619,8|8,1:0|1:0,0:0:0:0:
376,156,86794,2,0,L|253:171,1,123.499994346619,10|0,1:0|0:0,0:0:0:0:
172,224,87111,1,0,0:0:0:0:
80,188,87217,6,0,B|68:128|68:128|80:60,1,123.499994346619,14|4,1:0|1:2,0:0:0:0:
172,224,87639,2,0,B|185:285|185:285|173:345,1,123.499994346619,8|0,1:0|0:0,0:0:0:0:
88,352,87956,1,8,1:0:0:0:
88,352,88062,2,0,L|104:272,1,61.7499971733095,0|8,0:0|1:0,0:0:0:0:
248,184,88273,2,0,L|260:244,1,61.7499971733095,0|8,0:0|1:0,0:0:0:0:
376,360,88484,1,8,1:0:0:0:
436,368,88589,1,2,1:0:0:0:
488,337,88695,1,2,0:1:0:0:
512,281,88800,1,0,0:0:0:0:
496,223,88906,21,4,1:0:0:0:
392,200,89118,1,0,0:0:0:0:
288,176,89329,1,4,0:0:0:0:
184,148,89541,1,0,0:0:0:0:
324,280,89752,5,0,0:0:0:0:
324,280,89858,1,2,0:0:0:0:
360,100,90069,1,2,0:0:0:0:
360,100,90174,1,8,1:0:0:0:
184,148,90386,1,4,0:0:0:0:
392,200,90597,5,4,1:0:0:0:
288,176,90808,1,0,0:0:0:0:
212,252,91020,1,4,0:0:0:0:
244,356,91231,1,2,0:0:0:0:
420,288,91442,5,0,0:0:0:0:
420,288,91548,1,2,0:0:0:0:
376,88,91759,1,0,0:0:0:0:
376,88,91865,1,0,0:0:0:0:
200,164,92076,1,8,1:0:0:0:
304,376,92287,22,0,P|320:308|292:172,1,190,12|8,1:0|1:0,0:0:0:0:
224,40,92921,1,4,0:0:0:0:
14,166,93132,6,0,P|82:182|218:154,1,190,12|8,1:0|1:0,0:0:0:0:
360,64,93766,1,4,0:0:0:0:
306,285,93977,6,0,P|299:237|299:190,1,95,8|4,1:0|0:0,0:0:0:0:
192,68,94400,2,0,P|198:115|198:162,1,95,0|8,1:0|1:0,0:0:0:0:
68,272,94822,2,0,L|188:256,1,95,6|0,1:0|0:0,0:0:0:0:
493,315,95245,5,6,1:0:0:0:
446,307,95350,1,2,0:1:0:0:
399,299,95456,1,0,0:0:0:0:
352,292,95561,1,0,0:1:0:0:
305,284,95667,6,0,L|316:376,1,71.2500027179719,4|0,1:0|0:0,0:0:0:0:
424,168,96090,1,4,1:2:0:0:
256,192,96196,12,0,99470,0:0:0:0:
32,148,102005,70,0,B|84:104|152:128|152:128|216:140|224:68|152:68|116:105,1,285,4|0,1:0|0:0,0:0:0:0:
104,212,102428,6,0,L|112:320,1,95,8|2,1:0|0:0,0:0:0:0:
128,316,102850,6,0,L|124:263,1,52.2500015945435,8|0,1:0|0:0,0:0:0:0:
208,200,103062,2,0,L|211:252,1,52.2500015945435,0|0,0:0|0:0,0:0:0:0:
280,328,103273,2,0,P|324:320|392:344,1,104.500003189087,4|0,0:0|0:0,0:0:0:0:
460,380,103591,1,0,0:0:0:0:
472,352,103696,6,0,P|472:324|468:284,1,52.2500015945435,8|2,1:0|0:0,0:0:0:0:
424,216,103907,2,0,P|423:189|425:163,1,52.2500015945435,2|0,0:0|0:0,0:0:0:0:
456,84,104118,2,0,L|348:76,1,104.500003189087,4|0,1:2|0:0,0:0:0:0:
272,128,104435,1,0,0:0:0:0:
272,128,104541,6,0,L|280:184,1,52.2500015945435,8|2,1:0|0:0,0:0:0:0:
192,72,104752,2,0,L|199:20,1,52.2500015945435,2|0,0:0|0:0,0:0:0:0:
104,108,104963,2,0,L|128:216,1,104.500003189087,4|0,1:2|0:0,0:0:0:0:
64,340,105280,1,0,0:0:0:0:
56,312,105386,2,0,P|58:282|68:252,1,52.2500015945435,8|2,1:0|0:0,0:0:0:0:
208,216,105597,2,0,P|226:234|240:256,1,52.2500015945435,2|0,0:0|0:1,0:0:0:0:
264,352,105808,22,0,L|384:344,1,104.500003189087,4|0,1:2|0:0,0:0:0:0:
440,280,106125,1,0,0:0:0:0:
440,280,106231,2,0,L|428:208,1,52.2500015945435,8|0,1:0|0:0,0:0:0:0:
340,188,106442,2,0,L|352:116,1,52.2500015945435,2|0,0:0|0:0,0:0:0:0:
368,40,106653,6,0,L|248:32,1,104.500003189087,4|0,1:2|0:0,0:0:0:0:
192,92,106970,1,0,0:0:0:0:
192,92,107076,2,0,L|200:152,2,52.2500015945435,8|2|2,1:0|0:0|0:0,0:0:0:0:
112,44,107393,1,0,0:0:0:0:
44,92,107498,6,0,B|31:140|31:140|48:207,1,104.500003189087,4|0,1:2|0:0,0:0:0:0:
80,288,107815,1,0,0:0:0:0:
120,279,107920,1,8,1:0:0:0:
162,282,108026,1,0,0:0:0:0:
202,295,108131,1,0,0:0:0:0:
243,298,108237,1,0,0:0:0:0:
284,289,108343,6,0,L|288:176,1,104.500003189087,4|2,1:2|1:0,0:0:0:0:
296,168,108625,1,0,0:0:0:0:
304,151,108696,1,2,1:0:0:0:
312,135,108766,21,0,0:0:0:0:
248,89,108872,1,2,1:0:0:0:
173,106,108977,1,2,1:0:0:0:
137,177,109083,1,4,0:0:0:0:
