osu file format v14

[General]
AudioFilename: audio.mp3
AudioLeadIn: 0
PreviewTime: 47276
Countdown: 1
SampleSet: Soft
StackLeniency: 0.2
Mode: 0
LetterboxInBreaks: 0
WidescreenStoryboard: 0

[Editor]
DistanceSpacing: 1
BeatDivisor: 4
GridSize: 16
TimelineZoom: 2

[Metadata]
Title:Lionheart
TitleUnicode:Lionheart
Artist:Masayoshi Minoshima feat. Mei Ayakura
ArtistUnicode:Masayoshi Minoshima feat. 綾倉 盟
Creator:Linada
Version:Expert
Source:HALFPIPE TOKYO
Tags:
BeatmapID:1592045
BeatmapSetID:756614

[Difficulty]
HPDrainRate:5.3
CircleSize:3.8
OverallDifficulty:8.3
ApproachRate:9.3
SliderMultiplier:2
SliderTickRate:1

[Events]
//Background and Video events
0,0,"bg.png",0,0
//Break Periods
//Storyboard Layer 0 (Background)
//Storyboard Layer 1 (Fail)
//Storyboard Layer 2 (Pass)
//Storyboard Layer 3 (Foreground)
//Storyboard Sound Samples

[TimingPoints]
4,454.545454545455,4,2,1,40,1,0
7276,-100,4,2,1,60,0,0
14549,-66.6666666666667,4,2,1,60,0,0
20004,-400,4,2,1,60,0,0
21481,-400,4,2,1,5,0,0
21594,-100,4,2,1,60,0,0
21822,-90.9090909090909,4,2,1,65,0,0
24776,-181.818181818182,4,2,1,65,0,0
25458,-90.9090909090909,4,2,1,65,0,0
32049,-181.818181818182,4,2,1,65,0,0
32731,-90.9090909090909,4,2,1,65,0,0
35913,-90.9090909090909,4,2,1,60,0,0
36367,-90.9090909090909,4,2,1,70,0,0
47276,-90.9090909090909,4,2,1,60,0,0
49094,-66.6666666666667,4,2,1,60,0,0
50913,-66.6666666666667,4,2,2,80,0,1
57958,-66.6666666666667,4,2,2,80,0,0
58185,-64.5161290322581,4,2,2,80,0,1
65004,-64.5161290322581,4,2,2,80,0,0
65458,-62.5,4,2,2,80,0,1
72504,-62.5,4,2,2,80,0,0
72731,-60.6060606060606,4,2,2,80,0,1
80004,-90.9090909090909,4,2,1,60,0,0

[Colours]
Combo1 : 255,255,0
Combo2 : 145,200,255
Combo3 : 211,168,255
Combo4 : 183,183,183
Combo5 : 255,128,128

[HitObjects]
237,327,4,6,0,L|138:333,2,100,2|2|2,0:0|0:0|0:0,0:0:0:0:
305,368,685,1,2,0:0:0:0:
128,183,913,2,0,L|137:333,2,150,2|2|2,0:0|0:0|0:0,0:0:0:0:
122,92,1822,5,2,0:0:0:0:
276,172,2049,2,0,L|227:176,1,50,2|0,0:0|0:0,0:0:0:0:
114,85,2276,5,2,0:0:0:0:
254,253,2504,1,2,0:0:0:0:
365,81,2731,6,0,L|359:180,1,100,2|0,0:0|0:0,0:0:0:0:
276,172,3072,2,0,L|282:73,1,100,2|0,0:0|0:0,0:0:0:0:
387,0,3413,1,2,0:0:0:0:
459,174,3640,22,0,L|360:180,2,100,2|2|2,0:0|0:0|0:0,0:0:0:0:
511,113,4322,1,2,0:0:0:0:
307,241,4549,5,2,0:0:0:0:
212,220,4890,1,2,0:0:0:0:
116,198,5231,1,2,0:0:0:0:
20,176,5458,5,2,0:0:0:0:
139,335,5685,2,0,P|142:310|142:285,1,50,2|0,0:0|0:0,0:0:0:0:
123,192,5913,5,2,0:0:0:0:
209,384,6140,1,2,0:0:0:0:
311,226,6367,22,0,L|212:220,1,100,2|0,0:0|0:0,0:0:0:0:
220,137,6708,2,0,L|319:143,1,100,2|0,0:0|0:0,0:0:0:0:
392,248,7049,1,2,0:0:0:0:
147,32,7276,5,2,0:1:0:0:
143,27,7731,1,2,0:1:0:0:
139,22,8185,1,2,0:1:0:0:
135,17,8526,5,2,0:0:0:0:
113,145,8640,1,2,0:1:0:0:
117,150,8867,5,2,0:0:0:0:
206,137,8981,1,2,0:0:0:0:
295,120,9094,21,2,0:1:0:0:
299,114,9549,1,2,0:1:0:0:
304,109,10003,1,2,0:1:0:0:
308,103,10344,5,2,0:0:0:0:
332,244,10458,1,2,0:1:0:0:
328,249,10685,5,2,0:0:0:0:
230,235,10799,1,2,0:0:0:0:
133,222,10913,5,2,0:1:0:0:
127,215,11368,1,2,0:1:0:0:
123,208,11822,1,2,0:1:0:0:
117,203,12163,21,2,0:0:0:0:
91,358,12277,1,2,0:1:0:0:
96,363,12504,5,2,0:0:0:0:
203,348,12618,1,2,0:0:0:0:
310,334,12731,5,2,0:1:0:0:
316,341,13186,1,2,0:1:0:0:
321,349,13640,1,2,0:1:0:0:
327,354,13981,5,2,0:0:0:0:
356,184,14095,1,2,0:1:0:0:
350,178,14322,21,2,0:0:0:0:
233,195,14436,1,2,0:0:0:0:
115,210,14549,6,0,L|40:205,1,75.0000028610231,8|0,0:0|0:0,0:0:0:0:
37,123,14776,2,0,L|111:127,1,75.0000028610231,8|0,0:0|0:0,0:0:0:0:
118,216,15004,2,8,L|43:211,1,75.0000028610231,8|0,0:0|0:0,0:0:0:0:
34,117,15231,2,8,L|108:121,1,75.0000028610231,8|0,0:0|0:0,0:0:0:0:
120,221,15458,2,8,L|45:216,1,75.0000028610231,8|0,0:0|0:0,0:0:0:0:
32,112,15685,2,8,L|106:116,1,75.0000028610231,8|0,0:0|0:0,0:0:0:0:
122,226,15913,2,8,L|47:221,1,75.0000028610231,8|0,0:0|0:0,0:0:0:0:
247,100,16140,5,8,0:0:0:0:
273,212,16254,1,8,0:0:0:0:
232,312,16367,6,8,P|268:320|304:313,1,75.0000028610231,8|0,0:0|0:0,0:0:0:0:
346,215,16594,2,0,P|309:206|273:213,1,75.0000028610231,8|0,0:0|0:0,0:0:0:0:
228,320,16822,2,0,P|264:328|300:321,1,75.0000028610231,8|0,0:0|0:0,0:0:0:0:
350,207,17049,2,0,P|313:198|277:205,1,75.0000028610231,8|0,0:0|0:0,0:0:0:0:
224,328,17276,2,0,P|260:336|296:329,1,75.0000028610231,8|0,0:0|0:0,0:0:0:0:
354,199,17503,2,0,P|317:190|281:197,1,75.0000028610231,8|0,0:0|0:0,0:0:0:0:
220,336,17731,2,8,P|256:344|292:337,1,75.0000028610231,8|0,0:0|0:0,0:0:0:0:
123,128,17958,21,10,0:0:0:0:
148,231,18072,1,10,0:0:0:0:
122,334,18185,5,10,0:0:0:0:
107,337,18299,1,8,0:0:0:0:
92,341,18413,1,8,0:0:0:0:
77,345,18526,1,8,0:0:0:0:
62,349,18640,6,8,L|69:274,1,75.0000028610231,10|8,0:0|0:0,0:0:0:0:
184,189,18867,2,8,L|191:263,1,75.0000028610231
74,92,19094,5,10,0:0:0:0:
89,89,19208,1,8,0:0:0:0:
104,85,19322,1,8,0:0:0:0:
155,22,19435,1,10,0:0:0:0:
184,97,19549,21,10,0:0:0:0:
264,138,19663,1,8,0:0:0:0:
352,123,19776,1,10,0:0:0:0:
409,53,19890,1,8,0:0:0:0:
352,123,20004,54,0,L|339:285,1,162.5,10|0,0:1|0:0,0:0:0:0:
265,324,21594,37,8,0:0:0:0:
258,322,21708,1,8,0:0:0:0:
251,320,21822,37,2,0:1:0:0:
338,285,22049,1,2,0:0:0:0:
171,289,22276,1,10,0:1:0:0:
409,337,22504,1,2,0:0:0:0:
118,216,22731,1,2,0:1:0:0:
338,285,22958,5,2,0:0:0:0:
325,380,23072,1,2,0:0:0:0:
351,190,23185,1,10,0:1:0:0:
356,194,23413,2,0,L|410:187,1,55.0000016784668,2|2,0:0|0:0,0:0:0:0:
268,148,23640,5,2,0:1:0:0:
338,285,23867,1,2,0:0:0:0:
118,216,24094,1,10,0:1:0:0:
356,194,24322,5,2,0:0:0:0:
338,285,24435,1,2,0:0:0:0:
268,148,24549,1,2,0:1:0:0:
264,153,24776,6,0,L|257:99,1,55.0000016784668,0|10,0:0|0:1,0:0:0:0:
257,98,25458,5,2,0:1:0:0:
130,82,25685,1,2,0:0:0:0:
3,65,25912,1,10,0:1:0:0:
213,0,26140,1,2,0:0:0:0:
118,216,26367,1,2,0:1:0:0:
114,210,26594,5,2,0:0:0:0:
271,177,26708,1,2,0:0:0:0:
200,275,26822,1,10,0:1:0:0:
204,280,27050,2,0,L|197:334,1,55.0000016784668,2|2,0:0|0:0,0:0:0:0:
277,170,27276,5,2,0:1:0:0:
334,302,27504,1,2,0:0:0:0:
419,142,27731,1,10,0:1:0:0:
204,280,27958,5,2,0:0:0:0:
334,302,28072,1,2,0:0:0:0:
277,170,28185,1,2,0:1:0:0:
283,163,28413,5,2,0:0:0:0:
343,294,28526,1,2,0:0:0:0:
419,142,28640,1,10,0:1:0:0:
413,135,28868,5,8,0:0:0:0:
246,73,28981,1,8,0:0:0:0:
359,31,29094,5,2,0:1:0:0:
190,282,29322,1,2,0:0:0:0:
277,170,29549,1,8,0:1:0:0:
330,330,29776,1,2,0:0:0:0:
109,210,30004,1,2,0:1:0:0:
118,203,30231,5,2,0:0:0:0:
92,298,30344,1,2,0:0:0:0:
144,108,30458,1,8,0:1:0:0:
148,113,30685,2,0,L|202:109,1,55.0000016784668,2|2,0:0|0:0,0:0:0:0:
56,56,30913,37,2,0:1:0:0:
277,170,31140,1,2,0:0:0:0:
54,142,31367,1,8,0:1:0:0:
284,166,31594,5,2,0:0:0:0:
197,268,31708,1,2,0:0:0:0:
144,108,31822,1,2,0:1:0:0:
148,113,32049,38,0,L|202:109,1,55.0000016784668,0|10,0:0|0:1,0:0:0:0:
202,109,32731,5,2,0:1:0:0:
181,242,32958,1,2,0:0:0:0:
165,374,33185,1,10,0:1:0:0:
74,162,33413,1,2,0:0:0:0:
288,322,33640,1,2,0:1:0:0:
295,327,33867,5,2,0:0:0:0:
172,367,33981,1,2,0:0:0:0:
413,284,34094,1,2,0:1:0:0:
409,290,34322,2,0,L|412:344,1,55.0000016784668,2|2,0:0|0:0,0:0:0:0:
465,128,34549,5,2,0:1:0:0:
303,94,34776,1,2,0:0:0:0:
509,220,35004,1,10,0:1:0:0:
295,244,35231,5,2,0:0:0:0:
424,340,35344,1,2,0:0:0:0:
385,111,35458,1,10,0:1:0:0:
385,111,35913,5,8,0:0:0:0:
303,94,36026,1,8,0:0:0:0:
221,77,36139,1,8,0:0:0:0:
139,60,36253,1,8,0:0:0:0:
57,43,36366,5,10,0:1:0:0:
76,186,36594,1,2,0:0:0:0:
385,111,36822,1,10,0:1:0:0:
221,77,37049,1,2,0:0:0:0:
259,363,37276,1,10,0:1:0:0:
255,357,37504,5,10,0:0:0:0:
366,269,37617,1,10,0:0:0:0:
168,253,37731,1,10,0:1:0:0:
172,247,37959,37,10,0:0:0:0:
252,350,38072,1,10,0:0:0:0:
199,118,38185,5,10,0:1:0:0:
357,98,38413,1,2,0:0:0:0:
104,66,38640,1,10,0:1:0:0:
295,244,38868,1,2,0:0:0:0:
145,376,39094,1,10,0:1:0:0:
199,118,39322,5,2,0:0:0:0:
168,253,39435,1,2,0:0:0:0:
104,66,39549,1,10,0:1:0:0:
109,61,40004,5,10,0:1:0:0:
168,253,40231,1,2,0:0:0:0:
199,118,40458,1,10,0:1:0:0:
67,159,40685,1,2,0:0:0:0:
269,347,40913,1,10,0:1:0:0:
265,352,41140,5,10,0:0:0:0:
375,264,41254,1,10,0:0:0:0:
168,253,41367,1,10,0:1:0:0:
172,258,41594,5,10,0:0:0:0:
261,357,41708,1,10,0:0:0:0:
343,177,41822,5,10,0:1:0:0:
257,361,42049,1,2,0:0:0:0:
199,118,42276,1,10,0:1:0:0:
258,254,42504,1,2,0:0:0:0:
165,19,42731,1,2,0:0:0:0:
160,13,42958,5,10,0:0:0:0:
112,245,43072,1,10,0:0:0:0:
136,129,43185,1,10,0:1:0:0:
132,122,43413,37,10,0:0:0:0:
207,275,43526,1,10,0:0:0:0:
293,117,43640,5,10,0:1:0:0:
207,275,43867,1,2,0:0:0:0:
160,13,44094,1,10,0:1:0:0:
210,281,44322,1,2,0:0:0:0:
288,125,44549,1,10,0:1:0:0:
214,286,44776,5,10,0:0:0:0:
129,128,44890,1,10,0:0:0:0:
32,260,45004,1,10,0:1:0:0:
36,265,45231,37,10,0:0:0:0:
218,189,45344,1,10,0:0:0:0:
42,76,45458,5,10,0:1:0:0:
199,294,45685,1,2,0:0:0:0:
132,122,45913,1,10,0:1:0:0:
70,363,46140,1,2,0:0:0:0:
40,168,46367,1,10,0:1:0:0:
76,372,46594,5,10,0:0:0:0:
248,235,46708,1,10,0:0:0:0:
37,161,46822,1,10,0:1:0:0:
33,153,47276,5,10,0:1:0:0:
241,96,47504,1,2,0:0:0:0:
112,219,47731,1,10,0:1:0:0:
340,253,47958,1,2,0:0:0:0:
75,307,48185,1,10,0:1:0:0:
79,312,48413,5,10,0:0:0:0:
201,180,48526,1,10,0:0:0:0:
176,348,48640,1,10,0:1:0:0:
29,77,48867,1,2,0:0:0:0:
182,353,49094,21,2,0:0:0:0:
264,352,49208,1,2,0:0:0:0:
346,348,49322,1,2,0:0:0:0:
427,342,49435,1,2,0:0:0:0:
502,339,49549,6,0,L|510:264,1,75.0000028610231,2|2,0:0|0:0,0:0:0:0:
326,56,49776,2,0,L|334:130,1,75.0000028610231,2|2,0:0|0:0,0:0:0:0:
430,131,50004,2,0,L|438:56,1,75.0000028610231,2|2,0:0|0:0,0:0:0:0:
251,276,50231,2,0,L|260:351,1,75.0000028610231,2|2,0:0|0:0,0:0:0:0:
151,135,50458,37,2,0:0:0:0:
151,310,50572,1,2,0:0:0:0:
255,168,50685,1,2,0:0:0:0:
87,222,50799,1,2,0:0:0:0:
251,276,50913,6,0,B|341:263|341:263|391:278|391:278|472:267,1,225.000008583069,6|0,0:1|0:0,0:0:0:0:
483,272,51367,2,0,P|478:234|484:198,1,75.0000028610231,10|0,0:1|0:0,0:0:0:0:
381,25,51594,1,0,0:0:0:0:
255,277,51822,6,0,B|280:296|288:316|288:316|272:264|291:217,1,150.000005722046,14|0,0:1|0:0,0:0:0:0:
216,345,52163,1,8,0:1:0:0:
150,134,52276,2,0,L|164:37,1,75.0000028610231,6|0,0:1|0:0,0:0:0:0:
212,339,52504,1,8,0:1:0:0:
512,68,52731,6,0,L|363:85,1,150.000005722046,6|0,0:1|0:0,0:0:0:0:
272,113,53072,1,0,0:0:0:0:
351,155,53185,2,0,P|359:119|355:81,1,75.0000028610231,10|0,0:1|0:0,0:0:0:0:
161,60,53413,1,0,0:0:0:0:
344,310,53640,6,0,L|357:160,1,150.000005722046,14|0,0:1|0:0,0:0:0:0:
389,383,53981,1,10,0:1:0:0:
238,224,54094,2,0,L|312:232,1,75.0000028610231,6|0,0:1|0:0,0:0:0:0:
161,73,54322,1,10,0:1:0:0:
123,317,54549,22,0,B|141:384|64:406|16:349|28:248|137:234,1,225.000008583069,6|0,0:1|0:0,0:0:0:0:
192,284,55004,2,0,P|201:320|200:357,1,75.0000028610231,10|0,0:1|0:0,0:0:0:0:
272,113,55231,1,0,0:0:0:0:
102,104,55458,6,0,L|85:253,1,150.000005722046,14|0,0:1|0:0,0:0:0:0:
43,37,55799,1,10,0:1:0:0:
207,150,55913,2,0,B|195:158|170:159|170:159|184:142|184:126,1,75.0000028610231,6|0,0:1|0:0,0:0:0:0:
48,41,56140,1,10,0:1:0:0:
321,188,56367,6,0,B|416:173|416:173|366:154,1,150.000005722046,6|0,0:1|0:1,0:1:0:0:
300,303,56708,1,0,0:0:0:0:
241,162,56822,2,0,P|237:199|248:234,1,75.0000028610231,10|0,0:1|0:0,0:0:0:0:
159,364,57049,1,0,0:0:0:0:
119,74,57276,6,0,B|166:109|214:88|214:88|179:102|167:140,1,150.000005722046,14|0,0:1|0:1,0:1:0:0:
177,18,57617,1,8,0:1:0:0:
272,185,57731,2,0,B|241:162|241:162|239:199,1,75.0000028610231,6|0,0:1|0:0,0:0:0:0:
427,46,57958,5,10,0:1:0:0:
456,197,58072,1,10,0:1:0:0:
389,340,58185,22,0,B|322:358|299:281|357:232|459:244|477:357,1,232.500001773834,6|0,0:1|0:0,0:0:0:0:
274,368,58640,2,0,P|258:293|293:225,1,155.000001182556,14|0,0:1|0:0,0:0:0:0:
176,333,58981,1,0,0:0:0:0:
386,131,59094,6,0,B|329:120|281:146|281:146|311:141|340:157,1,155.000001182556,14|0,0:1|0:1,0:1:0:0:
292,226,59435,1,10,0:1:0:0:
455,75,59549,2,0,P|453:37|444:0,1,77.5000005912781,6|0,0:1|0:0,0:0:0:0:
297,233,59776,1,10,0:1:0:0:
61,23,60004,6,0,B|49:104|49:104|77:161|77:161|66:247,1,232.500001773834,6|0,0:1|0:0,0:0:0:0:
108,312,60458,2,0,P|72:325|34:319,1,77.5000005912781,14|0,0:1|0:0,0:0:0:0:
150,75,60685,1,0,0:1:0:0:
277,315,60913,22,0,L|298:161,1,155.000001182556,14|0,0:1|0:0,0:0:0:0:
215,371,61254,1,10,0:1:0:0:
452,266,61367,2,0,L|374:258,1,77.5000005912781,6|0,0:1|0:0,0:0:0:0:
150,75,61594,1,10,0:1:0:0:
444,0,61822,6,0,B|481:85|449:163|449:163|451:112|393:67,1,232.500001773834,6|0,0:1|0:0,0:0:0:0:
314,182,62276,2,0,P|374:172|323:140,1,155.000001182556,14|0,0:1|0:0,0:0:0:0:
428,245,62617,1,0,0:0:0:0:
269,68,62731,6,0,B|235:59|206:70|206:70|178:51|178:51|148:56|119:44,1,155.000001182556,14|0,0:1|0:0,0:0:0:0:
338,22,63072,1,10,0:1:0:0:
246,222,63185,2,0,P|236:184|242:147,1,77.5000005912781,6|0,0:1|0:0,0:0:0:0:
346,19,63413,1,10,0:1:0:0:
207,294,63640,6,0,P|153:217|246:222,1,232.500001773834,6|0,0:1|0:0,0:0:0:0:
258,359,64094,2,0,P|223:375|185:373,1,77.5000005912781,14|0,0:1|0:0,0:0:0:0:
324,139,64322,1,0,0:0:0:0:
70,382,64549,38,0,B|57:338|68:293|68:293|55:278|45:259|45:259|53:213|53:213|46:190|45:137,1,232.500001773834,14|2,0:1|0:1,0:0:0:0:
149,17,65004,37,10,0:1:0:0:
45,159,65117,1,10,0:1:0:0:
213,104,65231,1,10,0:1:0:0:
45,50,65344,1,10,0:1:0:0:
157,192,65458,6,0,B|195:262|286:252|286:252|283:197|331:164,1,240,6|0,0:1|0:0,0:0:0:0:
448,234,65913,2,0,L|368:240,1,80,14|0,0:1|0:0,0:0:0:0:
497,139,66140,1,0,0:0:0:0:
257,329,66367,6,0,B|292:360|292:360|321:304|282:243,1,160,14|0,0:1|0:0,0:0:0:0:
187,378,66708,1,10,0:1:0:0:
318,172,66822,2,0,P|315:133|332:97,1,80,6|0,0:1|0:0,0:0:0:0:
181,384,67049,1,10,0:1:0:0:
70,91,67276,6,0,B|43:54|93:-13|150:17|189:94|144:161|58:183,1,240,6|0,0:1|0:0,0:0:0:0:
104,270,67731,2,0,B|94:235|66:226|66:226|114:252|168:222,1,160,14|0,0:1|0:0,0:0:0:0:
32,293,68072,1,0,0:0:0:0:
211,164,68185,6,0,P|242:234|199:297,1,160,14|0,0:1|0:0,0:0:0:0:
161,226,68526,1,10,0:1:0:0:
333,97,68640,2,0,B|373:105|373:105|410:93,1,80,6|0,0:1|0:0,0:0:0:0:
130,47,68867,1,10,0:1:0:0:
361,366,69094,22,0,B|426:251|309:249|375:138,1,240,6|0,0:1|0:0,0:0:0:0:
269,359,69549,2,0,B|229:340|220:300|220:300|260:321|295:302,1,160,14|0,0:1|0:0,0:0:0:0:
361,366,69890,1,0,0:0:0:0:
277,77,70004,6,0,B|267:117|246:134|246:134|235:176|258:228,1,160,14|0,0:1|0:0,0:0:0:0:
194,66,70344,1,10,0:1:0:0:
295,302,70458,2,0,P|257:311|219:300,1,80,6|0,0:1|0:0,0:0:0:0:
189,59,70685,1,10,0:1:0:0:
65,384,70913,6,0,B|17:304|66:236|66:236|150:273,1,240,6|0,0:1|0:0,0:0:0:0:
219,376,71367,2,0,P|209:338|219:300,1,80,14|0,0:1|0:0,0:0:0:0:
376,139,71594,1,0,0:0:0:0:
105,12,71822,6,0,B|95:68|95:68|112:107|112:107|101:166,1,160,14|0,0:1|0:0,0:0:0:0:
16,6,72163,1,10,0:1:0:0:
66,236,72276,2,0,P|104:245|142:234,1,80,6|0,0:1|0:0,0:0:0:0:
332,2,72504,5,10,0:1:0:0:
312,183,72617,1,10,0:1:0:0:
290,372,72731,6,0,B|232:361|216:307|216:307|179:329|179:362|179:362|140:338|96:353,1,247.500002360344,6|0,0:1|0:0,0:0:0:0:
30,374,73185,2,0,P|29:333|48:296,1,82.5000007867813,14|0,0:1|0:0,0:0:0:0:
0,86,73413,1,0,0:0:0:0:
290,372,73640,6,0,B|282:256|282:256|279:280|259:301,1,165.000001573563,14|0,0:1|0:0,0:0:0:0:
379,384,73981,1,10,0:1:0:0:
199,214,74094,2,0,B|176:217|165:237|165:237|189:234|206:243,1,82.5000007867813,6|0,0:1|0:0,0:0:0:0:
423,98,74322,1,10,0:1:0:0:
96,276,74549,6,0,B|58:303|-8:252|21:195|99:155|166:201|188:288,1,247.500002360344,6|0,0:1|0:0,0:0:0:0:
109,350,75004,2,0,P|66:356|23:343,1,82.5000007867813,14|0,0:1|0:0,0:0:0:0:
256,46,75231,1,0,0:0:0:0:
435,266,75458,6,0,B|400:228|359:235|359:235|332:261|281:257,1,165.000001573563,14|0,0:1|0:0,0:0:0:0:
453,170,75799,1,10,0:1:0:0:
216,299,75913,2,0,P|204:259|213:220,1,82.5000007867813,6|0,0:1|0:0,0:0:0:0:
459,164,76140,1,10,0:1:0:0:
92,76,76367,22,0,B|117:51|153:55|153:55|154:20|169:-12|169:-12|231:-10|257:48,1,247.500002360344,6|0,0:1|0:0,0:0:0:0:
135,213,76822,2,0,L|145:131,1,82.5000007867813,14|0,0:1|0:0,0:0:0:0:
53,0,77049,1,0,0:0:0:0:
114,328,77276,6,0,B|142:266|104:218|104:218|77:266,1,165.000001573563,14|0,0:1|0:0,0:0:0:0:
178,384,77617,1,10,0:1:0:0:
280,178,77731,2,0,B|262:167|254:147|254:147|238:164|235:184,1,82.5000007867813,6|0,0:1|0:0,0:0:0:0:
353,381,77958,1,10,0:1:0:0:
492,129,78185,6,0,L|328:117,1,165.000001573563,6|0,0:1|0:0,0:0:0:0:
265,59,78526,1,0,0:0:0:0:
444,165,78640,2,0,L|279:177,1,165.000001573563,14|0,0:1|0:0,0:0:0:0:
216,235,78981,1,0,0:0:0:0:
402,0,79094,1,14,0:1:0:0:
320,205,79435,5,10,0:1:0:0:
265,59,79549,1,6,0:1:0:0:
261,50,79776,5,10,0:1:0:0:
202,265,79890,1,10,0:1:0:0:
256,343,80004,5,4,1:2:0:0:
