osu file format v14

[General]
AudioFilename: audio.mp3
AudioLeadIn: 0
PreviewTime: 50941
Countdown: 0
SampleSet: Soft
StackLeniency: 0.5
Mode: 2
LetterboxInBreaks: 0
WidescreenStoryboard: 1

[Editor]
Bookmarks: 7262,7272,21808,36353,50899
DistanceSpacing: 1.5
BeatDivisor: 4
GridSize: 4
TimelineZoom: 1

[Metadata]
Title:Lionheart
TitleUnicode:Lionheart
Artist:Masayoshi Minoshima feat. Ayakura Mei
ArtistUnicode:Masayoshi Minoshima feat. 綾倉 盟
Creator:Secre
Version:Cup
Source:HALFPIPE TOKYO
Tags:maimai sega chickenbible electronic japanese video game jbh jbhyperion jorkseljund bastian xinely
BeatmapID:2509222
BeatmapSetID:1142369

[Difficulty]
HPDrainRate:3
CircleSize:2.5
OverallDifficulty:6
ApproachRate:6
SliderMultiplier:1.25
SliderTickRate:1

[Events]
//Background and Video events
0,0,"this could also be a pekora bg.jpg",0,0
//Break Periods
//Storyboard Layer 0 (Background)
//Storyboard Layer 1 (Fail)
//Storyboard Layer 2 (Pass)
//Storyboard Layer 3 (Foreground)
//Storyboard Layer 4 (Overlay)
//Storyboard Sound Samples

[TimingPoints]
32,454.545454545455,4,1,1,40,1,0
14350,-100,4,1,1,45,0,0
14577,-100,4,1,1,50,0,0
18213,-100,4,2,1,30,0,0
18668,-100,4,2,1,40,0,0
19122,-100,4,2,1,45,0,0
19577,-100,4,2,1,50,0,0
20032,-100,4,1,1,60,0,0
21168,-100,4,2,1,70,0,0
21622,-100,4,2,1,70,0,0
21850,-100,4,2,1,65,0,0
24804,-100,4,2,1,65,0,0
25032,-100,4,2,1,50,0,0
25486,-100,4,2,1,65,0,0
28441,-100,4,2,1,65,0,0
28668,-100,4,2,1,50,0,0
28895,-100,4,2,1,50,0,0
29122,-100,4,2,1,65,0,0
32077,-100,4,2,1,65,0,0
32304,-100,4,2,1,50,0,0
32759,-100,4,2,1,65,0,0
35713,-100,4,2,1,65,0,0
35941,-100,4,2,1,72,0,0
36054,-100,4,2,1,74,0,0
36168,-100,4,2,1,76,0,0
36282,-100,4,2,1,78,0,0
36395,-100,4,2,1,65,0,0
39350,-100,4,2,1,65,0,0
39577,-100,4,2,1,50,0,0
40032,-100,4,2,1,65,0,0
42986,-100,4,2,1,65,0,0
43441,-100,4,2,1,65,0,0
46622,-100,4,2,1,65,0,0
46850,-100,4,2,1,50,0,0
47191,-100,4,2,1,60,0,0
47304,-100,4,2,1,60,0,0
49122,-100,4,2,1,50,0,0
49577,-100,4,2,1,50,0,0
50032,-100,4,2,1,60,0,0
50486,-100,4,2,1,60,0,0
50941,-100,4,1,1,75,0,1
64577,-100,4,1,1,75,0,0
64804,-100,4,1,1,75,0,0
65032,-100,4,2,1,80,0,0
65259,-100,4,2,1,85,0,0
65486,-100,4,1,1,75,0,1
79122,-100,4,1,1,65,0,1
79804,-100,4,1,1,65,0,1
79918,-100,4,1,1,30,0,1
80032,-100,4,1,1,30,0,0
80145,-100,4,2,1,30,0,0

[Colours]
Combo1 : 255,94,55
Combo2 : 173,255,95
Combo3 : 17,254,176
Combo4 : 255,88,100

[HitObjects]
397,113,32,6,0,P|385:182|318:190,1,125,2|0,0:0|0:0,0:0:0:0:
197,193,941,2,0,L|99:193,2,93.75,0|0|2,0:0|0:0|0:0,0:0:0:0:
295,128,1850,5,2,0:0:0:0:
363,73,2077,2,0,L|364:222,1,125
267,88,2759,2,0,L|147:89,2,93.75,2|2|2,0:0|0:0|0:0,0:0:0:0:
346,92,3668,6,0,P|353:160|290:183,1,125,2|0,0:0|0:0,0:0:0:0:
168,154,4577,2,0,L|289:153,2,93.75,2|2|2,0:0|0:0|0:0,0:0:0:0:
86,116,5486,6,0,P|90:56|160:36,1,125,2|0,0:0|0:0,0:0:0:0:
278,86,6395,2,0,L|283:128,1,31.25,2|0,0:0|0:0,0:0:0:0:
191,131,6736,2,0,L|148:129,1,31.25,2|0,0:0|0:0,0:0:0:0:
79,95,7077,2,0,L|70:44,1,31.25,2|2,0:0|0:0,0:0:0:0:
143,42,7304,5,12,1:0:0:0:
302,78,7759,1,8,0:0:0:0:
141,162,8213,2,0,L|129:22,1,125,8|8,0:0|0:0,0:0:0:0:
221,45,8895,1,8,0:0:0:0:
311,42,9122,6,0,L|316:194,1,125,8|8,0:0|0:0,0:0:0:0:
148,256,10032,2,0,L|144:109,1,125,8|8,0:0|0:0,0:0:0:0:
251,108,10713,1,8,0:0:0:0:
354,170,10941,6,0,L|205:173,1,125,8|8,0:0|0:0,0:0:0:0:
404,65,11850,2,0,L|408:215,1,125,8|8,0:0|0:0,0:0:0:0:
316,213,12532,1,8,0:0:0:0:
219,196,12759,6,0,L|67:198,1,125,8|8,0:0|0:0,0:0:0:0:
269,138,13668,2,0,L|415:137,1,125,8|8,0:0|0:0,0:0:0:0:
305,71,14350,1,8,0:0:0:0:
204,201,14577,5,8,0:0:0:0:
207,111,14804,1,8,0:0:0:0:
278,88,15032,1,8,0:0:0:0:
403,108,15486,1,8,0:0:0:0:
278,178,15941,1,0,0:0:0:0:
214,102,16168,1,8,0:0:0:0:
282,99,16395,5,8,0:0:0:0:
352,99,16622,1,8,0:0:0:0:
282,99,16850,1,8,0:0:0:0:
152,168,17304,1,8,0:0:0:0:
152,168,17532,1,8,0:0:0:0:
220,167,17759,1,0,0:0:0:0:
289,162,17986,1,8,0:0:0:0:
220,167,18213,6,0,L|138:170,2,62.5,8|8|8,0:0|0:0|0:0,0:0:0:0:
356,118,19122,2,0,L|444:119,2,62.5,8|8|8,0:0|0:0|0:0,0:0:0:0:
289,106,19804,1,8,0:0:0:0:
214,118,20032,6,0,L|66:117,2,125,8|0|0,0:0|0:0|0:0,0:0:0:0:
331,56,21168,2,0,L|337:139,1,62.5
168,246,21850,6,0,L|310:243,1,125,12|8,0:0|0:0,0:0:0:0:
117,170,22759,2,0,L|108:95,1,62.5,8|0,3:0|0:0,0:0:0:0:
193,85,23213,1,8,0:0:0:0:
359,128,23668,6,0,L|363:205,1,62.5,8|0,3:0|0:0,0:0:0:0:
279,216,24122,2,0,L|202:222,2,62.5,8|0|8,0:0|0:0|3:0,0:0:0:0:
378,99,24804,2,0,L|384:162,1,62.5,2|8,0:0|0:0,0:0:0:0:
203,198,25486,6,0,L|343:197,1,125,12|8,0:0|0:0,0:0:0:0:
179,117,26395,2,0,L|98:118,2,62.5,8|0|8,3:0|0:0|0:0,0:0:0:0:
309,88,27304,6,0,L|313:161,1,62.5,8|0,3:0|0:0,0:0:0:0:
224,169,27759,1,8,0:0:0:0:
141,128,27986,2,0,B|139:97|139:97|180:98,1,62.5,0|8,0:0|3:0,0:0:0:0:
291,107,28441,2,0,L|294:192,1,62.5,2|8,0:0|0:0,0:0:0:0:
200,215,28895,1,8,0:0:0:0:
293,158,29122,6,0,L|360:159,2,62.5,12|0|8,0:0|0:0|0:0,0:0:0:0:
172,210,30032,2,0,L|167:132,1,62.5,8|0,3:0|0:0,0:0:0:0:
261,108,30486,1,8,0:0:0:0:
400,194,30941,6,0,L|315:198,1,62.5,8|0,3:0|0:0,0:0:0:0:
243,210,31395,2,0,L|317:209,1,62.5,8|0,0:0|0:0,0:0:0:0:
402,133,31850,1,8,3:0:0:0:
309,170,32077,2,0,L|309:92,1,62.5,2|8,0:0|0:0,0:0:0:0:
141,191,32759,6,0,L|225:190,1,62.5,12|0,0:0|0:0,0:0:0:0:
300,163,33213,2,0,L|213:162,1,62.5,8|0,0:0|0:0,0:0:0:0:
143,137,33668,1,8,3:0:0:0:
281,132,34122,2,0,L|347:132,1,62.5,8|0,0:0|0:0,0:0:0:0:
281,132,34577,6,0,L|189:132,2,62.5,8|0|8,3:0|0:0|0:0,0:0:0:0:
461,115,35486,2,0,L|469:199,1,62.5,8|2,3:0|0:0,0:0:0:0:
376,211,35941,2,0,L|376:123,1,62.5,8|8,0:0|0:0,0:0:0:0:
284,145,36395,6,0,L|139:147,1,125,12|8,0:0|0:0,0:0:0:0:
350,74,37304,2,0,L|355:224,1,125,8|0,3:0|0:0,0:0:0:0:
172,230,38213,6,0,L|305:232,1,125,8|8,3:0|0:0,0:0:0:0:
123,273,39122,1,8,3:0:0:0:
211,231,39350,2,0,L|207:151,1,62.5,2|8,0:0|0:0,0:0:0:0:
385,133,40032,6,0,L|259:139,1,125,12|8,0:0|0:0,0:0:0:0:
118,251,40941,2,0,L|103:115,1,125,8|0,3:0|0:0,0:0:0:0:
192,105,41622,1,0,0:0:0:0:
278,114,41850,6,0,L|407:115,1,125,8|8,3:0|0:0,0:0:0:0:
231,212,42759,1,8,3:0:0:0:
137,224,42986,2,0,L|132:137,1,62.5,2|8,0:0|0:0,0:0:0:0:
203,122,43441,1,8,0:0:0:0:
292,101,43668,6,0,L|299:253,1,125,12|0,0:0|0:0,0:0:0:0:
130,285,44577,2,0,L|274:283,1,125,8|8,3:0|0:0,0:0:0:0:
177,207,45259,1,0,0:0:0:0:
91,229,45486,6,0,L|88:100,1,125,8|8,3:0|0:0,0:0:0:0:
240,111,46395,1,8,3:0:0:0:
329,88,46622,2,0,L|333:179,1,62.5,2|8,0:0|0:0,0:0:0:0:
134,262,47304,6,0,L|285:260,1,125,12|0,0:0|0:0,0:0:0:0:
67,287,48213,2,0,L|65:147,1,125,8|8,3:0|0:0,0:0:0:0:
152,146,48895,1,0,0:0:0:0:
245,142,49122,6,0,L|314:141,2,62.5,8|8|8,0:0|0:0|0:0,0:0:0:0:
85,221,50032,2,0,L|81:146,1,62.5,8|8,0:0|0:0,0:0:0:0:
174,132,50486,2,0,L|237:134,1,62.5,8|8,0:0|0:0,0:0:0:0:
144,71,50941,6,0,L|62:75,2,62.5,12|0|8,0:0|0:0|0:0,0:0:0:0:
328,72,51850,2,0,L|329:217,1,125,8|8,0:0|3:0,0:0:0:0:
133,161,52759,5,12,0:0:0:0:
216,142,52986,2,0,L|289:141,2,62.5,0|8|0,0:0|0:0|0:0,0:0:0:0:
110,221,53668,2,0,L|102:86,1,125,8|8,0:0|3:0,0:0:0:0:
286,117,54577,6,0,L|216:122,2,62.5,12|0|8,0:0|0:0|0:0,0:0:0:0:
463,76,55486,2,0,L|466:221,1,125,8|8,0:0|3:0,0:0:0:0:
371,197,56168,1,12,0:0:0:0:
266,158,56395,6,0,L|179:157,2,62.5,12|0|8,0:0|0:0|0:0,0:0:0:0:
449,148,57304,2,0,L|294:151,1,125,8|8,0:0|3:0,0:0:0:0:
239,112,57986,1,12,0:0:0:0:
346,64,58213,6,0,L|428:68,2,62.5,12|0|8,0:0|0:0|0:0,0:0:0:0:
186,72,59122,2,0,L|185:217,1,125,8|8,0:0|3:0,0:0:0:0:
367,157,60031,5,12,0:0:0:0:
289,142,60258,2,0,L|216:141,2,62.5,0|8|0,0:0|0:0|0:0,0:0:0:0:
391,222,60940,2,0,L|399:87,1,125,8|8,0:0|3:0,0:0:0:0:
219,117,61849,6,0,L|289:122,2,62.5,12|0|8,0:0|0:0|0:0,0:0:0:0:
55,75,62758,2,0,L|52:220,1,125,8|8,0:0|3:0,0:0:0:0:
141,199,63440,1,12,0:0:0:0:
257,159,63667,6,0,L|344:158,2,62.5,12|0|8,0:0|0:0|0:0,0:0:0:0:
86,209,64577,2,0,L|80:140,1,62.5,8|0,0:0|0:0,0:0:0:0:
178,127,65032,2,0,L|251:127,1,62.5,8|12,3:0|0:0,0:0:0:0:
127,69,65486,6,0,L|45:73,2,62.5,12|0|8,0:0|0:0|0:0,0:0:0:0:
322,73,66395,2,0,L|323:218,1,125,8|8,0:0|3:0,0:0:0:0:
133,161,67304,5,12,0:0:0:0:
216,142,67531,2,0,L|289:141,2,62.5,0|8|0,0:0|0:0|0:0,0:0:0:0:
115,220,68213,2,0,L|107:85,1,125,8|8,0:0|3:0,0:0:0:0:
286,117,69122,6,0,L|216:122,2,62.5,12|0|8,0:0|0:0|0:0,0:0:0:0:
466,77,70031,2,0,L|469:222,1,125,8|8,0:0|3:0,0:0:0:0:
373,199,70713,1,12,0:0:0:0:
266,158,70940,6,0,L|179:157,2,62.5,12|0|8,0:0|0:0|0:0,0:0:0:0:
449,148,71849,2,0,L|294:151,1,125,8|8,0:0|3:0,0:0:0:0:
239,112,72531,1,12,0:0:0:0:
346,64,72758,6,0,L|428:68,2,62.5,12|0|8,0:0|0:0|0:0,0:0:0:0:
186,72,73667,2,0,L|185:217,1,125,8|8,0:0|3:0,0:0:0:0:
367,157,74576,5,12,0:0:0:0:
272,142,74804,2,0,L|201:142,2,62.5,0|8|0,0:0|0:0|0:0,0:0:0:0:
384,222,75486,2,0,L|392:89,1,125,8|8,0:0|3:0,0:0:0:0:
219,117,76395,6,0,L|288:118,2,62.5,12|0|8,0:0|0:0|0:0,0:0:0:0:
42,75,77304,2,0,L|40:215,1,125,8|8,0:0|3:0,0:0:0:0:
136,198,77985,1,12,0:0:0:0:
248,158,78213,6,0,L|335:157,2,62.5,12|0|8,0:0|0:0|0:0,0:0:0:0:
86,209,79122,2,0,L|80:140,1,62.5,8|0,0:0|0:0,0:0:0:0:
179,126,79577,2,0,L|252:126,1,62.5,8|12,3:0|0:0,0:0:0:0:
119,193,80032,1,4,0:0:0:0:
256,192,80486,12,0,81850,0:0:0:0:
