osu file format v14

[General]
AudioFilename: audio.ogg
AudioLeadIn: 0
PreviewTime: 90185
Countdown: 0
SampleSet: Soft
StackLeniency: 0.7
Mode: 0
LetterboxInBreaks: 1
WidescreenStoryboard: 0

[Editor]
DistanceSpacing: 2
BeatDivisor: 8
GridSize: 32
TimelineZoom: 1.4

[Metadata]
Title:Shinto Shrine
TitleUnicode:Shinto Shrine
Artist:Masayoshi Minoshima feat. Aki Misawa
ArtistUnicode:Masayoshi Minoshima feat. Aki Misawa
Creator:Sanch-KK
Version:Lunatic
Source:東方怪綺談 ~ Mystic Square
Tags:aye1337 228 electronic japanese Exserens - A selection of Alstroemeria Records 東方Project touhou kaikidan th05 神社 jinja 三澤秋 zun team shanghai alice dolls circuit breakers for your pieces 星影の天の原 Heaven of the Origin of Starlight Hoshikage no Ama no Hara 秋の空 sora
BeatmapID:4149004
BeatmapSetID:1996323

[Difficulty]
HPDrainRate:4
CircleSize:4
OverallDifficulty:8
ApproachRate:8.7
SliderMultiplier:2.8
SliderTickRate:2

[Events]
//Background and Video events
0,0,"asdfi.jpg",0,0
//Break Periods
2,78185,89540
2,168385,172685
2,246385,251540
2,324185,335435
2,349733,361088
//Storyboard Layer 0 (Background)
//Storyboard Layer 1 (Fail)
//Storyboard Layer 2 (Pass)
//Storyboard Layer 3 (Foreground)
//Storyboard Layer 4 (Overlay)
//Storyboard Sound Samples

[TimingPoints]
185,750,4,2,0,65,1,0
185,-100,4,2,0,65,0,0
24185,-133.333333333333,4,3,0,65,0,0
24560,-133.333333333333,4,2,0,65,0,0
24747,-133.333333333333,4,3,0,65,0,0
25310,-133.333333333333,4,2,0,65,0,0
25497,-133.333333333333,4,3,0,65,0,0
25685,-133.333333333333,4,2,0,65,0,0
27185,-133.333333333333,4,3,0,65,0,0
27560,-133.333333333333,4,2,0,65,0,0
30185,-133.333333333333,4,3,0,65,0,0
30560,-133.333333333333,4,2,0,65,0,0
30747,-133.333333333333,4,3,0,65,0,0
30935,-133.333333333333,4,2,0,65,0,0
33185,-133.333333333333,4,3,0,65,0,0
33372,-133.333333333333,4,2,0,65,0,0
33935,-133.333333333333,4,3,0,65,0,0
34310,-133.333333333333,4,2,0,65,0,0
36185,-133.333333333333,4,1,0,65,0,0
36560,-133.333333333333,4,3,0,65,0,0
36935,-133.333333333333,4,2,0,65,0,0
37685,-133.333333333333,4,3,0,65,0,0
37872,-133.333333333333,4,2,0,65,0,0
42185,-133.333333333333,4,3,0,65,0,0
42560,-133.333333333333,4,2,0,50,0,0
42935,-133.333333333333,4,2,0,65,0,0
45185,-133.333333333333,4,3,0,65,0,0
45560,-133.333333333333,4,2,0,50,0,0
45747,-133.333333333333,4,2,0,65,0,0
46685,-133.333333333333,4,2,0,70,0,0
47435,-133.333333333333,4,1,0,70,0,0
47622,-133.333333333333,4,1,228,55,0,0
47810,-133.333333333333,4,2,0,40,0,0
47997,-133.333333333333,4,1,228,25,0,0
48185,-133.333333333333,4,2,0,85,0,0
48747,-111.111111111111,4,2,0,75,0,0
54185,-111.111111111111,4,1,0,75,0,0
54560,-111.111111111111,4,3,0,65,0,0
54935,-111.111111111111,4,2,0,75,0,0
55685,-111.111111111111,4,1,0,75,0,0
56060,-111.111111111111,4,3,0,75,0,0
56435,-111.111111111111,4,2,0,75,0,0
57935,-111.111111111111,4,3,0,75,0,0
58310,-111.111111111111,4,2,0,75,0,0
60185,-111.111111111111,4,1,0,75,0,0
60560,-111.111111111111,4,2,0,75,0,0
66185,-111.111111111111,4,1,0,75,0,0
66560,-111.111111111111,4,3,0,65,0,0
66935,-111.111111111111,4,2,0,75,0,0
72185,-500,4,1,0,80,0,0
72560,-500,4,2,0,72,0,0
72935,-500,4,1,0,64,0,0
73122,-500,4,3,0,60,0,0
73310,-500,4,2,0,56,0,0
73497,-500,4,1,0,52,0,0
73685,-500,4,3,0,48,0,0
74060,-500,4,2,0,36,0,0
74435,-500,4,1,0,28,0,0
74458,-500,4,3,0,28,0,0
74810,-500,4,2,0,20,0,0
75185,-500,4,2,0,12,0,0
90185,-133.333333333333,4,3,0,60,0,0
90372,-133.333333333333,4,2,0,60,0,0
94685,-133.333333333333,4,3,0,60,0,0
95060,-133.333333333333,4,2,0,60,0,0
95247,-133.333333333333,4,2,228,50,0,0
95435,-133.333333333333,4,2,0,60,0,0
96185,-133.333333333333,4,3,0,60,0,0
96372,-133.333333333333,4,2,0,60,0,0
97497,-133.333333333333,4,3,0,60,0,0
97685,-133.333333333333,4,2,0,40,0,0
97872,-133.333333333333,4,2,0,60,0,0
100872,-133.333333333333,4,3,0,60,0,0
101247,-133.333333333333,4,2,0,60,0,0
102185,-111.111111111111,4,2,0,70,0,0
105185,-111.111111111111,4,3,0,70,0,0
105372,-111.111111111111,4,2,0,70,0,0
108935,-111.111111111111,4,1,0,50,0,0
109122,-111.111111111111,4,2,0,70,0,0
114185,-111.111111111111,4,1,0,70,0,0
114560,-111.111111111111,4,2,0,70,0,0
117185,-111.111111111111,4,3,0,70,0,0
117372,-111.111111111111,4,2,0,60,0,0
117560,-111.111111111111,4,2,0,70,0,0
118685,-111.111111111111,4,3,0,70,0,0
118872,-111.111111111111,4,2,0,70,0,0
120372,-111.111111111111,4,2,0,50,0,0
120560,-111.111111111111,4,2,0,70,0,0
120935,-111.111111111111,4,3,0,70,0,0
121122,-111.111111111111,4,2,0,70,0,0
123185,-111.111111111111,4,3,0,70,0,0
123560,-111.111111111111,4,2,0,55,0,0
123935,-111.111111111111,4,2,0,70,0,0
126185,-100,4,1,0,75,0,0
126372,-100,4,3,0,75,0,0
126560,-100,4,2,0,75,0,0
127497,-100,4,1,0,75,0,0
127685,-100,4,3,0,75,0,0
127872,-100,4,2,0,75,0,0
130685,-100,4,3,0,75,0,0
130872,-100,4,2,0,75,0,0
133685,-100,4,3,0,75,0,0
133872,-100,4,2,0,75,0,0
136685,-100,4,3,0,75,0,0
136872,-100,4,2,0,75,0,0
138185,-100,4,1,0,75,0,0
138372,-100,4,3,0,75,0,0
138560,-100,4,2,0,75,0,0
140435,-100,4,3,0,75,0,0
140622,-100,4,2,0,75,0,0
141185,-100,4,3,0,75,0,0
141372,-100,4,2,0,65,0,0
141560,-100,4,2,0,75,0,0
144935,-100,4,3,0,75,0,0
145122,-100,4,2,0,75,0,0
145685,-100,4,3,0,75,0,0
145872,-100,4,2,0,75,0,0
147747,-100,4,3,0,75,0,0
147935,-100,4,1,0,55,0,0
148122,-100,4,2,0,75,0,0
150185,-100,4,1,0,75,0,0
150372,-100,4,3,0,75,0,0
150560,-100,4,2,0,75,0,0
156185,-100,4,3,0,75,0,0
156372,-100,4,2,0,65,0,0
156560,-100,4,2,0,75,0,0
157685,-100,4,3,0,75,0,0
157872,-100,4,2,0,75,0,0
159185,-100,4,3,0,75,0,0
159372,-100,4,2,0,65,0,0
159560,-100,4,2,0,75,0,0
162185,-100,4,1,0,75,0,0
162372,-100,4,3,0,75,0,0
162560,-100,4,2,0,75,0,0
165935,-100,4,1,0,75,0,0
166122,-100,4,2,0,75,0,0
174185,-90.909090909091,4,1,0,80,0,0
174372,-90.909090909091,4,3,0,80,0,0
174560,-90.909090909091,4,1,0,80,0,0
174747,-90.909090909091,4,2,0,80,0,0
177185,-90.909090909091,4,3,0,80,0,0
177560,-90.909090909091,4,1,0,80,0,0
177747,-90.909090909091,4,3,0,80,0,0
177935,-90.909090909091,4,2,0,80,0,0
180185,-90.909090909091,4,1,0,80,0,0
180372,-90.909090909091,4,3,0,80,0,0
180560,-90.909090909091,4,1,0,80,0,0
180747,-90.909090909091,4,2,0,80,0,0
181497,-90.909090909091,4,1,0,80,0,0
181685,-90.909090909091,4,3,0,80,0,0
181872,-90.909090909091,4,2,0,80,0,0
183185,-90.909090909091,4,1,0,80,0,0
183372,-90.909090909091,4,3,0,80,0,0
183560,-90.909090909091,4,2,0,80,0,0
183935,-90.909090909091,4,1,0,80,0,0
184122,-90.909090909091,4,3,0,80,0,0
184310,-90.909090909091,4,2,0,80,0,0
186185,-90.909090909091,4,1,0,80,0,0
186372,-90.909090909091,4,3,0,80,0,0
186560,-90.909090909091,4,3,0,80,0,0
189560,-90.909090909091,4,1,0,80,0,0
189747,-90.909090909091,4,3,0,80,0,0
189935,-90.909090909091,4,2,0,80,0,0
192185,-90.909090909091,4,1,0,80,0,0
192372,-90.909090909091,4,3,0,80,0,0
192560,-90.909090909091,4,2,0,80,0,0
195185,-90.909090909091,4,3,0,80,0,0
195560,-90.909090909091,4,2,0,65,0,0
195935,-90.909090909091,4,2,0,80,0,0
198185,-90.909090909091,4,1,0,80,0,0
198372,-90.909090909091,4,3,0,80,0,0
198560,-90.909090909091,4,1,0,80,0,0
198747,-90.909090909091,4,2,0,80,0,0
201185,-90.909090909091,4,3,0,80,0,0
201560,-90.909090909091,4,1,0,80,0,0
201747,-90.909090909091,4,3,0,80,0,0
201935,-90.909090909091,4,2,0,80,0,0
204185,-90.909090909091,4,1,0,80,0,0
204372,-90.909090909091,4,3,0,80,0,0
204560,-90.909090909091,4,1,0,80,0,0
207185,-90.909090909091,4,1,0,80,0,0
207372,-90.909090909091,4,3,0,80,0,0
207560,-90.909090909091,4,2,0,80,0,0
207935,-90.909090909091,4,1,0,80,0,0
208122,-90.909090909091,4,3,0,80,0,0
208310,-90.909090909091,4,2,0,80,0,0
210185,-181.818181818181,4,2,0,85,0,0
210278,-181.818181818181,4,2,228,60,0,0
210372,-181.818181818181,4,2,0,60,0,0
221060,-181.818181818181,4,2,228,65,0,0
221435,-181.818181818181,4,2,0,70,0,0
221810,-181.818181818181,4,2,228,75,0,0
222185,-90.909090909091,4,2,0,80,0,1
222935,-90.909090909091,4,1,0,80,0,1
223122,-90.909090909091,4,3,0,80,0,1
223310,-90.909090909091,4,2,0,80,0,1
225185,-90.909090909091,4,1,0,80,0,1
225372,-90.909090909091,4,3,0,65,0,1
225560,-90.909090909091,4,2,0,80,0,1
228185,-90.909090909091,4,1,0,80,0,1
228372,-90.909090909091,4,3,0,65,0,1
228560,-90.909090909091,4,2,0,80,0,1
228935,-90.909090909091,4,3,0,80,0,1
229122,-90.909090909091,4,2,0,80,0,1
231935,-90.909090909091,4,1,0,80,0,1
232122,-90.909090909091,4,3,0,80,0,1
232310,-90.909090909091,4,2,0,80,0,1
234185,-90.909090909091,4,1,0,80,0,1
234372,-90.909090909091,4,3,0,80,0,1
234560,-90.909090909091,4,2,0,80,0,1
237185,-90.909090909091,4,1,0,80,0,1
237372,-90.909090909091,4,3,0,80,0,1
237560,-90.909090909091,4,2,0,80,0,1
246185,-90.909090909091,4,2,0,90,0,0
252185,-111.111111111111,4,2,0,70,0,0
253685,-111.111111111111,4,3,0,60,0,0
253872,-111.111111111111,4,2,0,70,0,0
258185,-111.111111111111,4,3,0,70,0,0
258560,-111.111111111111,4,2,0,70,0,0
261185,-111.111111111111,4,3,0,70,0,0
261560,-111.111111111111,4,2,0,70,0,0
267185,-111.111111111111,4,3,0,70,0,0
267560,-111.111111111111,4,2,0,70,0,0
268685,-111.111111111111,4,3,0,70,0,0
268872,-111.111111111111,4,2,0,70,0,0
270935,-111.111111111111,4,1,0,55,0,0
271122,-111.111111111111,4,2,0,70,0,0
273935,-111.111111111111,4,3,0,70,0,0
274122,-111.111111111111,4,2,0,70,0,0
274685,-111.111111111111,4,3,0,55,0,0
274872,-111.111111111111,4,2,0,70,0,0
276185,-100,4,1,0,75,0,0
276372,-100,4,3,0,75,0,0
276560,-100,4,2,0,75,0,0
277685,-100,4,3,0,75,0,0
277872,-100,4,2,0,75,0,0
280122,-100,4,3,0,75,0,0
280310,-100,4,1,0,75,0,0
280497,-100,4,2,0,75,0,0
280685,-100,4,1,0,75,0,0
280872,-100,4,2,0,75,0,0
282185,-100,4,1,0,75,0,0
282372,-100,4,3,0,75,0,0
282560,-100,4,2,0,75,0,0
283685,-100,4,3,0,75,0,0
283872,-100,4,2,0,75,0,0
285185,-100,4,3,0,75,0,0
285372,-100,4,2,0,75,0,0
286685,-100,4,3,0,75,0,0
286872,-100,4,2,0,75,0,0
288185,-100,4,1,0,75,0,0
288560,-100,4,2,0,75,0,0
290435,-100,4,3,0,75,0,0
290622,-100,4,2,0,75,0,0
294185,-100,4,1,0,75,0,0
294372,-100,4,3,0,75,0,0
294560,-100,4,2,0,75,0,0
295685,-100,4,3,0,75,0,0
295872,-100,4,2,0,75,0,0
297185,-100,4,1,0,75,0,0
297372,-100,4,3,0,75,0,0
297560,-100,4,2,0,75,0,0
298685,-100,4,3,0,75,0,0
298872,-100,4,2,0,75,0,0
300935,-100,4,1,0,70,0,0
301122,-100,4,2,0,75,0,0
304685,-100,4,3,0,75,0,0
305060,-100,4,2,0,75,0,0
307685,-100,4,3,0,75,0,0
307872,-100,4,2,0,75,0,0
309185,-100,4,1,0,75,0,0
309372,-100,4,3,0,75,0,0
309560,-100,4,2,0,75,0,0
312185,-100,4,1,0,75,0,0
312560,-100,4,2,0,75,0,0
315185,-100,4,1,0,75,0,0
315372,-100,4,3,0,75,0,0
315560,-100,4,2,0,75,0,0
318185,-100,4,2,0,85,0,0
318747,-17.8571428571429,4,2,0,65,0,0
318935,-17.8571428571429,4,2,228,70,0,0
319310,-17.8571428571429,4,2,0,65,0,0
319685,-17.8571428571429,4,2,228,60,0,0
320060,-17.8571428571429,4,2,0,55,0,0
320435,-17.8571428571429,4,2,228,50,0,0
320810,-17.8571428571429,4,2,0,45,0,0
321185,-17.8571428571429,4,1,0,30,0,0
321279,-17.8571428571429,4,1,228,35,0,0
321373,-17.8571428571429,4,3,228,37,0,0
321560,-17.8571428571429,4,3,0,35,0,0
321654,-17.8571428571429,4,3,228,30,0,0
321748,-17.8571428571429,4,3,0,25,0,0
321935,-17.8571428571429,4,2,228,30,0,0
322310,-17.8571428571429,4,2,0,25,0,0
324185,-100,4,2,0,75,0,1
341622,-250,4,1,0,75,0,1
341810,-100,4,3,0,75,0,1
341997,-100,4,2,0,75,0,1
342185,-76.923076923077,4,2,0,85,0,1
343685,-76.923076923077,4,1,0,85,0,1
344060,-76.923076923077,4,3,0,85,0,1
344247,-76.923076923077,4,2,0,85,0,1
345185,-76.923076923077,4,1,0,85,0,1
345372,-76.923076923077,4,3,0,85,0,1
345560,-76.923076923077,4,2,0,85,0,1
346685,-90.909090909091,4,1,0,85,0,1
346872,-90.909090909091,4,3,0,85,0,1
347060,-90.909090909091,4,2,0,85,0,1
347435,-90.909090909091,4,2,0,75,0,1
347810,-90.909090909091,4,2,0,65,0,1
349733,750,4,2,0,85,1,1
349733,-100,4,2,0,85,0,0
361733,-222.222222222221,4,2,0,50,0,0
373733,-83.3333333333335,4,1,0,80,0,0
373920,-83.3333333333335,4,3,0,80,0,0
374108,-83.3333333333335,4,1,0,80,0,0
374295,-83.3333333333335,4,2,0,80,0,0
376733,-83.3333333333335,4,3,0,80,0,0
377108,-83.3333333333335,4,1,0,80,0,0
377295,-83.3333333333335,4,3,0,80,0,0
377483,-83.3333333333335,4,2,0,80,0,0
378233,-83.3333333333335,4,1,0,80,0,0
378420,-83.3333333333335,4,3,0,80,0,0
378608,-83.3333333333335,4,2,0,80,0,0
379733,-83.3333333333335,4,1,0,80,0,0
379920,-83.3333333333335,4,3,0,80,0,0
380108,-83.3333333333335,4,1,0,80,0,0
380295,-83.3333333333335,4,2,0,80,0,0
383483,-83.3333333333335,4,1,0,80,0,0
383670,-83.3333333333335,4,3,0,80,0,0
383858,-83.3333333333335,4,2,0,80,0,0
385733,-83.3333333333335,4,1,0,80,0,0
385920,-83.3333333333335,4,3,0,80,0,0
386108,-83.3333333333335,4,1,0,80,0,0
386295,-83.3333333333335,4,2,0,80,0,0
387233,-83.3333333333335,4,1,0,80,0,0
387420,-83.3333333333335,4,3,0,80,0,0
387608,-83.3333333333335,4,2,0,80,0,0
388733,-83.3333333333335,4,1,0,80,0,0
389108,-83.3333333333335,4,3,0,80,0,0
389295,-83.3333333333335,4,1,0,80,0,0
389483,-83.3333333333335,4,2,0,80,0,0
394733,-83.3333333333335,4,1,0,80,0,0
395108,-83.3333333333335,4,3,0,80,0,0
395483,-83.3333333333335,4,2,0,80,0,0
397733,-83.3333333333335,4,1,0,80,0,0
397920,-83.3333333333335,4,3,0,80,0,0
398108,-83.3333333333335,4,1,0,80,0,0
398295,-83.3333333333335,4,2,0,80,0,0
398483,-83.3333333333335,4,1,0,80,0,0
398670,-83.3333333333335,4,3,0,55,0,0
398858,-83.3333333333335,4,2,0,80,0,0
401483,-83.3333333333335,4,1,0,80,0,0
401670,-83.3333333333335,4,3,0,50,0,0
401858,-83.3333333333335,4,2,0,80,0,0
403733,-83.3333333333335,4,1,0,80,0,0
403920,-83.3333333333335,4,3,0,80,0,0
404108,-83.3333333333335,4,1,0,80,0,0
404295,-83.3333333333335,4,2,0,80,0,0
404483,-83.3333333333335,4,1,0,80,0,0
404670,-83.3333333333335,4,3,0,55,0,0
404858,-83.3333333333335,4,2,0,80,0,0
405045,-83.3333333333335,4,3,0,80,0,0
405233,-83.3333333333335,4,1,0,60,0,0
405420,-83.3333333333335,4,2,0,80,0,0
409733,-83.3333333333335,4,1,0,80,0,0
410108,-83.3333333333335,4,3,0,80,0,0
410295,-83.3333333333335,4,1,0,80,0,0
410483,-83.3333333333335,4,2,0,80,0,0
410670,-83.3333333333335,4,1,0,80,0,0
410858,-83.3333333333335,4,3,0,55,0,0
411045,-83.3333333333335,4,2,0,80,0,0
416483,-83.3333333333335,4,1,0,80,0,0
416670,-83.3333333333335,4,3,0,55,0,0
416858,-83.3333333333335,4,2,0,80,0,0
421733,-83.3333333333335,4,2,0,90,0,0

[Colours]
Combo1 : 98,75,120
Combo2 : 142,91,72
Combo3 : 210,191,207
Combo4 : 233,57,48
Combo5 : 227,179,87

[HitObjects]
0,171,24185,6,2,B|31:125|107:81|201:86,2,210.000008010865,4|10|0,1:1|1:2|1:1,0:2:0:0:
49,291,25872,1,2,3:2:0:0:
147,241,26060,1,2,3:3:0:0:
108,195,26247,1,2,3:2:0:0:
144,339,26435,2,0,P|183:333|207:328,1,52.5000020027161,8|0,1:2|0:0,3:0:0:0:
267,253,26810,2,0,P|263:222|257:192,1,52.5000020027161,2|0,2:3|3:3,0:0:0:0:
382,46,27185,6,0,P|389:80|400:160,2,105.000004005432,6|2|8,1:2|2:3|1:2,0:0:0:0:
382,46,28310,1,2,2:3:0:0:
470,58,28497,1,2,3:2:0:0:
481,224,28685,5,6,1:2:0:0:
440,203,28872,1,0,3:3:0:0:
385,75,29060,1,2,3:3:0:0:
499,43,29247,1,2,3:2:0:0:
428,212,29435,2,0,P|382:224|362:232,1,52.5000020027161,10|0,1:2|0:0,3:0:0:0:
290,189,29810,1,2,2:3:0:0:
208,55,29997,1,0,3:3:0:0:
208,55,30091,1,0,3:3:0:0:
208,55,30185,6,2,B|137:39|74:34|-20:39,1,210.000008010865,4|8,1:1|1:2,0:2:0:0:
193,65,31310,2,0,P|244:78|262:83,1,52.5000020027161,2|0,2:3|3:2,0:0:0:0:
0,48,31685,21,2,1:2:0:0:
96,85,32060,1,2,3:3:0:0:
125,121,32435,1,8,1:2:0:0:
66,333,32810,1,2,2:3:0:0:
149,370,32997,1,2,3:2:0:0:
149,370,33091,1,0,3:3:0:0:
149,370,33185,6,0,P|189:363|218:357,2,52.5000020027161,0|0|2,1:1|3:3|2:3,0:0:0:0:
136,290,33747,1,2,3:2:0:0:
10,280,33935,2,0,P|5:315|11:400,2,105.000004005432,8|2|0,1:2|2:3|1:1,0:0:0:0:
94,213,34872,1,2,3:2:0:0:
86,159,35060,1,2,3:3:0:0:
145,91,35247,1,2,3:2:0:0:
257,133,35435,6,0,P|256:180|252:206,1,52.5000020027161,12|0,1:2|0:0,3:0:0:0:
203,258,35810,1,2,2:3:0:0:
271,373,35997,1,0,3:3:0:0:
271,373,36091,1,0,3:3:0:0:
271,373,36185,6,2,P|322:373|393:391,2,105.000004005432,4|2|8,1:1|2:3|1:2,0:2:0:0:
221,301,37122,1,2,0:2:0:0:
282,236,37310,2,0,P|301:271|307:296,1,52.5000020027161,2|0,2:3|3:3,0:0:0:0:
146,384,37685,2,0,P|135:350|125:265,1,105.000004005432,0|2,1:1|3:3,0:0:0:0:
474,261,38435,21,8,1:2:0:0:
387,231,38622,1,2,0:2:0:0:
359,199,38810,1,2,2:3:0:0:
389,64,38997,1,0,3:2:0:0:
389,64,39091,1,0,3:3:0:0:
389,64,39185,6,0,P|436:57|460:55,1,52.5000020027161,4|0,1:2|3:3,0:0:0:0:
512,40,39560,1,2,2:3:0:0:
332,117,39935,2,0,P|289:124|267:129,1,52.5000020027161,8|0,1:2|0:0,3:0:0:0:
211,106,40310,1,2,2:3:0:0:
404,156,40685,2,0,P|409:191|413:218,1,52.5000020027161,4|0,1:2|3:3,0:0:0:0:
456,275,41060,1,2,3:3:0:0:
482,122,41247,1,2,3:2:0:0:
440,290,41435,2,0,P|412:295|376:303,1,52.5000020027161,8|0,1:2|0:0,3:0:0:0:
231,280,41810,2,0,P|267:271|300:265,1,52.5000020027161,2|0,2:3|3:3,1:0:0:0:
323,361,42091,1,0,3:3:0:0:
323,361,42185,6,2,P|289:372|208:385,2,105.000004005432,6|2|8,1:2|2:3|1:2,0:2:0:0:
323,361,43310,1,2,2:3:0:0:
297,274,43497,1,2,3:2:0:0:
364,166,43685,2,0,P|359:208|355:236,1,52.5000020027161,0|0,1:1|3:3,0:0:0:0:
276,314,44060,2,0,P|279:288|282:262,1,52.5000020027161,2|0,3:3|3:3,0:0:0:0:
182,157,44435,6,0,P|178:122|173:82,1,52.5000020027161,8|0,1:2|0:0,3:0:0:0:
220,46,44810,1,2,2:3:0:0:
41,0,44997,1,0,3:2:0:0:
41,0,45091,1,0,3:3:0:0:
41,0,45185,22,2,B|-24:9|-42:88|12:136,1,157.500006008148,4|0,1:2|3:3,0:2:0:0:
189,26,45935,2,0,P|151:36|113:36,1,52.5000020027161,8|0,1:2|0:0,3:0:0:0:
65,78,46310,2,0,P|74:105|80:137,1,52.5000020027161,2|0,2:3|3:3,0:0:0:0:
272,193,46685,5,0,1:1:0:0:
229,66,46872,1,2,3:2:0:0:
189,48,47060,1,2,3:3:0:0:
74,68,47247,1,2,3:2:0:0:
0,209,47435,2,2,B|28:326|77:250|111:391,1,210.000008010865,4|4,1:3|1:1,1:0:0:0:
377,165,48747,5,2,3:2:0:0:
500,149,48935,1,8,1:2:0:0:
360,178,49122,2,0,P|324:183|278:191,1,62.9999980773926,0|2,0:0|2:3,0:0:0:0:
229,212,49497,1,2,3:2:0:0:
384,279,49685,5,2,1:2:0:0:
436,219,49872,1,0,3:3:0:0:
442,196,50060,1,2,3:3:0:0:
415,122,50247,1,2,3:2:0:0:
269,56,50435,2,0,P|267:94|263:129,1,62.9999980773926,8|0,1:2|0:0,3:0:0:0:
231,191,50810,1,2,2:3:0:0:
126,295,50997,1,2,3:2:0:0:
126,295,51091,1,0,3:3:0:0:
126,295,51185,22,2,P|76:289|-22:278,1,125.999996154785,4|2,1:2|2:3,0:2:0:0:
0,280,51747,1,0,3:3:0:0:
40,181,51935,1,8,1:2:0:0:
44,120,52122,1,0,0:2:0:0:
44,120,52497,1,2,3:2:0:0:
139,57,52685,5,4,1:2:0:0:
200,162,52872,1,0,3:3:0:0:
93,238,53060,1,2,3:3:0:0:
46,159,53247,1,2,3:2:0:0:
175,189,53435,1,12,1:2:0:0:
77,308,53622,1,0,3:0:0:0:
45,178,53810,1,2,2:3:0:0:
159,274,53997,1,2,3:2:0:0:
126,369,54185,6,2,P|86:376|-19:371,2,125.999996154785,4|2|8,1:1|2:3|1:2,0:2:0:0:
219,149,55310,2,0,P|178:136|151:133,1,62.9999980773926,2|0,2:3|3:3,0:0:0:0:
55,144,55685,2,0,P|75:84|82:22,2,125.999996154785,0|2|8,1:1|3:3|1:2,0:0:0:0:
234,200,56810,1,2,2:3:0:0:
329,171,56997,1,0,3:3:0:0:
329,171,57091,1,0,3:3:0:0:
329,171,57185,6,0,P|324:140|318:110,1,62.9999980773926,0|0,1:1|3:3,0:0:0:0:
297,253,57560,1,2,2:3:0:0:
297,253,57747,1,0,3:2:0:0:
216,125,57935,2,0,P|206:66|223:-6,2,125.999996154785,8|2|4,1:2|2:3|1:2,0:0:0:0:
217,207,58872,1,2,3:2:0:0:
246,305,59060,1,2,3:3:0:0:
243,340,59247,1,0,3:3:0:0:
282,168,59435,21,12,1:2:0:0:
279,61,59622,1,0,0:0:0:0:
297,26,59810,1,2,2:3:0:0:
324,236,59997,1,2,3:2:0:0:
189,375,60185,6,2,P|91:378|-7:365,1,188.999994232178,4|0,1:1|3:3,0:2:0:0:
107,233,60935,1,8,1:2:0:0:
184,295,61122,1,0,0:0:0:0:
227,290,61310,1,2,2:3:0:0:
270,160,61497,1,2,3:2:0:0:
173,83,61685,6,0,P|137:93|102:98,1,62.9999980773926,0|0,1:1|3:3,0:0:0:0:
220,168,62060,2,0,P|256:158|291:153,1,62.9999980773926,2|0,3:3|3:3,0:0:0:0:
422,69,62435,2,0,P|413:110|404:148,1,62.9999980773926,8|0,1:2|0:0,3:0:0:0:
392,204,62810,1,2,2:3:0:0:
352,343,62997,1,0,3:3:0:0:
352,343,63091,1,0,3:3:0:0:
352,343,63185,6,0,P|293:325|204:313,1,125.999996154785,4|2,1:2|2:3,0:0:0:0:
424,373,63747,1,0,3:3:0:0:
493,256,63935,2,0,P|473:302|468:335,1,62.9999980773926,8|0,1:2|0:0,3:0:0:0:
424,373,64310,1,2,2:3:0:0:
346,332,64497,1,2,3:2:0:0:
336,222,64685,22,0,P|359:176|365:138,1,62.9999980773926,4|0,1:2|3:3,0:0:0:0:
455,20,65060,1,2,3:3:0:0:
471,54,65247,1,2,3:2:0:0:
378,136,65435,2,0,P|340:158|299:173,1,62.9999980773926,8|0,1:2|0:0,3:0:0:0:
157,78,65810,2,0,P|194:90|231:119,1,62.9999980773926,2|0,2:3|3:3,1:0:0:0:
243,182,66091,1,0,3:3:0:0:
243,182,66185,6,2,P|249:239|236:323,2,125.999996154785,4|2|8,1:1|2:3|1:2,0:2:0:0:
243,182,67310,1,2,2:3:0:0:
225,26,67497,1,2,3:2:0:0:
330,198,67685,6,2,P|343:239|356:282,1,62.9999980773926,4|0,1:2|3:3,0:2:0:0:
234,230,68060,2,0,P|238:268|240:312,1,62.9999980773926,2|0,3:3|3:3,0:0:0:0:
127,238,68435,2,0,P|123:279|119:319,1,62.9999980773926,10|0,1:2|0:0,3:0:0:0:
233,227,68810,1,2,2:3:0:0:
26,254,68997,1,0,3:3:0:0:
26,254,69091,1,0,3:3:0:0:
26,254,69185,6,2,P|18:214|10:174,1,62.9999980773926,4|0,1:2|3:3,0:2:0:0:
146,227,69560,2,0,P|135:184|124:139,1,62.9999980773926,2|0,2:3|3:3,0:0:0:0:
258,202,69935,2,0,P|250:158|238:114,1,62.9999980773926,10|0,1:2|0:0,3:0:0:0:
429,201,70310,1,2,2:3:0:0:
417,156,70497,1,2,3:2:0:0:
512,0,70685,22,0,P|512:36|498:140,1,125.999996154785,4|2,1:2|3:3,1:0:0:0:
439,307,71247,1,0,3:3:0:0:
402,149,71435,1,8,1:2:0:0:
289,173,71622,1,2,0:2:0:0:
273,203,71810,1,2,2:3:0:0:
322,351,71997,1,2,3:2:0:0:
512,384,72185,6,2,L|489:272,2,112,4|0|2,1:1|0:0|0:1,0:0:0:0:
448,272,90185,6,0,P|411:263|382:258,2,52.5000020027161,0|0|0,1:1|3:3|0:0,0:0:0:0:
501,328,90747,1,2,3:2:0:0:
336,196,90935,2,0,P|298:206|234:230,1,105.000004005432,8|2,2:2|2:3,0:0:0:0:
448,272,91497,2,2,P|410:266|329:271,1,105.000004005432,0|0,3:3|3:3,3:2:0:0:
274,313,92060,1,2,2:3:0:0:
200,352,92247,1,2,3:2:0:0:
63,301,92435,5,8,2:2:0:0:
63,301,92810,2,0,P|100:305|134:312,1,52.5000020027161,2|0,2:3|0:0,0:0:0:0:
211,233,93185,2,0,P|229:203|238:169,1,52.5000020027161,4|0,1:2|3:3,0:0:0:0:
185,128,93560,1,0,0:0:0:0:
163,141,93747,1,0,3:3:0:0:
280,265,93935,2,0,P|316:275|342:290,1,52.5000020027161,8|0,2:2|0:0,3:0:0:0:
218,311,94310,1,2,2:3:0:0:
146,270,94497,1,2,3:2:0:0:
79,158,94685,22,0,P|76:113|61:33,2,105.000004005432,0|0|8,1:1|0:0|2:2,0:0:0:0:
160,384,95810,1,2,2:3:0:0:
259,350,95997,1,2,3:2:0:0:
259,350,96185,6,0,P|292:356|326:361,2,52.5000020027161,4|0|2,1:2|3:3|2:3,0:0:0:0:
194,294,96747,1,0,3:3:0:0:
72,329,96935,2,0,P|136:326|192:317,1,105.000004005432,8|2,2:2|2:3,0:0:0:0:
18,206,97497,2,2,P|53:226|133:250,1,105.000004005432,2|0,0:0|3:3,0:2:0:0:
215,242,98060,1,0,0:0:0:0:
284,188,98247,1,0,3:3:0:0:
408,235,98435,6,0,P|412:267|409:309,1,52.5000020027161,8|0,2:2|0:0,0:0:0:0:
411,288,98997,1,2,3:2:0:0:
411,288,99185,2,0,P|411:261|408:235,1,52.5000020027161,4|0,1:2|3:3,0:0:0:0:
361,130,99560,5,0,0:0:0:0:
430,83,99747,1,0,3:3:0:0:
500,164,99935,2,0,P|510:202|514:236,1,52.5000020027161,8|0,2:2|0:0,0:0:0:0:
486,289,100310,1,2,2:3:0:0:
363,206,100497,2,0,P|358:170|355:86,2,105.000004005432,2|0|0,3:2|3:3|3:3,0:0:0:0:
448,381,101435,21,10,2:2:0:0:
487,117,101810,1,2,2:3:0:0:
429,45,101997,1,0,0:2:0:0:
429,45,102091,1,0,0:0:0:0:
429,45,102185,6,0,P|401:34|350:20,1,62.9999980773926,4|0,1:1|3:3,1:0:0:0:
280,30,102560,1,0,0:0:0:0:
254,40,102747,1,0,3:3:0:0:
287,154,102935,2,0,P|290:200|294:238,1,62.9999980773926,8|0,3:2|0:0,3:0:0:0:
199,99,103310,1,2,2:3:0:0:
228,269,103497,2,2,P|238:314|281:394,1,125.999996154785,2|0,3:2|3:3,3:2:0:0:
360,358,104060,1,2,3:3:0:0:
385,284,104247,1,0,3:3:0:0:
219,297,104435,6,0,P|184:309|143:317,1,62.9999980773926,8|0,3:2|3:3,3:0:0:0:
89,283,104810,1,2,2:3:0:0:
207,202,104997,1,0,3:2:0:0:
207,202,105091,1,0,3:3:0:0:
207,202,105185,2,0,P|243:211|276:229,2,62.9999980773926,4|0|2,1:2|0:0|2:3,0:0:0:0:
207,202,105935,2,0,P|200:158|190:116,1,62.9999980773926,8|0,3:2|0:0,3:0:0:0:
168,65,106310,1,2,2:3:0:0:
11,36,106497,2,2,P|12:75|32:186,1,125.999996154785,2|0,3:2|3:3,3:2:0:0:
80,207,107060,2,0,P|88:238|93:269,1,62.9999980773926,2|0,2:3|3:3,0:0:0:0:
314,233,107435,6,0,P|285:218|261:198,1,62.9999980773926,8|0,3:2|0:0,3:0:0:0:
185,200,107810,1,2,2:3:0:0:
387,145,107997,1,0,3:2:0:0:
387,145,108091,1,0,3:3:0:0:
387,145,108185,2,0,P|432:142|523:152,1,125.999996154785,4|0,1:2|0:0,0:0:0:0:
364,220,108747,2,2,P|409:263|432:322,1,125.999996154785,2|0,3:2|0:0,0:2:0:0:
308,158,109310,1,2,2:3:0:0:
313,111,109497,1,2,3:2:0:0:
410,17,109685,21,4,1:2:0:0:
476,64,109872,1,0,3:3:0:0:
434,186,110060,1,2,3:3:0:0:
330,115,110247,1,2,3:2:0:0:
511,163,110435,2,0,P|513:213|511:242,1,62.9999980773926,12|0,3:2|3:3,3:0:0:0:
415,123,110810,2,0,P|419:154|425:185,1,62.9999980773926,2|0,2:3|3:3,0:0:0:0:
320,302,111185,6,0,P|285:308|186:306,1,125.999996154785,4|2,1:1|2:3,0:0:0:0:
122,293,111747,1,0,3:3:0:0:
180,163,111935,2,0,P|176:208|164:249,1,62.9999980773926,8|0,3:2|0:0,3:0:0:0:
173,378,112310,1,2,2:3:0:0:
122,293,112497,1,2,3:2:0:0:
261,215,112872,5,0,3:3:0:0:
253,329,113060,1,2,2:3:0:0:
358,384,113247,1,2,3:2:0:0:
481,296,113435,2,0,P|482:255|480:215,1,62.9999980773926,12|0,3:2|0:0,3:0:0:0:
130,122,113810,2,0,P|130:178|134:202,1,62.9999980773926,10|0,2:3|3:3,1:0:0:0:
195,234,114091,1,0,3:3:0:0:
195,234,114185,6,2,P|250:228|408:223,1,188.999994232178,4|0,1:1|3:3,0:2:0:0:
512,129,114935,1,8,3:2:0:0:
505,223,115122,1,0,0:0:0:0:
484,242,115310,1,2,2:3:0:0:
399,229,115497,1,2,3:2:0:0:
316,28,115872,1,0,3:3:0:0:
240,14,116060,1,2,3:3:0:0:
212,30,116247,1,2,3:2:0:0:
90,113,116435,2,0,P|47:108|8:107,1,62.9999980773926,8|0,3:2|3:3,3:0:0:0:
62,31,116810,2,0,P|100:33|140:39,1,62.9999980773926,2|0,2:3|3:3,0:0:0:0:
171,106,117091,1,0,3:3:0:0:
171,106,117185,22,2,P|167:155|165:243,1,125.999996154785,0|2,1:1|2:3,0:2:0:0:
169,308,117747,1,0,3:3:0:0:
280,384,117935,2,0,P|273:345|260:320,1,62.9999980773926,8|0,3:2|0:0,3:0:0:0:
186,318,118310,1,2,2:3:0:0:
58,231,118497,2,0,P|56:195|40:100,1,125.999996154785,2|0,3:2|3:3,0:0:0:0:
80,41,119060,1,2,2:3:0:0:
110,26,119247,1,0,3:3:0:0:
233,151,119435,6,0,P|278:143|315:139,1,62.9999980773926,8|0,3:2|0:0,3:0:0:0:
367,83,119810,1,2,2:3:0:0:
166,97,119997,1,0,3:2:0:0:
166,97,120091,1,0,3:3:0:0:
166,97,120185,6,2,P|153:152|159:243,1,125.999996154785,0|0,1:1|0:0,3:2:0:0:
204,282,120747,1,2,3:2:0:0:
369,311,120935,2,0,P|387:277|390:246,2,62.9999980773926,8|0|2,3:2|0:0|2:3,0:0:0:0:
369,311,121497,1,0,3:3:0:0:
499,260,121872,5,0,3:3:0:0:
369,311,122060,1,2,3:3:0:0:
369,311,122247,1,0,3:3:0:0:
501,175,122435,2,0,P|509:140|512:100,1,62.9999980773926,8|0,3:2|3:3,3:0:0:0:
311,149,122810,1,2,2:3:0:0:
344,214,122997,1,2,3:2:0:0:
273,300,123185,22,2,P|212:314|133:308,2,125.999996154785,0|2|10,1:1|2:3|3:2,0:2:0:0:
435,215,124310,2,0,L|411:286,1,62.9999980773926,2|0,2:3|3:3,0:0:0:0:
205,213,124685,5,0,1:1:0:0:
135,145,124872,1,2,3:2:0:0:
167,44,125060,1,2,2:3:0:0:
203,23,125247,1,2,3:2:0:0:
363,99,125435,5,10,3:2:0:0:
263,340,125810,5,2,2:3:0:0:
365,384,125997,1,2,3:2:0:0:
512,304,126185,2,2,P|512:261|505:210,2,70,4|0|2,1:1|0:0|2:3,0:2:0:0:
478,371,126747,1,2,3:2:0:0:
424,181,126935,2,0,P|424:232|402:279,1,70,8|0,1:2|3:3,3:0:0:0:
364,305,127310,1,2,2:3:0:0:
179,272,127497,22,2,P|137:262|14:260,1,140,2|0,3:2|3:3,0:2:0:0:
40,257,128247,1,2,3:2:0:0:
221,354,128435,2,0,P|249:322|283:303,1,70,8|0,1:2|0:0,3:0:0:0:
167,159,128810,2,0,P|207:180|235:229,1,70,2|0,2:3|3:3,0:0:0:0:
227,87,129091,1,0,3:3:0:0:
208,69,129185,6,0,P|207:24|198:-16,1,70,0|0,1:1|3:3,0:0:0:0:
292,151,129560,1,2,2:3:0:0:
292,151,129747,1,0,3:3:0:0:
130,239,129935,1,8,1:2:0:0:
61,187,130122,1,2,3:2:0:0:
51,119,130310,1,2,2:3:0:0:
82,81,130497,6,2,P|142:85|250:98,1,140,2|0,3:2|3:3,0:2:0:0:
221,93,131060,2,0,P|217:138|221:184,1,70,2|0,2:3|3:3,0:0:0:0:
384,328,131435,2,0,P|397:287|424:257,1,70,8|0,1:2|0:0,3:0:0:0:
512,137,131810,2,0,P|492:199|466:220,1,70,2|0,2:3|3:3,0:0:0:0:
285,301,132185,6,2,P|247:280|203:269,1,70,0|0,1:1|3:3,0:2:0:0:
166,325,132560,1,2,2:3:0:0:
166,325,132747,1,0,3:3:0:0:
370,185,132935,2,0,P|436:171|461:156,1,70,8|0,1:2|3:3,3:0:0:0:
352,335,133310,1,2,2:3:0:0:
285,138,133497,2,0,P|290:81|312:-23,1,140,2|0,3:2|0:0,0:0:0:0:
310,4,134060,1,2,2:3:0:0:
368,260,134435,21,8,1:2:0:0:
368,260,134622,1,0,3:3:0:0:
271,311,134810,1,2,2:3:0:0:
190,343,134997,1,2,3:2:0:0:
92,222,135185,2,0,P|100:177|101:136,1,70,0|0,1:1|0:0,3:0:0:0:
150,78,135560,1,2,2:3:0:0:
189,67,135747,1,0,3:2:0:0:
332,116,135935,2,0,P|333:163|324:204,1,70,8|0,1:2|3:3,0:0:0:0:
336,260,136310,1,2,2:3:0:0:
449,320,136497,2,2,P|495:284|507:187,1,140,2|0,3:2|0:0,0:2:0:0:
468,148,137060,5,2,2:3:0:0:
207,144,137435,2,0,P|222:196|223:224,1,70,8|0,1:2|3:3,3:0:0:0:
74,294,137810,2,0,P|66:259|51:228,1,70,2|0,2:3|3:3,1:0:0:0:
75,154,138091,1,0,3:3:0:0:
75,154,138185,6,2,P|93:115|105:17,1,140,4|2,1:1|2:3,1:2:0:0:
105,19,138747,1,0,3:3:0:0:
173,135,138935,1,8,1:2:0:0:
143,230,139122,1,0,3:3:0:0:
152,267,139310,1,2,2:3:0:0:
243,310,139497,1,2,3:2:0:0:
349,245,139685,5,0,1:1:0:0:
241,193,140060,1,2,2:3:0:0:
213,318,140247,1,2,3:2:0:0:
404,384,140435,22,0,P|454:380|493:383,2,70,8|0|2,1:2|0:0|2:3,0:0:0:0:
320,377,140997,1,0,3:3:0:0:
320,377,141091,1,0,3:3:0:0:
320,377,141185,6,2,B|376:384|418:370|433:282,1,140,0|2,1:1|2:3,0:2:0:0:
415,232,141747,1,0,3:3:0:0:
490,87,141935,2,0,P|490:122|480:156,1,70,8|0,1:2|3:3,3:0:0:0:
398,233,142310,1,2,2:3:0:0:
358,226,142497,1,2,3:2:0:0:
268,163,142685,5,0,1:1:0:0:
268,163,143060,1,2,2:3:0:0:
419,0,143435,2,0,P|400:41|395:92,1,70,8|0,1:2|0:0,3:0:0:0:
344,220,143810,2,0,P|391:210|431:200,1,70,2|0,2:3|3:3,1:0:0:0:
188,221,144185,6,0,P|137:205|95:197,1,70,4|0,1:2|3:3,0:0:0:0:
182,76,144560,1,2,2:3:0:0:
230,152,144747,1,2,3:2:0:0:
135,305,144935,2,0,P|137:366|139:390,2,70,8|0|2,1:2|3:3|2:3,0:0:0:0:
46,141,145497,2,0,P|37:80|1:-8,1,140,2|0,3:2|0:0,0:0:0:0:
9,6,146060,1,2,2:3:0:0:
103,52,146247,1,0,3:3:0:0:
268,23,146435,22,0,P|220:13|189:12,1,70,8|0,1:2|3:3,3:0:0:0:
92,72,146810,1,2,2:3:0:0:
154,197,146997,1,2,3:2:0:0:
344,138,147185,2,0,P|353:94|354:-7,1,140,0|2,1:1|2:3,3:0:0:0:
406,248,147747,2,2,P|431:177|487:114,1,140,2|0,3:2|3:3,0:2:0:0:
471,127,148310,1,2,2:3:0:0:
512,202,148497,1,2,3:2:0:0:
450,331,148872,1,2,0:2:0:0:
403,234,149060,1,2,2:3:0:0:
333,208,149247,1,0,3:3:0:0:
236,335,149435,5,8,1:2:0:0:
226,182,149622,1,2,3:2:0:0:
389,160,149810,1,2,2:3:0:0:
431,334,149997,1,0,3:3:0:0:
431,334,150091,1,0,3:3:0:0:
431,334,150185,6,2,P|365:346|223:353,1,210,4|0,1:1|3:3,0:2:0:0:
53,301,150935,1,8,1:2:0:0:
181,255,151122,1,0,3:3:0:0:
183,172,151310,2,0,P|180:135|166:82,1,70,2|0,2:3|3:3,0:0:0:0:
332,233,151685,2,0,P|298:239|264:247,1,70,0|0,1:1|3:3,3:0:0:0:
136,315,152060,2,0,P|142:364|139:402,1,70,2|0,2:3|3:3,0:0:0:0:
180,253,152435,1,8,1:2:0:0:
341,377,152810,1,2,2:3:0:0:
180,253,153185,6,0,P|150:233|102:218,1,70,0|0,1:1|0:0,0:0:0:0:
216,104,153560,1,2,2:3:0:0:
227,150,153747,1,0,3:3:0:0:
336,215,153935,2,0,P|374:216|409:210,1,70,8|0,1:2|3:3,3:0:0:0:
487,165,154310,1,2,2:3:0:0:
495,67,154497,1,2,3:2:0:0:
310,92,154872,1,2,3:2:0:0:
360,192,155060,1,2,2:3:0:0:
360,192,155247,1,0,3:3:0:0:
443,339,155435,22,0,P|488:343|527:347,1,70,8|0,1:2|0:0,3:0:0:0:
512,345,155810,1,2,2:3:0:0:
298,311,155997,1,0,3:3:0:0:
298,311,156091,1,0,3:3:0:0:
298,311,156185,6,2,P|239:297|211:293,2,70,0|0|2,1:1|3:3|2:3,0:2:0:0:
511,242,156747,2,0,P|477:251|445:263,1,70,2|8,3:2|1:2,0:0:0:0:
388,341,157122,2,0,P|426:370|449:391,1,70,0|2,3:3|2:3,0:0:0:0:
296,227,157497,2,2,P|249:204|140:185,1,140,2|0,3:2|0:0,0:2:0:0:
108,133,158060,2,0,L|95:50,1,70,2|0,2:3|3:3,0:0:0:0:
259,0,158435,5,8,1:2:0:0:
258,77,158622,1,0,3:3:0:0:
234,182,158810,2,0,P|242:226|247:273,1,70,2|0,2:3|3:3,0:0:0:0:
135,369,159185,2,2,P|82:371|-2:344,1,140,0|2,1:1|2:3,0:2:0:0:
132,259,159747,2,0,P|78:278|51:296,1,70,2|8,3:2|1:2,0:0:0:0:
212,359,160122,2,0,P|266:345|297:332,1,70,0|2,3:3|2:3,0:0:0:0:
334,286,160497,1,2,3:2:0:0:
224,141,160872,1,0,0:0:0:0:
223,101,161060,1,2,2:3:0:0:
268,13,161247,1,2,3:2:0:0:
378,105,161435,2,0,P|376:150|371:178,1,70,8|0,1:2|3:3,3:0:0:0:
75,118,161810,2,0,P|76:77|82:39,1,70,10|0,2:3|3:3,1:0:0:0:
146,5,162091,1,0,3:3:0:0:
146,5,162185,6,2,B|224:27|187:49|298:77,1,140,4|2,1:1|2:3,0:2:0:0:
269,68,162935,1,8,1:2:0:0:
364,19,163122,1,0,3:3:0:0:
357,149,163310,1,2,2:3:0:0:
391,231,163497,1,0,3:3:0:0:
391,231,163591,1,0,3:0:0:0:
391,231,163685,22,0,P|445:237|486:245,1,70,0|0,1:1|0:0,3:0:0:0:
512,165,164060,2,0,P|472:158|425:148,1,70,2|0,2:3|3:3,0:0:0:0:
218,236,164435,2,0,P|208:274|202:308,1,70,8|0,1:2|3:3,3:0:0:0:
230,379,164810,1,2,2:3:0:0:
230,379,164997,1,0,3:3:0:0:
363,345,165185,5,0,1:1:0:0:
127,360,165560,1,2,2:3:0:0:
71,300,165747,2,2,P|71:244|87:134,1,140,2|0,3:2|3:3,0:2:0:0:
130,106,166310,1,2,2:3:0:0:
114,26,166497,1,2,3:2:0:0:
242,4,166685,2,0,P|235:49|231:96,1,70,0|0,1:1|0:0,3:0:0:0:
290,167,167060,2,0,P|296:122|301:78,1,70,2|0,2:3|3:3,0:0:0:0:
220,0,167435,5,8,1:2:0:0:
134,93,167622,1,2,3:2:0:0:
31,154,167810,1,2,2:3:0:0:
3,159,167997,1,2,3:2:0:0:
50,367,168185,5,4,1:1:0:0:
3,244,174185,22,2,B|12:309|109:383|214:323,1,231.000007049561,4|0,1:1|3:3,0:0:0:0:
333,219,174935,2,0,P|322:276|318:320,1,77.0000023498536,8|0,1:2|0:0,3:0:0:0:
357,363,175310,1,2,3:3:0:0:
306,287,175497,1,2,3:2:0:0:
438,367,175685,6,0,P|481:382|530:381,1,77.0000023498536,0|0,1:1|0:0,1:0:0:0:
373,247,176060,2,0,P|409:223|458:211,1,77.0000023498536,2|0,3:3|3:3,0:0:0:0:
216,316,176435,1,10,1:1:0:0:
132,268,176622,1,2,0:2:0:0:
82,137,176810,2,0,P|84:186|77:231,1,77.0000023498536,2|0,3:3|3:3,0:0:0:0:
44,278,177091,1,0,3:3:0:0:
44,278,177185,6,2,B|93:314|146:311|201:249,2,154.000004699707,2|2|8,1:1|3:3|1:2,0:0:0:0:
44,278,178122,1,2,3:2:0:0:
155,251,178310,1,2,3:3:0:0:
228,284,178497,1,2,3:2:0:0:
360,232,178685,6,0,P|364:193|363:145,1,77.0000023498536,2|0,1:1|0:0,1:0:0:0:
329,90,179060,1,2,3:3:0:0:
329,90,179247,1,0,0:0:0:0:
436,193,179435,2,0,P|483:185|525:181,1,77.0000023498536,10|0,1:1|3:3,1:0:0:0:
429,109,179810,1,2,3:3:0:0:
229,193,179997,1,0,3:3:0:0:
229,193,180091,1,0,3:3:0:0:
229,193,180185,22,2,P|160:198|-10:179,1,231.000007049561,0|0,1:1|3:3,0:0:0:0:
139,78,180935,2,0,P|88:115|56:125,1,77.0000023498536,8|0,1:2|0:0,3:0:0:0:
91,206,181310,1,2,3:3:0:0:
239,176,181497,2,2,P|300:175|407:179,1,154.000004699707,0|0,3:1|0:0,0:0:0:0:
449,127,182060,1,2,3:3:0:0:
512,199,182247,1,2,3:2:0:0:
369,324,182435,5,8,1:2:0:0:
315,256,182622,1,0,0:0:0:0:
286,168,182810,2,0,P|293:116|287:66,1,77.0000023498536,2|0,3:3|3:3,0:0:0:0:
319,21,183091,1,0,3:3:0:0:
319,21,183185,6,2,P|270:17|164:25,1,154.000004699707,0|2,1:1|3:3,0:2:0:0:
193,363,183935,2,2,P|242:367|348:359,1,154.000004699707,8|2,1:2|3:3,0:2:0:0:
346,359,184685,5,2,1:1:0:0:
296,260,184872,1,0,0:2:0:0:
197,244,185060,1,2,3:3:0:0:
178,276,185247,1,2,0:2:0:0:
66,335,185435,21,10,1:1:0:0:
0,235,185622,1,0,3:2:0:0:
53,133,185810,1,2,3:3:0:0:
164,182,185997,1,2,3:2:0:0:
164,182,186091,1,0,3:3:0:0:
164,182,186185,6,2,P|167:246|158:353,1,154.000004699707,4|2,1:1|3:3,0:0:0:0:
160,335,186747,1,0,3:3:0:0:
243,180,186935,2,0,P|242:127|236:86,1,77.0000023498536,8|0,1:2|0:0,3:0:0:0:
201,43,187310,1,2,3:3:0:0:
112,23,187497,1,2,3:2:0:0:
25,137,187685,6,0,P|67:150|118:155,1,77.0000023498536,0|0,1:1|0:0,1:0:0:0:
208,106,188060,2,0,P|215:57|214:20,1,77.0000023498536,2|0,3:3|3:3,0:0:0:0:
388,153,188435,2,0,P|332:159|300:155,1,77.0000023498536,10|0,1:1|0:0,1:0:0:0:
194,113,188810,2,0,P|185:160|189:214,1,77.0000023498536,2|0,3:3|3:3,0:0:0:0:
243,259,189091,1,0,3:3:0:0:
243,259,189185,6,2,P|296:271|414:283,2,154.000004699707,2|2|8,1:1|3:3|1:2,0:0:0:0:
164,268,190122,1,2,3:2:0:0:
89,332,190310,1,2,3:3:0:0:
89,332,190685,21,2,1:1:0:0:
164,268,190872,1,2,0:2:0:0:
132,198,191060,2,0,P|132:153|125:106,1,77.0000023498536,2|0,3:3|0:0,0:0:0:0:
224,16,191435,1,10,1:1:0:0:
294,54,191622,1,2,3:2:0:0:
311,141,191810,1,2,3:3:0:0:
437,219,191997,1,2,3:2:0:0:
437,219,192091,1,0,3:3:0:0:
437,219,192185,6,2,B|469:183|487:122|460:53,1,154.000004699707,0|2,1:1|3:3,0:0:0:0:
224,16,192935,1,8,1:2:0:0:
182,86,193122,1,0,0:0:0:0:
111,120,193310,2,0,P|65:126|17:119,1,77.0000023498536,2|0,3:3|3:3,0:0:0:0:
104,243,193685,6,0,P|147:241|189:232,1,77.0000023498536,0|0,1:1|0:0,0:0:0:0:
263,261,194060,2,0,P|266:223|271:185,1,77.0000023498536,2|0,3:3|3:3,0:0:0:0:
393,97,194435,2,0,P|384:166|378:190,1,77.0000023498536,8|0,1:2|0:0,3:0:0:0:
436,228,194810,2,0,P|478:233|522:241,1,77.0000023498536,2|0,3:3|3:3,0:0:0:0:
511,337,195091,1,0,3:3:0:0:
511,337,195185,6,2,P|451:329|357:305,2,154.000004699707,0|2|8,1:1|3:3|1:2,0:2:0:0:
511,337,196310,1,2,3:3:0:0:
443,294,196497,1,0,3:3:0:0:
315,374,196685,21,2,1:1:0:0:
315,374,196872,1,2,0:2:0:0:
206,346,197060,1,2,3:3:0:0:
164,282,197247,1,0,0:0:0:0:
189,110,197435,5,10,1:1:0:0:
512,0,197810,1,2,3:3:0:0:
460,95,197997,1,2,3:2:0:0:
385,130,198185,6,2,B|243:117|285:152|127:144,1,231.000007049561,4|0,1:1|3:3,0:0:0:0:
28,54,198935,2,0,P|47:102|54:148,1,77.0000023498536,8|0,1:2|0:0,3:0:0:0:
66,208,199310,1,2,3:3:0:0:
66,208,199497,1,0,3:3:0:0:
189,59,199685,6,0,P|136:73|108:92,1,77.0000023498536,0|0,1:1|0:0,0:0:0:0:
142,177,200060,2,0,P|190:193|224:230,1,77.0000023498536,2|0,3:3|3:3,0:0:0:0:
212,370,200435,1,10,1:1:0:0:
100,384,200622,1,2,0:2:0:0:
31,355,200810,2,0,P|31:311|38:249,1,77.0000023498536,2|0,3:3|3:3,0:0:0:0:
304,232,201185,22,2,P|313:280|318:398,2,154.000004699707,2|2|10,1:1|3:3|1:2,0:0:0:0:
304,232,202310,1,2,3:3:0:0:
252,159,202497,1,2,3:2:0:0:
344,59,202685,5,2,1:1:0:0:
413,127,202872,1,0,0:0:0:0:
436,207,203060,2,0,P|398:215|347:220,1,77.0000023498536,2|0,3:3|0:0,0:0:0:0:
158,269,203435,2,0,P|213:282|260:303,1,77.0000023498536,10|0,1:1|3:3,1:0:0:0:
300,359,203810,2,0,P|347:348|391:326,1,77.0000023498536,2|0,3:3|3:3,0:0:0:0:
457,327,204091,1,0,3:3:0:0:
457,327,204185,6,2,P|480:278|497:155,1,154.000004699707,2|2,1:1|3:3,0:0:0:0:
453,123,204747,1,2,3:2:0:0:
343,0,204935,2,0,P|351:57|350:102,1,77.0000023498536,8|0,1:2|0:0,0:0:0:0:
345,152,205310,1,2,3:3:0:0:
256,197,205497,1,2,3:2:0:0:
93,190,205685,6,0,P|46:196|3:208,1,77.0000023498536,2|0,1:1|0:0,3:0:0:0:
49,82,206060,2,0,P|91:96|136:126,1,77.0000023498536,2|0,3:3|3:3,0:0:0:0:
175,286,206435,1,8,1:2:0:0:
236,19,206810,1,2,3:3:0:0:
315,5,206997,1,0,3:3:0:0:
315,5,207091,1,0,3:3:0:0:
315,5,207185,22,2,P|387:-6|494:0,1,154.000004699707,0|2,1:1|3:3,0:2:0:0:
148,371,207935,2,2,P|91:350|-19:332,1,154.000004699707,8|2,1:2|3:3,0:2:0:0:
256,191,208685,5,2,1:1:0:0:
292,270,208872,1,0,0:0:0:0:
378,280,209060,1,2,3:3:0:0:
411,272,209247,1,2,0:2:0:0:
456,203,209435,5,10,1:1:0:0:
473,356,209622,1,0,3:3:0:0:
328,376,209810,1,2,3:3:0:0:
256,323,209997,1,2,3:2:0:0:
203,141,210185,6,2,P|202:101|209:14,1,115.50000352478,4|0,1:1|0:0,0:2:0:0:
207,25,210935,2,0,P|246:32|253:32,1,38.5000011749268,2|0,0:0|0:0,0:0:0:0:
306,183,211497,2,0,L|301:232,2,38.5000011749268,0|2|0,3:0|0:0|0:0,0:0:0:0:
189,324,212247,2,0,L|151:315,2,38.5000011749268,0|2|0,3:0|0:0|0:0,0:0:0:0:
259,384,212810,2,2,L|314:373,1,38.5000011749268,2|0,0:0|0:0,0:0:0:0:
359,333,213185,21,0,3:0:0:0:
215,66,215435,1,0,0:0:0:0:
270,0,216185,1,2,0:0:0:0:
257,382,218810,1,2,0:0:0:0:
257,382,219185,1,0,0:0:0:0:
256,192,220685,12,6,222185,1:0:0:0:
448,177,222372,5,0,3:3:0:0:
357,199,222560,1,2,3:3:0:0:
332,99,222747,1,2,3:2:0:0:
202,92,222935,2,2,P|193:144|192:268,1,154.000004699707,12|2,1:2|3:3,0:2:0:0:
190,245,223497,1,2,3:2:0:0:
96,317,223685,6,0,L|3:340,1,77.0000023498536,2|0,1:1|3:3,1:0:0:0:
108,210,224060,2,0,L|13:182,1,77.0000023498536,2|0,3:3|3:3,0:0:0:0:
236,58,224435,1,14,1:2:0:0:
225,143,224622,1,2,3:2:0:0:
274,215,224810,2,0,L|292:312,1,77.0000023498536,2|0,3:3|3:3,1:0:0:0:
375,357,225091,1,0,3:3:0:0:
375,357,225185,6,2,P|440:360|533:336,1,154.000004699707,6|2,1:1|3:3,0:0:0:0:
512,323,225747,1,2,3:2:0:0:
452,142,225935,2,0,P|443:183|416:232,1,77.0000023498536,10|0,1:2|0:0,3:0:0:0:
350,224,226310,2,0,P|307:212|259:208,1,77.0000023498536,2|0,3:3|3:3,0:0:0:0:
65,256,226685,21,2,1:1:0:0:
65,256,227060,1,2,3:3:0:0:
162,234,227247,1,2,3:2:0:0:
301,202,227435,2,0,P|311:145|311:107,1,77.0000023498536,12|0,1:2|0:0,3:0:0:0:
233,6,227810,2,0,P|233:52|224:92,1,77.0000023498536,2|0,3:3|3:3,0:0:0:0:
153,111,228091,1,0,3:3:0:0:
153,111,228185,6,2,P|81:111|-14:95,1,154.000004699707,6|2,1:1|3:3,0:0:0:0:
0,108,228747,1,2,3:2:0:0:
161,98,228935,2,2,P|224:91|328:102,1,154.000004699707,10|2,1:2|3:3,0:2:0:0:
399,125,229497,1,2,3:1:0:0:
302,63,229685,6,0,P|292:111|277:149,1,77.0000023498536,2|0,1:1|0:0,1:0:0:0:
236,254,230060,1,2,3:3:0:0:
317,243,230247,1,0,3:3:0:0:
331,322,230435,1,8,1:2:0:0:
250,336,230810,1,2,3:1:0:0:
366,247,230997,1,0,3:3:0:0:
366,247,231091,1,0,3:3:0:0:
366,247,231185,5,6,1:1:0:0:
345,345,231372,1,2,3:2:0:0:
447,367,231560,1,2,3:3:0:0:
466,270,231747,1,2,3:2:0:0:
284,288,231935,2,0,P|236:308|187:317,2,77.0000023498536,8|0|2,1:2|3:3|3:3,0:0:0:0:
305,211,232497,1,2,3:2:0:0:
204,62,232685,21,0,1:2:0:0:
204,62,233060,5,6,3:1:0:0:
270,16,233247,1,2,3:2:0:0:
394,27,233435,1,10,1:1:0:0:
436,102,233622,1,2,3:2:0:0:
417,223,233810,1,4,3:2:0:0:
291,253,233997,1,2,3:2:0:0:
146,220,234185,6,2,B|114:156|120:59|165:0,1,231.000007049561,4|0,1:1|3:3,0:0:0:0:
22,75,234935,2,0,L|46:164,1,77.0000023498536,8|0,1:2|0:0,3:0:0:0:
116,178,235310,2,0,P|106:232|73:270,1,77.0000023498536,2|0,3:3|3:3,0:0:0:0:
162,376,235685,6,0,L|209:272,1,77.0000023498536,2|0,1:0|3:3,1:0:0:0:
261,261,236060,1,2,3:3:0:0:
261,261,236247,1,0,3:3:0:0:
110,282,236435,2,0,P|72:262|15:246,1,77.0000023498536,8|0,1:2|3:3,0:0:0:0:
0,192,236810,1,2,3:3:0:0:
163,125,236997,1,0,3:3:0:0:
163,125,237091,1,0,3:3:0:0:
163,125,237185,22,2,B|234:111|321:160|356:273,1,231.000007049561,6|0,1:1|3:3,0:0:0:0:
494,384,237935,2,0,P|439:367|398:358,1,77.0000023498536,8|0,1:2|3:3,3:0:0:0:
333,341,238310,1,2,3:3:0:0:
282,289,238497,1,2,3:2:0:0:
495,198,238685,6,0,P|512:246|506:294,1,77.0000023498536,2|0,1:1|0:0,1:0:0:0:
431,335,239060,2,0,L|410:246,1,77.0000023498536,2|0,3:3|3:3,0:0:0:0:
449,103,239435,1,12,1:2:0:0:
387,35,239622,1,2,3:2:0:0:
292,19,239810,1,6,3:3:0:0:
168,95,239997,1,0,3:3:0:0:
168,95,240091,1,0,3:3:0:0:
168,95,240185,5,6,1:1:0:0:
168,95,240560,1,2,3:3:0:0:
90,153,240747,1,2,3:2:0:0:
80,62,240935,1,8,1:2:0:0:
306,209,241310,1,2,3:1:0:0:
384,267,241497,1,2,3:2:0:0:
393,170,241685,5,6,1:1:0:0:
114,151,242060,1,2,3:3:0:0:
23,374,242435,1,12,1:2:0:0:
114,151,242810,1,2,3:3:0:0:
68,89,242997,1,0,3:3:0:0:
68,89,243091,1,0,3:3:0:0:
68,89,243185,22,0,P|68:46|72:3,1,77.0000023498536,2|0,1:1|3:3,1:0:0:0:
180,39,243560,2,0,P|226:54|259:85,1,77.0000023498536,2|0,3:3|3:3,0:0:0:0:
337,230,243935,1,8,1:2:0:0:
337,230,244310,1,2,3:3:0:0:
194,290,244497,1,2,3:2:0:0:
337,230,244685,6,0,P|379:217|431:206,1,77.0000023498536,4|0,1:2|3:3,1:0:0:0:
367,325,245060,1,2,3:3:0:0:
263,234,245247,1,2,3:2:0:0:
114,343,245435,1,10,1:1:0:0:
190,372,245622,1,2,3:2:0:0:
223,295,245810,1,6,3:2:0:0:
204,257,245997,1,2,3:2:0:0:
172,34,246185,5,6,1:1:0:0:
166,88,252185,6,0,P|174:122|183:169,1,62.9999980773926,4|0,1:1|3:3,0:0:0:0:
0,194,252747,1,2,3:2:0:0:
140,169,252935,2,0,P|195:166|217:168,1,62.9999980773926,8|0,3:2|0:0,3:0:0:0:
264,212,253310,1,2,2:3:0:0:
208,326,253497,2,2,P|165:329|70:345,1,125.999996154785,2|0,3:2|3:3,0:2:0:0:
10,315,254060,1,2,3:3:0:0:
10,315,254247,1,0,3:3:0:0:
221,354,254435,21,12,3:2:0:0:
363,267,254810,1,2,2:3:0:0:
432,322,254997,1,0,3:3:0:0:
432,322,255091,1,0,3:3:0:0:
432,322,255185,6,0,P|427:364|423:401,1,62.9999980773926,4|0,1:1|0:0,0:0:0:0:
498,191,255747,1,2,3:2:0:0:
412,357,255935,2,0,P|369:345|340:341,1,62.9999980773926,8|0,3:2|0:0,3:0:0:0:
282,306,256310,1,2,2:3:0:0:
263,272,256497,1,2,3:2:0:0:
327,163,256685,6,0,L|346:81,1,62.9999980773926,0|0,1:1|3:3,0:0:0:0:
214,173,257060,2,0,L|194:98,1,62.9999980773926,2|0,2:3|3:3,0:0:0:0:
256,0,257435,1,8,3:2:0:0:
256,0,257810,1,2,2:3:0:0:
346,24,257997,1,0,3:3:0:0:
346,24,258091,1,0,3:3:0:0:
346,24,258185,6,2,B|404:35|462:70|508:120,1,188.999994232178,4|0,1:1|3:3,0:2:0:0:
348,146,258935,2,0,P|402:138|431:139,1,62.9999980773926,8|0,3:2|0:0,0:0:0:0:
485,48,259310,1,2,2:3:0:0:
456,20,259497,1,2,3:2:0:0:
339,233,259872,1,2,3:2:0:0:
297,245,260060,2,0,P|253:237|212:233,1,62.9999980773926,2|0,3:3|3:3,0:0:0:0:
75,327,260435,2,0,P|92:360|132:389,1,62.9999980773926,8|0,3:2|3:3,3:0:0:0:
184,375,260810,1,2,2:3:0:0:
156,283,260997,1,0,3:3:0:0:
156,283,261091,1,0,3:3:0:0:
156,283,261185,22,2,B|138:220|149:144|183:88,1,188.999994232178,4|0,1:2|3:3,0:2:0:0:
258,0,261935,2,0,L|277:60,1,62.9999980773926,8|0,3:2|0:0,0:0:0:0:
265,139,262310,1,2,2:3:0:0:
235,164,262497,1,2,3:2:0:0:
0,91,262872,1,2,3:2:0:0:
37,25,263060,5,2,3:3:0:0:
82,17,263247,1,2,3:2:0:0:
142,66,263435,1,10,3:1:0:0:
146,144,263622,1,0,0:0:0:0:
212,265,263810,1,12,2:2:0:0:
310,320,263997,1,2,3:2:0:0:
424,300,264185,6,0,P|438:256|442:221,1,62.9999980773926,4|0,1:1|3:3,0:0:0:0:
512,109,264747,1,2,3:2:0:0:
428,219,264935,2,0,P|393:247|358:268,1,62.9999980773926,8|0,3:2|0:0,3:0:0:0:
309,245,265310,1,2,2:3:0:0:
282,220,265497,1,2,3:2:0:0:
183,0,265872,5,2,3:2:0:0:
232,53,266060,2,0,P|256:65|301:74,1,62.9999980773926,2|0,3:3|3:3,0:0:0:0:
512,0,266435,2,0,P|481:24|462:61,1,62.9999980773926,12|0,3:2|3:3,3:0:0:0:
462,119,266810,1,2,2:3:0:0:
419,276,266997,1,0,3:3:0:0:
419,276,267091,1,0,3:3:0:0:
419,276,267185,22,2,B|341:300|283:264|263:175,1,188.999994232178,4|0,1:1|3:3,0:2:0:0:
123,59,267935,2,0,L|158:141,1,62.9999980773926,8|0,3:2|0:0,3:0:0:0:
189,182,268310,1,2,2:3:0:0:
129,256,268497,2,0,P|88:257|-5:237,1,125.999996154785,0|0,3:3|3:3,0:0:0:0:
4,240,269060,1,2,2:3:0:0:
4,240,269435,2,0,P|42:227|78:220,1,62.9999980773926,8|0,3:2|0:0,3:0:0:0:
141,239,269810,1,2,2:3:0:0:
284,350,269997,1,0,3:3:0:0:
284,350,270091,1,0,3:3:0:0:
284,350,270185,6,0,P|334:358|436:368,1,125.999996154785,4|0,1:1|0:0,0:0:0:0:
194,309,270747,2,2,P|240:285|319:222,1,125.999996154785,2|0,3:2|0:0,0:2:0:0:
335,173,271310,1,2,2:3:0:0:
324,97,271497,1,2,3:2:0:0:
293,5,271685,5,0,1:1:0:0:
231,67,271872,1,0,3:3:0:0:
218,97,272060,1,2,3:3:0:0:
259,165,272247,1,2,3:2:0:0:
287,322,272435,2,0,P|299:367|303:395,1,62.9999980773926,8|0,3:2|3:3,3:0:0:0:
382,270,272810,2,0,P|395:313|398:340,1,62.9999980773926,2|0,2:3|3:3,0:0:0:0:
467,370,273091,1,0,3:3:0:0:
467,370,273185,5,4,1:2:0:0:
278,251,273560,1,2,2:3:0:0:
196,227,273747,1,2,3:2:0:0:
104,322,273935,2,0,P|97:372|102:406,2,62.9999980773926,8|0|2,3:2|0:0|2:3,0:0:0:0:
73,241,274497,2,2,P|76:187|68:90,1,125.999996154785,2|0,3:2|3:3,0:2:0:0:
32,52,275060,1,2,2:3:0:0:
39,31,275247,1,0,3:3:0:0:
206,33,275435,22,2,B|253:78|253:78|334:54,1,125.999996154785,10|2,3:2|2:3,0:0:0:0:
512,344,276185,6,2,P|456:333|411:324,2,70,4|0|2,1:1|0:0|2:3,0:0:0:0:
359,367,276747,1,2,3:2:0:0:
451,242,276935,2,0,P|464:193|466:153,1,70,8|0,1:2|3:3,3:0:0:0:
510,111,277310,1,2,2:3:0:0:
368,291,277497,2,2,P|349:243|355:142,1,140,2|2,3:2|3:2,0:2:0:0:
350,155,278060,2,0,P|329:125|297:109,1,70,2|0,2:3|3:3,0:0:0:0:
69,117,278435,6,0,P|34:124|0:132,1,70,8|0,1:2|0:0,3:0:0:0:
94,275,278810,2,0,P|83:235|80:197,1,70,2|0,2:3|3:3,0:0:0:0:
154,137,279091,1,0,3:3:0:0:
154,137,279185,6,0,P|164:188|166:218,1,70,4|0,1:2|3:3,0:0:0:0:
207,296,279560,1,2,2:3:0:0:
166,206,279747,1,0,3:2:0:0:
214,66,279935,1,8,1:2:0:0:
138,34,280122,2,2,P|88:40|-6:30,2,140,2|0|2,3:2|3:3|3:2,0:0:0:0:
214,66,281060,1,2,2:3:0:0:
337,284,281435,21,8,1:2:0:0:
394,228,281622,1,0,0:0:0:0:
458,161,281810,1,2,2:3:0:0:
389,12,281997,1,0,3:3:0:0:
389,12,282091,1,0,3:3:0:0:
389,12,282185,6,2,B|304:24|340:40|233:60,1,140,4|2,1:1|2:3,0:0:0:0:
206,114,282747,1,0,3:3:0:0:
105,253,282935,2,0,P|100:298|89:342,1,70,8|0,1:2|3:3,3:0:0:0:
135,384,283310,1,2,2:3:0:0:
134,246,283497,2,0,P|117:200|34:134,1,140,2|0,3:2|0:0,0:0:0:0:
212,244,284060,2,0,P|218:293|230:328,1,70,2|0,2:3|3:3,0:0:0:0:
418,373,284435,5,8,1:2:0:0:
412,291,284622,1,0,3:3:0:0:
460,150,284810,1,2,2:3:0:0:
400,213,284997,1,2,3:2:0:0:
209,276,285185,6,2,P|166:279|48:273,1,140,4|2,1:2|2:3,0:0:0:0:
69,275,285747,1,0,3:3:0:0:
0,83,285935,2,0,P|6:127|11:160,1,70,8|0,1:2|3:3,3:0:0:0:
70,197,286310,1,2,2:3:0:0:
181,14,286497,2,0,P|196:83|198:153,1,140,2|0,3:2|0:0,0:0:0:0:
166,280,287060,1,2,2:3:0:0:
84,188,287247,1,0,3:3:0:0:
350,171,287435,22,0,P|357:227|355:261,1,70,8|0,1:2|3:3,3:0:0:0:
422,364,287810,2,0,P|421:314|425:283,1,70,2|0,2:3|3:3,1:0:0:0:
509,214,288091,1,0,3:3:0:0:
509,214,288185,6,2,P|438:201|340:199,2,140,4|2|8,1:1|2:3|1:2,0:0:0:0:
509,214,289310,1,2,2:3:0:0:
509,214,289497,1,0,3:3:0:0:
491,126,289685,6,0,P|469:81|433:55,1,70,0|0,1:1|3:3,0:0:0:0:
369,142,290060,2,0,P|357:184|336:221,1,70,2|0,2:3|3:3,0:0:0:0:
107,271,290435,2,0,P|70:250|36:246,2,70,8|0|2,1:2|0:0|2:3,0:0:0:0:
188,367,290997,1,0,3:3:0:0:
188,367,291091,1,0,3:3:0:0:
188,367,291185,6,0,P|227:374|274:370,1,70,4|0,1:2|3:3,1:0:0:0:
334,308,291560,2,0,P|319:267|296:245,1,70,2|0,2:3|3:3,0:0:0:0:
123,140,291935,1,8,1:2:0:0:
199,240,292122,1,2,3:2:0:0:
468,246,292497,21,2,3:2:0:0:
342,313,292872,1,2,3:2:0:0:
342,313,293060,2,0,P|300:309|260:308,1,70,2|0,2:3|3:3,0:0:0:0:
32,260,293435,2,0,P|33:220|42:189,1,70,12|0,1:2|0:0,3:0:0:0:
188,82,293810,2,0,P|193:117|192:152,1,70,2|0,2:3|3:3,0:0:0:0:
257,205,294091,1,0,3:3:0:0:
257,205,294185,6,2,P|321:210|406:224,1,140,4|2,1:1|2:3,0:0:0:0:
390,144,294747,1,2,3:2:0:0:
224,136,294935,2,0,P|181:132|144:124,1,70,8|0,1:2|3:3,3:0:0:0:
96,82,295310,1,2,2:3:0:0:
254,49,295497,2,0,P|186:17|102:-4,1,140,2|0,3:2|0:0,0:0:0:0:
123,0,296060,1,2,2:3:0:0:
369,158,296435,2,0,P|400:193|426:218,1,70,8|0,1:2|3:3,0:0:0:0:
482,252,296810,1,2,2:3:0:0:
512,53,296997,1,0,3:3:0:0:
512,53,297091,1,0,3:3:0:0:
512,53,297185,6,2,P|466:44|343:38,1,140,4|2,1:2|2:3,0:0:0:0:
261,211,297747,2,0,P|301:187|336:175,1,70,2|8,3:2|1:2,0:0:0:0:
124,252,298122,2,0,P|78:252|30:264,1,70,0|2,3:3|2:3,0:0:0:0:
4,202,298497,2,2,P|-6:141|4:48,1,140,2|0,3:2|0:0,0:2:0:0:
0,63,299060,1,2,2:3:0:0:
512,74,299435,5,12,1:2:0:0:
413,37,299622,1,2,3:2:0:0:
277,133,299810,1,2,2:3:0:0:
286,309,299997,1,0,3:2:0:0:
286,309,300091,1,0,3:3:0:0:
286,309,300185,22,2,B|310:351|353:366|434:359,1,140,4|2,1:1|2:3,1:0:0:0:
501,261,300747,2,2,P|514:203|512:121,1,140,2|0,3:2|3:3,0:2:0:0:
454,73,301310,1,2,2:3:0:0:
429,67,301497,1,0,3:3:0:0:
287,162,301685,6,0,P|285:215|278:257,1,70,0|0,1:1|3:3,0:0:0:0:
220,262,302060,1,2,2:3:0:0:
141,254,302247,1,2,3:2:0:0:
0,154,302435,2,0,P|51:152|89:159,1,70,12|0,1:2|3:3,3:0:0:0:
148,123,302810,2,0,P|183:83|184:41,1,70,2|0,2:3|3:3,0:0:0:0:
133,0,303091,1,0,3:0:0:0:
133,0,303185,5,4,1:1:0:0:
133,0,303560,1,2,2:3:0:0:
199,75,303747,1,0,3:3:0:0:
394,124,303935,2,0,P|429:120|464:116,1,70,8|0,1:2|3:3,3:0:0:0:
346,195,304310,1,2,2:3:0:0:
270,214,304497,1,2,3:2:0:0:
200,105,304685,6,2,B|158:57|50:43|-23:85,1,210,0|0,1:1|3:3,0:2:0:0:
153,206,305435,2,0,P|130:168|100:145,1,70,8|0,1:2|0:0,3:0:0:0:
78,69,305810,2,0,P|87:28|86:-12,1,70,2|0,2:3|3:3,0:0:0:0:
294,11,306185,21,4,1:1:0:0:
294,11,306560,1,2,2:3:0:0:
343,195,306747,2,0,P|356:149|364:101,1,70,2|8,3:2|1:2,0:0:0:0:
429,219,307122,2,0,P|432:268|429:299,1,70,0|2,3:3|2:3,0:0:0:0:
284,319,307497,2,2,P|327:346|439:392,1,140,2|0,3:2|0:0,0:2:0:0:
492,368,308060,1,2,2:3:0:0:
489,345,308247,1,2,3:2:0:0:
512,150,308435,6,0,P|472:147|440:148,1,70,8|0,1:2|3:3,3:0:0:0:
365,205,308810,2,0,P|338:237|303:253,1,70,2|0,2:3|3:3,0:0:0:0:
63,332,309185,2,2,P|98:301|199:281,1,140,4|2,1:2|2:3,0:0:0:0:
259,330,309747,1,0,3:3:0:0:
401,210,309935,5,8,1:2:0:0:
221,169,310122,1,2,3:2:0:0:
323,294,310310,1,2,2:3:0:0:
313,141,310497,1,2,3:2:0:0:
367,41,310685,5,4,1:2:0:0:
15,131,311060,1,6,2:3:0:0:
367,41,311435,2,0,P|333:32|298:30,1,70,12|0,1:2|3:3,3:0:0:0:
161,17,311810,2,0,P|192:33|226:44,1,70,2|0,2:3|3:3,1:0:0:0:
469,18,312185,22,2,B|518:66|495:201|421:218,1,210,4|0,1:1|3:3,0:0:0:0:
273,238,312935,1,8,1:2:0:0:
224,171,313122,1,2,3:2:0:0:
208,47,313497,1,2,3:2:0:0:
119,216,313685,5,0,1:1:0:0:
167,288,313872,1,0,0:0:0:0:
251,286,314060,1,2,2:3:0:0:
282,352,314247,1,2,3:2:0:0:
359,214,314435,2,0,P|362:265|359:304,1,70,12|0,1:2|3:3,3:0:0:0:
295,370,314810,2,0,P|229:363|193:362,1,70,2|0,2:3|3:3,0:0:0:0:
158,331,315091,1,0,3:3:0:0:
158,331,315185,6,2,P|95:322|-6:316,1,140,4|2,1:1|2:3,0:0:0:0:
18,316,315747,1,0,3:2:0:0:
227,264,315935,1,8,1:2:0:0:
296,222,316122,2,2,P|348:217|446:215,1,140,2|0,3:2|3:3,0:0:0:0:
468,143,316685,5,0,1:1:0:0:
452,66,316872,1,2,0:2:0:0:
382,113,317060,1,2,2:3:0:0:
431,181,317247,1,2,3:2:0:0:
488,348,317435,21,8,1:2:0:0:
71,183,317810,1,2,2:3:0:0:
181,113,317997,1,2,3:2:0:0:
72,0,318185,54,0,B|21:56|54:125|126:76,1,140,4|2,1:1|0:0,1:0:0:0:
256,192,318747,12,0,322685,0:0:0:0:
67,122,336185,37,6,1:1:0:0:
44,208,336372,1,2,0:2:0:0:
132,263,336560,1,2,2:3:0:0:
122,151,336747,1,2,3:2:0:0:
12,190,336935,5,8,1:1:0:0:
144,265,337122,1,2,0:2:0:0:
147,152,337310,1,2,2:3:0:0:
39,170,337497,1,2,3:2:0:0:
311,198,337685,22,0,P|357:184|400:174,1,70,2|2,1:1|3:2,1:0:0:0:
296,280,338060,2,2,P|313:340|320:368,1,70,2|0,2:3|3:3,0:0:0:0:
508,139,338435,2,0,P|462:124|417:116,1,70,10|2,1:1|0:2,1:0:0:0:
383,55,338810,2,2,P|338:80|298:92,1,70,6|0,2:2|3:3,0:0:0:0:
157,273,339185,5,6,1:1:0:0:
237,316,339372,1,0,3:2:0:0:
314,272,339560,1,2,2:3:0:0:
394,300,339747,1,2,3:2:0:0:
512,236,339935,5,8,1:1:0:0:
414,306,340122,1,0,0:2:0:0:
315,277,340310,1,2,2:3:0:0:
297,186,340497,1,2,3:2:0:0:
410,48,340685,5,2,1:0:0:0:
499,44,340872,1,0,3:3:0:0:
501,135,341060,1,2,2:3:0:0:
417,86,341247,1,2,3:2:0:0:
242,43,341435,21,10,1:1:0:0:
236,329,341622,2,0,P|236:356|238:384,1,56
164,281,342185,6,2,B|93:289|93:289|61:320|61:320|-8:327,1,181.999991668702,6|2,1:1|3:3,1:0:0:0:
0,326,342747,1,0,3:3:0:0:
38,173,342935,1,8,1:2:0:0:
130,206,343122,1,2,3:1:0:0:
134,294,343310,1,2,3:3:0:0:
282,378,343497,2,0,L|297:313,1,45.4999979171754,6|0,1:2|0:0,0:0:0:0:
338,227,343685,6,2,B|408:238|408:238|439:218|439:218|528:229,2,181.999991668702,6|2|8,1:1|3:3|1:2,0:0:0:0:
149,286,344810,1,2,3:3:0:0:
271,176,344997,2,0,L|205:163,1,45.4999979171754,4|0,1:2|0:0,0:0:0:0:
166,6,345185,6,2,B|65:31|94:53|-9:79,1,181.999991668702,6|2,1:1|3:3,0:0:0:0:
74,83,345747,2,0,P|122:92|181:124,1,90.9999958343508,2|0,3:1|1:1,1:0:0:0:
246,204,346122,1,2,3:2:0:0:
332,210,346310,1,2,3:3:0:0:
435,294,346497,1,2,3:2:0:0:
386,76,346685,22,2,P|374:31|376:-13,2,77.0000023498536,4|0|2,1:2|0:0|2:3,0:2:0:0:
481,190,347247,1,2,3:2:0:0:
371,363,347435,1,0,1:1:0:0:
45,242,347810,5,2,2:2:0:0:
6,193,361733,6,0,B|42:176|100:170|138:178,1,125.999996154785,2|0,0:0|0:0,0:0:0:0:
137,183,362858,1,0,0:0:0:0:
137,183,363233,2,0,P|111:186|69:190,3,62.9999980773926,2|0|2|0,0:0|0:0|0:0|0:0,0:0:0:0:
484,245,364733,6,0,B|451:229|385:243|366:290,1,125.999996154785,2|0,0:0|0:0,0:0:0:0:
372,278,365858,1,0,0:0:0:0:
372,278,366045,1,2,0:0:0:0:
68,34,366983,21,0,0:0:0:0:
181,72,367358,1,0,0:0:0:0:
279,1,367733,2,0,P|282:30|281:76,1,62.9999980773926,2|0,0:0|0:0,0:0:0:0:
407,151,368295,2,0,P|374:159|349:167,2,55.1249983177186,0|0|2,0:0|0:0|0:0,0:0:0:0:
256,192,369233,12,2,371483,0:0:0:0:
358,16,373733,6,2,B|425:0|534:53|468:193,1,251.999992309571,6|0,1:1|3:3,0:0:0:0:
310,316,374483,2,0,P|308:260|324:200,1,83.9999974365235,8|0,1:2|0:0,3:0:0:0:
405,146,374858,1,2,3:3:0:0:
312,232,375045,1,2,3:2:0:0:
218,103,375233,6,0,P|211:47|214:-7,1,83.9999974365235,0|0,1:1|0:0,0:0:0:0:
371,173,375608,2,0,P|393:122|397:66,1,83.9999974365235,2|0,3:3|3:3,0:0:0:0:
183,16,375983,1,10,1:1:0:0:
116,102,376170,1,2,0:2:0:0:
34,79,376358,1,2,3:3:0:0:
169,14,376545,1,0,3:3:0:0:
169,14,376639,1,0,3:3:0:0:
169,14,376733,6,2,B|233:21|262:61|259:145,2,167.999994873047,6|2|8,1:1|3:3|1:2,0:0:0:0:
100,47,377670,1,0,3:2:0:0:
30,146,377858,2,0,P|23:207|33:255,1,83.9999974365235,2|0,3:3|3:3,0:0:0:0:
195,181,378233,2,0,P|188:139|176:99,2,83.9999974365235,2|0|2,1:1|0:0|3:3,0:0:0:0:
173,257,378795,1,2,0:2:0:0:
0,384,378983,21,12,1:2:0:0:
288,177,379358,1,2,3:3:0:0:
437,160,379545,1,0,3:3:0:0:
437,160,379639,1,0,3:3:0:0:
437,160,379733,6,2,B|490:185|525:302|449:389,1,251.999992309571,6|2,1:1|3:2,0:0:0:0:
191,308,380483,1,8,1:2:0:0:
191,308,380858,5,2,3:3:0:0:
254,262,381045,1,2,3:2:0:0:
270,139,381233,1,2,1:1:0:0:
261,279,381420,1,2,0:2:0:0:
350,380,381608,1,2,3:3:0:0:
446,332,381795,1,2,3:2:0:0:
488,171,381983,5,8,1:2:0:0:
131,105,382358,1,2,3:3:0:0:
214,40,382545,1,0,3:3:0:0:
214,40,382639,1,0,3:3:0:0:
214,40,382733,22,2,P|276:30|312:36,1,83.9999974365235,4|0,1:2|3:3,0:0:0:0:
280,184,383108,2,0,P|209:169|179:145,1,83.9999974365235,2|0,3:3|3:3,0:0:0:0:
12,19,383483,2,2,B|109:46|57:64|165:93,1,167.999994873047,8|2,1:2|3:3,0:2:0:0:
161,91,384045,1,0,3:2:0:0:
409,121,384233,5,6,1:1:0:0:
462,254,384420,1,0,3:2:0:0:
426,320,384608,5,2,3:3:0:0:
294,379,384795,1,2,0:2:0:0:
219,365,384983,5,10,1:1:0:0:
140,228,385170,1,0,3:2:0:0:
184,164,385358,21,6,3:2:0:0:
330,89,385545,1,2,3:2:0:0:
231,67,385733,6,2,P|359:48|494:39,1,251.999992309571,6|0,1:1|3:3,0:0:0:0:
210,88,386483,2,0,P|146:98|104:104,1,83.9999974365235,8|0,1:2|0:0,3:0:0:0:
27,77,386858,1,2,3:3:0:0:
0,57,387045,1,0,3:3:0:0:
155,7,387233,2,2,B|216:-4|300:36|334:83,1,167.999994873047,0|2,1:1|3:3,0:2:0:0:
291,371,387983,6,0,P|346:358|399:352,1,83.9999974365235,10|0,1:1|0:0,1:0:0:0:
462,349,388358,1,2,3:3:0:0:
207,298,388545,1,0,3:3:0:0:
207,298,388639,1,0,3:3:0:0:
207,298,388733,2,2,B|158:308|95:341|60:393,2,167.999994873047,6|2|8,1:1|3:3|1:2,0:0:0:0:
388,171,389670,2,2,P|349:258|286:330,1,167.999994873047,2|0,3:2|3:3,0:0:0:0:
76,317,390233,5,2,1:1:0:0:
104,232,390420,1,0,0:0:0:0:
92,142,390608,1,2,3:3:0:0:
9,181,390795,1,2,0:2:0:0:
237,248,390983,22,2,P|283:257|418:268,1,167.999994873047,8|2,1:2|3:3,0:2:0:0:
470,204,391545,1,0,3:3:0:0:
470,204,391639,1,0,3:3:0:0:
470,204,391733,5,6,1:1:0:0:
278,0,392108,1,6,3:3:0:0:
17,162,392483,1,10,1:2:0:0:
218,384,392858,1,6,3:3:0:0:
323,179,393233,5,4,1:2:0:0:
282,251,393420,1,2,0:2:0:0:
192,226,393608,1,2,3:3:0:0:
191,138,393795,1,2,3:2:0:0:
274,112,393983,1,8,1:2:0:0:
337,185,394170,1,2,0:2:0:0:
272,253,394358,1,2,3:3:0:0:
181,222,394545,1,0,3:3:0:0:
181,222,394639,1,0,3:3:0:0:
181,222,394733,6,2,P|169:169|175:44,2,167.999994873047,4|2|8,1:1|3:3|1:2,0:2:0:0:
427,374,395858,2,0,P|481:359|507:325,1,83.9999974365235,2|0,3:3|3:3,0:0:0:0:
493,163,396233,22,0,P|479:220|478:266,1,83.9999974365235,2|0,1:1|0:0,1:0:0:0:
329,348,396608,2,2,P|276:330|223:328,1,83.9999974365235,2|2,3:3|0:2,0:2:0:0:
66,218,396983,2,0,P|55:163|43:116,1,83.9999974365235,10|0,1:1|3:3,1:0:0:0:
0,35,397358,2,2,P|43:10|98:-3,1,83.9999974365235,6|0,3:2|3:3,0:2:0:0:
262,201,397733,6,2,B|354:170|390:101|352:-28,1,251.999992309571,6|0,1:1|3:3,0:0:0:0:
103,0,398483,2,2,B|37:26|1:62|18:145,1,167.999994873047,8|2,1:2|3:3,0:0:0:0:
56,185,399045,1,2,3:2:0:0:
176,143,399233,5,0,1:1:0:0:
196,224,399420,1,0,0:0:0:0:
147,324,399608,1,2,3:3:0:0:
24,369,399795,1,2,3:2:0:0:
164,327,399983,1,10,1:1:0:0:
440,348,400358,1,2,3:3:0:0:
389,253,400545,1,0,3:3:0:0:
389,253,400639,1,0,3:3:0:0:
389,253,400733,6,0,P|387:208|404:163,1,83.9999974365235,2|0,1:1|3:3,1:0:0:0:
487,180,401108,2,0,P|498:221|496:263,1,83.9999974365235,2|0,3:3|3:3,0:0:0:0:
248,186,401483,2,2,P|181:204|96:259,1,167.999994873047,12|2,1:2|3:3,0:0:0:0:
98,256,402045,1,2,3:2:0:0:
92,158,402233,2,0,P|115:123|149:99,1,83.9999974365235,2|0,1:1|0:0,1:0:0:0:
177,233,402608,2,2,P|182:280|173:336,1,83.9999974365235,2|0,3:3|0:0,0:2:0:0:
406,204,402983,2,0,P|407:162|404:120,1,83.9999974365235,14|0,1:1|3:3,1:0:0:0:
349,65,403358,1,2,3:3:0:0:
266,303,403545,1,0,3:3:0:0:
266,303,403639,1,0,3:3:0:0:
266,303,403733,22,2,B|322:335|410:381|478:230,1,251.999992309571,6|2,1:1|3:2,0:0:0:0:
253,57,404483,2,2,P|300:8|411:15,1,167.999994873047,12|2,1:2|3:3,0:0:0:0:
512,56,405045,2,2,B|400:90|469:115|347:147,1,167.999994873047,2|0,3:2|0:0,0:0:0:0:
292,150,405608,1,2,3:3:0:0:
224,120,405795,1,2,3:2:0:0:
208,0,405983,5,12,1:2:0:0:
327,61,406170,1,0,0:0:0:0:
280,183,406358,1,2,3:3:0:0:
162,118,406545,1,2,3:2:0:0:
246,84,406733,5,4,1:1:0:0:
246,84,406920,1,2,3:2:0:0:
246,84,407108,1,2,3:3:0:0:
35,11,407483,6,2,P|33:64|12:105,1,83.9999974365235,8|2,1:2|3:2,0:2:0:0:
23,173,407858,2,0,P|68:202|121:216,1,83.9999974365235,2|2,3:3|3:2,3:0:0:0:
254,290,408233,21,6,1:1:0:0:
358,186,408420,1,0,0:0:0:0:
240,141,408608,1,2,3:3:0:0:
240,276,408795,1,2,0:2:0:0:
382,208,408983,1,14,1:1:0:0:
215,150,409170,1,0,3:3:0:0:
209,316,409358,1,2,3:3:0:0:
364,259,409545,1,2,3:2:0:0:
180,175,409733,6,2,B|133:203|109:261|124:341,2,167.999994873047,6|2|8,1:1|3:3|1:2,0:0:0:0:
378,176,410670,2,2,B|474:212|415:229|525:279,1,167.999994873047,2|0,3:2|3:3,0:0:0:0:
488,347,411233,1,0,1:1:0:0:
345,351,411420,1,2,0:2:0:0:
209,305,411608,1,2,3:3:0:0:
209,305,411983,5,10,1:1:0:0:
266,228,412170,1,2,0:2:0:0:
246,67,412358,1,2,3:3:0:0:
281,197,412545,1,2,3:2:0:0:
328,346,412733,6,0,L|340:258,2,83.9999974365235,6|0|2,1:1|3:3|3:3,0:0:0:0:
276,0,413483,2,0,P|283:46|293:106,1,83.9999974365235,10|0,1:1|3:3,1:0:0:0:
245,149,413858,2,0,P|207:176|152:182,1,83.9999974365235,2|0,3:3|3:3,0:0:0:0:
13,319,414233,22,0,P|0:280|12:241,1,83.9999974365235,2|0,1:1|0:0,1:0:0:0:
92,275,414608,1,2,3:3:0:0:
161,351,414795,1,2,0:2:0:0:
328,308,414983,2,2,P|329:266|312:204,1,83.9999974365235,12|0,1:2|3:3,3:2:0:0:
252,92,415358,2,0,P|245:133|257:174,1,83.9999974365235,2|0,3:3|3:3,1:0:0:0:
339,152,415639,1,0,3:3:0:0:
361,140,415733,6,2,B|428:151|481:133|497:74,1,167.999994873047,6|2,1:1|3:3,1:0:0:0:
318,225,416295,1,2,3:2:0:0:
136,260,416483,2,2,B|74:238|40:175|67:89,1,167.999994873047,12|2,1:2|3:3,0:0:0:0:
107,69,417045,1,2,3:2:0:0:
141,253,417233,5,0,1:1:0:0:
241,168,417420,1,0,0:0:0:0:
370,139,417608,1,2,3:3:0:0:
486,70,417795,1,2,3:2:0:0:
512,229,417983,1,8,1:2:0:0:
411,262,418170,1,2,0:2:0:0:
329,339,418358,1,2,3:3:0:0:
224,326,418545,1,0,3:3:0:0:
224,326,418639,1,0,3:3:0:0:
224,326,418733,6,0,P|175:337|111:329,1,83.9999974365235,2|0,1:1|3:3,1:0:0:0:
362,199,419108,2,2,P|306:179|252:170,1,83.9999974365235,2|0,3:3|3:3,0:2:0:0:
0,262,419483,2,0,P|60:241|99:246,1,83.9999974365235,10|0,1:1|3:3,1:0:0:0:
48,123,419858,2,2,P|100:114|144:101,1,83.9999974365235,2|0,3:3|3:3,0:2:0:0:
195,364,420233,21,4,1:2:0:0:
268,292,420420,1,0,0:0:0:0:
360,383,420608,1,2,3:3:0:0:
218,382,420795,1,2,0:2:0:0:
195,243,420983,1,10,1:1:0:0:
321,174,421170,1,2,3:2:0:0:
397,132,421358,2,0,P|399:85|386:24,1,83.9999974365235,2|0,3:3|3:3,3:0:0:0:
340,0,421733,5,4,1:1:0:0:
