osu file format v14

[General]
AudioFilename: audio.mp3
AudioLeadIn: 0
PreviewTime: 51941
Countdown: 0
SampleSet: Soft
StackLeniency: 0.7
Mode: 3
LetterboxInBreaks: 0
EpilepsyWarning: 1
SpecialStyle: 1
WidescreenStoryboard: 1

[Editor]
DistanceSpacing: 0.8
BeatDivisor: 4
GridSize: 32
TimelineZoom: 1.9

[Metadata]
Title:Lionheart
TitleUnicode:Lionheart
Artist:Masayoshi Minoshima
ArtistUnicode:Masayoshi Minoshima
Creator:Ryu Sei
Version:8K Normal
Source:HALFPIPE TOKYO
Tags:Mei_Ayakura maimai
BeatmapID:1818554
BeatmapSetID:869946

[Difficulty]
HPDrainRate:8
CircleSize:8
OverallDifficulty:8
ApproachRate:5
SliderMultiplier:1.4
SliderTickRate:1

[Events]
//Background and Video events
0,0,"ajdkfh.jpg",0,0
//Break Periods
//Storyboard Layer 0 (Background)
//Storyboard Layer 1 (Fail)
//Storyboard Layer 2 (Pass)
//Storyboard Layer 3 (Foreground)
//Storyboard Layer 4 (Overlay)
//Storyboard Sound Samples

[TimingPoints]
1032,454.545454545455,4,2,1,70,1,0
51941,-100,4,2,1,70,0,1
81032,-100,4,2,1,70,0,0

[HitObjects]
96,192,1032,5,0,0:0:0:0:
224,192,1486,1,0,0:0:0:0:
288,192,1941,1,0,0:0:0:0:
352,192,2282,1,0,0:0:0:0:
480,192,2622,1,0,0:0:0:0:
96,192,2850,1,0,0:0:0:0:
224,192,3304,1,0,0:0:0:0:
480,192,3759,1,0,0:0:0:0:
416,192,4100,1,0,0:0:0:0:
288,192,4441,1,0,0:0:0:0:
96,192,4668,1,0,0:0:0:0:
224,192,5122,1,0,0:0:0:0:
288,192,5577,1,0,0:0:0:0:
352,192,5918,1,0,0:0:0:0:
480,192,6259,1,0,0:0:0:0:
96,192,6486,1,0,0:0:0:0:
224,192,6941,1,0,0:0:0:0:
480,192,7395,1,0,0:0:0:0:
416,192,7736,1,0,0:0:0:0:
288,192,8077,1,0,0:0:0:0:
32,192,8304,1,8,0:0:0:0:
32,192,8759,1,8,0:0:0:0:
32,192,9213,1,8,0:0:0:0:
32,192,9668,1,8,0:0:0:0:
32,192,10122,1,8,0:0:0:0:
32,192,10577,1,8,0:0:0:0:
32,192,11032,1,8,0:0:0:0:
32,192,11486,1,8,0:0:0:0:
32,192,11941,1,8,0:0:0:0:
32,192,12395,1,8,0:0:0:0:
32,192,12850,1,8,0:0:0:0:
32,192,13304,1,8,0:0:0:0:
32,192,13759,1,8,0:0:0:0:
32,192,14213,1,8,0:0:0:0:
32,192,14668,1,8,0:0:0:0:
32,192,15122,1,8,0:0:0:0:
32,192,15577,1,8,0:0:0:0:
32,192,16032,1,8,0:0:0:0:
32,192,16486,1,8,0:0:0:0:
32,192,16941,1,8,0:0:0:0:
32,192,17395,1,8,0:0:0:0:
32,192,17850,1,8,0:0:0:0:
32,192,18304,1,8,0:0:0:0:
32,192,18759,1,8,0:0:0:0:
96,192,19213,1,8,0:0:0:0:
480,192,19441,1,8,0:0:0:0:
96,192,19668,1,8,0:0:0:0:
480,192,19895,1,8,0:0:0:0:
96,192,20122,1,8,0:0:0:0:
480,192,20350,1,8,0:0:0:0:
96,192,20577,1,8,0:0:0:0:
480,192,20804,1,8,0:0:0:0:
32,192,21032,1,10,0:0:0:0:
32,192,22850,1,4,0:0:0:0:
96,192,22850,1,2,0:0:0:0:
224,192,22850,1,0,0:0:0:0:
288,192,23077,1,0,0:0:0:0:
96,192,23304,1,2,0:0:0:0:
352,192,23304,1,0,0:0:0:0:
96,192,23759,1,2,0:0:0:0:
288,192,23759,1,0,0:0:0:0:
352,192,23986,1,0,0:0:0:0:
96,192,24213,1,2,0:0:0:0:
416,192,24213,1,0,0:0:0:0:
96,192,24668,1,2,0:0:0:0:
160,192,24668,1,0,0:0:0:0:
224,192,24895,1,0,0:0:0:0:
96,192,25122,1,2,0:0:0:0:
288,192,25122,1,0,0:0:0:0:
96,192,25577,1,2,0:0:0:0:
416,192,25577,1,0,0:0:0:0:
288,192,25804,1,0,0:0:0:0:
32,192,26032,1,4,0:0:0:0:
480,192,26032,1,0,0:0:0:0:
32,192,26486,1,4,0:0:0:0:
96,192,26486,1,2,0:0:0:0:
224,192,26486,1,0,0:0:0:0:
288,192,26713,1,0,0:0:0:0:
96,192,26941,1,2,0:0:0:0:
352,192,26941,1,0,0:0:0:0:
96,192,27395,1,2,0:0:0:0:
480,192,27395,1,0,0:0:0:0:
416,192,27622,1,0,0:0:0:0:
96,192,27850,1,2,0:0:0:0:
352,192,27850,1,0,0:0:0:0:
96,192,28304,1,2,0:0:0:0:
160,192,28304,1,0,0:0:0:0:
288,192,28532,1,0,0:0:0:0:
96,192,28759,1,2,0:0:0:0:
416,192,28759,1,0,0:0:0:0:
96,192,29213,1,2,0:0:0:0:
352,192,29213,1,0,0:0:0:0:
224,192,29441,1,0,0:0:0:0:
32,192,29668,1,8,0:0:0:0:
288,192,29668,1,0,0:0:0:0:
32,192,29895,1,8,0:0:0:0:
32,192,30122,1,4,0:0:0:0:
96,192,30122,1,2,0:0:0:0:
224,192,30122,1,0,0:0:0:0:
352,192,30350,1,0,0:0:0:0:
96,192,30577,1,2,0:0:0:0:
416,192,30577,1,0,0:0:0:0:
96,192,31032,1,2,0:0:0:0:
224,192,31032,1,0,0:0:0:0:
288,192,31259,1,0,0:0:0:0:
96,192,31486,1,2,0:0:0:0:
352,192,31486,1,0,0:0:0:0:
96,192,31941,1,2,0:0:0:0:
160,192,31941,1,0,0:0:0:0:
352,192,32168,1,0,0:0:0:0:
96,192,32395,1,2,0:0:0:0:
224,192,32395,1,0,0:0:0:0:
96,192,32850,1,2,0:0:0:0:
352,192,32850,1,0,0:0:0:0:
416,192,33077,1,0,0:0:0:0:
32,192,33304,1,4,0:0:0:0:
480,192,33304,1,0,0:0:0:0:
32,192,33759,1,4,0:0:0:0:
96,192,33759,1,2,0:0:0:0:
288,192,33759,1,0,0:0:0:0:
352,192,33986,1,0,0:0:0:0:
96,192,34213,1,2,0:0:0:0:
416,192,34213,1,0,0:0:0:0:
96,192,34668,1,2,0:0:0:0:
224,192,34668,1,0,0:0:0:0:
352,192,34895,1,0,0:0:0:0:
96,192,35122,1,2,0:0:0:0:
480,192,35122,1,0,0:0:0:0:
96,192,35577,1,2,0:0:0:0:
224,192,35577,1,0,0:0:0:0:
288,192,35804,1,0,0:0:0:0:
96,192,36032,1,2,0:0:0:0:
352,192,36032,1,0,0:0:0:0:
96,192,36486,1,2,0:0:0:0:
160,192,36486,1,0,0:0:0:0:
32,192,36941,1,8,0:0:0:0:
416,192,36941,1,0,0:0:0:0:
32,192,37168,1,8,0:0:0:0:
96,192,37395,1,2,0:0:0:0:
224,192,37395,1,0,0:0:0:0:
96,192,37850,1,2,0:0:0:0:
224,192,37850,1,0,0:0:0:0:
96,192,38304,1,2,0:0:0:0:
288,192,38304,1,0,0:0:0:0:
288,192,38645,1,0,0:0:0:0:
96,192,38759,1,2,0:0:0:0:
288,192,38986,1,0,0:0:0:0:
96,192,39213,1,2,0:0:0:0:
352,192,39213,1,0,0:0:0:0:
96,192,39668,1,2,0:0:0:0:
352,192,39668,1,0,0:0:0:0:
96,192,40122,1,2,0:0:0:0:
416,192,40122,1,0,0:0:0:0:
96,192,40577,1,2,0:0:0:0:
32,192,40577,1,4,0:0:0:0:
416,192,40577,1,0,0:0:0:0:
96,192,41032,1,2,0:0:0:0:
480,192,41032,1,0,0:0:0:0:
96,192,41486,1,2,0:0:0:0:
480,192,41486,1,0,0:0:0:0:
96,192,41941,1,2,0:0:0:0:
416,192,41941,1,0,0:0:0:0:
416,192,42282,1,0,0:0:0:0:
96,192,42395,1,2,0:0:0:0:
416,192,42622,1,0,0:0:0:0:
96,192,42850,1,2,0:0:0:0:
352,192,42850,1,0,0:0:0:0:
96,192,43304,1,2,0:0:0:0:
352,192,43304,1,0,0:0:0:0:
96,192,43759,1,2,0:0:0:0:
288,192,43759,1,0,0:0:0:0:
96,192,44213,1,2,0:0:0:0:
288,192,44213,1,0,0:0:0:0:
32,192,44213,1,8,0:0:0:0:
32,192,44441,1,8,0:0:0:0:
96,192,44668,1,2,0:0:0:0:
160,192,44668,1,0,0:0:0:0:
32,192,44668,1,4,0:0:0:0:
96,192,45122,1,2,0:0:0:0:
224,192,45122,1,0,0:0:0:0:
96,192,45577,1,2,0:0:0:0:
288,192,45577,1,0,0:0:0:0:
352,192,45918,1,0,0:0:0:0:
96,192,46032,1,2,0:0:0:0:
416,192,46259,1,0,0:0:0:0:
96,192,46486,1,2,0:0:0:0:
224,192,46486,1,0,0:0:0:0:
96,192,46941,1,2,0:0:0:0:
288,192,46941,1,0,0:0:0:0:
96,192,47395,1,2,0:0:0:0:
352,192,47395,1,0,0:0:0:0:
96,192,47850,1,2,0:0:0:0:
416,192,47850,1,0,0:0:0:0:
32,192,47850,1,4,0:0:0:0:
96,192,48304,1,2,0:0:0:0:
288,192,48304,1,0,0:0:0:0:
96,192,48759,1,2,0:0:0:0:
352,192,48759,1,0,0:0:0:0:
96,192,49213,1,2,0:0:0:0:
416,192,49213,1,0,0:0:0:0:
480,192,49554,1,0,0:0:0:0:
96,192,49668,1,2,0:0:0:0:
352,192,49895,1,0,0:0:0:0:
32,192,50122,128,8,51486:0:0:0:0:
416,192,50122,1,0,0:0:0:0:
416,192,50577,1,0,0:0:0:0:
416,192,51032,1,0,0:0:0:0:
416,192,51486,1,0,0:0:0:0:
32,192,51941,1,0,0:0:0:0:
352,192,51941,1,0,0:0:0:0:
480,192,51941,1,0,0:0:0:0:
96,192,51941,1,0,0:0:0:0:
32,192,52395,1,0,0:0:0:0:
352,192,52395,1,0,0:0:0:0:
480,192,52395,1,0,0:0:0:0:
96,192,52395,1,0,0:0:0:0:
32,192,52850,1,0,0:0:0:0:
352,192,52850,1,0,0:0:0:0:
480,192,52850,1,0,0:0:0:0:
96,192,52850,1,0,0:0:0:0:
32,192,53191,1,0,0:0:0:0:
352,192,53191,1,0,0:0:0:0:
480,192,53191,1,0,0:0:0:0:
96,192,53191,1,0,0:0:0:0:
32,192,53532,1,0,0:0:0:0:
352,192,53532,1,0,0:0:0:0:
480,192,53532,1,0,0:0:0:0:
96,192,53532,1,0,0:0:0:0:
288,192,53759,1,0,0:0:0:0:
416,192,53759,1,0,0:0:0:0:
32,192,53759,1,0,0:0:0:0:
96,192,53759,1,0,0:0:0:0:
288,192,54213,1,0,0:0:0:0:
416,192,54213,1,0,0:0:0:0:
32,192,54213,1,0,0:0:0:0:
96,192,54213,1,0,0:0:0:0:
288,192,54668,1,0,0:0:0:0:
416,192,54668,1,0,0:0:0:0:
32,192,54668,1,0,0:0:0:0:
96,192,54668,1,0,0:0:0:0:
288,192,55009,1,0,0:0:0:0:
416,192,55009,1,0,0:0:0:0:
32,192,55009,1,0,0:0:0:0:
96,192,55009,1,0,0:0:0:0:
288,192,55350,1,0,0:0:0:0:
416,192,55350,1,0,0:0:0:0:
32,192,55350,1,0,0:0:0:0:
96,192,55350,1,0,0:0:0:0:
224,192,55577,1,0,0:0:0:0:
352,192,55577,1,0,0:0:0:0:
32,192,55577,1,0,0:0:0:0:
96,192,55577,1,0,0:0:0:0:
224,192,56032,1,0,0:0:0:0:
352,192,56032,1,0,0:0:0:0:
32,192,56032,1,0,0:0:0:0:
96,192,56032,1,0,0:0:0:0:
224,192,56486,1,0,0:0:0:0:
352,192,56486,1,0,0:0:0:0:
32,192,56486,1,0,0:0:0:0:
96,192,56486,1,0,0:0:0:0:
224,192,56827,1,0,0:0:0:0:
352,192,56827,1,0,0:0:0:0:
32,192,56827,1,0,0:0:0:0:
96,192,56827,1,0,0:0:0:0:
224,192,57168,1,0,0:0:0:0:
352,192,57168,1,0,0:0:0:0:
32,192,57168,1,0,0:0:0:0:
96,192,57168,1,0,0:0:0:0:
224,192,57395,1,0,0:0:0:0:
352,192,57395,1,0,0:0:0:0:
32,192,57395,1,0,0:0:0:0:
96,192,57395,1,0,0:0:0:0:
224,192,57850,1,0,0:0:0:0:
352,192,57850,1,0,0:0:0:0:
32,192,57850,1,0,0:0:0:0:
96,192,57850,1,0,0:0:0:0:
160,192,58304,1,0,0:0:0:0:
288,192,58304,1,0,0:0:0:0:
32,192,58304,1,0,0:0:0:0:
96,192,58304,1,0,0:0:0:0:
160,192,58645,1,0,0:0:0:0:
288,192,58645,1,0,0:0:0:0:
32,192,58645,1,0,0:0:0:0:
96,192,58645,1,0,0:0:0:0:
160,192,58986,1,0,0:0:0:0:
288,192,58986,1,0,0:0:0:0:
32,192,58986,1,0,0:0:0:0:
96,192,58986,1,0,0:0:0:0:
96,192,59213,1,0,0:0:0:0:
224,192,59213,1,0,0:0:0:0:
32,192,59213,1,0,0:0:0:0:
480,192,59213,1,0,0:0:0:0:
96,192,59668,1,0,0:0:0:0:
224,192,59668,1,0,0:0:0:0:
32,192,59668,1,0,0:0:0:0:
480,192,59668,1,0,0:0:0:0:
96,192,60122,1,0,0:0:0:0:
224,192,60122,1,0,0:0:0:0:
32,192,60122,1,0,0:0:0:0:
480,192,60122,1,0,0:0:0:0:
96,192,60463,1,0,0:0:0:0:
224,192,60463,1,0,0:0:0:0:
32,192,60463,1,0,0:0:0:0:
480,192,60463,1,0,0:0:0:0:
96,192,60804,1,0,0:0:0:0:
224,192,60804,1,0,0:0:0:0:
32,192,60804,1,0,0:0:0:0:
480,192,60804,1,0,0:0:0:0:
32,192,61032,1,0,0:0:0:0:
160,192,61032,1,0,0:0:0:0:
288,192,61032,1,0,0:0:0:0:
480,192,61032,1,0,0:0:0:0:
32,192,61486,1,0,0:0:0:0:
160,192,61486,1,0,0:0:0:0:
288,192,61486,1,0,0:0:0:0:
480,192,61486,1,0,0:0:0:0:
32,192,61941,1,0,0:0:0:0:
160,192,61941,1,0,0:0:0:0:
288,192,61941,1,0,0:0:0:0:
480,192,61941,1,0,0:0:0:0:
32,192,62282,1,0,0:0:0:0:
160,192,62282,1,0,0:0:0:0:
288,192,62282,1,0,0:0:0:0:
480,192,62282,1,0,0:0:0:0:
32,192,62622,1,0,0:0:0:0:
160,192,62622,1,0,0:0:0:0:
288,192,62622,1,0,0:0:0:0:
480,192,62622,1,0,0:0:0:0:
32,192,62850,1,0,0:0:0:0:
224,192,62850,1,0,0:0:0:0:
352,192,62850,1,0,0:0:0:0:
480,192,62850,1,0,0:0:0:0:
32,192,63304,1,0,0:0:0:0:
224,192,63304,1,0,0:0:0:0:
352,192,63304,1,0,0:0:0:0:
480,192,63304,1,0,0:0:0:0:
32,192,63759,1,0,0:0:0:0:
224,192,63759,1,0,0:0:0:0:
352,192,63759,1,0,0:0:0:0:
480,192,63759,1,0,0:0:0:0:
32,192,64100,1,0,0:0:0:0:
224,192,64100,1,0,0:0:0:0:
352,192,64100,1,0,0:0:0:0:
480,192,64100,1,0,0:0:0:0:
32,192,64441,1,0,0:0:0:0:
224,192,64441,1,0,0:0:0:0:
352,192,64441,1,0,0:0:0:0:
480,192,64441,1,0,0:0:0:0:
32,192,64668,1,0,0:0:0:0:
416,192,64668,1,0,0:0:0:0:
288,192,64668,1,0,0:0:0:0:
480,192,64668,1,0,0:0:0:0:
32,192,65122,1,0,0:0:0:0:
416,192,65122,1,0,0:0:0:0:
288,192,65122,1,0,0:0:0:0:
480,192,65122,1,0,0:0:0:0:
32,192,65577,1,0,0:0:0:0:
352,192,65577,1,0,0:0:0:0:
224,192,65577,1,0,0:0:0:0:
480,192,65577,1,0,0:0:0:0:
32,192,65918,1,0,0:0:0:0:
352,192,65918,1,0,0:0:0:0:
224,192,65918,1,0,0:0:0:0:
480,192,65918,1,0,0:0:0:0:
32,192,66259,1,0,0:0:0:0:
352,192,66259,1,0,0:0:0:0:
224,192,66259,1,0,0:0:0:0:
480,192,66259,1,0,0:0:0:0:
480,192,66486,1,0,0:0:0:0:
352,192,66486,1,0,0:0:0:0:
32,192,66486,1,0,0:0:0:0:
96,192,66486,1,0,0:0:0:0:
480,192,66941,1,0,0:0:0:0:
352,192,66941,1,0,0:0:0:0:
32,192,66941,1,0,0:0:0:0:
96,192,66941,1,0,0:0:0:0:
480,192,67395,1,0,0:0:0:0:
352,192,67395,1,0,0:0:0:0:
32,192,67395,1,0,0:0:0:0:
96,192,67395,1,0,0:0:0:0:
480,192,67736,1,0,0:0:0:0:
352,192,67736,1,0,0:0:0:0:
32,192,67736,1,0,0:0:0:0:
96,192,67736,1,0,0:0:0:0:
480,192,68077,1,0,0:0:0:0:
352,192,68077,1,0,0:0:0:0:
32,192,68077,1,0,0:0:0:0:
96,192,68077,1,0,0:0:0:0:
32,192,68304,1,0,0:0:0:0:
160,192,68304,1,0,0:0:0:0:
288,192,68304,1,0,0:0:0:0:
96,192,68304,1,0,0:0:0:0:
32,192,68759,1,0,0:0:0:0:
160,192,68759,1,0,0:0:0:0:
288,192,68759,1,0,0:0:0:0:
96,192,68759,1,0,0:0:0:0:
32,192,69213,1,0,0:0:0:0:
160,192,69213,1,0,0:0:0:0:
288,192,69213,1,0,0:0:0:0:
96,192,69213,1,0,0:0:0:0:
32,192,69554,1,0,0:0:0:0:
160,192,69554,1,0,0:0:0:0:
288,192,69554,1,0,0:0:0:0:
96,192,69554,1,0,0:0:0:0:
32,192,69895,1,0,0:0:0:0:
160,192,69895,1,0,0:0:0:0:
288,192,69895,1,0,0:0:0:0:
96,192,69895,1,0,0:0:0:0:
32,192,70122,1,0,0:0:0:0:
224,192,70122,1,0,0:0:0:0:
352,192,70122,1,0,0:0:0:0:
96,192,70122,1,0,0:0:0:0:
32,192,70577,1,0,0:0:0:0:
224,192,70577,1,0,0:0:0:0:
352,192,70577,1,0,0:0:0:0:
96,192,70577,1,0,0:0:0:0:
32,192,71032,1,0,0:0:0:0:
224,192,71032,1,0,0:0:0:0:
352,192,71032,1,0,0:0:0:0:
96,192,71032,1,0,0:0:0:0:
32,192,71372,1,0,0:0:0:0:
224,192,71372,1,0,0:0:0:0:
352,192,71372,1,0,0:0:0:0:
96,192,71372,1,0,0:0:0:0:
32,192,71713,1,0,0:0:0:0:
224,192,71713,1,0,0:0:0:0:
352,192,71713,1,0,0:0:0:0:
96,192,71713,1,0,0:0:0:0:
32,192,71941,1,0,0:0:0:0:
352,192,71941,1,0,0:0:0:0:
224,192,71941,1,0,0:0:0:0:
96,192,71941,1,0,0:0:0:0:
32,192,72395,1,0,0:0:0:0:
352,192,72395,1,0,0:0:0:0:
224,192,72395,1,0,0:0:0:0:
96,192,72395,1,0,0:0:0:0:
32,192,72850,1,0,0:0:0:0:
224,192,72850,1,0,0:0:0:0:
96,192,72850,1,0,0:0:0:0:
480,192,72850,1,0,0:0:0:0:
32,192,73191,1,0,0:0:0:0:
224,192,73191,1,0,0:0:0:0:
96,192,73191,1,0,0:0:0:0:
480,192,73191,1,0,0:0:0:0:
32,192,73532,1,0,0:0:0:0:
224,192,73532,1,0,0:0:0:0:
96,192,73532,1,0,0:0:0:0:
480,192,73532,1,0,0:0:0:0:
32,192,73759,1,0,0:0:0:0:
288,192,73759,1,0,0:0:0:0:
416,192,73759,1,0,0:0:0:0:
480,192,73759,1,0,0:0:0:0:
32,192,74213,1,0,0:0:0:0:
288,192,74213,1,0,0:0:0:0:
416,192,74213,1,0,0:0:0:0:
480,192,74213,1,0,0:0:0:0:
32,192,74668,1,0,0:0:0:0:
288,192,74668,1,0,0:0:0:0:
416,192,74668,1,0,0:0:0:0:
480,192,74668,1,0,0:0:0:0:
32,192,75009,1,0,0:0:0:0:
288,192,75009,1,0,0:0:0:0:
416,192,75009,1,0,0:0:0:0:
480,192,75009,1,0,0:0:0:0:
32,192,75350,1,0,0:0:0:0:
288,192,75350,1,0,0:0:0:0:
416,192,75350,1,0,0:0:0:0:
480,192,75350,1,0,0:0:0:0:
224,192,75577,1,0,0:0:0:0:
352,192,75577,1,0,0:0:0:0:
32,192,75577,1,0,0:0:0:0:
480,192,75577,1,0,0:0:0:0:
224,192,76032,1,0,0:0:0:0:
352,192,76032,1,0,0:0:0:0:
32,192,76032,1,0,0:0:0:0:
480,192,76032,1,0,0:0:0:0:
224,192,76486,1,0,0:0:0:0:
352,192,76486,1,0,0:0:0:0:
32,192,76486,1,0,0:0:0:0:
480,192,76486,1,0,0:0:0:0:
224,192,76827,1,0,0:0:0:0:
352,192,76827,1,0,0:0:0:0:
32,192,76827,1,0,0:0:0:0:
480,192,76827,1,0,0:0:0:0:
224,192,77168,1,0,0:0:0:0:
352,192,77168,1,0,0:0:0:0:
32,192,77168,1,0,0:0:0:0:
480,192,77168,1,0,0:0:0:0:
416,192,77395,1,0,0:0:0:0:
288,192,77395,1,0,0:0:0:0:
32,192,77395,1,0,0:0:0:0:
480,192,77395,1,0,0:0:0:0:
416,192,77850,1,0,0:0:0:0:
288,192,77850,1,0,0:0:0:0:
32,192,77850,1,0,0:0:0:0:
480,192,77850,1,0,0:0:0:0:
416,192,78304,1,0,0:0:0:0:
288,192,78304,1,0,0:0:0:0:
32,192,78304,1,0,0:0:0:0:
480,192,78304,1,0,0:0:0:0:
416,192,78645,1,0,0:0:0:0:
288,192,78645,1,0,0:0:0:0:
32,192,78645,1,0,0:0:0:0:
480,192,78645,1,0,0:0:0:0:
416,192,78986,1,0,0:0:0:0:
288,192,78986,1,0,0:0:0:0:
32,192,78986,1,0,0:0:0:0:
480,192,78986,1,0,0:0:0:0:
352,192,79213,1,0,0:0:0:0:
480,192,79213,1,0,0:0:0:0:
32,192,79213,1,0,0:0:0:0:
96,192,79213,1,0,0:0:0:0:
352,192,79668,1,0,0:0:0:0:
480,192,79668,1,0,0:0:0:0:
32,192,79668,1,0,0:0:0:0:
96,192,79668,1,0,0:0:0:0:
224,192,80122,1,0,0:0:0:0:
352,192,80122,1,0,0:0:0:0:
32,192,80122,1,0,0:0:0:0:
96,192,80122,1,0,0:0:0:0:
480,192,80122,1,0,0:0:0:0:
224,192,80463,1,0,0:0:0:0:
352,192,80463,1,0,0:0:0:0:
32,192,80463,1,0,0:0:0:0:
96,192,80463,1,0,0:0:0:0:
480,192,80463,1,0,0:0:0:0:
224,192,80804,1,0,0:0:0:0:
352,192,80804,1,0,0:0:0:0:
32,192,80804,1,0,0:0:0:0:
96,192,80804,1,0,0:0:0:0:
480,192,80804,1,0,0:0:0:0:
32,192,81032,1,4,1:0:0:0:
224,192,81032,1,2,0:0:0:0:
352,192,81032,1,0,0:0:0:0:
