osu file format v14

[General]
AudioFilename: audio.mp3
AudioLeadIn: 0
PreviewTime: 51941
Countdown: 0
SampleSet: Soft
StackLeniency: 0.7
Mode: 3
LetterboxInBreaks: 0
EpilepsyWarning: 1
SpecialStyle: 0
WidescreenStoryboard: 1

[Editor]
DistanceSpacing: 0.8
BeatDivisor: 4
GridSize: 32
TimelineZoom: 1.9

[Metadata]
Title:Lionheart
TitleUnicode:Lionheart
Artist:Masayoshi Minoshima
ArtistUnicode:Masayoshi Minoshima
Creator:Ryu Sei
Version:4K Afterword
Source:HALFPIPE TOKYO
Tags:Mei_Ayakura maimai
BeatmapID:1818074
BeatmapSetID:869946

[Difficulty]
HPDrainRate:8
CircleSize:4
OverallDifficulty:8
ApproachRate:5
SliderMultiplier:1.4
SliderTickRate:1

[Events]
//Background and Video events
0,0,"ajdkfh.jpg",0,0
//Break Periods
//Storyboard Layer 0 (Background)
//Storyboard Layer 1 (Fail)
//Storyboard Layer 2 (Pass)
//Storyboard Layer 3 (Foreground)
//Storyboard Layer 4 (Overlay)
//Storyboard Sound Samples

[TimingPoints]
1032,454.545454545455,4,2,1,70,1,0
8304,-52.6315789473684,4,2,1,70,0,0
8361,-1000,4,2,1,70,0,0
8418,-100,4,2,1,70,0,0
8759,-52.6315789473684,4,2,1,70,0,0
8816,-1000,4,2,1,70,0,0
8872,-100,4,2,1,70,0,0
9213,-52.6315789473684,4,2,1,70,0,0
9270,-1000,4,2,1,70,0,0
9327,-100,4,2,1,70,0,0
9668,-52.6315789473684,4,2,1,70,0,0
9725,-1000,4,2,1,70,0,0
9782,-100,4,2,1,70,0,0
10122,-52.6315789473684,4,2,1,70,0,0
10179,-1000,4,2,1,70,0,0
10236,-100,4,2,1,70,0,0
10577,-52.6315789473684,4,2,1,70,0,0
10634,-1000,4,2,1,70,0,0
10691,-100,4,2,1,70,0,0
11032,-52.6315789473684,4,2,1,70,0,0
11088,-1000,4,2,1,70,0,0
11145,-100,4,2,1,70,0,0
11486,-52.6315789473684,4,2,1,70,0,0
11543,-1000,4,2,1,70,0,0
11600,-100,4,2,1,70,0,0
11941,-52.6315789473684,4,2,1,70,0,0
11997,-1000,4,2,1,70,0,0
12054,-100,4,2,1,70,0,0
12395,-52.6315789473684,4,2,1,70,0,0
12452,-1000,4,2,1,70,0,0
12509,-100,4,2,1,70,0,0
12850,-52.6315789473684,4,2,1,70,0,0
12907,-1000,4,2,1,70,0,0
12963,-100,4,2,1,70,0,0
13304,-52.6315789473684,4,2,1,70,0,0
13361,-1000,4,2,1,70,0,0
13418,-100,4,2,1,70,0,0
13759,-52.6315789473684,4,2,1,70,0,0
13816,-1000,4,2,1,70,0,0
13872,-100,4,2,1,70,0,0
14213,-52.6315789473684,4,2,1,70,0,0
14270,-1000,4,2,1,70,0,0
14327,-100,4,2,1,70,0,0
14668,-52.6315789473684,4,2,1,70,0,0
14725,-1000,4,2,1,70,0,0
14782,-100,4,2,1,70,0,0
15122,-52.6315789473684,4,2,1,70,0,0
15179,-1000,4,2,1,70,0,0
15236,-100,4,2,1,70,0,0
15577,-52.6315789473684,4,2,1,70,0,0
15634,-1000,4,2,1,70,0,0
15691,-100,4,2,1,70,0,0
15804,-52.6315789473684,4,2,1,70,0,0
15861,-1000,4,2,1,70,0,0
15918,-100,4,2,1,70,0,0
16032,-52.6315789473684,4,2,1,70,0,0
16088,-1000,4,2,1,70,0,0
16145,-100,4,2,1,70,0,0
16259,-52.6315789473684,4,2,1,70,0,0
16316,-1000,4,2,1,70,0,0
16372,-100,4,2,1,70,0,0
16486,-52.6315789473684,4,2,1,70,0,0
16543,-1000,4,2,1,70,0,0
16600,-100,4,2,1,70,0,0
16713,-52.6315789473684,4,2,1,70,0,0
16770,-1000,4,2,1,70,0,0
16827,-100,4,2,1,70,0,0
16941,-52.6315789473684,4,2,1,70,0,0
16997,-1000,4,2,1,70,0,0
17054,-100,4,2,1,70,0,0
17168,-52.6315789473684,4,2,1,70,0,0
17225,-1000,4,2,1,70,0,0
17282,-100,4,2,1,70,0,0
17395,-52.6315789473684,4,2,1,70,0,0
17452,-1000,4,2,1,70,0,0
17509,-100,4,2,1,70,0,0
17622,-52.6315789473684,4,2,1,70,0,0
17679,-1000,4,2,1,70,0,0
17736,-100,4,2,1,70,0,0
17850,-52.6315789473684,4,2,1,70,0,0
17907,-1000,4,2,1,70,0,0
17963,-100,4,2,1,70,0,0
18077,-52.6315789473684,4,2,1,70,0,0
18134,-1000,4,2,1,70,0,0
18191,-100,4,2,1,70,0,0
18304,-52.6315789473684,4,2,1,70,0,0
18361,-1000,4,2,1,70,0,0
18418,-100,4,2,1,70,0,0
18532,-52.6315789473684,4,2,1,70,0,0
18588,-1000,4,2,1,70,0,0
18645,-100,4,2,1,70,0,0
18759,-52.6315789473684,4,2,1,70,0,0
18816,-1000,4,2,1,70,0,0
18872,-100,4,2,1,70,0,0
18986,-52.6315789473684,4,2,1,70,0,0
19043,-1000,4,2,1,70,0,0
19100,-100,4,2,1,70,0,0
19213,-52.6315789473684,4,2,1,70,0,0
19270,-1000,4,2,1,70,0,0
19327,-52.6315789473684,4,2,1,70,0,0
19384,-1000,4,2,1,70,0,0
19441,-52.6315789473684,4,2,1,70,0,0
19497,-1000,4,2,1,70,0,0
19554,-52.6315789473684,4,2,1,70,0,0
19611,-1000,4,2,1,70,0,0
19668,-52.6315789473684,4,2,1,70,0,0
19725,-1000,4,2,1,70,0,0
19782,-52.6315789473684,4,2,1,70,0,0
19838,-1000,4,2,1,70,0,0
19895,-52.6315789473684,4,2,1,70,0,0
19952,-1000,4,2,1,70,0,0
20009,-52.6315789473684,4,2,1,70,0,0
20066,-1000,4,2,1,70,0,0
20122,-52.6315789473684,4,2,1,70,0,0
20179,-1000,4,2,1,70,0,0
20236,-52.6315789473684,4,2,1,70,0,0
20293,-1000,4,2,1,70,0,0
20350,-52.6315789473684,4,2,1,70,0,0
20407,-1000,4,2,1,70,0,0
20463,-52.6315789473684,4,2,1,70,0,0
20520,-1000,4,2,1,70,0,0
20577,-52.6315789473684,4,2,1,70,0,0
20634,-1000,4,2,1,70,0,0
20691,-52.6315789473684,4,2,1,70,0,0
20747,-1000,4,2,1,70,0,0
20804,-52.6315789473684,4,2,1,70,0,0
20861,-1000,4,2,1,70,0,0
20918,-52.6315789473684,4,2,1,70,0,0
20975,-1000,4,2,1,70,0,0
21032,-200,4,2,1,70,0,0
21941,-100,4,2,1,70,0,0
21969,-1000,4,2,1,70,0,0
21997,-90.9090909090909,4,2,1,70,0,0
22026,-1000,4,2,1,70,0,0
22054,-83.3333333333333,4,2,1,70,0,0
22083,-1000,4,2,1,70,0,0
22111,-76.9230769230769,4,2,1,70,0,0
22139,-1000,4,2,1,70,0,0
22168,-71.4285714285714,4,2,1,70,0,0
22196,-1000,4,2,1,70,0,0
22225,-66.6666666666667,4,2,1,70,0,0
22253,-1000,4,2,1,70,0,0
22282,-62.5,4,2,1,70,0,0
22310,-1000,4,2,1,70,0,0
22338,-58.8235294117647,4,2,1,70,0,0
22367,-1000,4,2,1,70,0,0
22395,-55.5555555555556,4,2,1,70,0,0
22424,-1000,4,2,1,70,0,0
22452,-52.6315789473684,4,2,1,70,0,0
22480,-1000,4,2,1,70,0,0
22509,-52.6315789473684,4,2,1,70,0,0
22537,-1000,4,2,1,70,0,0
22566,-52.6315789473684,4,2,1,70,0,0
22594,-1000,4,2,1,70,0,0
22622,-52.6315789473684,4,2,1,70,0,0
22651,-1000,4,2,1,70,0,0
22679,-52.6315789473684,4,2,1,70,0,0
22708,-1000,4,2,1,70,0,0
22736,-52.6315789473684,4,2,1,70,0,0
22764,-1000,4,2,1,70,0,0
22793,-52.6315789473684,4,2,1,70,0,0
22821,-1000,4,2,1,70,0,0
22850,-100,4,2,1,70,0,0
26259,-200,4,2,1,70,0,0
26372,-66.6666666666667,4,2,1,70,0,0
26486,-100,4,2,1,70,0,0
29895,-52.6315789473684,4,2,1,70,0,0
29952,-1000,4,2,1,70,0,0
30009,-52.6315789473684,4,2,1,70,0,0
30066,-1000,4,2,1,70,0,0
30122,-100,4,2,1,70,0,0
33532,-200,4,2,1,70,0,0
33645,-66.6666666666667,4,2,1,70,0,0
33759,-100,4,2,1,70,0,0
36941,-52.6315789473684,4,2,1,70,0,0
36997,-1000,4,2,1,70,0,0
37054,-52.6315789473684,4,2,1,70,0,0
37111,-1000,4,2,1,70,0,0
37168,-52.6315789473684,4,2,1,70,0,0
37225,-1000,4,2,1,70,0,0
37282,-52.6315789473684,4,2,1,70,0,0
37338,-1000,4,2,1,70,0,0
37395,-100,4,2,1,70,0,0
44441,-52.6315789473684,4,2,1,70,0,0
44497,-1000,4,2,1,70,0,0
44554,-52.6315789473684,4,2,1,70,0,0
44611,-1000,4,2,1,70,0,0
44668,-100,4,2,1,70,0,0
50122,-52.6315789473684,4,2,1,70,0,0
50179,-1000,4,2,1,70,0,0
50236,-52.6315789473684,4,2,1,70,0,0
50293,-1000,4,2,1,70,0,0
50350,-52.6315789473684,4,2,1,70,0,0
50407,-1000,4,2,1,70,0,0
50463,-52.6315789473684,4,2,1,70,0,0
50520,-1000,4,2,1,70,0,0
50577,-52.6315789473684,4,2,1,70,0,0
50634,-1000,4,2,1,70,0,0
50691,-52.6315789473684,4,2,1,70,0,0
50747,-1000,4,2,1,70,0,0
50804,-52.6315789473684,4,2,1,70,0,0
50861,-1000,4,2,1,70,0,0
50918,-52.6315789473684,4,2,1,70,0,0
50975,-1000,4,2,1,70,0,0
51032,-52.6315789473684,4,2,1,70,0,0
51088,-1000,4,2,1,70,0,0
51145,-52.6315789473684,4,2,1,70,0,0
51202,-1000,4,2,1,70,0,0
51259,-52.6315789473684,4,2,1,70,0,0
51316,-1000,4,2,1,70,0,0
51372,-52.6315789473684,4,2,1,70,0,0
51429,-1000,4,2,1,70,0,0
51486,-52.6315789473684,4,2,1,70,0,0
51543,-1000,4,2,1,70,0,0
51600,-52.6315789473684,4,2,1,70,0,0
51657,-1000,4,2,1,70,0,0
51713,-52.6315789473684,4,2,1,70,0,0
51770,-1000,4,2,1,70,0,0
51827,-52.6315789473684,4,2,1,70,0,0
51884,-1000,4,2,1,70,0,0
51941,-100,4,2,1,70,0,1
81032,-100,4,2,1,70,0,0

[HitObjects]
64,192,1032,5,0,0:0:0:0:
448,192,1259,1,0,0:0:0:0:
192,192,1372,1,0,0:0:0:0:
448,192,1486,1,0,0:0:0:0:
64,192,1600,1,0,0:0:0:0:
320,192,1713,1,0,0:0:0:0:
64,192,1827,1,0,0:0:0:0:
320,192,1941,1,0,0:0:0:0:
64,192,2054,1,0,0:0:0:0:
448,192,2282,1,0,0:0:0:0:
192,192,2395,1,0,0:0:0:0:
448,192,2622,1,0,0:0:0:0:
64,192,2850,1,0,0:0:0:0:
448,192,3077,1,0,0:0:0:0:
192,192,3191,1,0,0:0:0:0:
448,192,3304,1,0,0:0:0:0:
64,192,3418,1,0,0:0:0:0:
320,192,3532,1,0,0:0:0:0:
64,192,3645,1,0,0:0:0:0:
448,192,3759,1,0,0:0:0:0:
192,192,3872,1,0,0:0:0:0:
320,192,4100,1,0,0:0:0:0:
64,192,4213,1,0,0:0:0:0:
448,192,4441,1,0,0:0:0:0:
192,192,4554,1,0,0:0:0:0:
64,192,4668,1,0,0:0:0:0:
448,192,4895,1,0,0:0:0:0:
192,192,5009,1,0,0:0:0:0:
448,192,5122,1,0,0:0:0:0:
64,192,5236,1,0,0:0:0:0:
320,192,5350,1,0,0:0:0:0:
64,192,5463,1,0,0:0:0:0:
320,192,5577,1,0,0:0:0:0:
64,192,5691,1,0,0:0:0:0:
448,192,5918,1,0,0:0:0:0:
192,192,6032,1,0,0:0:0:0:
448,192,6259,1,0,0:0:0:0:
64,192,6486,1,0,0:0:0:0:
448,192,6713,1,0,0:0:0:0:
192,192,6827,1,0,0:0:0:0:
448,192,6941,1,0,0:0:0:0:
64,192,7054,1,0,0:0:0:0:
320,192,7168,1,0,0:0:0:0:
64,192,7282,1,0,0:0:0:0:
448,192,7395,1,0,0:0:0:0:
192,192,7509,1,0,0:0:0:0:
320,192,7736,1,0,0:0:0:0:
64,192,7850,1,0,0:0:0:0:
448,192,8077,1,0,0:0:0:0:
192,192,8191,1,0,0:0:0:0:
448,192,8304,1,8,0:0:0:0:
320,192,8304,1,0,0:0:0:0:
64,192,8304,1,0,0:0:0:0:
448,192,8532,1,0,0:0:0:0:
192,192,8645,1,0,0:0:0:0:
320,192,8759,1,8,0:0:0:0:
64,192,8759,1,0,0:0:0:0:
448,192,8759,1,0,0:0:0:0:
192,192,8872,1,0,0:0:0:0:
320,192,8986,1,0,0:0:0:0:
64,192,9100,1,0,0:0:0:0:
192,192,9213,1,8,0:0:0:0:
448,192,9213,1,0,0:0:0:0:
320,192,9213,1,0,0:0:0:0:
64,192,9327,1,0,0:0:0:0:
448,192,9554,1,0,0:0:0:0:
320,192,9554,1,0,0:0:0:0:
64,192,9668,1,8,0:0:0:0:
192,192,9668,1,0,0:0:0:0:
64,192,9895,1,0,0:0:0:0:
448,192,9895,1,0,0:0:0:0:
64,192,10009,1,0,0:0:0:0:
192,192,10122,1,8,0:0:0:0:
320,192,10122,1,0,0:0:0:0:
448,192,10122,1,0,0:0:0:0:
448,192,10350,1,0,0:0:0:0:
192,192,10463,1,0,0:0:0:0:
64,192,10577,1,8,0:0:0:0:
320,192,10577,1,0,0:0:0:0:
448,192,10577,1,0,0:0:0:0:
192,192,10691,1,0,0:0:0:0:
320,192,10804,1,0,0:0:0:0:
64,192,10918,1,0,0:0:0:0:
192,192,11032,1,8,0:0:0:0:
448,192,11032,1,0,0:0:0:0:
320,192,11032,1,0,0:0:0:0:
64,192,11145,1,0,0:0:0:0:
320,192,11372,1,0,0:0:0:0:
448,192,11372,1,0,0:0:0:0:
192,192,11486,1,8,0:0:0:0:
64,192,11486,1,0,0:0:0:0:
448,192,11713,1,0,0:0:0:0:
320,192,11713,1,0,0:0:0:0:
448,192,11827,1,0,0:0:0:0:
192,192,11827,1,0,0:0:0:0:
64,192,11941,1,8,0:0:0:0:
320,192,11941,1,0,0:0:0:0:
192,192,11941,1,0,0:0:0:0:
64,192,12168,1,0,0:0:0:0:
320,192,12282,1,0,0:0:0:0:
192,192,12395,1,8,0:0:0:0:
448,192,12395,1,0,0:0:0:0:
64,192,12395,1,0,0:0:0:0:
320,192,12509,1,0,0:0:0:0:
192,192,12622,1,0,0:0:0:0:
448,192,12736,1,0,0:0:0:0:
320,192,12850,1,8,0:0:0:0:
192,192,12850,1,0,0:0:0:0:
64,192,12850,1,0,0:0:0:0:
448,192,12963,1,0,0:0:0:0:
64,192,13191,1,0,0:0:0:0:
192,192,13191,1,0,0:0:0:0:
448,192,13304,1,8,0:0:0:0:
320,192,13304,1,0,0:0:0:0:
448,192,13532,1,0,0:0:0:0:
64,192,13532,1,0,0:0:0:0:
448,192,13645,1,0,0:0:0:0:
320,192,13759,1,8,0:0:0:0:
192,192,13759,1,0,0:0:0:0:
64,192,13759,1,0,0:0:0:0:
64,192,13986,1,0,0:0:0:0:
320,192,14100,1,0,0:0:0:0:
448,192,14213,1,8,0:0:0:0:
192,192,14213,1,0,0:0:0:0:
64,192,14213,1,0,0:0:0:0:
320,192,14327,1,0,0:0:0:0:
192,192,14441,1,0,0:0:0:0:
448,192,14554,1,0,0:0:0:0:
320,192,14668,1,8,0:0:0:0:
192,192,14668,1,0,0:0:0:0:
64,192,14668,1,0,0:0:0:0:
448,192,14782,1,0,0:0:0:0:
192,192,15009,1,0,0:0:0:0:
64,192,15009,1,0,0:0:0:0:
320,192,15122,1,8,0:0:0:0:
448,192,15122,1,0,0:0:0:0:
64,192,15350,1,0,0:0:0:0:
192,192,15350,1,0,0:0:0:0:
64,192,15463,1,0,0:0:0:0:
320,192,15463,1,0,0:0:0:0:
448,192,15577,1,8,0:0:0:0:
192,192,15577,1,0,0:0:0:0:
320,192,15577,1,0,0:0:0:0:
192,192,15804,1,8,0:0:0:0:
448,192,15804,1,0,0:0:0:0:
320,192,15918,1,0,0:0:0:0:
192,192,16032,1,8,0:0:0:0:
448,192,16032,1,0,0:0:0:0:
64,192,16032,1,0,0:0:0:0:
320,192,16145,1,0,0:0:0:0:
448,192,16259,1,8,0:0:0:0:
192,192,16259,1,0,0:0:0:0:
64,192,16372,1,0,0:0:0:0:
320,192,16486,1,8,0:0:0:0:
448,192,16486,1,0,0:0:0:0:
192,192,16486,1,0,0:0:0:0:
320,192,16713,1,8,0:0:0:0:
64,192,16713,1,0,0:0:0:0:
192,192,16827,1,0,0:0:0:0:
448,192,16827,1,0,0:0:0:0:
64,192,16941,1,8,0:0:0:0:
320,192,16941,1,0,0:0:0:0:
448,192,17054,1,0,0:0:0:0:
192,192,17168,1,8,0:0:0:0:
64,192,17168,1,0,0:0:0:0:
320,192,17168,1,0,0:0:0:0:
64,192,17282,1,0,0:0:0:0:
448,192,17282,1,0,0:0:0:0:
320,192,17395,1,8,0:0:0:0:
192,192,17395,1,0,0:0:0:0:
448,192,17395,1,0,0:0:0:0:
192,192,17622,1,8,0:0:0:0:
448,192,17622,1,0,0:0:0:0:
320,192,17736,1,0,0:0:0:0:
64,192,17850,1,8,0:0:0:0:
448,192,17850,1,0,0:0:0:0:
192,192,17850,1,0,0:0:0:0:
320,192,17963,1,0,0:0:0:0:
448,192,18077,1,8,0:0:0:0:
192,192,18077,1,0,0:0:0:0:
64,192,18191,1,0,0:0:0:0:
320,192,18304,1,8,0:0:0:0:
448,192,18304,1,0,0:0:0:0:
192,192,18304,1,0,0:0:0:0:
320,192,18532,1,8,0:0:0:0:
64,192,18532,1,0,0:0:0:0:
192,192,18645,1,0,0:0:0:0:
448,192,18645,1,0,0:0:0:0:
64,192,18759,1,8,0:0:0:0:
320,192,18759,1,0,0:0:0:0:
192,192,18872,1,0,0:0:0:0:
64,192,18986,1,8,0:0:0:0:
448,192,18986,1,0,0:0:0:0:
320,192,18986,1,0,0:0:0:0:
448,192,19100,1,0,0:0:0:0:
192,192,19100,1,0,0:0:0:0:
192,192,19213,1,8,0:0:0:0:
64,192,19213,1,0,0:0:0:0:
192,192,19327,1,8,0:0:0:0:
64,192,19327,1,0,0:0:0:0:
448,192,19441,1,8,0:0:0:0:
320,192,19441,1,0,0:0:0:0:
320,192,19554,1,8,0:0:0:0:
448,192,19554,1,0,0:0:0:0:
192,192,19668,1,8,0:0:0:0:
64,192,19668,1,0,0:0:0:0:
64,192,19782,1,8,0:0:0:0:
192,192,19782,1,0,0:0:0:0:
320,192,19895,1,8,0:0:0:0:
448,192,19895,1,0,0:0:0:0:
448,192,20009,1,8,0:0:0:0:
320,192,20009,1,0,0:0:0:0:
64,192,20122,1,8,0:0:0:0:
192,192,20122,1,0,0:0:0:0:
192,192,20236,1,8,0:0:0:0:
64,192,20236,1,0,0:0:0:0:
448,192,20350,1,8,0:0:0:0:
320,192,20350,1,0,0:0:0:0:
320,192,20463,1,8,0:0:0:0:
448,192,20463,1,0,0:0:0:0:
192,192,20577,1,8,0:0:0:0:
64,192,20577,1,0,0:0:0:0:
64,192,20691,1,8,0:0:0:0:
192,192,20691,1,0,0:0:0:0:
320,192,20804,1,8,0:0:0:0:
448,192,20804,1,0,0:0:0:0:
448,192,20918,1,8,0:0:0:0:
320,192,20918,1,0,0:0:0:0:
448,192,21032,1,8,0:0:0:0:
320,192,21032,1,2,0:0:0:0:
64,192,21032,1,0,0:0:0:0:
192,192,21032,1,0,0:0:0:0:
64,192,21486,1,0,0:0:0:0:
320,192,21941,1,0,0:0:0:0:
64,192,22622,1,8,0:0:0:0:
448,192,22622,1,0,0:0:0:0:
64,192,22736,1,8,0:0:0:0:
448,192,22736,1,0,0:0:0:0:
64,192,22850,1,4,0:0:0:0:
192,192,22850,1,2,0:0:0:0:
448,192,22850,1,0,0:0:0:0:
64,192,23077,1,0,0:0:0:70:hhclose.wav
320,192,23077,1,0,0:0:0:0:
192,192,23191,1,0,0:0:0:0:
320,192,23304,1,4,0:0:0:0:
448,192,23304,1,2,0:0:0:0:
64,192,23304,1,8,0:0:0:0:
192,192,23418,1,0,0:0:0:0:
64,192,23532,1,0,0:0:0:70:hhclose.wav
320,192,23532,1,0,0:0:0:0:
448,192,23645,1,0,0:0:0:0:
192,192,23759,1,4,0:0:0:0:
320,192,23759,1,2,0:0:0:0:
64,192,23759,1,0,0:0:0:0:
192,192,23986,1,0,0:0:0:70:hhclose.wav
320,192,23986,1,0,0:0:0:0:
448,192,24100,1,0,0:0:0:0:
64,192,24213,1,4,0:0:0:0:
192,192,24213,1,2,0:0:0:0:
320,192,24213,1,8,0:0:0:0:
448,192,24327,1,0,0:0:0:0:
320,192,24441,1,0,0:0:0:70:hhclose.wav
192,192,24441,1,0,0:0:0:0:
64,192,24554,1,0,0:0:0:0:
448,192,24668,1,4,0:0:0:0:
320,192,24668,1,2,0:0:0:0:
192,192,24668,1,0,0:0:0:0:
64,192,24895,1,0,0:0:0:70:hhclose.wav
192,192,24895,1,0,0:0:0:0:
448,192,25009,1,0,0:0:0:0:
192,192,25122,1,4,0:0:0:0:
320,192,25122,1,2,0:0:0:0:
64,192,25122,1,8,0:0:0:0:
448,192,25236,1,0,0:0:0:0:
192,192,25350,1,0,0:0:0:70:hhclose.wav
320,192,25350,1,0,0:0:0:0:
448,192,25463,1,0,0:0:0:0:
64,192,25577,1,4,0:0:0:0:
192,192,25577,1,2,0:0:0:0:
320,192,25577,1,0,0:0:0:0:
64,192,25804,1,0,0:0:0:70:hhclose.wav
320,192,26032,1,2,0:0:0:0:
448,192,26032,1,8,0:0:0:0:
64,192,26032,1,0,0:0:0:0:
192,192,26259,1,0,0:0:0:70:hhclose.wav
64,192,26486,1,4,0:0:0:0:
320,192,26486,1,2,0:0:0:0:
448,192,26486,1,0,0:0:0:0:
320,192,26713,1,0,0:0:0:70:hhclose.wav
192,192,26713,1,0,0:0:0:0:
64,192,26827,1,0,0:0:0:0:
192,192,26941,1,4,0:0:0:0:
448,192,26941,1,2,0:0:0:0:
320,192,26941,1,8,0:0:0:0:
64,192,27054,1,0,0:0:0:0:
448,192,27168,1,0,0:0:0:70:hhclose.wav
320,192,27168,1,0,0:0:0:0:
64,192,27282,1,0,0:0:0:0:
320,192,27395,1,4,0:0:0:0:
192,192,27395,1,2,0:0:0:0:
448,192,27395,1,0,0:0:0:0:
192,192,27622,1,0,0:0:0:70:hhclose.wav
320,192,27622,1,0,0:0:0:0:
448,192,27736,1,0,0:0:0:0:
64,192,27850,1,4,0:0:0:0:
192,192,27850,1,2,0:0:0:0:
320,192,27850,1,8,0:0:0:0:
448,192,27963,1,0,0:0:0:0:
192,192,28077,1,0,0:0:0:70:hhclose.wav
64,192,28077,1,0,0:0:0:0:
320,192,28191,1,0,0:0:0:0:
448,192,28304,1,4,0:0:0:0:
64,192,28304,1,2,0:0:0:0:
192,192,28304,1,0,0:0:0:0:
192,192,28532,1,0,0:0:0:70:hhclose.wav
448,192,28532,1,0,0:0:0:0:
320,192,28645,1,0,0:0:0:0:
64,192,28759,1,4,0:0:0:0:
192,192,28759,1,2,0:0:0:0:
448,192,28759,1,8,0:0:0:0:
320,192,28872,1,0,0:0:0:0:
64,192,28986,1,0,0:0:0:70:hhclose.wav
448,192,28986,1,0,0:0:0:0:
192,192,29100,1,0,0:0:0:0:
320,192,29213,1,4,0:0:0:0:
448,192,29213,1,2,0:0:0:0:
64,192,29213,1,0,0:0:0:0:
192,192,29441,1,0,0:0:0:70:hhclose.wav
320,192,29441,1,0,0:0:0:0:
448,192,29554,1,0,0:0:0:0:
192,192,29668,1,2,0:0:0:0:
64,192,29668,1,8,0:0:0:0:
320,192,29668,1,0,0:0:0:0:
448,192,29895,1,8,0:0:0:70:hhclose.wav
320,192,29895,1,8,0:0:0:0:
320,192,30009,1,8,0:0:0:0:
448,192,30009,1,0,0:0:0:0:
64,192,30122,1,4,0:0:0:0:
192,192,30122,1,2,0:0:0:0:
448,192,30122,1,0,0:0:0:0:
320,192,30350,1,0,0:0:0:70:hhclose.wav
448,192,30350,1,0,0:0:0:0:
192,192,30463,1,0,0:0:0:0:
320,192,30577,1,4,0:0:0:0:
448,192,30577,1,2,0:0:0:0:
64,192,30577,1,8,0:0:0:0:
192,192,30691,1,0,0:0:0:0:
64,192,30804,1,0,0:0:0:70:hhclose.wav
320,192,30804,1,0,0:0:0:0:
448,192,30918,1,0,0:0:0:0:
192,192,31032,1,4,0:0:0:0:
320,192,31032,1,2,0:0:0:0:
64,192,31032,1,0,0:0:0:0:
448,192,31259,1,0,0:0:0:70:hhclose.wav
320,192,31259,1,0,0:0:0:0:
192,192,31372,1,0,0:0:0:0:
64,192,31486,1,4,0:0:0:0:
320,192,31486,1,2,0:0:0:0:
448,192,31486,1,8,0:0:0:0:
192,192,31600,1,0,0:0:0:0:
320,192,31713,1,0,0:0:0:70:hhclose.wav
64,192,31713,1,0,0:0:0:0:
192,192,31827,1,0,0:0:0:0:
448,192,31941,1,4,0:0:0:0:
64,192,31941,1,2,0:0:0:0:
320,192,31941,1,0,0:0:0:0:
448,192,32168,1,0,0:0:0:70:hhclose.wav
192,192,32168,1,0,0:0:0:0:
320,192,32282,1,0,0:0:0:0:
64,192,32395,1,4,0:0:0:0:
192,192,32395,1,2,0:0:0:0:
448,192,32395,1,8,0:0:0:0:
320,192,32509,1,0,0:0:0:0:
64,192,32622,1,0,0:0:0:70:hhclose.wav
448,192,32622,1,0,0:0:0:0:
192,192,32736,1,0,0:0:0:0:
320,192,32850,1,4,0:0:0:0:
448,192,32850,1,2,0:0:0:0:
64,192,32850,1,0,0:0:0:0:
64,192,33077,1,0,0:0:0:70:hhclose.wav
192,192,33304,1,2,0:0:0:0:
320,192,33304,1,8,0:0:0:0:
64,192,33304,1,0,0:0:0:0:
448,192,33532,1,0,0:0:0:70:hhclose.wav
64,192,33759,1,4,0:0:0:0:
192,192,33759,1,2,0:0:0:0:
320,192,33759,1,0,0:0:0:0:
448,192,33986,1,0,0:0:0:70:hhclose.wav
192,192,34100,1,0,0:0:0:0:
320,192,34213,1,4,0:0:0:0:
448,192,34213,1,2,0:0:0:0:
64,192,34213,1,8,0:0:0:0:
192,192,34327,1,0,0:0:0:0:
64,192,34441,1,0,0:0:0:70:hhclose.wav
448,192,34441,1,0,0:0:0:0:
192,192,34554,1,0,0:0:0:0:
64,192,34668,1,4,0:0:0:0:
320,192,34668,1,2,0:0:0:0:
448,192,34668,1,0,0:0:0:0:
64,192,34895,1,0,0:0:0:70:hhclose.wav
448,192,34895,1,0,0:0:0:0:
192,192,35009,1,0,0:0:0:0:
448,192,35122,1,4,0:0:0:0:
320,192,35122,1,2,0:0:0:0:
64,192,35122,1,8,0:0:0:0:
192,192,35236,1,0,0:0:0:0:
448,192,35350,1,0,0:0:0:70:hhclose.wav
64,192,35350,1,0,0:0:0:0:
192,192,35463,1,0,0:0:0:0:
320,192,35577,1,4,0:0:0:0:
448,192,35577,1,2,0:0:0:0:
64,192,35577,1,0,0:0:0:0:
64,192,35804,1,0,0:0:0:70:hhclose.wav
192,192,35804,1,0,0:0:0:0:
448,192,35918,1,0,0:0:0:0:
192,192,36032,1,4,0:0:0:0:
320,192,36032,1,2,0:0:0:0:
64,192,36032,1,8,0:0:0:0:
448,192,36145,1,0,0:0:0:0:
320,192,36259,1,0,0:0:0:70:hhclose.wav
192,192,36259,1,0,0:0:0:0:
448,192,36372,1,0,0:0:0:0:
64,192,36486,1,4,0:0:0:0:
192,192,36486,1,2,0:0:0:0:
320,192,36486,1,0,0:0:0:0:
192,192,36941,1,8,0:0:0:0:
448,192,36941,1,0,0:0:0:0:
192,192,37054,1,8,0:0:0:0:
448,192,37054,1,0,0:0:0:0:
64,192,37168,1,8,0:0:0:0:
320,192,37168,1,0,0:0:0:0:
64,192,37282,1,8,0:0:0:0:
320,192,37282,1,0,0:0:0:0:
64,192,37395,1,4,0:0:0:0:
192,192,37395,1,2,0:0:0:0:
448,192,37395,1,0,0:0:0:0:
320,192,37509,1,0,0:0:0:0:
448,192,37622,1,0,0:0:0:70:hhclose.wav
192,192,37622,1,0,0:0:0:0:
64,192,37736,1,0,0:0:0:0:
320,192,37850,1,4,0:0:0:0:
448,192,37850,1,2,0:0:0:0:
192,192,37850,1,8,0:0:0:0:
64,192,37963,1,0,0:0:0:0:
192,192,38077,1,0,0:0:0:70:hhclose.wav
320,192,38077,1,0,0:0:0:0:
448,192,38191,1,0,0:0:0:0:
192,192,38304,1,4,0:0:0:0:
320,192,38304,1,2,0:0:0:0:
64,192,38304,1,0,0:0:0:0:
448,192,38418,1,0,0:0:0:0:
320,192,38532,1,0,0:0:0:70:hhclose.wav
192,192,38532,1,0,0:0:0:0:
64,192,38645,1,0,0:0:0:0:
320,192,38759,1,4,0:0:0:0:
448,192,38759,1,2,0:0:0:0:
192,192,38759,1,8,0:0:0:0:
64,192,38872,1,0,0:0:0:0:
320,192,38986,1,0,0:0:0:70:hhclose.wav
448,192,38986,1,0,0:0:0:0:
192,192,39100,1,0,0:0:0:0:
64,192,39213,1,4,0:0:0:0:
320,192,39213,1,2,0:0:0:0:
448,192,39213,1,0,0:0:0:0:
192,192,39327,1,0,0:0:0:0:
64,192,39441,1,0,0:0:0:70:hhclose.wav
448,192,39441,1,0,0:0:0:0:
320,192,39554,1,0,0:0:0:0:
448,192,39668,1,4,0:0:0:0:
192,192,39668,1,2,0:0:0:0:
64,192,39668,1,8,0:0:0:0:
320,192,39782,1,0,0:0:0:0:
448,192,39895,1,0,0:0:0:70:hhclose.wav
192,192,39895,1,0,0:0:0:0:
320,192,40009,1,0,0:0:0:0:
64,192,40122,1,4,0:0:0:0:
192,192,40122,1,2,0:0:0:0:
448,192,40122,1,0,0:0:0:0:
320,192,40236,1,0,0:0:0:0:
448,192,40350,1,0,0:0:0:70:hhclose.wav
64,192,40350,1,0,0:0:0:0:
192,192,40463,1,0,0:0:0:0:
320,192,40577,1,2,0:0:0:0:
448,192,40577,1,8,0:0:0:0:
64,192,40577,1,0,0:0:0:0:
192,192,40691,1,0,0:0:0:0:
64,192,40804,1,0,0:0:0:70:hhclose.wav
320,192,40804,1,0,0:0:0:0:
448,192,40918,1,0,0:0:0:0:
320,192,41032,1,4,0:0:0:0:
192,192,41032,1,2,0:0:0:0:
448,192,41145,1,0,0:0:0:0:
64,192,41259,1,0,0:0:0:70:hhclose.wav
192,192,41259,1,0,0:0:0:0:
448,192,41372,1,0,0:0:0:0:
64,192,41486,1,4,0:0:0:0:
192,192,41486,1,2,0:0:0:0:
320,192,41486,1,8,0:0:0:0:
448,192,41600,1,0,0:0:0:0:
320,192,41713,1,0,0:0:0:70:hhclose.wav
64,192,41713,1,0,0:0:0:0:
192,192,41827,1,0,0:0:0:0:
320,192,41941,1,4,0:0:0:0:
64,192,41941,1,2,0:0:0:0:
448,192,41941,1,0,0:0:0:0:
192,192,42054,1,0,0:0:0:0:
64,192,42168,1,0,0:0:0:70:hhclose.wav
320,192,42168,1,0,0:0:0:0:
448,192,42282,1,0,0:0:0:0:
64,192,42395,1,4,0:0:0:0:
192,192,42395,1,2,0:0:0:0:
320,192,42395,1,8,0:0:0:0:
448,192,42509,1,0,0:0:0:0:
320,192,42622,1,0,0:0:0:70:hhclose.wav
192,192,42622,1,0,0:0:0:0:
64,192,42736,1,0,0:0:0:0:
320,192,42850,1,4,0:0:0:0:
448,192,42850,1,2,0:0:0:0:
192,192,42850,1,0,0:0:0:0:
64,192,42963,1,0,0:0:0:0:
192,192,43077,1,0,0:0:0:70:hhclose.wav
320,192,43077,1,0,0:0:0:0:
448,192,43191,1,0,0:0:0:0:
64,192,43304,1,4,0:0:0:0:
192,192,43304,1,2,0:0:0:0:
320,192,43304,1,8,0:0:0:0:
448,192,43418,1,0,0:0:0:0:
320,192,43532,1,0,0:0:0:70:hhclose.wav
192,192,43532,1,0,0:0:0:0:
64,192,43645,1,0,0:0:0:0:
192,192,43759,1,4,0:0:0:0:
448,192,43759,1,2,0:0:0:0:
320,192,43759,1,0,0:0:0:0:
64,192,43872,1,0,0:0:0:0:
192,192,43986,1,0,0:0:0:70:hhclose.wav
448,192,43986,1,0,0:0:0:0:
320,192,44100,1,0,0:0:0:0:
448,192,44213,1,2,0:0:0:0:
192,192,44213,1,8,0:0:0:0:
64,192,44213,1,0,0:0:0:0:
320,192,44327,1,0,0:0:0:0:
64,192,44441,1,0,0:0:0:70:hhclose.wav
192,192,44441,1,8,0:0:0:0:
64,192,44554,1,0,0:0:0:0:
192,192,44554,1,8,0:0:0:0:
320,192,44668,1,4,0:0:0:0:
448,192,44668,1,2,0:0:0:0:
64,192,44668,1,0,0:0:0:0:
192,192,44782,1,0,0:0:0:0:
64,192,44895,1,0,0:0:0:70:hhclose.wav
448,192,44895,1,0,0:0:0:0:
320,192,45009,1,0,0:0:0:0:
64,192,45122,1,4,0:0:0:0:
192,192,45122,1,2,0:0:0:0:
448,192,45122,1,8,0:0:0:0:
320,192,45236,1,0,0:0:0:0:
448,192,45350,1,0,0:0:0:70:hhclose.wav
192,192,45350,1,0,0:0:0:0:
64,192,45463,1,0,0:0:0:0:
320,192,45577,1,4,0:0:0:0:
448,192,45577,1,2,0:0:0:0:
192,192,45577,1,0,0:0:0:0:
64,192,45691,1,0,0:0:0:0:
192,192,45804,1,0,0:0:0:70:hhclose.wav
320,192,45804,1,0,0:0:0:0:
448,192,45918,1,0,0:0:0:0:
192,192,46032,1,4,0:0:0:0:
320,192,46032,1,2,0:0:0:0:
64,192,46032,1,8,0:0:0:0:
448,192,46145,1,0,0:0:0:0:
64,192,46259,1,0,0:0:0:70:hhclose.wav
192,192,46259,1,0,0:0:0:0:
448,192,46372,1,0,0:0:0:0:
320,192,46486,1,4,0:0:0:0:
192,192,46486,1,2,0:0:0:0:
64,192,46486,1,0,0:0:0:0:
448,192,46600,1,0,0:0:0:0:
64,192,46713,1,0,0:0:0:70:hhclose.wav
320,192,46713,1,0,0:0:0:0:
192,192,46827,1,0,0:0:0:0:
448,192,46941,1,4,0:0:0:0:
320,192,46941,1,2,0:0:0:0:
64,192,46941,1,8,0:0:0:0:
192,192,47054,1,0,0:0:0:0:
320,192,47168,1,0,0:0:0:70:hhclose.wav
448,192,47168,1,0,0:0:0:0:
64,192,47282,1,0,0:0:0:0:
192,192,47395,1,4,0:0:0:0:
320,192,47395,1,2,0:0:0:0:
448,192,47395,1,0,0:0:0:0:
64,192,47509,1,0,0:0:0:0:
448,192,47622,1,0,0:0:0:70:hhclose.wav
320,192,47622,1,0,0:0:0:0:
64,192,47736,1,0,0:0:0:0:
320,192,47850,1,2,0:0:0:0:
448,192,47850,1,8,0:0:0:0:
192,192,47850,1,0,0:0:0:0:
64,192,47963,1,0,0:0:0:0:
192,192,48077,1,0,0:0:0:70:hhclose.wav
320,192,48077,1,0,0:0:0:0:
448,192,48191,1,0,0:0:0:0:
192,192,48304,1,4,0:0:0:0:
320,192,48304,1,2,0:0:0:0:
64,192,48304,1,0,0:0:0:0:
448,192,48418,1,0,0:0:0:0:
320,192,48532,1,0,0:0:0:70:hhclose.wav
192,192,48532,1,0,0:0:0:0:
448,192,48645,1,0,0:0:0:0:
64,192,48759,1,4,0:0:0:0:
192,192,48759,1,2,0:0:0:0:
320,192,48759,1,8,0:0:0:0:
448,192,48872,1,0,0:0:0:0:
320,192,48986,1,0,0:0:0:70:hhclose.wav
64,192,48986,1,0,0:0:0:0:
192,192,49100,1,0,0:0:0:0:
320,192,49213,1,4,0:0:0:0:
64,192,49213,1,2,0:0:0:0:
448,192,49213,1,0,0:0:0:0:
192,192,49327,1,0,0:0:0:0:
64,192,49441,1,0,0:0:0:70:hhclose.wav
320,192,49441,1,0,0:0:0:0:
448,192,49554,1,0,0:0:0:0:
64,192,49668,1,4,0:0:0:0:
320,192,49668,1,2,0:0:0:0:
192,192,49668,1,8,0:0:0:0:
448,192,49782,1,0,0:0:0:0:
192,192,49895,1,0,0:0:0:70:hhclose.wav
320,192,49895,1,0,0:0:0:0:
64,192,50009,1,0,0:0:0:0:
320,192,50122,5,8,0:0:0:0:
448,192,50122,1,0,0:0:0:0:
320,192,50236,1,8,0:0:0:0:
448,192,50236,1,0,0:0:0:0:
192,192,50350,1,8,0:0:0:0:
64,192,50350,1,0,0:0:0:0:
192,192,50463,1,8,0:0:0:0:
64,192,50463,1,0,0:0:0:0:
320,192,50577,1,8,0:0:0:0:
448,192,50577,1,0,0:0:0:0:
320,192,50691,1,8,0:0:0:0:
448,192,50691,1,0,0:0:0:0:
64,192,50804,1,8,0:0:0:0:
192,192,50804,1,0,0:0:0:0:
192,192,50918,1,8,0:0:0:0:
64,192,50918,1,0,0:0:0:0:
448,192,51032,1,8,0:0:0:0:
320,192,51032,1,0,0:0:0:0:
448,192,51145,1,8,0:0:0:0:
320,192,51145,1,0,0:0:0:0:
192,192,51259,1,8,0:0:0:0:
64,192,51259,1,0,0:0:0:0:
64,192,51372,1,8,0:0:0:0:
192,192,51372,1,0,0:0:0:0:
320,192,51486,1,8,0:0:0:0:
448,192,51486,1,0,0:0:0:0:
320,192,51600,1,8,0:0:0:0:
448,192,51600,1,0,0:0:0:0:
64,192,51713,1,8,0:0:0:0:
192,192,51713,1,0,0:0:0:0:
192,192,51827,1,8,0:0:0:0:
64,192,51827,1,0,0:0:0:0:
320,192,51941,1,2,0:0:0:0:
448,192,51941,1,4,0:0:0:0:
64,192,51941,128,0,52168:0:0:0:0:
192,192,52168,1,0,0:0:0:70:hhclose.wav
192,192,52395,1,4,0:0:0:0:
64,192,52395,128,0,52622:0:0:0:0:
448,192,52395,1,2,0:0:0:0:
320,192,52395,1,8,0:0:0:0:
448,192,52622,1,0,0:0:0:70:hhclose.wav
64,192,52850,128,0,53077:0:0:0:0:
448,192,52850,1,2,0:0:0:0:
320,192,52850,1,4,0:0:0:0:
192,192,53077,1,0,0:0:0:70:hhclose.wav
64,192,53191,128,0,53304:0:0:0:0:
320,192,53304,1,4,0:0:0:0:
192,192,53304,1,2,0:0:0:0:
448,192,53304,1,8,0:0:0:0:
320,192,53532,1,0,0:0:0:70:hhclose.wav
64,192,53532,128,0,53645:0:0:0:0:
448,192,53759,128,0,53986:0:0:0:0:
320,192,53759,1,2,0:0:0:0:
192,192,53759,1,4,0:0:0:0:
64,192,53986,1,0,0:0:0:70:hhclose.wav
448,192,54213,128,0,54441:0:0:0:0:
192,192,54213,1,2,0:0:0:0:
64,192,54213,1,4,0:0:0:0:
320,192,54213,1,8,0:0:0:0:
192,192,54441,1,0,0:0:0:70:hhclose.wav
448,192,54668,128,0,54895:0:0:0:0:
64,192,54668,1,2,0:0:0:0:
320,192,54668,1,4,0:0:0:0:
192,192,54895,1,0,0:0:0:70:hhclose.wav
448,192,55009,128,0,55122:0:0:0:0:
192,192,55122,1,4,0:0:0:0:
64,192,55122,1,2,0:0:0:0:
320,192,55122,1,8,0:0:0:0:
320,192,55350,1,0,0:0:0:70:hhclose.wav
448,192,55350,128,0,55463:0:0:0:0:
320,192,55577,128,0,55804:0:0:0:0:
192,192,55577,1,2,0:0:0:0:
64,192,55577,1,4,0:0:0:0:
448,192,55804,1,0,0:0:0:70:hhclose.wav
320,192,56032,128,0,56259:0:0:0:0:
448,192,56032,1,2,0:0:0:0:
64,192,56032,1,4,0:0:0:0:
192,192,56032,1,8,0:0:0:0:
192,192,56259,1,0,0:0:0:70:hhclose.wav
320,192,56486,128,0,56713:0:0:0:0:
448,192,56486,1,2,0:0:0:0:
64,192,56486,1,4,0:0:0:0:
64,192,56713,1,0,0:0:0:70:hhclose.wav
320,192,56827,128,0,56941:0:0:0:0:
192,192,56941,1,4,0:0:0:0:
448,192,56941,1,2,0:0:0:0:
64,192,56941,1,8,0:0:0:0:
448,192,57168,1,0,0:0:0:70:hhclose.wav
320,192,57168,128,0,57282:0:0:0:0:
320,192,57395,128,4,57622:0:0:0:0:
192,192,57395,1,2,0:0:0:0:
64,192,57395,1,0,0:0:0:0:
448,192,57622,1,0,0:0:0:70:hhclose.wav
320,192,57850,128,0,58077:0:0:0:0:
448,192,57850,1,2,0:0:0:0:
64,192,57850,1,8,0:0:0:0:
192,192,57850,1,4,0:0:0:0:
448,192,58077,1,0,0:0:0:70:hhclose.wav
192,192,58304,128,0,58532:0:0:0:0:
320,192,58304,1,2,0:0:0:0:
64,192,58304,1,4,0:0:0:0:
64,192,58532,1,0,0:0:0:70:hhclose.wav
192,192,58645,128,0,58759:0:0:0:0:
64,192,58759,1,4,0:0:0:0:
448,192,58759,1,2,0:0:0:0:
320,192,58759,1,8,0:0:0:0:
64,192,58986,1,8,0:0:0:0:
448,192,58986,1,8,0:0:0:70:hhclose.wav
192,192,58986,128,0,59100:0:0:0:0:
64,192,59100,1,8,0:0:0:0:
448,192,59100,1,0,0:0:0:0:
64,192,59213,1,4,0:0:0:0:
192,192,59213,1,2,0:0:0:0:
448,192,59213,128,0,59441:0:0:0:0:
320,192,59441,1,0,0:0:0:70:hhclose.wav
192,192,59668,1,4,0:0:0:0:
320,192,59668,1,2,0:0:0:0:
448,192,59668,128,0,59895:0:0:0:0:
64,192,59668,1,8,0:0:0:0:
64,192,59895,1,0,0:0:0:70:hhclose.wav
192,192,60122,1,4,0:0:0:0:
64,192,60122,1,2,0:0:0:0:
448,192,60122,128,0,60350:0:0:0:0:
320,192,60350,1,0,0:0:0:70:hhclose.wav
448,192,60463,128,0,60577:0:0:0:0:
64,192,60577,1,4,0:0:0:0:
320,192,60577,1,2,0:0:0:0:
192,192,60577,1,8,0:0:0:0:
192,192,60804,1,0,0:0:0:70:hhclose.wav
448,192,60804,128,0,60918:0:0:0:0:
320,192,61032,1,4,0:0:0:0:
192,192,61032,1,2,0:0:0:0:
64,192,61032,128,0,61259:0:0:0:0:
448,192,61259,1,0,0:0:0:70:hhclose.wav
448,192,61486,1,4,0:0:0:0:
192,192,61486,1,2,0:0:0:0:
64,192,61486,128,0,61713:0:0:0:0:
320,192,61486,1,8,0:0:0:0:
320,192,61713,1,0,0:0:0:70:hhclose.wav
192,192,61941,1,4,0:0:0:0:
448,192,61941,1,2,0:0:0:0:
64,192,61941,128,0,62168:0:0:0:0:
320,192,62168,1,0,0:0:0:70:hhclose.wav
64,192,62282,128,0,62395:0:0:0:0:
192,192,62395,1,4,0:0:0:0:
448,192,62395,1,2,0:0:0:0:
320,192,62395,1,8,0:0:0:0:
192,192,62622,1,0,0:0:0:70:hhclose.wav
64,192,62622,128,0,62736:0:0:0:0:
448,192,62850,1,4,0:0:0:0:
192,192,62850,1,2,0:0:0:0:
320,192,62850,128,0,63077:0:0:0:0:
64,192,63077,1,0,0:0:0:70:hhclose.wav
448,192,63304,1,4,0:0:0:0:
192,192,63304,1,2,0:0:0:0:
320,192,63304,128,0,63532:0:0:0:0:
64,192,63304,1,8,0:0:0:0:
192,192,63532,1,0,0:0:0:70:hhclose.wav
448,192,63759,1,4,0:0:0:0:
64,192,63759,1,2,0:0:0:0:
320,192,63759,128,0,63986:0:0:0:0:
448,192,63986,1,0,0:0:0:70:hhclose.wav
320,192,64100,128,0,64213:0:0:0:0:
448,192,64213,1,4,0:0:0:0:
64,192,64213,1,2,0:0:0:0:
192,192,64213,1,8,0:0:0:0:
64,192,64441,1,0,0:0:0:70:hhclose.wav
320,192,64441,128,0,64554:0:0:0:0:
448,192,64668,1,4,0:0:0:0:
320,192,64668,1,2,0:0:0:0:
192,192,64668,128,0,64895:0:0:0:0:
64,192,64895,1,0,0:0:0:70:hhclose.wav
448,192,65122,1,4,0:0:0:0:
320,192,65122,1,2,0:0:0:0:
192,192,65122,128,0,65350:0:0:0:0:
64,192,65122,1,8,0:0:0:0:
64,192,65350,1,0,0:0:0:70:hhclose.wav
448,192,65577,1,4,0:0:0:0:
192,192,65577,1,2,0:0:0:0:
320,192,65577,128,0,65804:0:0:0:0:
448,192,65804,1,0,0:0:0:70:hhclose.wav
320,192,65918,128,0,66032:0:0:0:0:
192,192,66032,1,4,0:0:0:0:
64,192,66032,1,2,0:0:0:0:
448,192,66032,1,8,0:0:0:0:
448,192,66145,1,8,0:0:0:0:
192,192,66259,1,8,0:0:0:70:hhclose.wav
320,192,66259,128,0,66372:0:0:0:0:
64,192,66259,1,8,0:0:0:0:
448,192,66372,1,0,0:0:0:0:
64,192,66372,1,8,0:0:0:0:
64,192,66486,128,0,66713:0:0:0:0:
192,192,66486,1,2,0:0:0:0:
320,192,66486,1,4,0:0:0:0:
320,192,66713,1,0,0:0:0:70:hhclose.wav
64,192,66941,128,0,67168:0:0:0:0:
448,192,66941,1,2,0:0:0:0:
192,192,66941,1,4,0:0:0:0:
320,192,66941,1,8,0:0:0:0:
448,192,67168,1,0,0:0:0:70:hhclose.wav
64,192,67395,128,0,67622:0:0:0:0:
448,192,67395,1,2,0:0:0:0:
192,192,67395,1,4,0:0:0:0:
320,192,67622,1,0,0:0:0:70:hhclose.wav
64,192,67736,128,0,67850:0:0:0:0:
192,192,67850,1,4,0:0:0:0:
320,192,67850,1,2,0:0:0:0:
448,192,67850,1,8,0:0:0:0:
192,192,68077,1,0,0:0:0:70:hhclose.wav
64,192,68077,128,0,68191:0:0:0:0:
448,192,68304,128,0,68532:0:0:0:0:
192,192,68304,1,2,0:0:0:0:
320,192,68304,1,4,0:0:0:0:
64,192,68532,1,0,0:0:0:70:hhclose.wav
448,192,68759,128,0,68986:0:0:0:0:
320,192,68759,1,2,0:0:0:0:
64,192,68759,1,8,0:0:0:0:
192,192,68759,1,4,0:0:0:0:
320,192,68986,1,0,0:0:0:70:hhclose.wav
448,192,69213,128,0,69441:0:0:0:0:
64,192,69213,1,2,0:0:0:0:
192,192,69213,1,4,0:0:0:0:
320,192,69441,1,0,0:0:0:70:hhclose.wav
448,192,69554,128,0,69668:0:0:0:0:
320,192,69668,1,4,0:0:0:0:
64,192,69668,1,2,0:0:0:0:
192,192,69668,1,8,0:0:0:0:
192,192,69895,1,0,0:0:0:70:hhclose.wav
448,192,69895,128,0,70009:0:0:0:0:
320,192,70122,128,0,70350:0:0:0:0:
192,192,70122,1,2,0:0:0:0:
64,192,70122,1,4,0:0:0:0:
448,192,70350,1,0,0:0:0:70:hhclose.wav
320,192,70577,128,0,70804:0:0:0:0:
448,192,70577,1,2,0:0:0:0:
64,192,70577,1,4,0:0:0:0:
192,192,70577,1,8,0:0:0:0:
192,192,70804,1,0,0:0:0:70:hhclose.wav
448,192,71032,1,2,0:0:0:0:
64,192,71032,1,4,0:0:0:0:
320,192,71032,128,0,71259:0:0:0:0:
64,192,71259,1,0,0:0:0:70:hhclose.wav
320,192,71372,128,0,71486:0:0:0:0:
192,192,71486,1,4,0:0:0:0:
448,192,71486,1,2,0:0:0:0:
64,192,71486,1,8,0:0:0:0:
448,192,71713,1,0,0:0:0:70:hhclose.wav
320,192,71713,128,0,71827:0:0:0:0:
320,192,71941,128,0,72168:0:0:0:0:
192,192,71941,1,2,0:0:0:0:
64,192,71941,1,4,0:0:0:0:
448,192,72168,1,0,0:0:0:70:hhclose.wav
320,192,72395,128,0,72622:0:0:0:0:
448,192,72395,1,2,0:0:0:0:
64,192,72395,1,4,0:0:0:0:
192,192,72395,1,8,0:0:0:0:
448,192,72622,1,0,0:0:0:70:hhclose.wav
192,192,72850,128,0,73077:0:0:0:0:
320,192,72850,1,2,0:0:0:0:
64,192,72850,1,4,0:0:0:0:
64,192,73077,1,0,0:0:0:70:hhclose.wav
192,192,73191,128,0,73304:0:0:0:0:
64,192,73304,1,4,0:0:0:0:
448,192,73304,1,2,0:0:0:0:
320,192,73304,1,8,0:0:0:0:
64,192,73532,1,8,0:0:0:0:
448,192,73532,1,8,0:0:0:70:hhclose.wav
192,192,73532,128,0,73645:0:0:0:0:
64,192,73645,1,8,0:0:0:0:
448,192,73645,1,0,0:0:0:0:
64,192,73759,1,4,0:0:0:0:
320,192,73759,1,2,0:0:0:0:
448,192,73759,128,0,73986:0:0:0:0:
192,192,73986,1,0,0:0:0:70:hhclose.wav
320,192,74213,1,4,0:0:0:0:
192,192,74213,1,2,0:0:0:0:
448,192,74213,128,0,74441:0:0:0:0:
64,192,74213,1,8,0:0:0:0:
64,192,74441,1,0,0:0:0:70:hhclose.wav
320,192,74668,1,4,0:0:0:0:
64,192,74668,1,2,0:0:0:0:
448,192,74668,128,0,74895:0:0:0:0:
192,192,74895,1,0,0:0:0:70:hhclose.wav
448,192,75009,128,0,75122:0:0:0:0:
64,192,75122,1,4,0:0:0:0:
192,192,75122,1,2,0:0:0:0:
320,192,75122,1,8,0:0:0:0:
320,192,75350,1,0,0:0:0:70:hhclose.wav
448,192,75350,128,0,75463:0:0:0:0:
192,192,75577,1,4,0:0:0:0:
320,192,75577,1,2,0:0:0:0:
64,192,75577,128,0,75804:0:0:0:0:
448,192,75804,1,0,0:0:0:70:hhclose.wav
448,192,76032,1,4,0:0:0:0:
320,192,76032,1,2,0:0:0:0:
64,192,76032,128,0,76259:0:0:0:0:
192,192,76032,1,8,0:0:0:0:
192,192,76259,1,0,0:0:0:70:hhclose.wav
320,192,76486,1,4,0:0:0:0:
448,192,76486,1,2,0:0:0:0:
64,192,76486,128,0,76713:0:0:0:0:
192,192,76713,1,0,0:0:0:70:hhclose.wav
64,192,76827,128,0,76941:0:0:0:0:
320,192,76941,1,4,0:0:0:0:
448,192,76941,1,2,0:0:0:0:
192,192,76941,1,8,0:0:0:0:
320,192,77168,1,0,0:0:0:70:hhclose.wav
64,192,77168,128,0,77282:0:0:0:0:
448,192,77395,1,4,0:0:0:0:
320,192,77395,1,2,0:0:0:0:
192,192,77395,128,0,77622:0:0:0:0:
64,192,77622,1,0,0:0:0:70:hhclose.wav
448,192,77850,1,4,0:0:0:0:
320,192,77850,1,2,0:0:0:0:
192,192,77850,128,0,78077:0:0:0:0:
64,192,77850,1,8,0:0:0:0:
320,192,78077,1,0,0:0:0:70:hhclose.wav
448,192,78304,1,4,0:0:0:0:
64,192,78304,1,2,0:0:0:0:
192,192,78304,128,0,78532:0:0:0:0:
448,192,78532,1,0,0:0:0:70:hhclose.wav
192,192,78645,128,0,78759:0:0:0:0:
448,192,78759,1,4,0:0:0:0:
64,192,78759,1,2,0:0:0:0:
320,192,78759,1,8,0:0:0:0:
64,192,78986,1,0,0:0:0:70:hhclose.wav
192,192,78986,128,0,79100:0:0:0:0:
448,192,79213,1,4,0:0:0:0:
192,192,79213,1,2,0:0:0:0:
320,192,79213,128,0,79441:0:0:0:0:
64,192,79441,1,0,0:0:0:70:hhclose.wav
448,192,79668,1,4,0:0:0:0:
192,192,79668,1,2,0:0:0:0:
320,192,79668,128,0,79895:0:0:0:0:
64,192,79668,1,8,0:0:0:0:
64,192,79895,5,0,0:0:0:70:hhclose.wav
448,192,80122,1,4,0:0:0:0:
320,192,80122,1,2,0:0:0:0:
192,192,80122,128,0,80350:0:0:0:0:
448,192,80350,1,0,0:0:0:70:hhclose.wav
192,192,80463,128,0,80577:0:0:0:0:
320,192,80577,1,4,0:0:0:0:
64,192,80577,1,2,0:0:0:0:
448,192,80577,1,8,0:0:0:0:
64,192,80804,1,0,0:0:0:70:hhclose.wav
448,192,80804,1,0,0:0:0:0:
192,192,80804,128,0,80918:0:0:0:0:
64,192,81032,5,4,1:0:0:0:
448,192,81032,1,2,0:0:0:0:
192,192,81032,1,0,0:0:0:0:
320,192,81032,1,0,0:0:0:0:
