osu file format v14

[General]
AudioFilename: audio.mp3
AudioLeadIn: 0
PreviewTime: 168230
Countdown: 0
SampleSet: Soft
StackLeniency: 0.4
Mode: 0
LetterboxInBreaks: 0
WidescreenStoryboard: 0

[Editor]
Bookmarks: 197034
DistanceSpacing: 1.7
BeatDivisor: 8
GridSize: 32
TimelineZoom: 2.5

[Metadata]
Title:Bad Apple!! feat.nomico
TitleUnicode:Bad Apple!! feat.nomico
Artist:Masayoshi Minoshima
ArtistUnicode:Masayoshi Minoshima
Creator:squirrelpascals
Version:Hard!!
Source:東方Project
Tags:lovelight touhou
BeatmapID:1406439
BeatmapSetID:664516

[Difficulty]
HPDrainRate:5
CircleSize:6
OverallDifficulty:8
ApproachRate:8.3
SliderMultiplier:1.4
SliderTickRate:1

[Events]
//Background and Video events
0,0,"badapple.jpg",0,0
//Break Periods
//Storyboard Layer 0 (Background)
//Storyboard Layer 1 (Fail)
//Storyboard Layer 2 (Pass)
//Storyboard Layer 3 (Foreground)
//Storyboard Sound Samples

[TimingPoints]
2305,434.782608695652,4,2,1,50,1,0
2305,-133.333333333333,4,2,1,50,0,0
16219,-100,4,2,1,50,0,0
44043,-200,4,2,1,50,0,0
46652,-133.333333333333,4,2,1,50,0,0
46707,-133.333333333333,4,2,1,20,0,0
46870,-200,4,2,1,50,0,0
48392,-133.333333333333,4,2,1,50,0,0
48446,-133.333333333333,4,2,1,20,0,0
48718,-200,4,2,1,50,0,0
51870,-133.333333333333,4,2,1,50,0,0
51924,-133.333333333333,4,2,1,20,0,0
52196,-200,4,2,1,50,0,0
53609,-133.333333333333,4,2,1,50,0,0
53663,-133.333333333333,4,2,1,20,0,0
53826,-200,4,2,1,50,0,0
55348,-133.333333333333,4,2,1,50,0,0
55402,-133.333333333333,4,2,1,20,0,0
55674,-200,4,2,1,50,0,0
57087,-100,4,2,1,50,0,0
84370,-100,4,2,1,5,0,0
84479,-100,4,2,1,50,0,0
84805,-100,4,2,1,5,0,0
84913,-100,4,2,1,50,0,0
85239,-100,4,2,1,5,0,0
85348,-100,4,2,1,50,0,0
85674,-100,4,2,1,5,0,0
85783,-100,4,2,1,50,0,0
99696,-100,4,2,1,50,0,1
110131,-76.9230769230769,4,2,1,50,0,1
113609,-133.333333333333,4,2,1,50,0,0
119750,-133.333333333333,4,2,1,20,0,0
119913,-133.333333333333,4,2,1,50,0,0
126707,-133.333333333333,4,2,1,20,0,0
126870,-133.333333333333,4,2,1,50,0,0
133229,-133.333333333333,4,2,1,20,0,0
133609,-133.333333333333,4,2,1,50,0,0
133663,-133.333333333333,4,2,1,20,0,0
133826,-133.333333333333,4,2,1,50,0,0
137957,-100,4,2,1,50,0,0
139696,-200,4,2,1,50,0,0
140565,-76.9230769230769,4,2,1,50,0,0
141435,-100,4,2,1,50,0,1
154478,-100,4,2,1,50,0,0
155348,-100,4,2,1,50,0,1
169261,-100,4,2,1,50,0,0
195674,-100,4,2,1,5,0,0
195783,-100,4,2,1,50,0,0
196109,-100,4,2,1,5,0,0
196218,-100,4,2,1,50,0,0
196544,-100,4,2,1,5,0,0
196652,-100,4,2,1,50,0,0
196979,-100,4,2,1,5,0,0
197087,-100,4,2,1,50,0,0
221435,-76.9230769230769,4,2,1,50,0,0
224913,-133.333333333333,4,2,1,50,0,0
231055,-133.333333333333,4,2,1,20,0,0
231435,-133.333333333333,4,2,1,50,0,0
238826,-100,4,2,1,50,0,0
252739,-76.9230769230769,4,2,1,60,0,1
265783,-100,4,2,1,50,0,0
266652,-76.9230769230769,4,2,1,60,0,1
280565,-133.333333333333,4,2,1,50,0,0
284968,-133.333333333333,4,2,1,20,0,0
285131,-133.333333333333,4,2,1,50,0,0
291924,-133.333333333333,4,2,1,20,0,0
292087,-133.333333333333,4,2,1,50,0,0
315131,-133.333333333333,4,2,1,10,0,0

[Colours]
Combo1 : 205,131,105
Combo2 : 202,202,202
Combo3 : 59,59,59

[HitObjects]
87,310,2305,6,0,L|74:192,2,105.000004005432,4|8|0,3:2|3:2|3:2,3:2:0:0:
189,333,3609,1,8,3:2:0:0:
187,319,3718,1,0,3:2:0:0:
186,306,3826,1,8,3:2:0:0:
184,293,3935,1,0,3:2:0:0:
203,275,4044,6,0,L|190:157,2,105.000004005432,0|8|0,3:2|3:2|3:2,3:2:0:0:
328,317,5348,1,8,3:2:0:0:
328,317,5566,1,8,3:2:0:0:
319,240,5783,6,0,L|436:227,2,105.000004005432,0|8|0,3:2|3:2|3:2,3:2:0:0:
217,212,7087,1,8,3:2:0:0:
204,211,7196,1,0,3:2:0:0:
191,209,7305,1,8,3:2:0:0:
178,208,7413,1,0,3:2:0:0:
157,191,7522,6,0,L|39:178,2,105.000004005432,0|8|0,3:2|3:2|3:2,3:2:0:0:
228,109,8826,1,8,3:2:0:0:
228,109,9044,1,8,3:2:0:0:
304,119,9261,6,0,L|409:131,1,105.000004005432,0|8,3:2|3:2,3:2:0:0:
466,219,10131,1,0,3:2:0:0:
402,302,10566,1,8,3:2:0:0:
389,303,10674,1,0,3:2:0:0:
376,305,10783,1,8,3:2:0:0:
364,307,10892,1,0,3:2:0:0:
342,323,11000,6,0,L|217:316,2,105.000004005432,0|8|0,3:2|3:2|3:2,3:2:0:0:
296,228,12305,1,8,3:2:0:0:
296,228,12522,1,8,3:2:0:0:
299,153,12739,1,0,3:2:0:0:
256,192,12848,12,8,15783,0:0:0:0:
126,64,16218,5,4,0:0:0:0:
73,120,16435,2,0,P|55:164|68:230,1,105,2|0,0:0|0:0,0:0:0:0:
94,242,16870,2,0,P|118:231|155:239,1,35,2|0,0:0|0:0,0:0:0:0:
164,238,17087,5,8,0:0:0:0:
236,264,17305,2,0,L|332:256,1,70,2|0,0:0|0:0,0:0:0:0:
339,239,17631,2,0,L|350:183,2,35,2|2|0,0:0|0:0|0:0,0:0:0:0:
338,277,17957,5,8,0:0:0:0:
398,324,18174,2,0,P|427:281|430:217,1,105,2|0,0:0|0:0,0:0:0:0:
425,191,18609,2,0,P|421:168|424:144,1,35,2|0,0:0|0:0,0:0:0:0:
434,119,18826,5,8,0:0:0:0:
382,61,19044,2,0,L|374:15,2,35,2|0|2,0:0|0:0|0:0,0:0:0:0:
317,103,19479,2,0,L|311:137,1,35,2|0,0:0|0:0,0:0:0:0:
303,175,19696,5,8,0:0:0:0:
237,133,19913,2,0,P|195:127|127:149,1,105,2|0,0:0|0:0,0:0:0:0:
103,164,20348,2,0,P|81:157|60:131,1,35,2|0,0:0|0:0,0:0:0:0:
55,114,20566,5,8,0:0:0:0:
90,45,20783,2,0,P|119:40|166:56,1,70,2|0,0:0|0:0,0:0:0:0:
196,56,21109,2,0,P|212:51|226:41,2,35,2|2|0,0:0|0:0|0:0,0:0:0:0:
172,86,21435,5,8,0:0:0:0:
200,157,21652,2,0,L|191:266,1,105,2|0,0:0|0:0,0:0:0:0:
190,300,22087,2,0,P|196:327|216:353,1,35,2|2,0:0|0:0,0:0:0:0:
231,354,22305,6,0,L|320:347,1,70,8|0,0:0|0:0,0:0:0:0:
328,321,22631,1,0,0:0:0:0:
352,291,22739,2,0,L|263:284,1,70,8|0,0:0|0:0,0:0:0:0:
255,258,23065,1,0,0:0:0:0:
229,229,23174,5,8,0:0:0:0:
289,180,23392,2,0,L|298:62,1,105,2|0,0:0|0:0,0:0:0:0:
330,56,23826,2,0,P|345:54|378:67,1,35,2|2,0:0|0:0,0:0:0:0:
392,84,24044,5,8,0:0:0:0:
399,160,24261,2,0,L|406:257,1,70,2|0,0:0|0:0,0:0:0:0:
411,267,24587,2,0,L|445:269,2,35,2|2|0,0:0|0:0|0:0,0:0:0:0:
372,264,24913,5,8,0:0:0:0:
295,257,25131,2,0,B|244:249|244:249|193:277,1,105,2|0,0:0|0:0,0:0:0:0:
165,295,25565,2,0,P|145:303|113:304,1,35,2|0,0:0|0:0,0:0:0:0:
92,304,25783,5,8,0:0:0:0:
34,252,26000,2,0,L|23:201,2,35,2|0|2,0:0|0:0|0:0,0:0:0:0:
99,211,26435,2,0,L|110:160,1,35,2|0,0:0|0:0,0:0:0:0:
119,140,26652,5,8,0:0:0:0:
88,69,26870,2,0,P|135:65|188:105,1,105,2|0,0:0|0:0,0:0:0:0:
212,118,27305,2,0,L|263:112,1,35,2|0,0:0|0:0,0:0:0:0:
285,109,27522,5,8,0:0:0:0:
350,149,27740,1,0,0:0:0:0:
350,149,27848,2,0,P|382:159|416:152,1,70,2|0,0:0|0:0,0:0:0:0:
446,128,28174,2,0,L|456:178,1,35,2|0,0:0|0:0,0:0:0:0:
461,200,28392,5,8,0:0:0:0:
473,275,28609,2,0,L|364:267,1,105,2|0,0:0|0:0,0:0:0:0:
334,286,29044,2,0,L|270:296,1,35,2|0,0:0|0:0,0:0:0:0:
248,328,29261,6,8,L|171:339,2,46.6666666666667,8|8|8,3:0|3:0|3:0,3:0:0:0:
203,273,29696,2,8,L|126:284,2,46.6666666666667,8|8|8,3:0|3:0|3:0,3:0:0:0:
158,218,30131,5,4,0:0:0:0:
84,197,30348,1,0,0:0:0:0:
84,197,30457,2,0,B|89:142|89:142|114:110,1,70,2|2,0:0|0:0,0:0:0:0:
126,104,30783,2,0,B|131:49,1,35,2|0,0:0|0:0,0:0:0:0:
132,30,31000,5,8,0:0:0:0:
201,62,31218,1,0,0:0:0:0:
201,62,31326,2,0,P|238:62|289:77,1,70,2|2,0:0|0:0,0:0:0:0:
306,81,31652,2,0,P|325:85|352:82,1,35,2|0,0:0|0:0,0:0:0:0:
378,75,31870,5,8,0:0:0:0:
439,121,32087,1,0,0:0:0:0:
439,121,32196,2,0,B|448:156|448:156|433:186,1,70,2|2,0:0|0:0,0:0:0:0:
413,219,32522,2,0,L|407:283,1,35,2|0,0:0|0:0,0:0:0:0:
405,292,32739,5,8,0:0:0:0:
350,350,32957,1,8,0:0:0:0:
350,350,33065,1,0,0:0:0:0:
350,350,33174,1,8,0:0:0:0:
272,315,33392,2,0,L|215:312,1,35,8|0,0:0|0:0,0:0:0:0:
201,298,33609,6,0,L|166:297,2,35,2|0|0,0:0|0:0|0:0,0:0:0:0:
232,275,33935,1,10,0:0:0:0:
239,201,34152,1,0,0:0:0:0:
239,201,34261,2,0,L|240:166,1,35,2|0,0:0|0:0,0:0:0:0:
241,127,34479,6,0,L|185:105,2,35,2|0|0,0:0|0:0|0:0,0:0:0:0:
271,150,34805,1,10,0:0:0:0:
347,156,35022,1,0,0:0:0:0:
347,156,35131,2,0,L|381:157,1,35,2|0,0:0|0:0,0:0:0:0:
420,151,35349,6,0,L|442:95,2,35,2|0|0,0:0|0:0|0:0,0:0:0:0:
409,187,35674,1,10,0:0:0:0:
422,263,35892,1,0,0:0:0:0:
422,263,36000,2,0,L|409:295,1,35,2|0,0:0|0:0,0:0:0:0:
393,331,36218,5,8,0:0:0:0:
316,340,36435,1,8,0:0:0:0:
316,340,36544,1,0,0:0:0:0:
316,340,36652,1,8,0:0:0:0:
239,346,36870,2,0,L|207:332,1,35,10|0,0:0|0:0,0:0:0:0:
170,318,37088,5,0,0:0:0:0:
96,340,37305,1,0,0:0:0:0:
96,340,37413,2,0,P|63:313|53:274,1,70,2|2,0:0|0:0,0:0:0:0:
66,251,37739,2,0,L|68:203,1,35,2|0,0:3|0:3,0:3:0:0:
71,177,37957,5,8,0:0:0:0:
77,101,38174,1,0,0:0:0:0:
77,101,38282,2,0,P|111:76|151:77,1,70,2|2,0:0|0:0,0:0:0:0:
176,69,38609,2,0,L|210:65,1,35,2|0,0:0|0:0,0:0:0:0:
247,52,38826,5,8,0:0:0:0:
263,127,39044,1,0,0:0:0:0:
263,127,39152,2,0,L|269:207,1,70,2|2,0:0|0:0,0:0:0:0:
274,235,39479,2,0,P|281:256|304:284,1,35,2|0,0:0|0:0,0:0:0:0:
316,292,39696,5,8,0:0:0:0:
387,253,39913,1,8,0:0:0:0:
387,253,40022,1,0,0:0:0:0:
387,253,40131,1,8,0:0:0:0:
369,169,40348,2,0,L|363:106,1,35,8|0,0:0|0:0,0:0:0:0:
361,95,40565,5,8,0:0:0:0:
303,43,40783,1,0,0:0:0:0:
303,43,40892,2,0,B|279:30|279:30|211:34,1,70,2|2,0:0|0:0,0:0:0:0:
200,47,41218,2,0,L|137:53,1,35,2|0,0:0|0:0,0:0:0:0:
127,56,41435,5,8,0:0:0:0:
163,123,41652,1,0,0:0:0:0:
163,123,41761,2,0,L|157:204,1,70,2|2,0:0|0:0,0:0:0:0:
130,220,42087,2,0,L|126:270,1,35,2|0,0:0|0:0,0:0:0:0:
124,293,42305,5,8,0:0:0:0:
189,334,42522,1,0,0:0:0:0:
189,334,42631,2,0,P|225:338|270:328,1,70,2|2,0:0|0:0,0:0:0:0:
291,312,42957,2,0,P|312:308|334:310,1,35,2|0,0:0|0:0,0:0:0:0:
400,332,43174,6,8,L|443:271,2,46.6666666666667,8|8|8,3:0|3:0|3:0,3:0:0:0:
383,249,43609,2,8,L|426:188,2,46.6666666666667,8|8|8,3:0|3:0|3:0,3:0:0:0:
365,161,44044,6,0,B|355:112|320:83|270:78|270:78|254:85|254:85|241:76|241:76|226:83|226:83|210:74|210:74|181:107|139:119|139:119|173:144|173:144|160:181,1,350,4|0,0:0|0:0,0:0:0:0:
133,245,46652,6,0,L|137:266,2,13.125000500679,2|2|2,0:0|0:0|0:0,0:0:0:0:
118,227,46870,1,0,0:0:0:0:
49,344,47522,5,2,0:0:0:0:
78,378,47739,2,0,L|122:376,1,35,0|0,0:0|0:0,0:0:0:0:
188,324,48392,6,0,L|192:300,6,13.125000500679,2|2|2|2|2|0|0,0:0|0:0|0:0|0:0|0:0|0:0|0:0,0:0:0:0:
268,364,49044,5,0,0:0:0:0:
313,359,49261,2,0,P|321:325|312:290,1,70,0|2,0:0|0:0,0:0:0:0:
277,207,50131,6,0,L|253:202,2,17.5,2|0|0,0:0|0:0|0:0,0:0:0:0:
296,218,50457,2,0,L|347:225,2,35,2|0|0,0:0|0:0|0:0,0:0:0:0:
277,207,51000,5,8,0:0:0:0:
263,163,51218,1,0,0:0:0:0:
249,119,51435,1,0,0:0:0:0:
302,45,51870,6,0,L|304:23,6,13.125000500679,2|2|2|2|2|0|0,0:0|0:0|0:0|0:0|0:0|0:0|0:0,0:0:0:0:
201,30,52739,6,0,B|173:38|150:37|150:37|147:61,1,70,2|0,0:0|0:0,0:0:0:0:
139,146,53609,6,0,L|142:162,2,13.125000500679,2|2|2,0:0|0:0|0:0,0:0:0:0:
124,128,53827,1,0,0:0:0:0:
54,233,54478,6,0,B|30:230|30:230|11:239,2,35,2|0|0,0:0|0:0|0:0,0:0:0:0:
123,280,55348,6,0,L|141:282,6,13.125000500679,2|2|2|2|2|0|0,0:0|0:0|0:0|0:0|0:0|0:0|0:0,0:0:0:0:
151,361,56000,5,2,0:0:0:0:
189,342,56218,2,0,B|228:324|252:339|252:339|263:337|263:337|272:347|272:347|313:346,1,122.5,4|0,0:0|0:0,0:0:0:0:
310,349,57087,6,8,L|379:343,2,46.6666666666667,8|8|8,3:0|3:0|3:0,3:0:0:0:
339,283,57522,2,8,L|408:277,2,46.6666666666667,8|8|8,3:0|3:0|3:0,3:0:0:0:
368,213,57957,6,0,P|369:179|354:137,1,70,6|0,0:0|0:0,0:0:0:0:
263,72,58392,2,0,P|262:106|272:140,1,70,8|0,0:0|0:0,0:0:0:0:
242,236,58826,2,0,P|198:238|102:196,1,140,2|8,0:0|0:0,0:0:0:0:
71,130,59479,1,0,0:0:0:0:
152,142,59696,6,0,B|141:53|141:53|166:4,2,140,2|8|2,0:0|0:0|0:0,0:0:0:0:
164,211,60783,1,8,0:0:0:0:
158,280,61000,1,8,0:0:0:0:
122,340,61218,1,8,0:0:0:0:
64,299,61435,6,0,P|62:261|85:217,1,70,2|0,0:0|0:0,0:0:0:0:
158,280,61870,2,0,P|190:292|225:290,1,70,8|0,0:0|0:0,0:0:0:0:
326,273,62305,2,0,P|308:223|369:248,1,140,2|8,0:0|0:0,0:0:0:0:
356,337,62957,1,0,0:0:0:0:
442,304,63174,6,0,L|453:214,1,70,2|0,0:0|0:0,0:0:0:0:
342,142,63609,2,0,L|350:211,1,70,8|0,0:0|0:0,0:0:0:0:
445,151,64044,1,8,0:0:0:0:
434,81,64261,1,8,0:0:0:0:
422,11,64479,2,0,P|380:3|334:17,1,70,8|0,0:0|0:0,0:0:0:0:
283,72,64913,6,0,B|237:81|237:81|194:74,1,70,6|0,0:0|0:0,0:0:0:0:
94,127,65348,2,0,B|139:136|139:136|176:159,1,70,8|0,0:0|0:0,0:0:0:0:
210,227,65783,2,0,B|319:214|319:214|361:251,1,140,2|8,0:0|0:0,0:0:0:0:
393,304,66435,1,0,0:0:0:0:
314,331,66652,6,8,L|158:313,2,140,2|8|2,0:0|0:0|0:0,0:0:0:0:
393,304,67739,1,8,0:0:0:0:
362,240,67957,1,8,0:0:0:0:
300,207,68174,1,8,0:0:0:0:
222,216,68392,6,0,P|179:226|131:219,1,70,2|0,0:0|0:0,0:0:0:0:
31,159,68826,2,0,P|65:158|99:167,1,70,8|0,0:0|0:0,0:0:0:0:
156,304,69261,2,0,P|102:335|120:277,1,140,2|8,0:0|0:0,0:0:0:0:
153,224,69913,1,0,0:0:0:0:
109,147,70131,6,0,B|103:80|103:80|101:51|113:30|141:28,1,140,2|4,0:0|0:0,0:0:0:0:
258,68,71000,6,8,L|345:75,2,46.6666666666667,8|8|8,3:0|3:0|3:0,3:0:0:0:
209,128,71435,1,8,3:0:0:0:
217,143,71580,1,8,3:0:0:0:
226,158,71725,1,8,3:0:0:0:
235,174,71870,6,0,P|269:185|320:176,1,70,6|0,0:0|0:0,0:0:0:0:
400,168,72305,2,0,P|389:202|398:253,1,70,8|0,0:0|0:0,0:0:0:0:
407,324,72739,2,0,P|350:305|265:320,1,140,2|8,0:0|0:0,0:0:0:0:
194,360,73392,1,0,0:0:0:0:
204,272,73609,6,0,B|216:174|216:174|259:139,2,140,2|8|2,0:0|0:0|0:0,0:0:0:0:
148,315,74696,1,8,0:0:0:0:
86,282,74913,1,8,0:0:0:0:
78,212,75131,1,8,0:0:0:0:
124,159,75348,6,0,P|136:116|128:85,1,70,2|0,0:0|0:0,0:0:0:0:
224,16,75783,2,0,P|219:50|231:83,1,70,8|0,0:0|0:0,0:0:0:0:
311,135,76218,2,0,P|354:126|443:166,1,140,2|8,0:0|0:0,0:0:0:0:
457,230,76870,1,0,0:0:0:0:
421,290,77087,6,0,L|337:278,1,70,2|0,0:0|0:0,0:0:0:0:
282,343,77522,2,0,L|212:352,1,70,8|0,0:0|0:0,0:0:0:0:
118,323,77957,2,8,L|108:253,2,70,2|8|8,0:0|0:0|0:0,0:0:0:0:
192,264,78609,1,8,0:0:0:0:
139,176,78826,6,0,P|97:171|57:185,1,70,6|0,0:0|0:0,0:0:0:0:
0,63,79261,2,0,P|-3:97|3:130,1,70,8|0,0:0|0:0,0:0:0:0:
99,95,79696,2,0,L|252:87,1,140,2|8,0:0|0:0,0:0:0:0:
322,105,80348,1,0,0:0:0:0:
275,27,80565,6,0,P|244:75|240:168,2,140,2|8|2,0:0|0:0|0:0,0:0:0:0:
346,0,81652,1,8,0:0:0:0:
411,33,81870,1,8,0:0:0:0:
430,103,82087,1,8,0:0:0:0:
444,178,82305,6,0,L|415:251,1,70,2|0,0:0|0:0,0:0:0:0:
309,313,82739,2,0,L|334:247,1,70,8|0,0:0|0:0,0:0:0:0:
285,165,83174,2,0,P|235:149|139:177,1,140,2|8,0:0|0:0,0:0:0:0:
89,229,83826,1,0,0:0:0:0:
125,320,84044,6,0,L|245:309,1,105,4|0,0:0|0:0,0:0:0:0:
250,308,84479,6,0,L|261:188,1,105,4|0,0:0|0:0,0:0:0:0:
278,195,84913,6,0,L|287:299,1,105,4|0,0:0|0:0,0:0:0:0:
308,298,85348,6,0,L|319:178,1,105,4|0,0:0|0:0,0:0:0:0:
319,172,85783,6,0,P|322:154|317:132,1,35,6|0,0:0|0:0,0:0:0:0:
265,54,86000,2,0,P|266:71|273:87,1,35,8|0,0:0|0:0,0:0:0:0:
390,149,86218,2,0,P|397:132|398:109,1,35,2|0,0:0|0:0,0:0:0:0:
365,21,86435,2,0,P|361:38|364:55,1,35,8|0,0:0|0:0,0:0:0:0:
461,164,86652,6,0,P|466:216|428:301,1,140,2|8,0:0|0:0,0:0:0:0:
335,267,87305,1,8,0:0:0:0:
268,347,87522,6,0,L|215:346,1,35,2|0,0:0|0:0,0:0:0:0:
147,345,87739,2,0,L|112:344,1,35,8|0,0:0|0:0,0:0:0:0:
217,266,87957,2,0,L|164:265,1,35,2|0,0:0|0:0,0:0:0:0:
96,264,88174,2,0,L|43:263,1,35,8|0,0:0|0:0,0:0:0:0:
21,177,88392,6,0,B|11:100|11:100|55:46,1,140,2|8,0:0|0:0,0:0:0:0:
132,8,89044,1,8,0:0:0:0:
177,97,89261,6,0,P|211:92|246:96,1,70,2|0,0:0|0:0,0:0:0:0:
278,198,89696,2,0,P|237:194|203:200,1,70,8|0,0:0|0:0,0:0:0:0:
173,318,90131,2,0,P|224:268|297:282,1,140,2|8,0:0|0:0,0:0:0:0:
351,344,90783,1,0,0:0:0:0:
434,280,91000,6,0,L|423:197,1,70,2|0,0:0|0:0,0:0:0:0:
313,196,91435,2,0,L|324:113,1,70,8|0,0:0|0:0,0:0:0:0:
420,36,91870,1,8,0:0:0:0:
344,48,92087,1,8,0:0:0:0:
268,64,92305,2,0,P|236:59|190:58,1,70,8|0,0:0|0:0,0:0:0:0:
57,108,92739,6,0,L|93:113,1,35,6|0,0:0|0:0,0:0:0:0:
187,140,92957,2,0,L|151:145,1,35,8|0,0:0|0:0,0:0:0:0:
74,251,93174,2,0,L|107:237,1,35,2|0,0:0|0:0,0:0:0:0:
202,213,93392,2,0,L|173:235,1,35,8|0,0:0|0:0,0:0:0:0:
141,333,93609,6,0,P|183:354|276:347,1,140,2|8,0:0|0:0,0:0:0:0:
347,277,94261,1,8,0:0:0:0:
437,334,94479,6,0,L|442:273,1,35,2|0,0:0|0:0,0:0:0:0:
446,220,94696,2,0,L|451:159,1,35,8|0,0:0|0:0,0:0:0:0:
360,262,94913,2,0,L|365:201,1,35,2|0,0:0|0:0,0:0:0:0:
369,148,95130,2,0,L|374:87,1,35,8|0,0:0|0:0,0:0:0:0:
448,50,95348,6,0,P|381:28|313:38,1,140,2|8,0:0|0:0,0:0:0:0:
250,119,96000,1,8,0:0:0:0:
185,40,96218,6,0,P|160:68|149:109,1,70,2|0,0:0|0:0,0:0:0:0:
74,180,96652,2,0,P|66:216|77:257,1,70,8|0,0:0|0:0,0:0:0:0:
163,320,97087,2,0,B|236:313|236:313|315:342,1,140,2|8,0:0|0:0,0:0:0:0:
396,377,97739,1,0,0:0:0:0:
370,284,97957,6,0,P|392:254|446:241,1,70,2|0,0:0|0:0,0:0:0:0:
491,119,98392,2,0,P|469:149|415:162,1,70,8|0,0:0|0:0,0:0:0:0:
312,147,98826,6,8,L|323:70,2,46.6666666666667,8|8|8,3:0|3:0|3:0,3:0:0:0:
258,212,99261,1,8,3:0:0:0:
261,229,99406,1,8,3:0:0:0:
264,246,99551,1,8,3:0:0:0:
268,265,99696,6,0,L|277:313,1,35,6|0,0:0|0:0,0:0:0:0:
221,348,99913,2,0,L|213:396,1,35,8|0,0:0|0:0,0:0:0:0:
182,248,100131,2,0,L|165:294,1,35,6|0,0:0|0:0,0:0:0:0:
99,296,100348,2,0,L|68:333,1,35,8|0,0:0|0:0,0:0:0:0:
116,190,100565,6,0,P|117:136|79:82,1,105,6|0,0:0|0:0,0:0:0:0:
55,105,101000,2,0,P|54:159|92:213,1,105,12|0,0:0|0:0,0:0:0:0:
116,190,101435,6,0,L|165:176,1,35,6|0,0:0|0:0,0:0:0:0:
191,113,101652,2,0,L|241:121,1,35,8|0,0:0|0:0,0:0:0:0:
240,200,101870,2,0,L|289:186,1,35,6|0,0:0|0:0,0:0:0:0:
315,123,102087,2,0,L|365:131,1,35,8|0,0:0|0:0,0:0:0:0:
402,200,102305,6,0,B|429:248|429:248|425:303,1,105,6|0,0:0|0:0,0:0:0:0:
393,318,102739,2,0,B|301:300,1,70,12|8,0:0|0:0,0:0:0:0:
402,200,103174,6,0,L|417:108,2,70,6|0|12,0:0|0:0|0:0,0:0:0:0:
316,289,103826,1,0,0:0:0:0:
243,212,104044,2,0,L|149:207,1,70,6|0,0:0|0:0,0:0:0:0:
80,300,104479,1,12,0:0:0:0:
70,214,104696,1,8,0:0:0:0:
57,131,104913,6,0,P|62:90|85:56,1,70,6|0,0:0|0:0,0:0:0:0:
175,34,105348,2,0,P|191:64|194:99,1,70,12|0,0:0|0:0,0:0:0:0:
252,187,105783,2,0,L|346:182,2,70,4|8|12,0:0|0:0|0:0,0:0:0:0:
179,261,106435,1,8,0:0:0:0:
234,343,106652,6,0,L|285:338,1,35,6|0,0:0|0:0,0:0:0:0:
351,336,106870,2,0,L|385:339,1,35,8|0,0:0|0:0,0:0:0:0:
277,247,107087,2,0,L|328:242,1,35,6|0,0:0|0:0,0:0:0:0:
394,240,107305,2,0,L|428:243,1,35,8|0,0:0|0:0,0:0:0:0:
507,318,107522,6,0,L|495:195,1,105,6|0,0:0|0:0,0:0:0:0:
465,191,107957,2,0,L|475:295,1,105,12|0,0:0|0:0,0:0:0:0:
507,318,108392,6,0,P|493:335|469:352,1,35,6|0,0:0|0:0,0:0:0:0:
404,310,108609,2,0,P|386:308|369:311,1,35,8|0,0:0|0:0,0:0:0:0:
286,355,108826,2,0,P|273:343|263:330,1,35,6|0,0:0|0:0,0:0:0:0:
184,301,109043,2,0,P|166:298|149:299,1,35,8|0,0:0|0:0,0:0:0:0:
70,354,109261,6,0,P|56:302|63:250,1,105,6|0,0:0|0:0,0:0:0:0:
91,225,109696,1,14,0:0:0:0:
185,221,109913,1,8,0:0:0:0:
279,217,110131,6,0,B|286:174|286:174|266:115,1,90.9999958343508,6|0,0:0|0:0,0:0:0:0:
192,54,110565,2,0,B|185:97|185:97|205:156,1,90.9999958343508,14|0,0:0|0:0,0:0:0:0:
372,205,111000,2,0,B|386:163|386:163|376:102,1,90.9999958343508,6|0,0:0|0:0,0:0:0:0:
310,23,111434,2,0,B|295:64|295:64|305:125,1,90.9999958343508,14|0,0:0|0:0,0:0:0:0:
390,206,111870,5,12,0:0:0:0:
337,268,112087,1,8,0:0:0:0:
257,286,112305,1,12,0:0:0:0:
177,268,112522,1,8,0:0:0:0:
124,206,112739,6,8,L|104:128,2,60.6666638895672,8|8|8,3:0|3:0|3:0,3:0:0:0:
81,276,113174,2,8,L|96:334,2,60.6666638895672,8|8|8,3:0|3:0|3:0,3:0:0:0:
15,226,113609,6,0,B|-21:178|-8:105|30:66|72:57|72:57|88:64|88:64|102:53|102:53|117:58|117:58|130:47|130:47|195:32|225:74,1,367.500014019013,4|0,0:0|0:0,0:0:0:0:
257,130,115348,6,0,B|299:155|372:143|408:86|422:49|422:49|430:62|430:62|419:74|419:74|425:88|425:88|392:140|419:209,1,367.500014019013,2|0,0:0|0:0,0:0:0:0:
449,267,117087,6,0,B|355:336|254:268|254:268|237:271|237:271|228:257|228:257|210:259|210:259|146:227|101:256,1,367.500014019013,2|0,0:0|0:0,0:0:0:0:
67,322,118826,6,0,L|150:329,1,52.5000020027161,8|0,0:0|0:0,0:0:0:0:
189,362,119261,2,0,L|241:357,1,52.5000020027161,8|0,0:0|0:0,0:0:0:0:
328,323,119696,6,0,L|346:326,2,13.125000500679,10|2|2,0:0|0:0|0:0,0:0:0:0:
307,312,119913,1,0,0:0:0:0:
235,279,120131,2,0,P|227:247|232:218,1,52.5000020027161,2|2,0:0|0:0,0:0:0:0:
285,169,120565,6,0,B|152:110|152:110|88:126|88:126|72:122|72:122|61:137|61:137|43:130|43:130|30:141|30:141|0:172|17:222,1,367.500014019013,2|0,0:0|0:0,0:0:0:0:
53,289,122305,6,0,B|156:320|156:320|244:279|244:279|259:293|259:293|277:287|277:287|289:296|289:296|400:335,1,367.500014019013,2|0,0:0|0:0,0:0:0:0:
463,299,124044,6,0,B|423:262|419:202|446:167|446:167|472:136|478:107|478:107|470:93|470:93|477:76|477:76|463:68|463:68|467:49|467:49|457:34|414:20|377:34,1,367.500014019013,2|0,0:0|0:0,0:0:0:0:
327,86,125783,6,0,L|316:156,1,52.5000020027161,8|0,0:0|0:0,0:0:0:0:
246,105,126218,2,0,L|237:53,1,52.5000020027161,8|0,0:0|0:0,0:0:0:0:
155,25,126652,6,0,L|152:6,2,13.125000500679,10|2|2,0:0|0:0|0:0,0:0:0:0:
149,47,126869,1,0,0:0:0:0:
122,118,127087,2,0,L|130:169,1,52.5000020027161,2|2,0:0|0:0,0:0:0:0:
155,257,127522,5,4,3:0:0:0:
155,257,127957,2,0,P|217:245|271:279,1,105.000004005432,2|0,3:0|3:0,3:0:0:0:
316,308,128609,2,0,L|391:303,1,52.5000020027161,2|0,3:0|3:0,3:0:0:0:
424,249,129044,1,0,3:0:0:0:
424,249,129261,5,0,3:0:0:0:
424,249,129696,2,0,L|430:118,1,105.000004005432,2|0,3:0|3:0,3:0:0:0:
437,137,130239,2,0,P|439:99|397:57,1,78.7500030040742,2|0,3:0|3:0,3:0:0:0:
319,68,130783,1,0,3:0:0:0:
319,68,131000,5,0,3:0:0:0:
319,68,131435,2,0,L|323:172,1,105.000004005432,2|0,3:0|3:0,3:0:0:0:
279,238,132087,2,0,L|281:296,1,52.5000020027161,2|0,3:0|3:0,3:0:0:0:
229,350,132522,1,0,3:0:0:0:
229,350,132739,5,0,3:0:0:0:
74,320,133174,2,0,L|55:323,2,13.125000500679,2|2|2,2:0|2:0|2:0,2:0:0:0:
158,236,133609,6,0,L|161:217,2,13.125000500679,2|2|2,2:0|2:0|2:0,2:0:0:0:
170,253,133826,1,0,2:0:0:0:
248,247,134044,2,0,L|306:243,1,52.5000020027161,0|0,2:0|2:0,2:0:0:0:
379,237,134479,5,0,3:0:0:0:
379,237,134913,2,0,P|390:177|368:120,1,105.000004005432,2|0,3:0|3:0,3:0:0:0:
307,99,135565,2,0,P|281:105|256:99,1,52.5000020027161,2|0,3:0|3:0,3:0:0:0:
188,59,136000,1,0,3:0:0:0:
188,59,136218,5,0,3:0:0:0:
188,59,136652,2,0,B|115:65|115:65|94:107,1,105.000004005432,2|0,3:0|3:0,3:0:0:0:
92,100,137196,2,0,L|61:186,1,78.7500030040742,2|0,3:0|3:0,3:0:0:0:
69,262,137739,1,0,3:0:0:0:
113,335,137957,6,0,P|145:342|185:336,1,70,4|0,0:0|0:0,0:0:0:0:
261,255,138392,2,0,P|229:248|189:254,1,70,2|0,0:0|0:0,0:0:0:0:
328,325,138826,2,0,P|345:260|326:176,1,140,2|0,0:0|0:0,0:0:0:0:
264,109,139479,1,2,0:0:0:0:
377,133,139696,6,0,L|411:126,1,35,4|0,0:0|0:0,0:0:0:0:
475,192,140131,2,0,L|440:185,1,35,0|0,0:0|0:0,0:0:0:0:
411,126,140565,6,4,L|400:307,1,181.999991668702
140,320,141435,5,4,0:0:0:0:
88,264,141652,2,0,P|80:222|102:156,1,105,2|0,0:0|0:0,0:0:0:0:
118,130,142087,2,0,P|121:104|113:79,1,35,2|0,0:0|0:0,0:0:0:0:
109,58,142305,5,8,0:0:0:0:
196,67,142522,2,0,L|298:72,1,70,2|0,0:0|0:0,0:0:0:0:
304,67,142848,2,0,L|359:64,2,35,2|2|0,0:0|0:0|0:0,0:0:0:0:
287,102,143174,5,8,0:0:0:0:
262,175,143392,2,0,L|272:289,1,105,2|0,0:0|0:0,0:0:0:0:
301,302,143826,2,0,P|323:319|334:336,1,35,2|0,0:0|0:0,0:0:0:0:
343,359,144044,5,8,0:0:0:0:
421,322,144261,1,8,0:0:0:0:
421,322,144370,1,0,0:0:0:0:
421,322,144479,1,8,0:0:0:0:
365,248,144696,2,0,L|361:204,1,35,8|0,0:0|0:0,0:0:0:0:
359,174,144913,5,8,0:0:0:0:
353,97,145131,2,0,P|314:78|234:79,1,105,2|0,0:0|0:0,0:0:0:0:
217,88,145565,2,0,P|190:87|167:76,1,35,2|0,0:0|0:0,0:0:0:0:
149,63,145783,5,8,0:0:0:0:
109,128,146000,2,0,L|96:230,1,70,2|0,0:0|0:0,0:0:0:0:
98,235,146326,2,0,P|105:254|104:286,2,35,2|2|0,0:0|0:0|0:0,0:0:0:0:
64,215,146652,5,8,0:0:0:0:
14,274,146870,2,0,P|27:316|87:360,1,105,2|0,0:0|0:0,0:0:0:0:
110,352,147305,2,0,L|175:348,1,35,2|0,0:0|0:0,0:0:0:0:
181,337,147522,5,8,0:0:0:0:
265,359,147739,1,8,0:0:0:0:
265,359,147848,1,0,0:0:0:0:
265,359,147957,1,8,0:0:0:0:
242,280,148174,2,0,P|245:257|253:237,1,35,8|0,0:0|0:0,0:0:0:0:
276,218,148392,5,8,0:0:0:0:
323,278,148609,2,0,P|373:291|440:275,1,105,2|0,0:0|0:0,0:0:0:0:
458,261,149044,2,0,P|463:244|464:227,1,35,2|0,0:0|0:0,0:0:0:0:
453,189,149261,5,8,0:0:0:0:
420,118,149479,2,0,L|319:113,1,70,2|0,0:0|0:0,0:0:0:0:
311,114,149805,2,0,L|260:119,2,35,2|2|0,0:0|0:0|0:0,0:0:0:0:
341,90,150131,5,8,0:0:0:0:
281,41,150348,2,0,B|249:27|249:27|161:33,1,105,2|0,0:0|0:0,0:0:0:0:
149,56,150783,2,0,L|87:50,1,35,2|0,0:0|0:0,0:0:0:0:
75,50,151000,5,8,0:0:0:0:
45,131,151218,1,8,0:0:0:0:
45,131,151326,1,0,0:0:0:0:
45,131,151435,1,8,0:0:0:0:
111,177,151652,2,0,L|118:229,1,35,8|0,0:0|0:0,0:0:0:0:
123,249,151870,5,8,0:0:0:0:
47,266,152087,2,0,P|9:306|40:372,1,105,2|0,0:0|0:0,0:0:0:0:
53,362,152522,2,0,L|100:351,1,35,2|0,0:0|0:0,0:0:0:0:
124,346,152739,5,8,0:0:0:0:
198,365,152957,2,0,L|286:347,1,70,2|0,0:0|0:0,0:0:0:0:
285,317,153283,2,0,L|291:253,2,35,2|2|0,0:0|0:0|0:0,0:0:0:0:
300,352,153609,5,8,0:0:0:0:
371,322,153826,2,0,B|401:305|401:305|411:210,1,105,2|0,0:0|0:0,0:0:0:0:
410,196,154261,2,0,L|402:141,1,35,2|0,0:0|0:0,0:0:0:0:
395,99,154479,6,8,P|395:76|414:37,2,46.6666666666667,8|8|8,3:0|3:0|3:0,3:0:0:0:
326,131,154913,2,8,P|320:108|293:74,2,46.6666666666667,8|8|8,3:0|3:0|3:0,3:0:0:0:
252,160,155348,5,6,0:0:0:0:
215,255,155565,1,0,0:0:0:0:
155,170,155783,2,0,L|70:164,1,70,12|0,0:0|0:0,0:0:0:0:
18,52,156218,5,6,0:0:0:0:
73,146,156435,1,0,0:0:0:0:
136,52,156653,2,0,L|221:46,1,70,12|0,0:0|0:0,0:0:0:0:
331,37,157087,6,0,P|316:79|329:122,1,70,6|0,0:0|0:0,0:0:0:0:
405,181,157522,2,0,P|420:223|407:266,1,70,12|0,0:0|0:0,0:0:0:0:
340,328,157957,5,6,0:0:0:0:
233,336,158174,2,0,L|186:339,1,35,8|0,0:0|0:0,0:0:0:0:
159,341,158392,1,12,0:0:0:0:
138,342,158500,1,8,0:0:0:0:
116,343,158609,1,8,0:0:0:0:
95,344,158718,1,8,0:0:0:0:
74,345,158826,5,6,0:0:0:0:
10,246,159044,1,0,0:0:0:0:
113,266,159261,2,0,L|122:182,1,70,12|0,0:0|0:0,0:0:0:0:
271,132,159696,5,6,0:0:0:0:
211,232,159914,1,0,0:0:0:0:
170,120,160131,2,0,L|161:36,1,70,12|0,0:0|0:0,0:0:0:0:
284,21,160565,6,0,P|326:20|377:43,1,70,6|0,0:0|0:0,0:0:0:0:
426,149,161000,2,0,P|384:148|333:171,1,70,12|0,0:0|0:0,0:0:0:0:
295,272,161435,1,6,0:0:0:0:
372,348,161652,2,0,P|389:347|417:337,1,35,8|0,0:0|0:0,0:0:0:0:
437,318,161870,1,12,0:0:0:0:
448,300,161979,1,8,0:0:0:0:
452,279,162087,1,8,0:0:0:0:
451,257,162196,1,8,0:0:0:0:
443,237,162305,5,6,0:0:0:0:
357,156,162522,1,0,0:0:0:0:
371,269,162739,2,0,L|282:264,1,70,12|0,0:0|0:0,0:0:0:0:
201,339,163174,5,6,0:0:0:0:
221,229,163392,1,0,0:0:0:0:
130,306,163608,2,0,L|41:301,1,70,12|0,0:0|0:0,0:0:0:0:
22,201,164044,6,0,P|31:162|65:131,1,70,6|0,0:0|0:0,0:0:0:0:
173,107,164479,2,0,P|164:146|130:177,1,70,12|0,0:0|0:0,0:0:0:0:
79,42,164913,5,6,0:0:0:0:
173,107,165131,2,0,L|220:104,1,35,10|0,0:0|0:0,0:0:0:0:
246,101,165349,1,12,0:0:0:0:
264,100,165457,1,8,0:0:0:0:
283,99,165566,1,8,0:0:0:0:
301,98,165675,1,8,0:0:0:0:
319,98,165783,5,6,0:0:0:0:
363,8,166000,1,0,0:0:0:0:
413,122,166218,2,0,P|418:159|398:202,1,70,12|0,0:0|0:0,0:0:0:0:
275,263,166652,5,6,0:0:0:0:
318,174,166869,1,0,0:0:0:0:
369,287,167087,2,0,P|374:324|354:367,1,70,12|0,0:0|0:0,0:0:0:0:
225,358,167522,6,0,L|129:342,1,70,6|0,0:0|0:0,0:0:0:0:
275,263,167957,2,0,L|371:247,1,70,12|0,0:0|0:0,0:0:0:0:
171,222,168392,6,8,L|95:209,2,46.6666666666667,8|8|8,0:3|0:3|0:3,0:3:0:0:
226,167,168826,1,8,0:3:0:0:
220,146,168971,1,8,0:3:0:0:
214,125,169116,1,8,0:3:0:0:
207,105,169261,6,0,P|218:68|245:44,1,70,6|0,0:0|0:0,0:0:0:0:
348,32,169696,2,0,P|337:69|310:93,1,70,8|0,0:0|0:0,0:0:0:0:
157,37,170131,2,0,P|110:36|34:93,1,140,2|8,0:0|0:0,0:0:0:0:
24,195,170783,1,0,0:0:0:0:
97,156,171000,6,0,L|242:149,2,140,2|8|2,0:0|0:0|0:0,0:0:0:0:
24,195,172087,1,8,0:0:0:0:
11,271,172305,1,8,0:0:0:0:
47,338,172522,1,8,0:0:0:0:
120,360,172739,6,0,P|128:326|157:294,1,70,2|0,0:0|0:0,0:0:0:0:
242,239,173174,2,0,P|233:272|245:314,1,70,8|0,0:0|0:0,0:0:0:0:
342,335,173609,2,0,P|357:272|336:195,1,140,2|8,0:0|0:0,0:0:0:0:
279,141,174261,1,0,0:0:0:0:
357,108,174479,6,0,P|360:69|336:31,1,70,2|0,0:0|0:0,0:0:0:0:
222,21,174913,2,0,P|208:52|211:87,1,70,8|0,0:0|0:0,0:0:0:0:
254,195,175348,2,0,L|247:288,2,70,0|8|8,0:0|0:0|0:0,0:0:0:0:
170,161,176000,1,8,0:0:0:0:
89,126,176218,6,0,P|47:136|26:158,1,70,6|0,0:0|0:0,0:0:0:0:
63,246,176652,2,0,P|105:256|126:278,1,70,8|0,0:0|0:0,0:0:0:0:
187,362,177087,2,0,P|238:368|337:348,1,140,2|8,0:0|0:0,0:0:0:0:
354,271,177739,1,0,0:0:0:0:
423,343,177957,6,0,P|437:274|432:205,2,140,2|8|2,0:0|0:0|0:0,0:0:0:0:
496,319,179044,1,8,0:0:0:0:
511,243,179261,1,8,0:0:0:0:
489,168,179479,1,8,0:0:0:0:
416,143,179696,6,0,P|405:101|412:62,1,70,2|0,0:0|0:0,0:0:0:0:
496,9,180131,2,0,P|507:51|500:90,1,70,8|0,0:0|0:0,0:0:0:0:
346,41,180565,2,0,L|185:36,1,140,2|8,0:0|0:0,0:0:0:0:
110,32,181218,1,0,0:0:0:0:
183,96,181435,6,0,B|180:150|180:150|199:176|199:176|194:250,1,140,2|4,0:0|0:0,0:0:0:0:
341,223,182305,6,8,L|408:216,2,46.6666666666667,8|8|8,3:0|3:0|3:0,3:0:0:0:
287,281,182739,1,8,3:0:0:0:
276,294,182884,1,8,3:0:0:0:
265,307,183029,1,8,3:0:0:0:
252,322,183174,6,0,P|220:334|170:332,1,70,6|0,0:0|0:0,0:0:0:0:
53,273,183609,2,0,P|87:269|121:277,1,70,8|0,0:0|0:0,0:0:0:0:
226,239,184044,2,0,P|236:179|217:97,1,140,2|8,0:0|0:0,0:0:0:0:
173,27,184696,1,0,0:0:0:0:
274,47,184913,6,0,P|334:41|408:1,2,140,2|8|2,0:0|0:0|0:0,0:0:0:0:
219,102,186000,1,8,0:0:0:0:
233,177,186218,1,8,0:0:0:0:
247,252,186435,1,8,0:0:0:0:
301,305,186652,6,0,P|328:312|385:294,1,70,2|0,0:0|0:0,0:0:0:0:
441,207,187087,2,0,P|453:239|450:274,1,70,8|0,0:0|0:0,0:0:0:0:
346,205,187522,2,0,P|355:126|401:69,1,140,2|8,0:0|0:0,0:0:0:0:
453,25,188174,1,0,0:0:0:0:
367,61,188392,6,0,P|318:67|277:55,1,70,2|0,0:0|0:0,0:0:0:0:
196,32,188826,2,0,P|161:38|131:55,1,70,8|0,0:0|0:0,0:0:0:0:
143,138,189261,1,0,0:0:0:0:
155,220,189479,1,8,0:0:0:0:
224,267,189696,2,0,L|309:255,1,70,8|8,0:0|0:0,0:0:0:0:
156,359,190131,6,0,L|71:347,1,70,6|0,0:0|0:0,0:0:0:0:
20,261,190565,2,0,L|89:270,1,70,8|0,0:0|0:0,0:0:0:0:
209,284,191000,2,0,P|195:233|236:141,1,140,2|8,0:0|0:0,0:0:0:0:
278,89,191652,1,0,0:0:0:0:
308,174,191870,6,0,L|321:334,2,140,2|8|2,0:0|0:0|0:0,0:0:0:0:
288,99,192957,1,8,0:0:0:0:
220,62,193174,1,8,0:0:0:0:
143,75,193392,1,8,0:0:0:0:
97,136,193609,6,0,P|91:173|101:212,1,70,2|0,0:0|0:0,0:0:0:0:
183,257,194044,2,0,P|195:221|192:181,1,70,8|0,0:0|0:0,0:0:0:0:
143,75,194479,2,0,P|74:65|13:96,1,140,2|8,0:0|0:0,0:0:0:0:
7,187,195131,1,0,0:0:0:0:
0,277,195348,6,0,P|43:301|103:294,1,105,4|0,0:0|0:0,0:0:0:0:
117,291,195783,6,0,P|160:315|220:308,1,105,4|0,0:0|0:0,0:0:0:0:
233,302,196218,6,0,P|283:314|331:297,1,105,4|0,0:0|0:0,0:0:0:0:
350,306,196653,6,0,P|400:318|448:301,1,105,4|0,0:0|0:0,0:0:0:0:
462,285,197087,6,0,L|468:227,1,35,6|0,0:0|0:0,0:0:0:0:
472,174,197305,2,0,L|478:116,1,35,8|0,0:0|0:0,0:0:0:0:
388,235,197522,2,0,L|382:177,1,35,2|0,0:0|0:0,0:0:0:0:
378,124,197740,2,0,L|372:66,1,35,8|0,0:0|0:0,0:0:0:0:
448,28,197957,6,0,P|401:6|313:15,1,140,2|8,0:0|0:0,0:0:0:0:
250,96,198609,1,8,0:0:0:0:
162,48,198826,6,0,L|118:42,1,35,2|0,0:0|0:0,0:0:0:0:
66,91,199044,2,0,L|31:95,1,35,8|0,0:0|0:0,0:0:0:0:
173,118,199261,2,0,L|129:128,1,35,2|0,0:0|0:0,0:0:0:0:
98,192,199479,2,0,L|67:208,1,35,8|0,0:0|0:0,0:0:0:0:
78,300,199696,6,0,P|123:316|228:301,1,140,2|8,0:0|0:0,0:0:0:0:
274,245,200348,1,8,0:0:0:0:
355,332,200565,6,0,P|367:295|358:251,1,70,2|0,0:0|0:0,0:0:0:0:
298,156,201000,2,0,P|286:193|295:237,1,70,8|0,0:0|0:0,0:0:0:0:
437,231,201435,2,0,B|465:157|397:171|428:88,1,140,2|8,0:0|0:0,0:0:0:0:
487,27,202087,1,0,0:0:0:0:
380,7,202305,6,0,P|337:12|301:40,1,70,2|0,0:0|0:0,0:0:0:0:
256,115,202739,2,0,P|221:112|190:96,1,70,8|0,0:0|0:0,0:0:0:0:
84,22,203174,1,0,0:0:0:0:
89,96,203392,1,8,0:0:0:0:
95,170,203609,2,0,L|103:267,1,70,8|8,0:0|0:0,0:0:0:0:
174,311,204044,6,0,L|213:327,1,35,6|0,0:0|0:0,0:0:0:0:
281,322,204261,2,0,L|321:334,1,35,8|0,0:0|0:0,0:0:0:0:
205,246,204479,2,0,L|247:244,1,35,2|0,0:0|0:0,0:0:0:0:
306,210,204696,2,0,L|347:203,1,35,8|0,0:0|0:0,0:0:0:0:
416,287,204913,6,0,P|434:219|425:150,1,140,2|8,0:0|0:0,0:0:0:0:
378,60,205565,1,8,0:0:0:0:
301,120,205783,6,0,L|274:156,1,35,2|0,0:0|0:0,0:0:0:0:
219,60,206000,2,0,L|240:32,1,35,8|0,0:0|0:0,0:0:0:0:
181,135,206218,2,0,L|160:163,1,35,2|0,0:0|0:0,0:0:0:0:
99,81,206435,2,0,L|120:53,1,35,8|0,0:0|0:0,0:0:0:0:
42,156,206652,6,0,B|57:174|57:174|61:228,1,70,2|0,0:0|0:0,0:0:0:0:
69,321,207087,1,8,0:0:0:0:
153,317,207305,1,8,0:0:0:0:
236,313,207522,6,0,P|270:296|288:259,1,70,2|0,0:0|0:0,0:0:0:0:
384,332,207957,2,0,P|350:349|332:386,1,70,8|0,0:0|0:0,0:0:0:0:
220,247,208392,2,0,P|213:200|263:107,1,140,2|8,0:0|0:0,0:0:0:0:
319,53,209044,1,0,0:0:0:0:
382,127,209261,6,0,L|371:218,1,70,2|0,0:0|0:0,0:0:0:0:
465,247,209696,2,0,L|473:333,1,70,8|0,0:0|0:0,0:0:0:0:
335,379,210131,6,8,L|249:387,2,46.6666666666667,8|8|8,3:0|3:0|3:0,3:0:0:0:
362,297,210565,1,8,3:0:0:0:
348,282,210710,1,8,3:0:0:0:
334,267,210855,1,8,3:0:0:0:
320,252,211000,6,0,P|299:240|277:235,1,35,6|0,0:0|0:0,0:0:0:0:
200,232,211218,2,0,P|176:238|157:250,1,35,8|0,0:0|0:0,0:0:0:0:
271,303,211435,2,0,P|246:303|225:309,1,35,6|0,0:0|0:0,0:0:0:0:
157,345,211653,2,0,P|139:362|129:382,1,35,8|0,0:0|0:0,0:0:0:0:
58,308,211870,6,0,L|49:195,1,105,6|0,0:0|0:0,0:0:0:0:
15,184,212305,2,0,L|23:288,1,105,12|0,0:0|0:0,0:0:0:0:
58,308,212739,6,0,L|112:293,1,35,6|0,0:0|0:0,0:0:0:0:
179,276,212957,2,0,L|194:222,1,35,8|0,0:0|0:0,0:0:0:0:
130,162,213174,2,0,L|184:177,1,35,6|0,0:0|0:0,0:0:0:0:
251,194,213392,2,0,L|266:248,1,35,8|0,0:0|0:0,0:0:0:0:
357,255,213609,6,0,P|385:214|377:143,1,105,6|0,0:0|0:0,0:0:0:0:
358,132,214044,2,0,P|354:94|373:60,1,70,12|8,0:0|0:0,0:0:0:0:
485,115,214479,6,0,L|497:198,2,70,6|0|12,0:0|0:0|0:0,0:0:0:0:
427,21,215131,1,0,0:0:0:0:
340,74,215348,2,0,P|302:78|268:59,1,70,6|0,0:0|0:0,0:0:0:0:
143,25,215783,1,12,0:0:0:0:
162,99,216000,1,8,0:0:0:0:
181,173,216218,6,0,P|214:188|265:182,1,70,6|0,0:0|0:0,0:0:0:0:
100,227,216652,2,0,P|65:239|15:228,1,70,12|0,0:0|0:0,0:0:0:0:
9,132,217087,2,0,L|20:50,2,70,4|8|12,0:0|0:0|0:0,0:0:0:0:
32,236,217739,1,8,0:0:0:0:
108,311,217957,6,0,L|155:303,1,35,6|0,0:0|0:0,0:0:0:0:
231,308,218174,2,0,L|278:319,1,35,8|0,0:0|0:0,0:0:0:0:
160,231,218392,2,0,L|207:223,1,35,6|0,0:0|0:0,0:0:0:0:
283,228,218609,2,0,L|330:239,1,35,8|0,0:0|0:0,0:0:0:0:
424,297,218826,6,0,B|432:227|432:227|404:183,1,105,6|0,0:0|0:0,0:0:0:0:
386,170,219261,2,0,B|378:240|378:240|406:284,1,105,12|0,0:0|0:0,0:0:0:0:
424,297,219696,6,0,L|472:288,1,35,6|0,0:0|0:0,0:0:0:0:
352,361,219913,2,0,L|304:352,1,35,8|0,0:0|0:0,0:0:0:0:
231,290,220131,2,0,L|279:281,1,35,6|0,0:0|0:0,0:0:0:0:
159,354,220348,2,0,L|111:345,1,35,8|0,0:0|0:0,0:0:0:0:
55,269,220565,6,0,B|63:205|63:205|35:155,1,105,6|0,0:0|0:0,0:0:0:0:
19,139,221000,1,14,0:0:0:0:
73,76,221218,1,8,0:0:0:0:
132,19,221435,6,0,P|188:15|237:53,1,90.9999958343508,6|0,0:0|0:0,0:0:0:0:
269,143,221870,2,0,P|213:147|164:109,1,90.9999958343508,14|0,0:0|0:0,0:0:0:0:
312,49,222305,2,0,P|353:31|397:37,1,90.9999958343508,6|0,0:0|0:0,0:0:0:0:
447,157,222740,2,0,P|405:174|361:168,1,90.9999958343508,14|0,0:0|0:0,0:0:0:0:
225,225,223174,5,12,0:0:0:0:
202,299,223391,1,8,0:0:0:0:
257,355,223608,1,12,0:0:0:0:
332,333,223826,1,8,0:0:0:0:
355,259,224044,6,0,L|340:93,1,136.499993751526,6|0,0:0|0:0,0:0:0:0:
316,91,224479,2,0,L|323:231,1,136.499993751526,6|0,0:0|0:0,0:0:0:0:
355,259,224913,6,0,B|408:282|417:348|372:383|314:380|289:351|289:351|274:357|274:357|261:348|261:348|246:353|246:353|184:328|130:355,1,367.500014019013,4|0,0:0|0:0,0:0:0:0:
67,322,226652,6,0,B|35:257|60:171|117:138|117:138|134:144|134:144|146:133|146:133|163:139|163:139|222:120|283:145,1,367.500014019013,2|0,0:0|0:0,0:0:0:0:
341,170,228392,6,0,B|307:231|234:236|183:185|193:136|193:136|207:128|207:128|200:112|200:112|211:103|211:103|222:38|280:23,1,367.500014019013,2|0,0:0|0:0,0:0:0:0:
350,62,230131,6,0,L|423:55,1,52.5000020027161,8|0,0:0|0:0,0:0:0:0:
465,106,230565,2,0,L|458:179,1,52.5000020027161,8|0,0:0|0:0,0:0:0:0:
442,237,231000,6,0,L|462:233,4,13.125000500679,10|2|2|2|2,0:0|0:0|0:0|0:0|0:0,0:0:0:0:
390,299,231435,2,0,P|370:307|338:306,1,52.5000020027161,2|2,0:0|0:0,0:0:0:0:
261,281,231870,6,0,B|223:218|123:227|99:293|99:293|79:289|79:289|67:300|67:300|50:293|50:293|15:244|39:178,1,367.500014019013,2|0,0:0|0:0,0:0:0:0:
73,115,233609,6,0,B|165:184|257:128|257:128|271:138|271:138|285:130|285:130|296:139|296:139|343:146|377:98|348:53,1,367.500014019013,2|0,0:0|0:0,0:0:0:0:
277,31,235348,6,0,B|228:66|214:141|240:180|256:212|256:212|247:231|247:231|261:242|261:242|274:264|273:335|221:358,1,367.500014019013,2|0,0:0|0:0,0:0:0:0:
41,44,238826,6,0,B|50:172|50:172|58:244|99:282|133:286|133:286|150:280|150:280|165:293|165:293|180:286|180:286|226:270|272:281,1,420,6|0,0:0|0:0,0:0:0:0:
360,322,240348,1,8,0:0:0:0:
331,221,240565,6,0,B|286:117|319:33|397:39|428:73|428:73|424:91|424:91|442:97|442:97|464:178|393:226|393:226|410:246|414:275,1,490,12|0,0:0|0:0,0:0:0:0:
285,348,242305,6,0,B|177:344|177:344|137:256|137:256|64:252|64:252|51:240|51:240|36:248|36:248|22:237|0:196|18:144,1,420,6|0,0:0|0:0,0:0:0:0:
61,56,243826,1,8,0:0:0:0:
137,112,244044,6,0,P|171:118|218:107,1,70,10|0,0:0|0:0,0:0:0:0:
307,41,244479,2,0,P|273:32|225:38,1,70,8|0,0:0|0:0,0:0:0:0:
303,144,244913,2,0,P|322:220|302:289,1,140,10|2,0:0|0:0,0:0:0:0:
255,353,245565,1,2,0:0:0:0:
368,369,245783,6,0,B|490:366|490:366|412:273|412:273|430:242|430:242|447:233|447:233|443:217|443:217|457:166|426:95|426:95|363:97,1,490,6|8,0:0|0:0,0:0:0:0:
257,97,247522,2,0,B|204:95|204:95|165:190|218:273|218:273|196:299|196:299|179:300|179:300|179:317|179:317|140:366|140:366|262:369,1,490,6|8,0:0|0:0,0:0:0:0:
312,268,249261,6,0,B|338:218|338:218|317:41,1,210,6|8,0:0|0:0,0:0:0:0:
204,26,250131,2,0,B|192:44|192:44|179:48|179:48|183:62|183:62|178:76|178:76|197:238,1,210,6|8,0:0|0:0,0:0:0:0:
256,341,251000,6,0,L|125:332,1,70,6|0,0:0|0:0,0:0:0:0:
51,275,251435,2,0,L|120:279,1,70,6|0,0:0|0:0,0:0:0:0:
194,220,251870,5,8,0:0:0:0:
195,224,252305,1,8,0:0:0:0:
195,224,252739,6,0,L|239:212,1,45.4999979171754,6|0,0:0|0:0,0:0:0:0:
312,192,252957,2,0,L|298:136,1,45.4999979171754,8|0,0:0|0:0,0:0:0:0:
276,77,253174,2,0,L|220:91,1,45.4999979171754,2|0,0:0|0:0,0:0:0:0:
161,113,253392,2,0,L|175:169,1,45.4999979171754,8|0,0:0|0:0,0:0:0:0:
238,212,253609,6,0,P|251:262|229:316,1,90.9999958343508,10|0,0:0|0:0,0:0:0:0:
144,340,254044,1,8,0:0:0:0:
130,336,254152,1,8,0:0:0:0:
116,332,254261,1,8,0:0:0:0:
102,328,254370,1,8,0:0:0:0:
75,322,254479,6,0,L|68:264,1,45.4999979171754,2|0,0:0|0:0,0:0:0:0:
9,165,254696,2,0,L|15:211,1,45.4999979171754,8|0,0:0|0:0,0:0:0:0:
112,218,254913,2,0,L|105:160,1,45.4999979171754,2|0,0:0|0:0,0:0:0:0:
46,59,255130,2,0,L|52:105,1,45.4999979171754,8|0,0:0|0:0,0:0:0:0:
173,140,255348,6,0,P|219:151|273:140,1,90.9999958343508,10|0,0:0|0:0,0:0:0:0:
353,58,255783,1,8,0:0:0:0:
362,148,256000,1,8,0:0:0:0:
372,238,256218,6,0,P|389:280|440:322,1,90.9999958343508,2|0,0:0|0:0,0:0:0:0:
332,365,256652,2,0,P|287:356|224:376,1,90.9999958343508,8|0,0:0|0:0,0:0:0:0:
203,238,257087,2,0,P|186:280|135:322,1,90.9999958343508,2|0,0:0|0:0,0:0:0:0:
68,239,257522,2,8,P|75:213|90:193,3,45.4999979171754
111,181,257957,6,0,B|118:122|118:122|147:81,1,90.9999958343508,2|0,0:0|0:0,0:0:0:0:
241,28,258392,2,0,B|234:87|234:87|205:128,1,90.9999958343508,8|0,0:0|0:0,0:0:0:0:
266,199,258826,2,0,P|354:185|462:228,1,181.999991668702,2|8,0:0|0:0,0:0:0:0:
373,287,259479,1,8,0:0:0:0:
353,184,259696,6,0,L|381:137,1,45.4999979171754,6|0,0:0|0:0,0:0:0:0:
419,76,259913,2,0,L|419:15,1,45.4999979171754,8|0,0:0|0:0,0:0:0:0:
335,0,260131,2,0,L|302:32,1,45.4999979171754,2|0,0:0|0:0,0:0:0:0:
281,111,260348,2,0,L|269:155,1,45.4999979171754,8|0,0:0|0:0,0:0:0:0:
284,250,260565,6,0,L|296:351,1,90.9999958343508,10|0,0:0|0:0,0:0:0:0:
175,338,261000,1,8,0:0:0:0:
160,336,261108,1,8,0:0:0:0:
145,335,261218,1,8,0:0:0:0:
130,334,261326,1,8,0:0:0:0:
103,329,261435,6,0,L|58:289,1,45.4999979171754,2|0,0:0|0:0,0:0:0:0:
3,209,261652,2,0,L|37:239,1,45.4999979171754,8|0,0:0|0:0,0:0:0:0:
138,244,261870,2,0,L|93:204,1,45.4999979171754,2|0,0:0|0:0,0:0:0:0:
38,124,262087,2,0,L|72:154,1,45.4999979171754,8|0,0:0|0:0,0:0:0:0:
139,101,262305,6,0,P|216:88|327:120,1,181.999991668702,10|8,0:0|0:0,0:0:0:0:
403,149,262957,1,8,0:0:0:0:
332,207,263174,6,0,P|317:243|328:305,1,90.9999958343508,2|0,0:0|0:0,0:0:0:0:
437,311,263609,2,0,P|452:275|441:213,1,90.9999958343508,8|0,0:0|0:0,0:0:0:0:
332,207,264044,2,0,L|212:216,1,90.9999958343508,2|0,0:0|0:0,0:0:0:0:
121,270,264479,2,8,L|149:208,3,45.4999979171754
143,195,264913,6,0,B|156:164|156:164|149:79,1,90.9999958343508,2|0,0:0|0:0,0:0:0:0:
67,23,265348,2,0,B|53:53|53:53|60:138,1,90.9999958343508,8|0,0:0|0:0,0:0:0:0:
163,94,265783,6,8,L|173:26,2,46.6666666666667,8|8|8,3:3|3:3|3:3,3:3:0:0:
240,67,266218,2,0,P|277:58|321:58,1,70,8|2,3:3|0:3,0:3:0:0:
421,102,266652,6,0,P|419:183|359:177,1,136.499993751526,6|0,0:0|0:0,0:0:0:0:
362,196,267087,2,0,P|364:277|424:271,1,136.499993751526,6|0,0:0|0:0,0:0:0:0:
419,291,267522,6,0,B|390:314|390:314|255:323,1,136.499993751526,6|0,0:0|0:0,0:0:0:0:
272,321,267957,2,8,L|210:308,3,45.4999979171754,12|8|8|8,0:0|0:0|0:0|0:0,0:0:0:0:
157,288,268392,6,0,P|100:273|11:295,1,136.499993751526,6|0,0:0|0:0,0:0:0:0:
12,274,268826,2,0,P|53:232|78:144,1,136.499993751526,6|0,0:0|0:0,0:0:0:0:
82,142,269261,6,0,P|102:77|148:27,1,136.499993751526,6|0,0:0|0:0,0:0:0:0:
165,21,269696,1,12,0:0:0:0:
255,32,269913,1,8,0:0:0:0:
345,44,270131,6,0,P|361:91|350:149,1,90.9999958343508,6|0,0:0|0:0,0:0:0:0:
275,217,270565,2,8,P|267:167|288:112,1,90.9999958343508,12|0,0:0|0:0,0:0:0:0:
431,148,271000,2,8,P|444:233|414:318,1,136.499993751526,6|0,0:0|0:0,0:0:0:0:
420,305,271435,2,8,P|404:331|383:352,3,45.4999979171754,12|8|8|8,0:0|0:0|0:0|0:0,0:0:0:0:
318,326,271870,6,0,P|279:316|212:329,1,90.9999958343508,6|0,0:0|0:0,0:0:0:0:
100,364,272305,2,0,P|137:377|205:370,1,90.9999958343508,12|0,0:0|0:0,0:0:0:0:
205,257,272739,2,8,L|194:196,3,45.4999979171754,12|8|8|8,0:0|0:0|0:0|0:0,0:0:0:0:
191,185,273174,5,12,0:0:0:0:
130,105,273392,1,8,0:0:0:0:
170,11,273609,6,0,P|245:42|286:115,1,136.499993751526,6|0,0:0|0:0,0:0:0:0:
253,139,274044,2,0,P|296:190|359:213,1,136.499993751526,6|0,0:0|0:0,0:0:0:0:
406,178,274479,6,0,P|432:242|408:330,1,136.499993751526,6|0,0:0|0:0,0:0:0:0:
413,323,274913,2,8,L|357:327,3,45.4999979171754,12|8|8|8,0:0|0:0|0:0|0:0,0:0:0:0:
292,329,275348,6,0,L|134:320,1,136.499993751526,6|0,0:0|0:0,0:0:0:0:
97,311,275783,2,8,P|108:235|71:183,1,136.499993751526,6|0,0:0|0:0,0:0:0:0:
95,131,276218,2,8,P|171:142|223:105,1,136.499993751526,6|0,0:0|0:0,0:0:0:0:
251,62,276652,1,12,0:0:0:0:
305,152,276869,1,8,0:0:0:0:
365,240,277087,5,6,0:0:0:0:
480,201,277305,1,8,0:0:0:0:
372,114,277522,1,6,0:0:0:0:
488,75,277739,1,8,0:0:0:0:
374,37,277957,6,0,P|303:21|210:46,1,136.499993751526,6|0,0:0|0:0,0:0:0:0:
222,51,278392,2,8,P|196:61|157:64,3,45.4999979171754,12|8|8|8,0:0|0:0|0:0|0:0,0:0:0:0:
178,139,278826,6,0,P|194:186|183:248,1,90.9999958343508,6|0,0:0|0:0,0:0:0:0:
82,292,279261,2,0,P|66:245|77:183,1,90.9999958343508,12|0,0:0|0:0,0:0:0:0:
190,226,279696,5,6,0:0:0:0:
190,226,280131,1,12,0:0:0:0:
190,226,280565,5,4,3:0:0:0:
190,226,281000,2,0,P|225:224|305:252,1,105.000004005432,2|0,3:0|3:0,3:0:0:0:
301,252,281544,1,0,3:0:0:0:
310,261,281652,2,0,P|345:263|425:235,1,105.000004005432,2|0,3:0|3:0,3:0:0:0:
460,188,282305,5,0,3:0:0:0:
460,188,282739,2,0,L|453:69,1,105.000004005432,2|0,3:0|3:0,3:0:0:0:
443,75,283283,2,0,L|355:80,1,78.7500030040742,2|0,3:0|3:0,3:0:0:0:
291,86,283826,1,0,3:0:0:0:
217,92,284044,5,0,3:0:0:0:
217,92,284479,2,0,P|203:126|208:180,1,78.7500030040742,2|0,3:0|3:0,3:0:0:0:
219,192,284913,2,0,L|231:211,2,13.125000500679,0|0|0,2:0|2:0|2:0,2:0:0:0:
195,180,285131,2,0,L|87:174,1,105.000004005432,2|0,3:0|3:0,3:0:0:0:
37,228,285783,6,8,L|46:287,1,52.5000020027161,8|0,2:0|2:0,2:0:0:0:
111,312,286218,2,0,L|121:260,1,52.5000020027161,8|0,2:0|2:0,2:0:0:0:
191,280,286652,1,8,2:0:0:0:
191,280,287087,2,0,P|215:282|248:278,1,52.5000020027161,8|0,2:0|2:0,2:0:0:0:
301,233,287522,5,0,3:0:0:0:
301,233,287957,2,0,P|344:232|408:254,1,105.000004005432,2|0,3:0|3:0,3:0:0:0:
409,259,288500,1,0,3:0:0:0:
415,266,288609,2,0,P|392:313|355:350,1,105.000004005432,2|0,3:0|3:0,3:0:0:0:
290,336,289261,5,0,3:0:0:0:
290,336,289696,2,0,B|278:311|278:311|181:309,1,105.000004005432,2|0,3:0|3:0,3:0:0:0:
179,309,290239,6,0,B|120:307|120:307|111:289,1,78.7500030040742,2|0,3:0|3:0,3:0:0:0:
98,216,290783,1,0,3:0:0:0:
85,143,291000,5,0,3:0:0:0:
85,143,291435,2,0,P|89:103|118:64,1,78.7500030040742,2|0,3:0|3:0,3:0:0:0:
130,45,291870,2,0,L|127:23,2,13.125000500679,0|0|0,2:0|2:0|2:0,2:0:0:0:
136,70,292087,2,0,L|247:74,1,105.000004005432,2|0,3:0|3:0,3:0:0:0:
317,81,292739,6,0,P|337:99|345:128,1,52.5000020027161,8|0,2:0|2:0,2:0:0:0:
408,175,293174,2,0,P|416:150|435:133,1,52.5000020027161,8|0,2:0|2:0,2:0:0:0:
466,59,293609,6,8,L|510:44,2,35.0000013351441,8|8|8,3:0|3:0|3:0,3:0:0:0:
431,42,294044,2,8,L|416:-2,2,35.0000013351441,8|8|8,3:0|3:0|3:0,3:0:0:0:
414,76,294479,6,0,B|375:89|375:89|332:170|379:253|379:253|319:279|319:279|292:368,1,367.500014019013,4|0,0:0|0:0,0:0:0:0:
218,364,296218,2,0,B|193:279|193:279|133:253|133:253|180:170|137:89|137:89|98:76,1,367.500014019013,8|0,0:0|0:0,0:0:0:0:
25,88,297957,6,0,B|-18:122|-20:219|46:262|125:237|151:191|151:191|216:191,1,315.000012016297,2|0,0:0|0:0,0:0:0:0:
257,192,299479,1,8,0:0:0:0:
330,194,299696,2,0,P|352:218|390:232,1,52.5000020027161,2|0,0:0|0:0,0:0:0:0:
442,225,300130,2,0,P|466:203|480:165,1,52.5000020027161,8|0,0:0|0:0,0:0:0:0:
473,113,300565,1,8,0:0:0:0:
473,113,301000,6,0,L|406:91,1,52.5000020027161
350,83,301435,2,0,B|304:129|304:129|317:224|317:224|358:196|358:196|344:301|344:301|289:333,1,367.500014019013,2|0,0:0|0:0,0:0:0:0:
212,326,303174,2,0,B|168:301|168:301|154:196|154:196|195:224|195:224|208:129|208:129|162:83,1,367.500014019013,2|0,0:0|0:0,0:0:0:0:
120,22,304913,6,0,P|141:13|183:13,1,52.5000020027161,2|0,0:0|0:0,0:0:0:0:
256,41,305348,2,0,L|256:122,1,52.5000020027161,8|0,0:0|0:0,0:0:0:0:
342,10,305783,2,0,P|394:13|443:32,1,105.000004005432,2|8,0:0|0:0,0:0:0:0:
415,112,306435,1,0,0:0:0:0:
477,175,306652,6,0,L|456:246,1,52.5000020027161,2|0,0:0|0:0,0:0:0:0:
387,252,307087,2,0,L|366:323,1,52.5000020027161,8|0,0:0|0:0,0:0:0:0:
450,360,307522,1,8,0:0:0:0:
256,192,308392,5,6,0:0:0:0:
256,192,308500,12,0,315131,0:0:0:0:
