osu file format v14

[General]
AudioFilename: audio.mp3
AudioLeadIn: 0
PreviewTime: 58215
Countdown: 0
SampleSet: Normal
StackLeniency: 0.7
Mode: 0
LetterboxInBreaks: 0
EpilepsyWarning: 1
WidescreenStoryboard: 1

[Editor]
DistanceSpacing: 0.5
BeatDivisor: 8
GridSize: 4
TimelineZoom: 2.5

[Metadata]
Title:Bad Apple!! feat.nomico (Nhato Remix)
TitleUnicode:Bad Apple!! feat.nomico (Nhato Remix)
Artist:Masayoshi Minoshima
ArtistUnicode:簑島正佳
Creator:Akareh
Version:Limbo
Source:東方幻想郷 ~ Lotus Land Story
Tags:Touhou Gensoukyou 東方Project Fantastic Home Village of the East Alstroemeria Records EDM 10th Anniversary Antlia- Reitaisai 14 アルストロメリアレコーズ
BeatmapID:1299942
BeatmapSetID:616378

[Difficulty]
HPDrainRate:6
CircleSize:4.5
OverallDifficulty:8
ApproachRate:9
SliderMultiplier:1.9
SliderTickRate:1

[Events]
//Background and Video events
0,0,"Touhoubg.jpg",0,0
//Break Periods
2,30589,36745
2,86241,99354
2,280823,287180
//Storyboard Layer 0 (Background)
//Storyboard Layer 1 (Fail)
//Storyboard Layer 2 (Pass)
//Storyboard Layer 3 (Foreground)
//Storyboard Sound Samples

[TimingPoints]
824,434.782608695652,4,1,1,20,1,0
2563,-133.333333333333,4,3,1,15,0,0
2780,-133.333333333333,4,2,1,30,0,0
5606,-133.333333333333,4,3,1,15,0,0
6041,-133.333333333333,4,3,1,30,0,0
6258,-133.333333333333,4,2,1,30,0,0
7780,-133.333333333333,4,3,1,15,0,0
9737,-133.333333333333,4,2,1,30,0,0
12562,-133.333333333333,4,3,1,15,0,0
12997,-133.333333333333,4,3,1,30,0,0
13215,-133.333333333333,4,2,1,30,0,0
14736,-133.333333333333,4,3,1,15,0,0
16476,-100,4,1,1,30,0,0
21693,-100,4,3,1,45,0,0
23433,-100,4,1,1,30,0,0
28649,-100,4,3,1,45,0,0
28867,-100,4,1,2,30,0,0
29519,-100,4,1,2,45,0,0
29737,-100,4,1,2,30,0,0
29954,-83.3333333333333,4,1,2,30,0,0
30389,-83.3333333333333,4,1,2,50,0,0
37345,-133.333333333333,4,1,1,30,0,0
40823,-133.333333333333,4,1,1,40,0,0
41693,-133.333333333333,4,1,1,50,0,0
41910,-133.333333333333,4,1,2,30,0,0
42563,-133.333333333333,4,1,2,60,0,0
42780,-133.333333333333,4,1,2,10,0,0
42997,-133.333333333333,4,1,2,60,0,0
43215,-133.333333333333,4,1,2,10,0,0
43432,-133.333333333333,4,1,2,60,0,0
43650,-133.333333333333,4,3,1,30,0,0
43867,-133.333333333333,4,3,1,45,0,0
44302,-100,4,1,1,70,0,0
44519,-100,4,1,1,50,0,0
50606,-100,4,1,1,60,0,0
51367,-100,4,1,1,50,0,0
56476,-133.333333333333,4,2,1,40,0,0
57345,-133.333333333333,4,2,3,50,0,0
57563,-83.3333333333333,4,2,3,40,0,0
57780,-133.333333333333,4,2,3,60,0,0
58215,-100,4,1,1,40,0,1
71258,-133.333333333333,4,3,1,40,0,1
71693,-133.333333333333,4,3,1,60,0,1
71910,-133.333333333333,4,2,3,60,0,1
72128,-100,4,1,1,40,0,1
79084,-100,4,1,1,50,0,1
84302,-100,4,3,1,40,0,1
86041,-133.333333333333,4,1,2,50,0,0
99954,-133.333333333333,4,3,1,30,0,0
113867,-133.333333333333,4,3,1,40,0,0
126910,-133.333333333333,4,3,1,50,0,0
127345,-133.333333333333,4,3,1,60,0,0
139954,-90.9090909090909,4,3,1,50,0,0
141041,-90.9090909090909,4,1,2,20,0,0
141258,-133.333333333333,4,2,3,50,0,0
141693,-133.333333333333,4,1,1,30,0,0
153867,-133.333333333333,4,2,1,30,0,0
154954,-133.333333333333,4,3,1,60,0,0
155171,-90.9090909090909,4,3,1,40,0,0
155606,-100,4,1,1,50,0,0
161910,-100,4,1,1,60,0,0
162671,-100,4,1,1,50,0,0
167780,-133.333333333333,4,2,1,40,0,0
168650,-133.333333333333,4,2,3,50,0,0
168867,-66.6666666666667,4,2,3,40,0,0
169084,-133.333333333333,4,2,3,60,0,0
169519,-100,4,1,1,40,0,1
182563,-133.333333333333,4,3,1,40,0,1
183215,-133.333333333333,4,2,3,60,0,1
183432,-100,4,1,1,40,0,1
190389,-100,4,1,1,40,0,1
195605,-100,4,3,1,40,0,1
197345,-133.333333333333,4,1,2,50,0,0
197454,-133.333333333333,4,3,1,30,0,0
204302,-133.333333333333,4,3,1,60,0,0
204410,-133.333333333333,4,3,1,40,0,0
206041,-133.333333333333,4,3,1,70,0,0
206150,-133.333333333333,4,3,1,50,0,0
207780,-133.333333333333,4,3,1,80,0,0
207889,-133.333333333333,4,3,1,50,0,0
209519,-133.333333333333,4,3,1,30,0,0
210823,-133.333333333333,4,3,1,60,0,0
211258,-100,4,1,1,50,0,0
214302,-133.333333333333,4,2,3,40,0,0
214737,-100,4,1,1,50,0,0
217345,-100,4,3,1,50,0,0
217780,-100,4,3,1,70,0,0
217997,-100,4,2,3,60,0,0
218215,-100,4,1,1,50,0,0
221258,-133.333333333333,4,2,3,40,0,0
221693,-100,4,1,1,50,0,0
224302,-100,4,3,1,50,0,0
225171,-83.3333333333333,4,1,1,50,0,1
228650,-83.3333333333333,4,1,1,50,0,1
231258,-83.3333333333333,4,3,1,50,0,1
231693,-83.3333333333333,4,3,1,70,0,1
231910,-83.3333333333333,4,2,3,60,0,1
232128,-83.3333333333333,4,1,1,50,0,1
237345,-83.3333333333333,4,3,1,50,0,1
239084,-133.333333333333,4,3,1,35,0,0
251258,-133.333333333333,4,3,1,20,0,0
252997,-133.333333333333,4,2,0,20,0,0
258432,-133.333333333333,4,3,1,20,0,0
259954,-133.333333333333,4,2,0,20,0,0
265389,-133.333333333333,4,3,1,20,0,0
266910,-133.333333333333,4,2,0,20,0,0
279084,-133.333333333333,4,2,0,10,0,0
287780,-100,4,1,1,20,0,0
291258,-100,4,3,1,30,0,0
291692,-100,4,3,1,35,0,0
292128,-100,4,3,1,40,0,0
292563,-100,4,3,1,45,0,0
292997,-100,4,3,1,50,0,0
293432,-100,4,3,1,55,0,0
293867,-100,4,3,1,40,0,0
293976,-100,4,2,0,30,0,0
294084,-100,4,2,0,20,0,0
294193,-100,4,2,0,10,0,0
294302,-166.666666666667,4,2,3,50,0,0
294737,-83.3333333333333,4,1,3,50,0,1
296476,-100,4,2,0,50,0,1
296910,-100,4,1,3,50,0,1
297128,-100,4,2,0,50,0,1
297563,-100,4,3,0,50,0,1
297780,-100,4,1,4,60,0,1
298215,-83.3333333333333,4,1,3,40,0,1
300823,-133.333333333333,4,1,4,60,0,1
301150,-133.333333333333,4,1,0,30,0,1
301476,-133.333333333333,4,1,0,50,0,1
301693,-83.3333333333333,4,1,3,50,0,1
303432,-100,4,2,0,50,0,1
303867,-100,4,1,3,50,0,1
304084,-100,4,2,0,50,0,1
304302,-100,4,3,0,50,0,1
304737,-83.3333333333333,4,1,3,50,0,1
307562,-83.3333333333333,4,2,3,40,0,1
308215,-83.3333333333333,4,1,3,60,0,1
308269,-83.3333333333333,4,1,3,20,0,1
308323,-83.3333333333333,4,1,3,60,0,1
308378,-83.3333333333333,4,1,3,20,0,1
308432,-83.3333333333333,4,1,3,60,0,1
308487,-83.3333333333333,4,1,3,20,0,1
308541,-83.3333333333333,4,1,3,60,0,1
308595,-83.3333333333333,4,1,3,20,0,1
308650,-83.3333333333333,4,1,3,50,0,1
310389,-100,4,2,0,50,0,1
310823,-100,4,1,3,50,0,1
311041,-100,4,2,0,50,0,1
311476,-100,4,3,0,50,0,1
311693,-100,4,1,4,70,0,1
312128,-83.3333333333333,4,1,3,40,0,1
314737,-133.333333333333,4,1,4,60,0,1
315063,-133.333333333333,4,1,0,30,0,1
315389,-133.333333333333,4,1,0,50,0,1
315606,-83.3333333333333,4,1,3,50,0,1
317345,-83.3333333333333,4,2,0,50,0,1
317780,-83.3333333333333,4,1,3,50,0,1
317997,-100,4,2,0,50,0,1
318215,-100,4,3,0,60,0,1
318650,-100,4,1,3,50,0,1
319084,-83.3333333333333,4,1,3,50,0,1
320823,-83.3333333333333,4,1,3,60,0,1
322563,-100,4,1,0,30,0,0
336041,-100,4,3,1,40,0,0
336258,-66.6666666666667,4,3,1,50,0,0
336476,-83.3333333333333,4,1,3,60,0,1
349084,-100,4,1,3,60,0,1
357345,-100,4,1,5,50,0,1
360389,-100,4,2,3,50,0,1
360607,-133.333333333333,4,1,3,40,0,1
360823,-100,4,1,5,30,0,1
362563,-100,4,1,5,40,0,1
363432,-100,4,1,5,50,0,1
364302,-100,4,1,0,70,0,0

[Colours]
Combo1 : 40,132,185
Combo2 : 226,63,56
Combo3 : 85,33,118
Combo4 : 156,62,65

[HitObjects]
256,192,824,12,2,2128,0:0:0:0:
304,84,2563,6,0,B|264:72|264:72|196:80,1,106.875004076958,4|0,0:0|0:0,0:0:0:0:
60,96,3215,1,2,0:0:0:0:
152,16,3432,1,8,0:0:0:0:
88,312,4302,5,2,0:0:0:0:
88,312,4519,2,0,B|120:296|120:296|200:312,1,106.875004076958
248,364,4954,1,2,0:0:0:0:
220,240,5171,1,8,0:0:0:0:
448,328,5606,1,4,0:0:0:0:
296,288,6041,6,0,L|324:176,1,106.875004076958,4|0,0:0|0:0,0:0:0:0:
356,48,6693,1,2,0:0:0:0:
264,124,6910,1,8,0:0:0:0:
448,116,7780,5,2,0:0:0:0:
248,216,7997,1,4,0:0:0:0:
344,280,8215,1,2,0:0:0:0:
299,60,8432,1,4,0:0:0:0:
120,140,8650,2,0,L|204:132,1,71.2500027179719,2|4,0:0|0:0,0:0:0:0:
120,44,9084,1,2,0:0:0:0:
75,264,9302,1,4,0:0:0:0:
319,252,9519,6,0,B|279:240|279:240|211:248,1,106.875004076958,4|0,0:0|0:0,0:0:0:0:
75,264,10171,1,2,0:0:0:0:
172,332,10389,1,8,0:0:0:0:
132,52,11258,5,2,0:0:0:0:
132,52,11476,2,0,B|164:68|164:68|244:52,1,106.875004076958,0|0,0:0|0:0,0:0:0:0:
296,8,11910,1,2,0:0:0:0:
268,124,12128,1,8,0:0:0:0:
488,20,12563,1,4,0:0:0:0:
344,80,12997,6,0,P|380:80|396:16,1,106.875004076958,4|0,0:0|0:0,0:0:0:0:
268,124,13650,1,2,0:0:0:0:
388,168,13867,1,8,0:0:0:0:
212,200,14737,5,2,0:0:0:0:
412,100,14954,1,4,0:0:0:0:
316,36,15171,1,2,0:0:0:0:
361,256,15389,1,4,0:0:0:0:
512,176,15606,2,0,L|428:184,1,71.2500027179719,2|4,0:0|0:0,0:0:0:0:
512,280,16041,1,2,0:0:0:0:
464,56,16258,1,4,0:0:0:0:
361,256,16476,6,0,P|321:176|340:128,1,142.5,4|0,0:0|0:0,0:0:0:0:
337,131,16910,2,0,B|240:136|240:136|284:104,1,142.5,10|0,0:0|0:0,0:0:0:0:
276,109,17345,2,0,L|244:200,1,95,2|0,0:0|0:0,0:0:0:0:
208,296,17780,1,4,0:0:0:0:
178,281,17889,1,0,0:0:0:0:
158,255,17997,1,8,0:0:0:0:
148,224,18106,1,0,0:0:0:0:
148,184,18215,6,0,P|68:224|20:205,1,142.5
23,207,18650,2,0,B|27:304|27:304|-4:260,1,142.5,10|0,0:0|0:0,0:0:0:0:
1,268,19084,2,0,L|95:296,1,95,2|0,0:0|0:0,0:0:0:0:
204,336,19519,1,10,0:0:0:0:
152,184,19737,1,10,0:0:0:0:
340,248,19954,6,0,B|244:248|244:248|288:224,1,142.5
284,225,20389,2,0,P|288:292|360:312,1,142.5,10|0,0:0|0:0,0:0:0:0:
352,314,20823,2,0,B|372:328|380:356|380:356|404:332|432:328,1,95,2|0,0:0|0:0,0:0:0:0:
504,240,21258,1,4,0:0:0:0:
472,249,21367,1,0,0:0:0:0:
440,240,21476,1,8,0:0:0:0:
418,216,21584,1,0,0:0:0:0:
408,184,21693,5,2,0:0:0:0:
508,336,21910,1,4,0:0:0:0:
416,331,22128,1,2,0:0:0:0:
488,160,22345,1,4,0:0:0:0:
416,92,22563,1,2,0:0:0:0:
328,368,22780,1,4,0:0:0:0:
416,331,22997,1,2,0:0:0:0:
280,124,23215,1,4,0:0:0:0:
180,244,23432,6,0,B|140:216|140:216|248:208,1,142.5,4|0,0:0|0:0,0:0:0:0:
233,209,23867,2,0,P|174:187|156:112,1,142.5,10|0,0:0|0:0,0:0:0:0:
155,115,24302,2,0,P|96:120|64:92,1,95,2|0,0:0|0:0,0:0:0:0:
224,36,24737,1,4,0:0:0:0:
246,60,24845,1,0,0:0:0:0:
257,91,24954,1,8,0:0:0:0:
256,124,25063,1,0,0:0:0:0:
248,152,25171,6,0,P|312:132|376:164,1,142.5
376,164,25606,2,0,B|361:132|361:132|413:156|469:136,1,142.5,10|0,0:0|0:0,0:0:0:0:
465,137,26041,2,0,P|482:175|470:227,1,95,2|0,0:0|0:0,0:0:0:0:
352,268,26476,1,10,0:0:0:0:
492,336,26693,1,10,0:0:0:0:
292,336,26910,6,0,P|260:276|316:184,1,142.5
281,208,27345,2,0,B|168:219|168:219|200:191,1,142.5,10|0,0:0|0:0,0:0:0:0:
189,199,27780,2,0,L|176:298,1,95,2|0,0:0|0:0,0:0:0:0:
120,376,28215,1,4,0:0:0:0:
95,354,28323,1,0,0:0:0:0:
79,324,28432,1,8,0:0:0:0:
75,292,28541,1,0,0:0:0:0:
84,260,28650,5,4,0:0:0:0:
240,144,28867,2,0,L|248:184,2,23.75,8|0|0,0:0|0:0|0:0,0:0:0:0:
264,232,29084,1,4,0:0:0:0:
64,152,29302,2,0,L|72:112,2,23.75,8|0|0,0:0|0:0|0:0,0:0:0:0:
124,68,29519,1,4,0:0:0:0:
212,328,29737,2,0,L|256:324,2,23.75,8|0|0,0:0|0:0|0:0,0:0:0:0:
188,332,29954,6,0,L|204:388,1,56.9999982604981,10|0,0:0|0:0,0:0:0:0:
344,320,30171,2,0,L|356:252,1,56.9999982604981,10|0,0:0|0:0,0:0:0:0:
284,148,30389,5,4,0:0:0:0:
284,148,37345,6,0,P|236:152|200:144,1,71.2500027179719,4|0,0:0|0:0,0:0:0:0:
88,88,37780,2,0,P|144:88|164:96,1,71.2500027179719,8|0,0:0|0:0,0:0:0:0:
264,236,38215,2,0,P|216:240|180:232,1,71.2500027179719,4|0,0:0|0:0,0:0:0:0:
68,176,38650,2,0,P|124:176|144:184,1,71.2500027179719,8|0,0:0|0:0,0:0:0:0:
252,320,39084,6,0,P|204:324|168:316,1,71.2500027179719,4|0,0:0|0:0,0:0:0:0:
56,260,39519,2,0,P|112:260|132:268,1,71.2500027179719,8|0,0:0|0:0,0:0:0:0:
252,320,39954,1,4,0:0:0:0:
364,264,40171,2,0,L|360:316,1,35.625001358986,4|0,0:0|0:0,0:0:0:0:
360,328,40389,1,8,0:0:0:0:
432,176,40606,2,0,L|440:212,1,35.625001358986,4|0,0:0|0:0,0:0:0:0:
448,240,40823,5,8,0:0:0:0:
308,176,41041,1,8,0:0:0:0:
384,96,41258,1,8,0:0:0:0:
367,269,41476,1,8,0:0:0:0:
220,245,41693,1,8,0:0:0:0:
240,76,41910,2,0,L|232:80,4,8.90625033974649,2|0|0|0|0,0:0|0:0|0:0|0:0|0:0,0:0:0:0:
320,108,42128,2,0,L|328:68,1,35.625001358986,8|0,0:0|0:0,0:0:0:0:
416,56,42345,2,0,L|432:56,4,8.90625033974649,2|0|0|0|0,0:0|0:0|0:0|0:0|0:0,0:0:0:0:
336,64,42563,6,0,L|356:148,1,71.2500027179719,8|0,0:0|0:0,0:0:0:0:
440,312,42997,2,0,L|423:242,1,71.2500027179719,8|0,0:0|0:0,0:0:0:0:
492,112,43432,2,0,L|449:122,1,35.625001358986,8|4,0:0|0:0,0:0:0:0:
340,208,43650,2,0,L|360:200,2,17.812500679493,4|0|0,0:0|0:0|0:0,0:0:0:0:
496,232,43867,2,0,L|486:197,1,35.625001358986,4|0,0:0|0:0,0:0:0:0:
392,20,44084,2,0,L|382:54,1,35.625001358986,4|0,0:0|0:0,0:0:0:0:
268,152,44302,6,0,B|165:144,1,95,4|0,0:0|0:0,0:0:0:0:
69,66,44628,1,0,0:0:0:0:
69,66,44737,2,0,L|81:130,1,47.5,10|0,0:0|0:0,0:0:0:0:
49,202,44954,1,0,0:0:0:0:
173,144,45171,1,4,0:0:0:0:
168,352,45389,2,0,P|144:332|115:328,1,47.5
53,301,45606,2,0,P|95:289|137:241,1,95,10|0,0:0|0:0,0:0:0:0:
220,220,45932,1,0,0:0:0:0:
220,220,46041,6,0,L|331:233,1,95,4|0,0:0|0:0,0:0:0:0:
456,264,46476,1,10,0:0:0:0:
462,55,46693,1,2,0:0:0:0:
462,55,46802,1,0,0:0:0:0:
462,55,46910,2,0,L|464:112,1,47.5,4|0,0:0|0:0,0:0:0:0:
372,52,47128,2,0,L|372:-1,1,47.5
340,128,47345,2,0,P|291:112|258:116,1,47.5,10|0,0:0|0:0,0:0:0:0:
216,156,47563,2,0,L|204:99,1,47.5,2|0,0:0|0:0,0:0:0:0:
272,31,47780,6,0,P|214:39|181:14,1,95,4|0,0:0|0:0,0:0:0:0:
111,80,48106,1,0,0:0:0:0:
111,80,48215,2,0,P|45:76|8:105,1,95,10|2,0:0|0:0,0:0:0:0:
76,164,48541,1,0,0:0:0:0:
76,164,48650,2,0,L|68:222,1,47.5,4|0,0:0|0:0,0:0:0:0:
108,292,48867,2,0,P|157:263|174:263,1,47.5,0|0,0:0|0:0,0:0:0:0:
236,252,49084,1,10,0:0:0:0:
304,368,49302,1,4,0:0:0:0:
454,303,49519,6,0,P|396:299|359:258,1,95,6|0,0:0|0:0,0:0:0:0:
432,212,49845,1,0,0:0:0:0:
432,212,49954,2,0,L|428:134,1,47.5,10|0,0:0|0:0,0:0:0:0:
512,132,50171,2,0,L|512:72,1,47.5,2|0,0:0|0:0,0:0:0:0:
436,32,50389,2,0,P|378:19|368:24,1,47.5,4|0,0:0|0:0,0:0:0:0:
332,84,50606,2,0,L|278:72,1,47.5,10|0,0:0|0:0,0:0:0:0:
196,56,50823,1,12,0:0:0:0:
272,264,51041,2,0,P|205:255|197:259,1,47.5,10|8,0:0|0:0,0:0:0:0:
152,225,51258,6,0,P|218:200|239:163,1,95,4|0,0:0|0:0,0:0:0:0:
152,142,51584,1,0,0:0:0:0:
152,142,51693,2,0,P|95:138|82:130,1,47.5,10|0,0:0|0:0,0:0:0:0:
28,97,51910,2,0,L|20:158,1,47.5,0|0,0:0|0:0,0:0:0:0:
72,220,52128,2,0,P|76:270|39:323,1,95,4|0,0:0|0:0,0:0:0:0:
2,253,52454,1,0,0:0:0:0:
2,253,52563,2,0,L|142:249,1,95,10|0,0:0|0:0,0:0:0:0:
172,304,52889,1,0,0:0:0:0:
227,233,52997,6,0,L|214:134,1,95,4|0,0:0|0:0,0:0:0:0:
180,56,53323,1,0,0:0:0:0:
180,56,53432,2,0,P|238:52|275:77,1,95,10|2,0:0|0:0,0:0:0:0:
214,138,53758,1,0,0:0:0:0:
304,148,53867,2,0,L|360:128,1,47.5,4|0,0:0|0:0,0:0:0:0:
440,120,54084,2,0,P|432:168|408:192,1,47.5,0|0,0:0|0:0,0:0:0:0:
360,224,54302,2,0,L|420:268,1,47.5,10|0,0:0|0:0,0:0:0:0:
456,324,54519,2,0,P|488:280|484:244,1,47.5,2|0,0:0|0:0,0:0:0:0:
340,344,54737,6,0,B|368:328|368:328|268:332,1,95,4|0,0:0|0:0,0:0:0:0:
216,276,55063,1,0,0:0:0:0:
216,276,55171,2,0,P|156:296|104:260,1,95,10|2,0:0|0:0,0:0:0:0:
88,204,55497,1,0,0:0:0:0:
156,144,55606,2,0,B|180:116|180:116|164:240,1,142.5,4|4,0:0|0:0,0:0:0:0:
248,156,56041,2,0,L|256:72,1,47.5,10|0,0:0|0:0,0:0:0:0:
196,4,56258,2,0,L|204:88,1,47.5,6|0,0:0|0:0,0:0:0:0:
308,224,56476,6,0,P|332:160|316:100,1,106.875004076958,6|0,0:0|0:0,0:0:0:0:
452,288,56910,6,0,P|384:280|340:316,1,106.875004076958,10|0,0:0|0:0,0:0:0:0:
420,92,57345,5,2,0:0:0:0:
416,116,57454,1,0,0:0:0:0:
420,141,57563,2,0,L|455:135,2,28.4999991302491,4|0|0,0:0|0:0|0:0,0:0:0:0:
388,236,57780,2,0,P|340:228|288:268,1,106.875004076958,8|0,0:0|0:0,0:0:0:0:
156,280,58215,5,4,0:0:0:0:
156,280,58323,1,0,0:0:0:0:
156,280,58432,2,0,P|148:256|160:212,1,47.5,10|4,0:0|0:0,0:0:0:0:
200,152,58650,2,0,B|252:168|252:168|300:152,1,95,6|0,0:0|0:0,0:0:0:0:
368,100,58976,2,0,P|388:148|380:176,1,47.5,10|0,0:0|0:0,0:0:0:0:
356,240,59193,2,0,P|420:216|460:256,1,95,6|8,0:0|0:0,0:0:0:0:
412,324,59519,2,0,L|460:320,1,47.5,10|0,0:0|0:0,0:0:0:0:
324,312,59737,1,2,0:0:0:0:
304,316,59845,1,10,0:0:0:0:
284,320,59954,6,0,L|232:304,1,47.5,4|0,0:0|0:0,0:0:0:0:
144,280,60171,2,0,P|136:328|148:360,1,47.5,10|4,0:0|0:0,0:0:0:0:
238,306,60389,2,0,P|250:254|222:195,1,95,6|0,0:0|0:0,0:0:0:0:
148,188,60715,2,0,P|84:192|64:184,1,47.5,10|0,0:0|0:0,0:0:0:0:
52,76,60932,2,0,P|104:84|88:144,1,95,6|8,0:0|0:0,0:0:0:0:
24,204,61258,2,0,L|32:144,1,47.5,10|0,0:0|0:0,0:0:0:0:
89,264,61476,2,0,L|84:312,1,47.5,2|2,0:0|0:0,0:0:0:0:
196,360,61693,5,4,0:0:0:0:
196,360,61802,1,0,0:0:0:0:
196,360,61910,2,0,P|240:348|256:352,1,47.5,10|4,0:0|0:0,0:0:0:0:
348,284,62128,2,0,P|292:276|268:236,1,95,6|0,0:0|0:0,0:0:0:0:
200,200,62454,2,0,P|184:256|192:276,1,47.5,10|0,0:0|0:0,0:0:0:0:
284,176,62671,2,0,P|256:128|216:112,1,95,6|8,0:0|0:0,0:0:0:0:
132,144,62997,2,0,L|84:144,1,47.5,10|0,0:0|0:0,0:0:0:0:
36,72,63215,1,2,0:0:0:0:
52,60,63323,1,10,0:0:0:0:
68,48,63432,6,0,L|128:44,1,47.5,4|0,0:0|0:0,0:0:0:0:
196,76,63650,2,0,L|256:84,1,47.5,10|4,0:0|0:0,0:0:0:0:
344,80,63867,2,0,P|304:116|304:160,1,95,6|0,0:0|0:0,0:0:0:0:
352,236,64193,1,10,0:0:0:0:
428,136,64410,1,6,0:0:0:0:
436,300,64628,1,8,0:0:0:0:
436,300,64737,2,0,L|348:296,1,47.5,10|8,0:0|0:0,0:0:0:0:
264,340,64954,2,0,L|232:272,1,47.5,2|10,0:0|0:0,0:0:0:0:
156,196,65171,5,4,0:0:0:0:
156,196,65280,1,0,0:0:0:0:
156,196,65389,2,0,P|212:204|236:196,1,47.5,10|4,0:0|0:0,0:0:0:0:
132,268,65606,2,0,B|84:256|84:256|32:272,1,95,6|0,0:0|0:0,0:0:0:0:
36,356,65932,2,0,L|92:340,1,47.5,10|0,0:0|0:0,0:0:0:0:
208,320,66150,2,0,P|164:352|152:400,1,95,6|8,0:0|0:0,0:0:0:0:
288,356,66476,2,0,P|296:308|288:284,1,47.5,10|0,0:0|0:0,0:0:0:0:
276,200,66693,1,2,0:0:0:0:
292,208,66802,1,10,0:0:0:0:
308,216,66910,6,0,L|300:168,1,47.5,4|0,0:0|0:0,0:0:0:0:
396,248,67128,2,0,L|388:184,1,47.5,10|4,0:0|0:0,0:0:0:0:
444,312,67345,2,0,P|476:260|464:212,1,95,6|0,0:0|0:0,0:0:0:0:
488,148,67671,2,0,L|424:148,1,47.5,10|0,0:0|0:0,0:0:0:0:
380,44,67889,2,0,P|428:68|488:48,1,95,6|8,0:0|0:0,0:0:0:0:
308,80,68215,2,0,P|300:52|300:28,1,47.5,10|0,0:0|0:0,0:0:0:0:
240,136,68432,2,0,P|248:164|248:188,1,47.5,2|2,0:0|0:0,0:0:0:0:
184,72,68650,6,0,L|124:76,1,47.5,4|0,0:0|0:0,0:0:0:0:
80,132,68867,2,0,P|56:92|56:72,1,47.5,10|4,0:0|0:0,0:0:0:0:
0,156,69084,2,0,P|24:196|12:252,1,95,6|0,0:0|0:0,0:0:0:0:
84,304,69410,2,0,L|92:240,1,47.5,10|0,0:0|0:0,0:0:0:0:
164,204,69628,2,0,L|176:304,1,95,6|8,0:0|0:0,0:0:0:0:
160,384,69954,2,0,P|216:376|228:364,1,47.5,10|8,0:0|0:0,0:0:0:0:
276,324,70171,2,0,L|332:344,1,47.5,2|10,0:0|0:0,0:0:0:0:
416,328,70389,6,0,P|452:332|484:324,1,47.5,6|0,0:0|0:0,0:0:0:0:
392,248,70606,2,0,P|356:244|316:252,1,47.5,8|0,0:0|0:0,0:0:0:0:
268,192,70823,2,0,L|304:144,1,47.5,4|0,0:0|0:0,0:0:0:0:
264,68,71041,2,0,L|208:56,1,47.5,10|0,0:0|0:0,0:0:0:0:
136,104,71258,5,4,0:0:0:0:
140,116,71367,1,0,0:0:0:0:
144,132,71476,2,0,L|80:128,1,35.625001358986,10|0,0:0|0:0,0:0:0:0:
8,200,71693,2,0,L|4:152,1,35.625001358986,2|0,0:0|0:0,0:0:0:0:
160,224,71910,2,0,L|96:220,1,35.625001358986,8|0,0:0|0:0,0:0:0:0:
216,332,72128,5,4,0:0:0:0:
216,332,72237,1,0,0:0:0:0:
216,332,72345,2,0,P|268:324|288:328,1,47.5,10|4,0:0|0:0,0:0:0:0:
360,332,72563,2,0,P|328:288|332:228,1,95,6|0,0:0|0:0,0:0:0:0:
392,204,72889,2,0,L|456:220,1,47.5,10|0,0:0|0:0,0:0:0:0:
496,124,73106,2,0,P|436:132|400:104,1,95,6|8,0:0|0:0,0:0:0:0:
328,64,73432,2,0,P|316:120|320:136,1,47.5,10|0,0:0|0:0,0:0:0:0:
240,164,73650,1,2,0:0:0:0:
232,144,73758,1,10,0:0:0:0:
224,128,73867,6,0,P|192:124|176:128,1,47.5,4|0,0:0|0:0,0:0:0:0:
108,172,74084,2,0,P|96:112|104:96,1,47.5,10|4,0:0|0:0,0:0:0:0:
32,200,74302,2,0,B|48:252|48:252|32:308,1,95,6|0,0:0|0:0,0:0:0:0:
84,368,74628,2,0,P|140:340|168:344,1,47.5,10|0,0:0|0:0,0:0:0:0:
240,344,74845,2,0,P|188:312|176:256,1,95,6|8,0:0|0:0,0:0:0:0:
256,232,75171,1,10,0:0:0:0:
252,244,75280,1,0,0:0:0:0:
252,260,75389,2,0,L|336:256,1,47.5,2|2,0:0|0:0,0:0:0:0:
376,308,75606,6,0,P|388:248|376:220,1,47.5,4|0,0:0|0:0,0:0:0:0:
340,160,75823,1,10,0:0:0:0:
340,160,75932,1,4,0:0:0:0:
340,160,76041,2,0,P|400:160|432:120,1,95,6|0,0:0|0:0,0:0:0:0:
348,40,76367,2,0,L|364:92,1,47.5,10|0,0:0|0:0,0:0:0:0:
280,92,76584,2,0,L|164:76,1,95,6|8,0:0|0:0,0:0:0:0:
96,116,76910,2,0,L|100:52,1,47.5,10|0,0:0|0:0,0:0:0:0:
172,156,77128,2,0,L|168:208,1,47.5,2|10,0:0|0:0,0:0:0:0:
132,276,77345,6,0,P|184:284|204:276,1,47.5,4|0,0:0|0:0,0:0:0:0:
244,212,77563,2,0,L|324:256,1,47.5,10|4,0:0|0:0,0:0:0:0:
352,316,77780,2,0,P|304:312|260:348,1,95,6|0,0:0|0:0,0:0:0:0:
266,337,78106,1,10,0:0:0:0:
448,332,78323,1,6,0:0:0:0:
424,144,78541,1,8,0:0:0:0:
348,196,78650,2,0,L|276:184,1,47.5,10|8,0:0|0:0,0:0:0:0:
204,92,78867,2,0,L|284:72,1,47.5,2|10,0:0|0:0,0:0:0:0:
252,260,79084,5,4,0:0:0:0:
252,260,79193,1,0,0:0:0:0:
252,260,79302,2,0,P|220:216|220:212,1,47.5,2|0,0:0|0:0,0:0:0:0:
112,136,79519,2,0,L|104:200,1,47.5,8|0,0:0|0:0,0:0:0:0:
44,332,79737,2,0,L|104:316,1,47.5,2|0,0:0|0:0,0:0:0:0:
244,320,79954,2,0,L|220:212,1,95,6|0,0:0|0:0,0:0:0:0:
262,128,80280,1,0,0:0:0:0:
262,128,80389,2,0,L|328:140,1,47.5,10|0,0:0|0:0,0:0:0:0:
396,224,80606,2,0,L|332:212,1,47.5,2|0,0:0|0:0,0:0:0:0:
476,280,80823,5,4,0:0:0:0:
476,280,80932,1,0,0:0:0:0:
476,280,81041,2,0,P|492:228|488:196,1,47.5,2|0,0:0|0:0,0:0:0:0:
504,136,81258,2,0,L|444:152,1,47.5,10|0,0:0|0:0,0:0:0:0:
380,36,81476,2,0,L|392:108,1,47.5
236,168,81693,2,0,L|348:152,1,95,4|2,0:0|0:0,0:0:0:0:
252,260,82019,1,0,0:0:0:0:
252,260,82128,2,0,P|200:256|180:240,1,47.5,10|0,0:0|0:0,0:0:0:0:
72,212,82345,2,0,P|123:201|146:211,1,47.5,2|0,0:0|0:0,0:0:0:0:
236,168,82563,5,4,0:0:0:0:
236,168,82671,1,0,0:0:0:0:
236,168,82780,2,0,L|216:96,1,47.5,2|0,0:0|0:0,0:0:0:0:
84,24,82997,2,0,L|100:84,1,47.5,10|0,0:0|0:0,0:0:0:0:
152,224,83215,2,0,L|128:148,1,47.5
176,56,83432,2,0,P|232:44|284:72,1,95,4|2,0:0|0:0,0:0:0:0:
340,140,83758,1,0,0:0:0:0:
340,140,83867,2,0,P|392:136|416:124,1,47.5,10|0,0:0|0:0,0:0:0:0:
260,224,84084,2,0,P|200:212|168:216,1,47.5,2|0,0:0|0:0,0:0:0:0:
100,252,84302,5,10,0:0:0:0:
296,316,84519,1,4,0:0:0:0:
176,356,84737,1,10,0:0:0:0:
272,104,84954,1,4,0:0:0:0:
392,272,85171,5,10,0:0:0:0:
156,184,85389,2,0,L|164:104,1,47.5,4|8,0:0|0:0,0:0:0:0:
272,104,85606,2,0,L|264:44,1,47.5,10|8,0:0|0:0,0:0:0:0:
239,261,85823,2,0,L|227:197,1,47.5,4|8,0:0|0:0,0:0:0:0:
356,112,86041,5,4,0:0:0:0:
296,64,99954,5,4,0:0:0:0:
268,212,100389,1,8,0:0:0:0:
410,162,100823,1,4,0:0:0:0:
320,136,101041,1,8,0:0:0:0:
392,240,101258,1,2,0:0:0:0:
416,241,101367,1,2,0:0:0:0:
440,234,101476,1,2,0:0:0:0:
460,220,101584,1,2,0:0:0:0:
474,199,101693,5,4,0:0:0:0:
428,31,102128,1,8,0:0:0:0:
305,154,102563,1,4,0:0:0:0:
400,116,102780,1,0,0:0:0:0:
276,84,102997,1,2,0:0:0:0:
254,93,103106,1,2,0:0:0:0:
236,111,103215,1,2,0:0:0:0:
226,133,103323,1,2,0:0:0:0:
228,160,103432,5,4,0:0:0:0:
302,316,103867,1,8,0:0:0:0:
395,174,104302,1,4,0:0:0:0:
304,220,104519,1,8,0:0:0:0:
436,256,104737,1,2,0:0:0:0:
458,247,104845,1,2,0:0:0:0:
476,229,104954,1,2,0:0:0:0:
486,207,105063,1,2,0:0:0:0:
488,181,105171,5,2,0:0:0:0:
256,159,105389,1,4,0:0:0:0:
333,72,105606,1,2,0:0:0:0:
346,296,105823,1,4,0:0:0:0:
152,265,106041,2,0,L|235:250,1,71.2500027179719,2|4,0:0|0:0,0:0:0:0:
177,358,106476,1,2,0:0:0:0:
76,212,106693,1,4,0:0:0:0:
316,106,106910,5,4,0:0:0:0:
187,184,107345,1,8,0:0:0:0:
319,256,107780,1,4,0:0:0:0:
280,176,107997,1,8,0:0:0:0:
252,300,108215,1,2,0:0:0:0:
267,318,108323,1,2,0:0:0:0:
289,331,108432,1,2,0:0:0:0:
312,337,108541,1,2,0:0:0:0:
337,333,108650,5,4,0:0:0:0:
428,182,109084,1,8,0:0:0:0:
251,178,109519,1,4,0:0:0:0:
340,240,109737,1,8,0:0:0:0:
288,108,109954,1,2,0:0:0:0:
267,97,110063,1,2,0:0:0:0:
241,96,110171,1,2,0:0:0:0:
218,103,110280,1,2,0:0:0:0:
200,120,110389,5,4,0:0:0:0:
132,279,110823,1,8,0:0:0:0:
303,258,111258,1,4,0:0:0:0:
208,208,111476,1,8,0:0:0:0:
268,328,111693,1,2,0:0:0:0:
290,339,111802,1,2,0:0:0:0:
315,340,111910,1,2,0:0:0:0:
338,333,112019,1,2,0:0:0:0:
359,317,112128,5,2,0:0:0:0:
218,139,112345,1,4,0:0:0:0:
334,138,112563,1,2,0:0:0:0:
146,277,112780,1,4,0:0:0:0:
70,133,112997,2,0,L|108:160,1,35.625001358986,4|0,0:0|0:0,0:0:0:0:
228,192,113215,1,10,0:0:0:0:
228,192,113323,1,4,0:0:0:0:
228,192,113432,2,0,L|190:165,1,35.625001358986,4|0,0:0|0:0,0:0:0:0:
156,32,113650,2,0,L|208:64,1,35.625001358986,10|4,0:0|0:0,0:0:0:0:
316,212,113867,6,0,P|296:252|264:272,1,71.2500027179719,8|2,0:0|0:0,0:0:0:0:
412,268,114302,2,0,P|456:265|489:283,1,71.2500027179719,8|2,0:0|0:0,0:0:0:0:
392,172,114737,2,0,P|367:134|366:96,1,71.2500027179719,8|8,0:0|0:0,0:0:0:0:
372,80,115063,1,2,0:0:0:0:
436,112,115280,1,2,0:0:0:0:
276,128,115497,1,2,0:0:0:0:
276,128,115606,6,0,L|284:176,2,35.625001358986,8|0|2,0:0|0:0|0:0,0:0:0:0:
208,208,116041,2,0,P|240:240|276:248,1,71.2500027179719,8|2,0:0|0:0,0:0:0:0:
144,308,116476,2,0,P|104:280|72:280,1,71.2500027179719,8|8,0:0|0:0,0:0:0:0:
56,288,116802,1,2,0:0:0:0:
84,356,117019,1,2,0:0:0:0:
88,168,117237,1,2,0:0:0:0:
88,168,117345,6,0,L|132:180,2,35.625001358986,8|0|2,0:0|0:0|0:0,0:0:0:0:
200,244,117780,2,0,P|240:224|280:224,1,71.2500027179719,8|2,0:0|0:0,0:0:0:0:
392,172,118215,2,0,P|344:156|324:128,1,71.2500027179719,8|8,0:0|0:0,0:0:0:0:
312,112,118541,1,2,0:0:0:0:
392,88,118758,1,2,0:0:0:0:
424,280,118976,1,2,0:0:0:0:
424,280,119084,6,0,L|384:275,2,35.625001358986,2|0|8,0:0|0:0|0:0,0:0:0:0:
300,324,119519,1,8,0:0:0:0:
360,180,119737,1,2,0:0:0:0:
204,140,119954,2,0,L|228:216,1,71.2500027179719,8|2,0:0|0:0,0:0:0:0:
225,207,120280,1,8,0:0:0:0:
128,152,120497,1,2,0:0:0:0:
304,224,120715,1,2,0:0:0:0:
304,224,120823,6,0,L|312:184,2,35.625001358986,8|0|2,0:0|0:0|0:0,0:0:0:0:
372,340,121258,2,0,P|428:316|452:320,1,71.2500027179719,8|2,0:0|0:0,0:0:0:0:
300,300,121693,2,0,P|232:308|220:300,1,71.2500027179719,8|8,0:0|0:0,0:0:0:0:
216,292,122019,1,2,0:0:0:0:
264,228,122237,1,2,0:0:0:0:
100,332,122454,1,2,0:0:0:0:
100,332,122563,6,0,L|96:292,2,35.625001358986,8|0|2,0:0|0:0|0:0,0:0:0:0:
40,216,122997,2,0,B|76:196|76:196|112:200,1,71.2500027179719,8|2,0:0|0:0,0:0:0:0:
220,128,123432,2,0,B|178:127|178:127|149:105,1,71.2500027179719,8|8,0:0|0:0,0:0:0:0:
132,88,123758,1,2,0:0:0:0:
204,52,123976,1,2,0:0:0:0:
244,240,124193,1,2,0:0:0:0:
244,240,124302,6,0,L|288:232,2,35.625001358986,8|0|2,0:0|0:0|0:0,0:0:0:0:
364,304,124737,2,0,P|388:260|388:240,1,71.2500027179719,8|2,0:0|0:0,0:0:0:0:
420,108,125171,2,0,P|417:143|431:175,1,71.2500027179719,8|8,0:0|0:0,0:0:0:0:
450,192,125497,1,2,0:0:0:0:
496,128,125715,1,2,0:0:0:0:
308,168,125932,1,2,0:0:0:0:
308,168,126041,6,0,L|288:132,2,35.625001358986,2|0|8,0:0|0:0|0:0,0:0:0:0:
172,176,126476,1,8,0:0:0:0:
160,153,126584,1,0,0:0:0:0:
156,129,126693,1,2,0:0:0:0:
158,104,126802,1,0,0:0:0:0:
168,82,126910,1,8,0:0:0:0:
252,216,127128,2,0,L|236:252,1,35.625001358986,2|8,0:0|0:0,0:0:0:0:
164,328,127345,2,0,L|204:356,1,35.625001358986,4|2,0:0|0:0,0:0:0:0:
312,324,127563,2,0,L|264:320,1,35.625001358986,4|0,0:0|0:0,0:0:0:0:
348,260,127780,6,0,P|380:288|388:328,1,71.2500027179719,4|0,0:0|0:0,0:0:0:0:
452,192,128215,2,0,P|460:150|490:123,1,71.2500027179719,2|0,0:0|0:0,0:0:0:0:
344,144,128650,2,0,P|303:157|265:144,1,71.2500027179719,4|0,0:0|0:0,0:0:0:0:
152,92,129084,1,2,0:0:0:0:
172,105,129193,1,4,0:0:0:0:
186,125,129302,1,4,0:0:0:0:
192,152,129410,1,2,0:0:0:0:
188,176,129519,6,0,P|144:164|112:168,1,71.2500027179719,4|0,0:0|0:0,0:0:0:0:
184,288,129954,2,0,P|236:280|256:268,1,71.2500027179719,2|0,0:0|0:0,0:0:0:0:
360,192,130389,2,0,P|316:180|284:184,1,71.2500027179719,4|0,0:0|0:0,0:0:0:0:
356,304,130823,1,2,0:0:0:0:
380,303,130932,1,4,0:0:0:0:
404,297,131041,1,4,0:0:0:0:
426,284,131150,1,2,0:0:0:0:
444,267,131258,6,0,P|432:316|440:352,1,71.2500027179719,4|0,0:0|0:0,0:0:0:0:
488,212,131693,2,0,P|496:168|488:132,1,71.2500027179719,2|0,0:0|0:0,0:0:0:0:
380,68,132128,2,0,P|375:103|383:137,1,71.2500027179719,4|0,0:0|0:0,0:0:0:0:
320,256,132563,1,2,0:0:0:0:
322,231,132671,1,4,0:0:0:0:
318,206,132780,1,4,0:0:0:0:
307,184,132889,1,2,0:0:0:0:
290,166,132997,5,4,0:0:0:0:
204,272,133215,2,0,P|164:264|160:264,1,35.625001358986,4|0,0:0|0:0,0:0:0:0:
140,268,133432,1,2,0:0:0:0:
40,168,133650,2,0,P|80:176|84:176,1,35.625001358986,4|0,0:0|0:0,0:0:0:0:
104,172,133867,1,2,0:0:0:0:
236,120,134084,2,0,P|196:112|192:112,1,35.625001358986,4|0,0:0|0:0,0:0:0:0:
172,116,134302,1,8,0:0:0:0:
72,16,134519,2,0,P|112:24|116:24,1,35.625001358986,2|4,0:0|0:0,0:0:0:0:
136,20,134737,5,4,0:0:0:0:
172,116,134954,1,8,0:0:0:0:
88,92,135171,1,2,0:0:0:0:
216,44,135389,1,0,0:0:0:0:
240,176,135606,1,4,0:0:0:0:
240,176,135823,1,0,0:0:0:0:
288,4,136041,2,0,L|332:12,1,35.625001358986,8|8,0:0|0:0,0:0:0:0:
424,68,136258,2,0,L|376:72,1,35.625001358986,2|4,0:0|0:0,0:0:0:0:
304,84,136476,5,4,0:0:0:0:
380,196,136693,1,8,0:0:0:0:
288,168,136910,1,2,0:0:0:0:
468,168,137128,1,0,0:0:0:0:
316,256,137345,1,4,0:0:0:0:
316,256,137563,1,0,0:0:0:0:
396,112,137780,2,0,L|392:64,1,35.625001358986,8|8,0:0|0:0,0:0:0:0:
285,132,137997,2,0,L|289:184,1,35.625001358986,2|4,0:0|0:0,0:0:0:0:
316,256,138215,5,4,0:0:0:0:
380,196,138432,1,8,0:0:0:0:
228,232,138650,1,2,0:0:0:0:
316,256,138867,1,0,0:0:0:0:
160,320,139084,1,4,0:0:0:0:
228,232,139302,2,0,L|231:242,4,8.90625033974649,2|0|0|0|0,0:0|0:0|0:0|0:0|0:0,0:0:0:0:
143,182,139519,2,0,L|143:154,2,17.812500679493,4|0|0,0:0|0:0|0:0,0:0:0:0:
219,70,139737,2,0,L|223:86,4,8.90625033974649,4|0|0|0|0,0:0|0:0|0:0|0:0|0:0,0:0:0:0:
136,40,139954,6,0,L|84:40,1,52.2500015945435,4|0,0:0|0:0,0:0:0:0:
220,152,140171,2,0,L|272:152,1,52.2500015945435,2|0,0:0|0:0,0:0:0:0:
400,68,140389,1,4,0:0:0:0:
388,92,140497,1,0,0:0:0:0:
380,116,140606,2,0,L|444:100,1,52.2500015945435,2|0,0:0|0:0,0:0:0:0:
460,208,140823,2,0,L|512:208,1,52.2500015945435,4|0,0:0|0:0,0:0:0:0:
336,308,141041,5,4,0:0:0:0:
336,308,141258,2,0,L|424:308,1,71.2500027179719,8|0,0:0|0:0,0:0:0:0:
200,296,141693,6,0,P|152:276|96:292,1,106.875004076958,4|8,0:0|0:0,0:0:0:0:
100,288,142128,1,10,0:0:0:0:
260,356,142345,1,2,0:0:0:0:
160,208,142563,2,0,P|144:168|152:128,1,71.2500027179719,4|0,0:0|0:0,0:0:0:0:
152,124,142889,1,2,0:0:0:0:
160,108,142997,1,10,0:0:0:0:
288,160,143215,1,2,0:0:0:0:
445,42,143432,6,0,P|397:42|345:82,1,106.875004076958,4|0,0:0|0:0,0:0:0:0:
350,75,143867,1,10,0:0:0:0:
484,144,144084,1,8,0:0:0:0:
344,204,144302,1,6,0:0:0:0:
448,304,144519,2,0,L|456:264,1,35.625001358986,8|8,0:0|0:0,0:0:0:0:
376,352,144737,2,0,P|344:328|304:328,1,71.2500027179719,6|0,0:0|0:0,0:0:0:0:
208,296,145171,6,0,P|244:268|260:200,1,106.875004076958,4|8,0:0|0:0,0:0:0:0:
261,211,145606,1,10,0:0:0:0:
244,368,145823,1,2,0:0:0:0:
108,344,146041,2,0,P|92:292|100:268,1,71.2500027179719,4|0,0:0|0:0,0:0:0:0:
100,260,146367,1,8,0:0:0:0:
106,243,146476,1,10,0:0:0:0:
208,296,146693,1,0,0:0:0:0:
304,208,146910,6,0,P|248:204|232:192,1,71.2500027179719,6|0,0:0|0:0,0:0:0:0:
372,160,147237,1,8,0:0:0:0:
372,160,147345,2,0,P|388:204|380:236,1,71.2500027179719,10|4,0:0|0:0,0:0:0:0:
392,336,147780,1,2,0:0:0:0:
392,336,147889,2,0,P|336:340|320:352,1,71.2500027179719,4|0,0:0|0:0,0:0:0:0:
460,384,148215,1,6,0:0:0:0:
474,352,148323,1,2,0:0:0:0:
471,316,148432,1,10,0:0:0:0:
456,284,148541,1,2,0:0:0:0:
424,260,148650,6,0,P|376:260|324:212,1,106.875004076958,4|8,0:0|0:0,0:0:0:0:
330,225,149084,1,10,0:0:0:0:
500,192,149302,1,2,0:0:0:0:
432,80,149519,2,0,P|380:72|352:84,1,71.2500027179719,4|0,0:0|0:0,0:0:0:0:
348,84,149845,1,2,0:0:0:0:
336,96,149954,1,10,0:0:0:0:
204,40,150171,1,2,0:0:0:0:
236,212,150389,6,0,P|264:168|248:112,1,106.875004076958,4|0,0:0|0:0,0:0:0:0:
252,117,150823,1,10,0:0:0:0:
104,156,151041,1,8,0:0:0:0:
236,212,151258,1,4,0:0:0:0:
120,304,151476,2,0,L|120:260,1,35.625001358986,8|8,0:0|0:0,0:0:0:0:
200,360,151693,2,0,P|240:336|272:336,1,71.2500027179719,4|0,0:0|0:0,0:0:0:0:
380,348,152019,1,0,0:0:0:0:
380,348,152128,6,0,P|340:312|336:288,1,71.2500027179719,4|8,0:0|0:0,0:0:0:0:
304,184,152454,1,0,0:0:0:0:
304,184,152563,2,0,P|268:224|244:228,1,71.2500027179719,10|0,0:0|0:0,0:0:0:0:
160,116,152997,2,0,P|196:99|228:159,1,106.875004076958,6|0,0:0|0:0,0:0:0:0:
232,144,153432,1,10,0:0:0:0:
84,80,153650,1,4,0:0:0:0:
40,216,153867,6,0,B|76:216|76:216|116:200|116:200|156:200,1,106.875004076958,4|2,0:0|0:0,0:0:0:0:
208,256,154302,2,0,P|200:296|240:352,1,106.875004076958,8|2,0:0|0:0,0:0:0:0:
284,284,154737,1,12,0:0:0:0:
396,344,154954,2,0,L|392:376,2,17.812500679493,4|0|2,0:0|0:0|0:0,0:0:0:0:
432,272,155171,6,0,P|432:236|424:208,1,52.2500015945435,4|2,0:0|0:0,0:0:0:0:
380,148,155389,2,0,P|416:136|452:140,1,52.2500015945435,8|2,0:0|0:0,0:0:0:0:
372,60,155606,6,0,P|332:65|290:14,1,95,4|0,0:0|0:0,0:0:0:0:
224,80,155932,1,0,0:0:0:0:
224,80,156041,2,0,L|221:128,1,47.5,10|0,0:0|0:0,0:0:0:0:
276,208,156258,1,0,0:0:0:0:
120,92,156476,1,4,0:0:0:0:
32,256,156693,2,0,L|28:188,1,47.5,0|0,0:0|0:0,0:0:0:0:
112,260,156910,2,0,P|104:304|64:340,1,95,10|0,0:0|0:0,0:0:0:0:
188,316,157237,1,0,0:0:0:0:
188,316,157345,6,0,P|236:316|272:344,1,95,4|0,0:0|0:0,0:0:0:0:
372,280,157671,1,0,0:0:0:0:
372,280,157780,2,0,P|324:280|288:252,1,95,10|2,0:0|0:0,0:0:0:0:
200,172,158106,1,0,0:0:0:0:
200,172,158215,2,0,L|256:180,1,47.5,4|0,0:0|0:0,0:0:0:0:
316,60,158432,2,0,B|326:57|256:68,1,47.5
156,40,158650,2,0,P|154:63|156:87,1,47.5,10|0,0:0|0:0,0:0:0:0:
76,152,158867,2,0,P|48:136|20:136,1,47.5,2|0,0:0|0:0,0:0:0:0:
128,240,159084,6,0,P|172:220|220:224,1,95,4|0,0:0|0:0,0:0:0:0:
292,276,159410,1,0,0:0:0:0:
292,276,159519,2,0,B|304:224|304:224|288:172,1,95,10|2,0:0|0:0,0:0:0:0:
216,132,159845,1,0,0:0:0:0:
216,132,159954,2,0,P|252:100|308:96,1,95,4|0,0:0|0:0,0:0:0:0:
392,88,160280,1,0,0:0:0:0:
392,88,160389,2,0,P|387:64|375:44,1,47.5,10|0,0:0|0:0,0:0:0:0:
300,16,160606,1,4,0:0:0:0:
448,216,160823,6,0,P|464:268|440:320,1,95,6|0,0:0|0:0,0:0:0:0:
372,348,161150,1,0,0:0:0:0:
372,348,161258,2,0,B|348:328|348:328|284:344,1,95,10|2,0:0|0:0,0:0:0:0:
208,296,161584,1,0,0:0:0:0:
208,296,161693,2,0,L|220:248,1,47.5,4|0,0:0|0:0,0:0:0:0:
108,340,161910,2,0,L|96:288,1,47.5,10|0,0:0|0:0,0:0:0:0:
136,184,162128,1,12,0:0:0:0:
107,200,162237,1,0,0:0:0:0:
74,198,162345,1,10,0:0:0:0:
48,179,162454,1,8,0:0:0:0:
36,148,162563,5,4,0:0:0:0:
204,84,162780,2,0,P|232:112|236:128,1,47.5,0|0,0:0|0:0,0:0:0:0:
320,152,162997,2,0,P|308:108|316:56,1,95,10|0,0:0|0:0,0:0:0:0:
396,100,163323,1,0,0:0:0:0:
396,100,163432,2,0,B|408:136|408:160|400:180|400:180|432:192|448:232,1,142.5,4|0,0:0|0:0,0:0:0:0:
442,220,163867,1,10,0:0:0:0:
324,224,164084,2,0,P|344:252|368:264,1,47.5,0|0,0:0|0:0,0:0:0:0:
440,340,164302,6,0,P|384:332|340:360,1,95,4|0,0:0|0:0,0:0:0:0:
264,304,164628,1,0,0:0:0:0:
264,304,164737,2,0,P|208:312|164:284,1,95,10|2,0:0|0:0,0:0:0:0:
104,228,165063,1,0,0:0:0:0:
104,228,165171,2,0,L|56:232,1,47.5,4|0,0:0|0:0,0:0:0:0:
144,148,165389,2,0,P|164:120|168:88,1,47.5,0|0,0:0|0:0,0:0:0:0:
268,176,165606,2,0,L|216:176,1,47.5,10|0,0:0|0:0,0:0:0:0:
288,256,165823,2,0,P|310:249|340:224,1,47.5,2|0,0:0|0:0,0:0:0:0:
420,240,166041,6,0,B|444:224|444:224|424:300,1,95,4|0,0:0|0:0,0:0:0:0:
352,348,166367,1,0,0:0:0:0:
352,348,166476,2,0,L|244:344,1,95,10|2,0:0|0:0,0:0:0:0:
172,312,166802,1,0,0:0:0:0:
172,312,166910,2,0,B|200:276|200:276|200:212,1,95,4|0,0:0|0:0,0:0:0:0:
116,188,167237,1,4,0:0:0:0:
116,188,167345,2,0,L|116:240,1,47.5,10|0,0:0|0:0,0:0:0:0:
200,148,167563,2,0,L|200:88,1,47.5,6|0,0:0|0:0,0:0:0:0:
132,28,167780,5,6,0:0:0:0:
212,240,167997,2,0,L|239:232,2,17.812500679493,8|0|0,0:0|0:0|0:0,0:0:0:0:
308,276,168215,1,6,0:0:0:0:
300,52,168432,2,0,L|332:56,2,17.812500679493,8|0|0,0:0|0:0|0:0,0:0:0:0:
396,80,168650,6,0,L|448:84,1,35.625001358986,2|0,0:0|0:0,0:0:0:0:
452,100,168867,6,0,B|452:132|452:132|460:152|460:152|460:196,1,71.2500027179719,4|0,0:0|0:0,0:0:0:0:
496,264,169084,6,0,P|440:260|400:304,1,106.875004076958,8|0,0:0|0:0,0:0:0:0:
288,348,169519,5,4,0:0:0:0:
288,348,169628,1,0,0:0:0:0:
288,348,169737,2,0,L|296:284,1,47.5,10|4,0:0|0:0,0:0:0:0:
308,200,169954,2,0,B|269:212|269:212|217:196,1,95,6|0,0:0|0:0,0:0:0:0:
364,148,170280,2,0,P|384:196|376:224,1,47.5,10|0,0:0|0:0,0:0:0:0:
260,132,170497,2,0,P|252:56|268:32,1,95,6|8,0:0|0:0,0:0:0:0:
344,68,170823,2,0,L|392:64,1,47.5,10|0,0:0|0:0,0:0:0:0:
452,168,171041,2,0,L|388:156,1,47.5,2|8,0:0|0:0,0:0:0:0:
292,204,171258,5,4,0:0:0:0:
292,204,171367,1,0,0:0:0:0:
292,204,171476,2,0,P|284:252|296:284,1,47.5,10|4,0:0|0:0,0:0:0:0:
368,336,171693,2,0,P|380:284|352:225,1,95,6|0,0:0|0:0,0:0:0:0:
292,204,172019,2,0,L|224:204,1,47.5,10|0,0:0|0:0,0:0:0:0:
148,264,172237,2,0,B|176:248|176:248|232:284,1,95,6|8,0:0|0:0,0:0:0:0:
72,284,172563,2,0,P|68:252|80:224,1,47.5,10|0,0:0|0:0,0:0:0:0:
136,172,172780,2,0,L|141:124,1,47.5,2|2,0:0|0:0,0:0:0:0:
64,44,172997,5,4,0:0:0:0:
68,64,173106,1,0,0:0:0:0:
72,84,173215,2,0,L|12:76,1,47.5,10|4,0:0|0:0,0:0:0:0:
152,104,173432,2,0,P|208:120|252:104,1,95,6|0,0:0|0:0,0:0:0:0:
316,60,173758,2,0,P|332:96|332:116,1,47.5,10|0,0:0|0:0,0:0:0:0:
292,188,173976,2,0,P|344:184|380:224,1,95,6|8,0:0|0:0,0:0:0:0:
440,272,174302,2,0,B|464:264|464:264|496:272,1,47.5,10|0,0:0|0:0,0:0:0:0:
388,336,174519,2,0,P|368:316|360:292,1,47.5,2|10,0:0|0:0,0:0:0:0:
264,272,174737,6,0,P|276:312|276:332,1,47.5,4|0,0:0|0:0,0:0:0:0:
200,356,174954,2,0,L|144:352,1,47.5,0|0,0:0|0:0,0:0:0:0:
60,272,175171,2,0,B|112:304|156:268,1,95,6|0,0:0|0:0,0:0:0:0:
100,152,175497,2,0,L|104:208,1,47.5,10|0,0:0|0:0,0:0:0:0:
208,224,175715,1,6,0:0:0:0:
172,72,175932,1,8,0:0:0:0:
240,128,176041,2,0,L|287:115,1,47.5,10|8,0:0|0:0,0:0:0:0:
368,40,176258,2,0,L|404:80,1,47.5,2|10,0:0|0:0,0:0:0:0:
488,216,176476,5,4,0:0:0:0:
488,216,176584,1,0,0:0:0:0:
488,216,176693,2,0,P|456:192|428:192,1,47.5,10|4,0:0|0:0,0:0:0:0:
356,232,176910,2,0,P|348:180|376:128,1,95,6|0,0:0|0:0,0:0:0:0:
428,264,177237,2,0,L|412:316,1,47.5,10|0,0:0|0:0,0:0:0:0:
324,360,177454,2,0,P|284:336|228:352,1,95,6|8,0:0|0:0,0:0:0:0:
140,340,177780,2,0,P|100:336|76:320,1,47.5,10|0,0:0|0:0,0:0:0:0:
120,220,177997,2,0,L|128:276,1,47.5,2|10,0:0|0:0,0:0:0:0:
64,160,178215,5,4,0:0:0:0:
64,160,178323,1,0,0:0:0:0:
64,160,178432,2,0,P|96:140|120:140,1,47.5,10|4,0:0|0:0,0:0:0:0:
200,176,178650,2,0,P|184:136|192:72,1,95,6|0,0:0|0:0,0:0:0:0:
272,120,178976,2,0,L|320:108,1,47.5,10|0,0:0|0:0,0:0:0:0:
412,180,179193,2,0,P|368:172|320:204,1,95,6|8,0:0|0:0,0:0:0:0:
388,292,179519,2,0,L|380:244,1,47.5,10|0,0:0|0:0,0:0:0:0:
468,272,179737,2,0,L|460:336,1,47.5,2|0,0:0|0:0,0:0:0:0:
388,368,179954,5,4,0:0:0:0:
388,368,180063,1,0,0:0:0:0:
388,368,180171,2,0,P|352:360|340:352,1,47.5,10|4,0:0|0:0,0:0:0:0:
284,276,180389,2,0,B|232:292|232:292|176:276,1,95,6|0,0:0|0:0,0:0:0:0:
128,236,180715,2,0,P|116:280|116:300,1,47.5,10|0,0:0|0:0,0:0:0:0:
192,188,180932,2,0,P|156:160|100:160,1,95,6|8,0:0|0:0,0:0:0:0:
28,196,181258,2,0,P|16:160|16:144,1,47.5,10|8,0:0|0:0,0:0:0:0:
72,48,181476,2,0,L|68:104,1,47.5,2|10,0:0|0:0,0:0:0:0:
108,157,181693,6,0,P|148:137|172:137,1,47.5,6|0,0:0|0:0,0:0:0:0:
260,104,181910,2,0,P|228:96|204:80,1,47.5,8|0,0:0|0:0,0:0:0:0:
248,196,182128,2,0,L|296:188,1,47.5,4|0,0:0|0:0,0:0:0:0:
364,136,182345,2,0,P|380:172|380:196,1,47.5,10|0,0:0|0:0,0:0:0:0:
336,252,182563,5,4,0:0:0:0:
332,264,182671,1,0,0:0:0:0:
328,280,182780,2,0,L|392:276,1,35.625001358986,10|0,0:0|0:0,0:0:0:0:
460,344,182997,2,0,L|464:296,1,35.625001358986,2|0,0:0|0:0,0:0:0:0:
308,368,183215,2,0,L|372:364,1,35.625001358986,8|0,0:0|0:0,0:0:0:0:
244,312,183432,5,4,0:0:0:0:
236,300,183541,1,0,0:0:0:0:
228,288,183650,2,0,L|164:292,1,47.5,10|4,0:0|0:0,0:0:0:0:
56,336,183867,2,0,P|88:292|84:232,1,95,6|0,0:0|0:0,0:0:0:0:
104,164,184193,2,0,L|168:180,1,47.5,10|0,0:0|0:0,0:0:0:0:
248,192,184410,2,0,B|232:208|232:208|240:120,1,95,6|8,0:0|0:0,0:0:0:0:
164,52,184737,2,0,L|152:112,1,47.5,10|0,0:0|0:0,0:0:0:0:
312,68,184954,2,0,L|320:8,1,47.5,2|10,0:0|0:0,0:0:0:0:
238,135,185171,5,4,0:0:0:0:
238,135,185280,1,0,0:0:0:0:
238,135,185389,2,0,L|232:184,1,47.5,10|4,0:0|0:0,0:0:0:0:
312,224,185606,2,0,B|340:208|340:208|420:232,1,95,6|0,0:0|0:0,0:0:0:0:
460,296,185932,2,0,L|444:352,1,47.5,10|0,0:0|0:0,0:0:0:0:
340,340,186150,2,0,B|352:324|352:324|264:336,1,95,6|8,0:0|0:0,0:0:0:0:
212,232,186476,1,10,0:0:0:0:
204,248,186584,1,0,0:0:0:0:
196,264,186693,2,0,L|280:260,1,47.5,2|0,0:0|0:0,0:0:0:0:
332,248,186910,6,0,P|302:194|275:180,1,47.5,4|0,0:0|0:0,0:0:0:0:
264,132,187128,1,10,0:0:0:0:
264,132,187237,1,4,0:0:0:0:
264,132,187345,2,0,P|324:132|356:92,1,95,6|0,0:0|0:0,0:0:0:0:
276,16,187671,2,0,L|292:68,1,47.5,10|0,0:0|0:0,0:0:0:0:
208,72,187889,2,0,L|92:56,1,95,6|8,0:0|0:0,0:0:0:0:
24,124,188215,2,0,P|68:120|88:124,1,47.5,10|0,0:0|0:0,0:0:0:0:
152,164,188432,2,0,L|148:216,1,47.5,2|0,0:0|0:0,0:0:0:0:
108,292,188650,6,0,P|160:300|180:292,1,47.5,4|0,0:0|0:0,0:0:0:0:
236,260,188867,2,0,L|228:192,1,47.5,0|0,0:0|0:0,0:0:0:0:
352,316,189084,2,0,P|304:312|260:348,1,95,6|0,0:0|0:0,0:0:0:0:
266,337,189410,1,10,0:0:0:0:
444,368,189628,1,6,0:0:0:0:
409,192,189845,1,0,0:0:0:0:
464,272,189954,2,0,L|536:260,1,47.5
328,244,190171,2,0,L|281:232,1,47.5,2|10,0:0|0:0,0:0:0:0:
236,304,190389,5,4,0:0:0:0:
236,304,190497,1,0,0:0:0:0:
236,304,190606,2,0,P|208:264|208:232,1,47.5
232,112,190823,2,0,P|228:162|216:186,1,47.5,10|0,0:0|0:0,0:0:0:0:
104,224,191041,2,0,P|176:200|188:204,1,47.5
284,368,191258,2,0,P|212:376|176:328,1,95,4|2,0:0|0:0,0:0:0:0:
276,216,191584,1,0,0:0:0:0:
276,216,191693,2,0,L|324:200,1,47.5
400,132,191910,2,0,L|408:196,1,47.5
440,284,192128,5,4,0:0:0:0:
440,284,192237,1,0,0:0:0:0:
440,284,192345,2,0,L|364:256,1,47.5
260,348,192563,2,0,L|292:296,1,47.5,10|0,0:0|0:0,0:0:0:0:
204,176,192780,2,0,L|272:196,1,47.5
116,280,192997,2,0,L|232:268,1,95,4|2,0:0|0:0,0:0:0:0:
344,352,193323,1,0,0:0:0:0:
344,352,193432,2,0,P|396:356|416:372,1,47.5,0|0,0:0|0:0,0:0:0:0:
501,273,193650,2,0,P|441:281|421:273,1,47.5
380,188,193867,5,4,0:0:0:0:
380,188,193976,1,0,0:0:0:0:
380,188,194084,2,0,L|388:120,1,47.5
248,36,194302,2,0,L|256:116,1,47.5,10|0,0:0|0:0,0:0:0:0:
168,172,194519,2,0,L|88:152,1,47.5,2|0,0:0|0:0,0:0:0:0:
188,280,194737,2,0,P|244:268|296:296,1,95
364,240,195063,1,0,0:0:0:0:
364,240,195171,2,0,P|416:236|440:224,1,47.5
280,124,195389,2,0,P|228:128|204:140,1,47.5
168,172,195606,5,2,0:0:0:0:
414,127,195823,1,4,0:0:0:0:
364,240,196041,1,2,0:0:0:0:
144,96,196258,1,4,0:0:0:0:
44,264,196476,5,0,0:0:0:0:
232,316,196693,2,0,L|291:306,1,47.5,4|8,0:0|0:0,0:0:0:0:
359,137,196910,2,0,L|308:149,1,47.5,0|0,0:0|0:0,0:0:0:0:
311,384,197128,2,0,L|368:367,1,47.5
440,216,197345,6,0,L|359:235,1,71.2500027179719
461,290,197780,2,0,P|501:262|513:230,1,71.2500027179719,2|0,0:0|0:0,0:0:0:0:
456,124,198215,2,0,L|344:104,1,106.875004076958,10|0,0:0|0:0,0:0:0:0:
320,100,198650,1,2,0:0:0:0:
335,131,198758,1,8,0:0:0:0:
330,165,198867,1,8,0:0:0:0:
306,191,198976,1,2,0:0:0:0:
276,200,199084,6,0,P|249:199|209:171,1,71.2500027179719,4|0,0:0|0:0,0:0:0:0:
96,72,199519,2,0,P|116:112|112:148,1,71.2500027179719,2|0,0:0|0:0,0:0:0:0:
52,260,199954,2,0,P|100:248|152:284,1,106.875004076958,8|0,0:0|0:0,0:0:0:0:
164,312,200389,2,0,L|172:268,1,35.625001358986,2|8,0:0|0:0,0:0:0:0:
264,200,200606,2,0,L|276:244,1,35.625001358986,8|2,0:0|0:0,0:0:0:0:
340,344,200823,6,0,L|420:336,1,71.2500027179719,4|0,0:0|0:0,0:0:0:0:
512,244,201258,2,0,L|428:232,1,71.2500027179719,2|0,0:0|0:0,0:0:0:0:
332,156,201693,2,0,L|364:268,1,106.875004076958,8|0,0:0|0:0,0:0:0:0:
368,284,202128,1,2,0:0:0:0:
333,280,202237,1,8,0:0:0:0:
297,275,202345,1,8,0:0:0:0:
262,271,202454,1,2,0:0:0:0:
227,266,202563,5,4,0:0:0:0:
120,332,202780,2,0,L|164:328,1,35.625001358986,4|0,0:0|0:0,0:0:0:0:
184,348,202997,1,2,0:0:0:0:
72,216,203215,2,0,L|28:212,1,35.625001358986,4|0,0:0|0:0,0:0:0:0:
8,188,203432,1,2,0:0:0:0:
228,140,203650,2,0,L|184:136,1,35.625001358986,4|0,0:0|0:0,0:0:0:0:
164,120,203867,2,0,L|176:168,1,35.625001358986,8|0,0:0|0:0,0:0:0:0:
296,176,204084,2,0,L|304:128,1,35.625001358986,2|4,0:0|0:0,0:0:0:0:
272,40,204302,5,4,0:0:0:0:
272,40,204410,1,0,0:0:0:0:
272,40,204519,1,8,0:0:0:0:
392,140,204737,2,0,L|388:60,1,71.2500027179719,4|8,0:0|0:0,0:0:0:0:
472,224,205171,2,0,L|496:140,1,71.2500027179719,4|8,0:0|0:0,0:0:0:0:
304,232,205606,1,2,0:0:0:0:
325,228,205715,1,8,0:0:0:0:
346,224,205823,1,8,0:0:0:0:
367,221,205932,1,2,0:0:0:0:
388,216,206041,6,0,L|364:256,1,35.625001358986,4|0,0:0|0:0,0:0:0:0:
380,328,206258,2,0,P|420:308|436:280,1,71.2500027179719,8|4,0:0|0:0,0:0:0:0:
304,300,206693,1,8,0:0:0:0:
464,216,206910,1,4,0:0:0:0:
312,120,207128,1,8,0:0:0:0:
304,300,207345,2,0,L|256:296,1,35.625001358986,10|8,0:0|0:0,0:0:0:0:
200,324,207563,1,8,0:0:0:0:
204,336,207671,1,2,0:0:0:0:
208,348,207780,6,0,L|160:344,1,35.625001358986,4|2,0:0|0:0,0:0:0:0:
72,280,207997,2,0,L|112:280,1,35.625001358986,8|2,0:0|0:0,0:0:0:0:
192,232,208215,2,0,L|184:192,1,35.625001358986,4|2,0:0|0:0,0:0:0:0:
88,165,208432,2,0,L|100:132,1,35.625001358986,8|2,0:0|0:0,0:0:0:0:
180,64,208650,2,0,L|168:24,1,35.625001358986,4|0,0:0|0:0,0:0:0:0:
244,128,208867,2,0,L|272:120,2,17.812500679493,8|0|2,0:0|0:0|0:0,0:0:0:0:
264,40,209084,2,0,L|256:8,2,17.812500679493,4|0|2,0:0|0:0|0:0,0:0:0:0:
344,140,209302,2,0,L|372:132,2,17.812500679493,8|0|2,0:0|0:0|0:0,0:0:0:0:
288,212,209519,5,10,0:0:0:0:
436,156,209737,1,10,0:0:0:0:
352,48,209954,1,10,0:0:0:0:
384,248,210171,1,2,0:0:0:0:
216,164,210389,2,0,P|200:228|228:268,1,106.875004076958,10|4,0:0|0:0,0:0:0:0:
232,272,210823,5,4,0:0:0:0:
384,248,211041,1,10,0:0:0:0:
260,344,211258,6,0,P|216:348|196:344,1,47.5,4|0,0:0|0:0,0:0:0:0:
132,312,211476,1,10,0:0:0:0:
132,312,211584,1,4,0:0:0:0:
132,312,211693,2,0,L|136:252,1,47.5,4|0,0:0|0:0,0:0:0:0:
76,196,211910,2,0,P|108:176|124:172,1,47.5,2|10,0:0|0:0,0:0:0:0:
232,200,212128,2,0,P|200:160|216:68,1,142.5,4|0,0:0|0:0,0:0:0:0:
280,128,212563,2,0,L|344:120,1,47.5,6|2,0:0|0:0,0:0:0:0:
428,56,212780,2,0,L|376:48,1,47.5,2|4,0:0|0:0,0:0:0:0:
328,200,212997,6,0,L|432:184,1,95,4|2,0:0|0:0,0:0:0:0:
492,244,213323,1,4,0:0:0:0:
492,244,213432,2,0,P|480:284|484:308,1,47.5,6|0,0:0|0:0,0:0:0:0:
400,360,213650,2,0,P|408:320|400:296,1,47.5,2|10,0:0|0:0,0:0:0:0:
252,268,213867,2,0,P|256:320|336:320,1,142.5,4|10,0:0|0:0,0:0:0:0:
276,200,214302,6,0,B|248:188|220:200|220:200|204:192|204:192|168:204|144:192,1,106.875004076958,8|0,0:0|0:0,0:0:0:0:
88,192,214737,5,4,0:0:0:0:
88,192,214845,1,2,0:0:0:0:
88,192,214954,2,0,L|72:132,1,47.5,10|4,0:0|0:0,0:0:0:0:
96,52,215171,2,0,P|128:80|184:60,1,95,6|2,0:0|0:0,0:0:0:0:
264,44,215497,1,10,0:0:0:0:
264,44,215606,2,0,P|268:84|264:96,1,47.5,4|0,0:0|0:0,0:0:0:0:
224,168,215823,2,0,L|284:168,1,47.5,0|10,0:0|0:0,0:0:0:0:
368,216,216041,2,0,P|340:236|336:304,1,95,4|8,0:0|0:0,0:0:0:0:
400,356,216367,1,4,0:0:0:0:
400,356,216476,6,0,L|468:344,1,47.5,8|0,0:0|0:0,0:0:0:0:
332,292,216693,2,0,L|264:284,1,47.5,6|0,0:0|0:0,0:0:0:0:
184,360,216910,2,0,L|252:348,1,47.5,6|0,0:0|0:0,0:0:0:0:
116,296,217128,2,0,L|48:288,1,47.5,10|0,0:0|0:0,0:0:0:0:
24,184,217345,5,4,0:0:0:0:
28,196,217454,1,0,0:0:0:0:
32,208,217563,2,0,L|88:200,1,47.5,10|0,0:0|0:0,0:0:0:0:
180,132,217780,2,0,L|172:180,1,47.5,2|0,0:0|0:0,0:0:0:0:
248,272,217997,2,0,L|312:268,1,47.5,8|0,0:0|0:0,0:0:0:0:
391,181,218215,5,4,0:0:0:0:
408,189,218323,1,0,0:0:0:0:
425,198,218432,2,0,L|425:129,1,47.5,10|4,0:0|0:0,0:0:0:0:
459,39,218650,2,0,P|404:56|362:27,1,95,6|2,0:0|0:0,0:0:0:0:
275,65,218976,1,10,0:0:0:0:
189,3,219084,2,0,P|165:69|195:133,1,142.5,4|0,0:0|0:0,0:0:0:0:
280,171,219519,2,0,L|267:227,1,47.5,6|2,0:0|0:0,0:0:0:0:
168,254,219737,2,0,L|180:198,1,47.5,2|4,0:0|0:0,0:0:0:0:
249,301,219954,6,0,P|215:335|146:344,1,95,4|2,0:0|0:0,0:0:0:0:
86,297,220280,1,4,0:0:0:0:
86,297,220389,2,0,L|30:282,1,47.5,6|0,0:0|0:0,0:0:0:0:
13,189,220606,2,0,L|68:203,1,47.5,2|10,0:0|0:0,0:0:0:0:
210,168,220823,2,0,P|159:168|120:82,1,142.5,4|10,0:0|0:0,0:0:0:0:
288,138,221258,6,0,B|300:172|288:198|288:198|296:211|296:211|283:254|300:272,1,106.875004076958,8|0,0:0|0:0,0:0:0:0:
339,344,221693,5,4,0:0:0:0:
339,344,221802,1,2,0:0:0:0:
339,344,221910,2,0,P|382:327|403:331,1,47.5,0|4,0:0|0:0,0:0:0:0:
511,284,222128,2,0,P|472:279|447:262,1,47.5,6|0,0:0|0:0,0:0:0:0:
382,232,222345,2,0,L|395:181,1,47.5,2|10,0:0|0:0,0:0:0:0:
504,200,222563,2,0,L|474:84,1,95,4|0,0:0|0:0,0:0:0:0:
405,37,222889,1,10,0:0:0:0:
324,88,222997,2,0,P|281:84|261:70,1,47.5,4|0,0:0|0:0,0:0:0:0:
172,52,223215,2,0,P|168:86|176:112,1,47.5,8|4,0:0|0:0,0:0:0:0:
258,185,223432,6,0,B|223:172|223:172|146:198,1,95,8|6,0:0|0:0,0:0:0:0:
82,249,223758,1,0,0:0:0:0:
82,249,223867,2,0,P|65:215|65:189,1,47.5,6|0,0:0|0:0,0:0:0:0:
146,305,224084,2,0,P|107:335|90:339,1,47.5,10|0,0:0|0:0,0:0:0:0:
212,357,224302,5,4,0:0:0:0:
242,340,224410,1,0,0:0:0:0:
276,335,224519,1,10,0:0:0:0:
310,341,224628,1,2,0:0:0:0:
340,356,224737,5,12,0:0:0:0:
391,332,224845,1,0,0:0:0:0:
426,285,224954,1,10,0:0:0:0:
433,226,225063,1,10,0:0:0:0:
424,172,225171,6,0,P|368:184|308:136,1,113.999996520996,4|10,0:0|0:0,0:0:0:0:
220,132,225497,1,4,0:0:0:0:
220,132,225606,2,0,P|208:180|216:208,1,56.9999982604981,4|0,0:0|0:0,0:0:0:0:
320,157,225823,2,0,P|324:109|312:85,1,56.9999982604981,2|10,0:0|0:0,0:0:0:0:
248,36,226041,2,0,P|184:48|132:12,1,113.999996520996,4|0,0:0|0:0,0:0:0:0:
68,88,226367,1,0,0:0:0:0:
68,88,226476,2,0,L|8:80,1,56.9999982604981,6|2,0:0|0:0,0:0:0:0:
112,160,226693,2,0,P|136:136|144:96,1,56.9999982604981,2|4,0:0|0:0,0:0:0:0:
192,212,226910,6,0,P|171:231|160:257,1,56.9999982604981,4|0,0:0|0:0,0:0:0:0:
292,283,227128,2,0,L|235:275,1,56.9999982604981,2|4,0:0|0:0,0:0:0:0:
136,360,227345,2,0,L|276:352,1,113.999996520996,6|2,0:0|0:0,0:0:0:0:
340,360,227671,1,10,0:0:0:0:
340,360,227780,2,0,P|376:308|328:204,1,170.999994781494,4|10,0:0|0:0,0:0:0:0:
248,188,228215,1,4,0:0:0:0:
248,188,228323,2,0,P|272:144|336:120,1,113.999996520996,10|10,0:0|0:0,0:0:0:0:
220,32,228650,5,4,0:0:0:0:
228,48,228758,1,2,0:0:0:0:
236,68,228867,2,0,L|172:60,1,56.9999982604981,10|4,0:0|0:0,0:0:0:0:
64,68,229084,2,0,P|112:104|112:168,1,113.999996520996,6|2,0:0|0:0,0:0:0:0:
44,232,229410,1,10,0:0:0:0:
44,232,229519,2,0,P|88:264|196:208,1,170.999994781494,4|10,0:0|0:0,0:0:0:0:
204,120,229954,2,0,L|280:140,1,56.9999982604981,4|0,0:0|0:0,0:0:0:0:
332,216,230171,2,0,L|272:232,1,56.9999982604981,8|4,0:0|0:0,0:0:0:0:
264,52,230389,6,0,B|320:80|320:80|392:80,1,113.999996520996,8|6,0:0|0:0,0:0:0:0:
488,128,230715,1,0,0:0:0:0:
488,128,230823,2,0,P|444:136|412:204,1,113.999996520996,6|10,0:0|0:0,0:0:0:0:
424,324,231150,1,0,0:0:0:0:
424,324,231258,2,0,L|488:308,1,56.9999982604981,4|0,0:0|0:0,0:0:0:0:
356,256,231476,2,0,L|288:244,1,56.9999982604981,10|0,0:0|0:0,0:0:0:0:
228,360,231693,2,0,L|292:344,1,56.9999982604981,2|0,0:0|0:0,0:0:0:0:
160,292,231910,2,0,L|92:280,1,56.9999982604981,8|0,0:0|0:0,0:0:0:0:
40,192,232128,5,4,0:0:0:0:
56,200,232237,1,0,0:0:0:0:
68,208,232345,2,0,L|60:132,1,56.9999982604981,10|4,0:0|0:0,0:0:0:0:
144,76,232563,2,0,L|140:140,1,56.9999982604981,6|0,0:0|0:0,0:0:0:0:
204,220,232780,2,0,B|232:212|232:212|276:228,1,56.9999982604981,2|10,0:0|0:0,0:0:0:0:
336,148,232997,2,0,P|280:144|244:88,1,113.999996520996,4|0,0:0|0:0,0:0:0:0:
332,20,233323,1,0,0:0:0:0:
332,20,233432,2,0,L|312:88,1,56.9999982604981,6|2,0:0|0:0,0:0:0:0:
416,136,233650,2,0,L|400:64,1,56.9999982604981,2|4,0:0|0:0,0:0:0:0:
488,176,233867,5,4,0:0:0:0:
488,176,233976,1,0,0:0:0:0:
488,176,234084,2,0,P|456:212|424:216,1,56.9999982604981,2|4,0:0|0:0,0:0:0:0:
340,212,234302,2,0,P|380:252|372:316,1,113.999996520996,6|2,0:0|0:0,0:0:0:0:
276,348,234628,1,10,0:0:0:0:
276,348,234737,2,0,L|196:340,1,56.9999982604981,4|0,0:0|0:0,0:0:0:0:
184,240,234954,2,0,L|264:248,1,56.9999982604981,0|10,0:0|0:0,0:0:0:0:
116,320,235171,1,4,0:0:0:0:
108,328,235280,2,0,L|84:192,1,113.999996520996,10|10,0:0|0:0,0:0:0:0:
36,120,235606,6,0,P|84:104|108:112,1,56.9999982604981,4|2,0:0|0:0,0:0:0:0:
188,148,235823,2,0,B|216:156|216:156|264:140,1,56.9999982604981,0|4,0:0|0:0,0:0:0:0:
324,72,236041,2,0,L|396:84,1,56.9999982604981,6|0,0:0|0:0,0:0:0:0:
472,140,236258,2,0,L|400:160,1,56.9999982604981,2|10,0:0|0:0,0:0:0:0:
316,200,236476,2,0,B|336:172|336:172|328:264,1,113.999996520996,4|0,0:0|0:0,0:0:0:0:
336,340,236802,1,10,0:0:0:0:
336,340,236910,2,0,P|396:312|412:260,1,113.999996520996,0|8,0:0|0:0,0:0:0:0:
252,256,237237,1,4,0:0:0:0:
252,256,237345,6,0,L|260:320,1,56.9999982604981,4|0,0:0|0:0,0:0:0:0:
104,208,237563,1,10,0:0:0:0:
124,220,237671,1,8,0:0:0:0:
140,228,237780,2,0,L|132:152,1,56.9999982604981,4|0,0:0|0:0,0:0:0:0:
72,96,237997,5,10,0:0:0:0:
104,76,238105,1,8,0:0:0:0:
144,80,238215,1,4,0:0:0:0:
180,100,238323,1,0,0:0:0:0:
220,88,238432,1,10,0:0:0:0:
248,60,238541,1,2,0:0:0:0:
268,20,238650,6,0,L|264:76,1,56.9999982604981,12|0,0:0|0:0,0:0:0:0:
400,144,238867,2,0,L|392:72,1,56.9999982604981,10|10,0:0|0:0,0:0:0:0:
320,224,239084,6,0,P|272:200|248:200,1,71.2500027179719,4|0,0:0|0:0,0:0:0:0:
200,108,239519,2,0,P|155:137|143:158,1,71.2500027179719,2|0,0:0|0:0,0:0:0:0:
40,136,239954,2,0,P|43:189|80:236,1,106.875004076958,10|0,0:0|0:0,0:0:0:0:
92,244,240389,1,2,0:0:0:0:
116,242,240497,1,8,0:0:0:0:
141,240,240606,1,8,0:0:0:0:
166,238,240715,1,2,0:0:0:0:
192,236,240823,6,0,P|188:272|168:312,1,71.2500027179719,4|0,0:0|0:0,0:0:0:0:
260,368,241258,2,0,P|300:356|340:364,1,71.2500027179719,2|0,0:0|0:0,0:0:0:0:
364,260,241693,2,0,P|296:244|276:200,1,106.875004076958,8|0,0:0|0:0,0:0:0:0:
272,184,242128,1,2,0:0:0:0:
364,260,242345,1,8,0:0:0:0:
448,172,242563,6,0,L|480:92,1,71.2500027179719,4|0,0:0|0:0,0:0:0:0:
364,80,242997,2,0,L|310:12,1,71.2500027179719,2|0,0:0|0:0,0:0:0:0:
244,100,243432,2,0,L|128:92,1,106.875004076958,8|0,0:0|0:0,0:0:0:0:
104,72,243867,1,2,0:0:0:0:
114,94,243976,1,8,0:0:0:0:
119,118,244084,1,8,0:0:0:0:
118,143,244193,1,2,0:0:0:0:
108,168,244302,5,4,0:0:0:0:
308,268,244519,1,4,0:0:0:0:
212,332,244737,1,2,0:0:0:0:
257,112,244954,1,4,0:0:0:0:
436,192,245171,2,0,L|352:184,1,71.2500027179719,2|4,0:0|0:0,0:0:0:0:
436,96,245606,1,8,0:0:0:0:
481,316,245823,1,2,0:0:0:0:
237,304,246041,6,0,B|268:292|268:292|320:296,1,71.2500027179719,4|0,0:0|0:0,0:0:0:0:
356,200,246476,2,0,B|381:220|381:220|404:267,1,71.2500027179719,2|0,0:0|0:0,0:0:0:0:
512,248,246910,2,0,B|504:300|504:300|460:352,1,106.875004076958,10|0,0:0|0:0,0:0:0:0:
448,368,247345,1,2,0:0:0:0:
428,353,247454,1,8,0:0:0:0:
404,344,247563,1,8,0:0:0:0:
380,342,247671,1,2,0:0:0:0:
356,348,247780,6,0,P|312:340|284:324,1,71.2500027179719,4|0,0:0|0:0,0:0:0:0:
188,364,248215,2,0,P|172:321|172:289,1,71.2500027179719,2|0,0:0|0:0,0:0:0:0:
80,240,248650,2,0,P|108:205|172:192,1,106.875004076958,10|0,0:0|0:0,0:0:0:0:
192,200,249084,1,2,0:0:0:0:
80,240,249302,1,8,0:0:0:0:
24,96,249519,5,4,0:0:0:0:
40,68,249628,1,0,0:0:0:0:
52,44,249737,1,0,0:0:0:0:
80,240,249954,1,4,0:0:0:0:
196,56,250171,1,0,0:0:0:0:
232,168,250389,2,0,L|348:152,1,106.875004076958,10|0,0:0|0:0,0:0:0:0:
364,136,250823,1,2,0:0:0:0:
357,160,250932,1,8,0:0:0:0:
351,184,251041,1,8,0:0:0:0:
345,208,251150,1,2,0:0:0:0:
339,232,251258,5,10,0:0:0:0:
488,156,251476,1,4,0:0:0:0:
424,68,251693,1,10,0:0:0:0:
476,320,251910,1,4,0:0:0:0:
412,232,252128,1,10,0:0:0:0:
332,344,252345,2,0,L|376:336,1,35.625001358986,4|8,0:0|0:0,0:0:0:0:
284,280,252563,2,0,L|240:272,1,35.625001358986,10|8,0:0|0:0,0:0:0:0:
184,360,252780,2,0,L|228:352,1,35.625001358986,4|8,0:0|0:0,0:0:0:0:
136,296,252997,6,0,B|104:276|104:276|88:232,1,71.2500027179719,4|2,0:0|0:0,0:0:0:0:
8,228,253432,2,0,B|19:191|19:191|57:165,1,71.2500027179719,8|0,0:0|0:0,0:0:0:0:
20,92,253867,2,0,B|72:88|72:88|120:120,1,106.875004076958,8|10,0:0|0:0,0:0:0:0:
117,118,254410,1,8,0:0:0:0:
232,104,254628,1,10,0:0:0:0:
232,104,254737,6,0,P|224:144|236:180,1,71.2500027179719,4|2,0:0|0:0,0:0:0:0:
180,248,255171,2,0,P|216:266|254:263,1,71.2500027179719,8|0,0:0|0:0,0:0:0:0:
300,340,255606,2,0,P|326:309|324:236,1,106.875004076958,8|10,0:0|0:0,0:0:0:0:
328,244,256150,1,0,0:0:0:0:
420,260,256367,1,0,0:0:0:0:
420,260,256476,6,0,L|492:244,1,71.2500027179719,4|2,0:0|0:0,0:0:0:0:
436,176,256910,2,0,L|439:102,1,71.2500027179719,8|0,0:0|0:0,0:0:0:0:
360,140,257345,2,0,L|240:120,1,106.875004076958,8|10,0:0|0:0,0:0:0:0:
254,122,257889,1,8,0:0:0:0:
152,92,258106,1,10,0:0:0:0:
152,92,258215,6,0,L|144:136,2,35.625001358986,4|0|4,0:0|0:0|0:0,0:0:0:0:
204,280,258650,1,2,0:0:0:0:
128,216,258867,1,4,0:0:0:0:
340,280,259084,1,2,0:0:0:0:
272,348,259302,1,4,0:0:0:0:
280,140,259519,1,2,0:0:0:0:
304,146,259628,1,8,0:0:0:0:
328,152,259737,1,2,0:0:0:0:
352,160,259845,1,4,0:0:0:0:
376,168,259954,6,0,L|368:128,2,35.625001358986,4|0|2,0:0|0:0|0:0,0:0:0:0:
416,244,260389,2,0,P|448:220|460:184,1,71.2500027179719,8|0,0:0|0:0,0:0:0:0:
336,264,260823,2,0,P|360:312|412:328,1,106.875004076958,8|10,0:0|0:0,0:0:0:0:
336,264,261367,1,8,0:0:0:0:
256,344,261584,1,10,0:0:0:0:
256,344,261693,6,0,L|212:336,2,35.625001358986,4|0|2,0:0|0:0|0:0,0:0:0:0:
151,296,262128,2,0,P|138:329|144:364,1,71.2500027179719,8|0,0:0|0:0,0:0:0:0:
204,232,262563,2,0,P|152:212|96:236,1,106.875004076958,8|10,0:0|0:0,0:0:0:0:
204,232,263106,1,8,0:0:0:0:
296,180,263323,1,10,0:0:0:0:
296,180,263432,6,0,L|286:136,2,35.625001358986,4|0|2,0:0|0:0|0:0,0:0:0:0:
300,72,263867,2,0,P|264:72|235:91,1,71.2500027179719,8|0,0:0|0:0,0:0:0:0:
376,100,264302,2,0,P|374:44|330:2,1,106.875004076958,8|10,0:0|0:0,0:0:0:0:
376,100,264845,1,8,0:0:0:0:
452,176,265063,1,10,0:0:0:0:
452,176,265171,6,0,L|492:168,2,35.625001358986,4|0|4,0:0|0:0|0:0,0:0:0:0:
312,204,265606,1,2,0:0:0:0:
400,272,265823,1,4,0:0:0:0:
292,116,266041,1,2,0:0:0:0:
212,192,266258,1,4,0:0:0:0:
388,140,266476,1,2,0:0:0:0:
340,40,266693,1,2,0:0:0:0:
204,104,266910,6,0,L|128:96,1,71.2500027179719,10|0,0:0|0:0,0:0:0:0:
84,168,267345,2,0,L|115:237,1,71.2500027179719,8|0,0:0|0:0,0:0:0:0:
192,264,267780,2,0,P|195:214|264:160,1,142.500005435944,8|0,0:0|0:0,0:0:0:0:
340,200,268432,1,10,0:0:0:0:
408,148,268650,6,0,P|420:92|412:68,1,71.2500027179719,10|0,0:0|0:0,0:0:0:0:
352,28,269084,2,0,P|297:45|280:64,1,71.2500027179719,8|0,0:0|0:0,0:0:0:0:
228,116,269519,2,0,P|204:80|236:-12,1,142.500005435944,8|0,0:0|0:0,0:0:0:0:
288,54,270171,1,10,0:0:0:0:
228,116,270389,6,0,L|148:112,1,71.2500027179719,10|0,0:0|0:0,0:0:0:0:
116,188,270823,2,0,L|196:192,1,71.2500027179719,8|0,0:0|0:0,0:0:0:0:
272,184,271258,2,0,L|224:320,1,142.500005435944,8|0,0:0|0:0,0:0:0:0:
308,296,271910,1,10,0:0:0:0:
360,364,272128,6,0,P|412:364|440:344,1,71.2500027179719,10|0,0:0|0:0,0:0:0:0:
512,380,272563,2,0,P|512:336|492:304,1,71.2500027179719,8|0,0:0|0:0,0:0:0:0:
428,268,272997,2,0,B|448:228|448:228|448:120,1,142.500005435944,0|0,0:0|0:0,0:0:0:0:
396,60,273650,1,10,0:0:0:0:
328,112,273867,6,0,L|248:96,1,71.2500027179719,10|0,0:0|0:0,0:0:0:0:
180,64,274302,2,0,P|172:112|184:140,1,71.2500027179719,8|0,0:0|0:0,0:0:0:0:
240,192,274737,2,0,P|168:216|116:184,1,142.500005435944,8|0,0:0|0:0,0:0:0:0:
179,132,275389,1,10,0:0:0:0:
240,192,275606,6,0,L|224:272,1,71.2500027179719,10|0,0:0|0:0,0:0:0:0:
300,304,276041,2,0,L|316:224,1,71.2500027179719,8|0,0:0|0:0,0:0:0:0:
344,152,276476,2,0,P|392:188|464:156,1,142.500005435944,8|0,0:0|0:0,0:0:0:0:
408,88,277128,1,10,0:0:0:0:
344,152,277345,6,0,L|264:144,1,71.2500027179719,10|0,0:0|0:0,0:0:0:0:
224,76,277780,2,0,L|176:128,1,71.2500027179719,8|0,0:0|0:0,0:0:0:0:
88,128,278215,2,0,L|128:240,1,106.875004076958,8|0,0:0|0:0,0:0:0:0:
123,228,278650,2,0,L|48:216,1,71.2500027179719,0|10,0:0|0:0,0:0:0:0:
192,304,279084,5,10,0:0:0:0:
240,228,279302,1,2,0:0:0:0:
248,372,279519,1,8,0:0:0:0:
332,236,279737,1,2,0:0:0:0:
344,336,279954,1,2,0:0:0:0:
256,192,287780,12,2,290823,0:0:0:0:
340,336,291258,5,2,0:0:0:0:
370,324,291367,1,2,0:0:0:0:
397,304,291476,1,2,0:0:0:0:
418,278,291584,1,2,0:0:0:0:
430,247,291693,1,2,0:0:0:0:
434,214,291802,1,2,0:0:0:0:
430,182,291910,1,2,0:0:0:0:
416,151,292019,1,2,0:0:0:0:
392,128,292128,6,0,L|340:144,1,47.5,2|2,0:0|0:0,0:0:0:0:
264,56,292345,2,0,L|324:64,1,47.5,2|2,0:0|0:0,0:0:0:0:
272,200,292563,2,0,L|208:188,1,47.5,2|2,0:0|0:0,0:0:0:0:
128,92,292780,2,0,L|188:104,1,47.5,2|2,0:0|0:0,0:0:0:0:
136,212,292997,5,6,0:0:0:0:
88,201,293106,1,0,0:0:0:0:
40,220,293215,1,2,0:0:0:0:
20,272,293323,1,2,0:0:0:0:
36,332,293432,1,6,0:0:0:0:
100,356,293541,1,0,0:0:0:0:
160,316,293650,1,2,0:0:0:0:
236,308,293758,1,2,0:0:0:0:
308,352,293867,6,0,L|336:340,6,23.75,6|0|0|0|0|0|0,0:0|0:0|0:0|0:0|0:0|0:0|0:0,0:0:0:0:
448,336,294302,6,0,B|424:316|424:316|408:288|408:288|380:268,1,85.4999973907472,8|0,0:0|0:0,0:0:0:0:
256,184,294737,6,0,P|328:208|392:144,1,170.999994781494,4|8,0:0|0:0,0:0:0:0:
176,160,295171,2,0,P|176:208|184:224,1,56.9999982604981,10|0,0:0|0:0,0:0:0:0:
240,96,295389,2,0,P|188:68|124:84,1,113.999996520996,4|12,0:0|0:0,0:0:0:0:
92,144,295715,1,0,0:0:0:0:
64,140,295823,1,2,0:0:0:0:
36,136,295932,1,0,0:0:0:0:
8,132,296041,2,0,L|32:200,1,56.9999982604981,12|0,0:0|0:0,0:0:0:0:
100,312,296258,2,0,L|124:248,1,56.9999982604981,2|4,0:0|0:0,0:0:0:0:
216,172,296476,6,0,B|260:188|296:172|296:172|320:188|320:188|344:176|368:184,1,142.5,12|0,0:0|0:0,0:0:0:0:
428,228,296910,2,0,P|440:192|436:168,1,47.5,12|0,0:0|0:0,0:0:0:0:
348,92,297128,2,0,P|408:96|428:24,1,142.5,2|0,0:0|0:0,0:0:0:0:
276,64,297563,2,0,P|272:104|280:124,1,47.5,4|4,0:0|0:0,0:0:0:0:
328,200,297780,2,0,L|320:236,2,23.75,8|0|0,0:0|0:0|0:0,0:0:0:0:
376,304,297997,2,0,L|436:296,1,47.5,10|0,0:0|0:0,0:0:0:0:
284,344,298215,5,4,0:0:0:0:
256,340,298323,1,0,0:0:0:0:
228,336,298432,2,0,L|288:308,1,56.9999982604981,2|8,0:0|0:0,0:0:0:0:
156,244,298650,1,4,0:0:0:0:
184,248,298758,1,0,0:0:0:0:
212,252,298867,2,0,L|152:280,1,56.9999982604981,2|8,0:0|0:0,0:0:0:0:
164,384,299084,5,4,0:0:0:0:
136,380,299193,1,0,0:0:0:0:
108,376,299302,2,0,L|168:348,1,56.9999982604981,2|8,0:0|0:0,0:0:0:0:
36,284,299519,1,4,0:0:0:0:
64,288,299628,1,0,0:0:0:0:
92,292,299737,2,0,L|32:320,1,56.9999982604981,2|8,0:0|0:0,0:0:0:0:
8,196,299954,6,0,L|76:204,1,56.9999982604981,12|0,0:0|0:0,0:0:0:0:
184,132,300171,2,0,L|100:120,1,56.9999982604981,8|0,0:0|0:0,0:0:0:0:
32,36,300389,2,0,L|24:100,1,56.9999982604981,12|0,0:0|0:0,0:0:0:0:
192,48,300606,2,0,L|124:40,1,56.9999982604981,8|0,0:0|0:0,0:0:0:0:
156,216,300823,6,0,L|288:196,1,106.875004076958,10|0,0:0|0:0,0:0:0:0:
320,256,301258,2,0,L|312:288,2,17.812500679493,6|0|0,0:0|0:0|0:0,0:0:0:0:
336,156,301476,2,0,L|340:132,2,17.812500679493,2|0|0,0:0|0:0|0:0,0:0:0:0:
264,336,301693,6,0,P|328:352|392:280,1,170.999994781494,4|8,0:0|0:0,0:0:0:0:
272,96,302128,2,0,P|260:140|264:160,1,56.9999982604981,10|0,0:0|0:0,0:0:0:0:
416,144,302345,2,0,P|400:92|332:64,1,113.999996520996,4|12,0:0|0:0,0:0:0:0:
272,96,302671,1,0,0:0:0:0:
244,92,302780,1,2,0:0:0:0:
220,88,302889,1,0,0:0:0:0:
196,84,302997,2,0,L|200:144,1,56.9999982604981,12|0,0:0|0:0,0:0:0:0:
112,240,303215,2,0,L|180:260,1,56.9999982604981,2|4,0:0|0:0,0:0:0:0:
272,320,303432,6,0,B|300:280|284:232|284:232|296:204|296:204|284:172,1,142.5,0|0,0:0|0:0,0:0:0:0:
368,176,303867,2,0,P|372:208|360:240,1,47.5,12|0,0:0|0:0,0:0:0:0:
208,188,304084,2,0,P|220:152|240:132,1,47.5,4|0,0:0|0:0,0:0:0:0:
312,96,304302,1,4,0:0:0:0:
324,84,304410,1,4,0:0:0:0:
336,72,304519,2,0,L|276:68,1,47.5,2|4,0:0|0:0,0:0:0:0:
164,24,304737,6,0,L|224:24,1,56.9999982604981,12|0,0:0|0:0,0:0:0:0:
265,188,304954,2,0,L|197:188,1,56.9999982604981,10|0,0:0|0:0,0:0:0:0:
36,120,305171,6,0,L|156:120,1,113.999996520996,4|2,0:0|0:0,0:0:0:0:
208,188,305497,1,0,0:0:0:0:
208,188,305606,2,0,L|192:264,1,56.9999982604981,8|0,0:0|0:0,0:0:0:0:
92,288,305823,2,0,L|112:216,1,56.9999982604981,4|0,0:0|0:0,0:0:0:0:
192,328,306041,1,12,0:0:0:0:
192,328,306150,2,0,B|248:312|248:312|308:332,1,113.999996520996,6|0,0:0|0:0,0:0:0:0:
384,368,306476,2,0,P|392:328|384:300,1,56.9999982604981,12|0,0:0|0:0,0:0:0:0:
312,228,306693,2,0,P|308:184|316:156,1,56.9999982604981,12|0,0:0|0:0,0:0:0:0:
464,220,306910,6,0,L|396:208,1,56.9999982604981,4|0,0:0|0:0,0:0:0:0:
360,88,307128,2,0,L|444:80,1,56.9999982604981,10|0,0:0|0:0,0:0:0:0:
312,172,307345,2,0,P|264:176|244:168,1,56.9999982604981,4|0,0:0|0:0,0:0:0:0:
184,108,307563,2,0,L|184:72,2,28.4999991302491,2|0|0,0:0|0:0|0:0,0:0:0:0:
112,176,307780,6,0,P|108:216|116:244,1,56.9999982604981,4|4,0:0|0:0,0:0:0:0:
72,312,307997,2,0,L|36:304,2,28.4999991302491,8|0|0,0:0|0:0|0:0,0:0:0:0:
164,344,308215,6,0,P|208:332|216:328,1,28.4999991302491,8|0,0:0|0:0,0:0:0:0:
224,348,308323,2,0,P|244:320|248:308,1,28.4999991302491,8|0,0:0|0:0,0:0:0:0:
272,320,308432,2,0,P|270:274|268:265,1,28.4999991302491,8|0,0:0|0:0,0:0:0:0:
289,262,308541,2,0,P|266:236|255:229,1,28.4999991302491,8|0,0:0|0:0,0:0:0:0:
264,208,308650,6,0,P|320:232|400:152,1,170.999994781494,4|8,0:0|0:0,0:0:0:0:
196,160,309084,2,0,P|180:204|184:228,1,56.9999982604981,10|0,0:0|0:0,0:0:0:0:
268,128,309302,2,0,P|216:80|156:92,1,113.999996520996,4|12,0:0|0:0,0:0:0:0:
112,144,309628,1,0,0:0:0:0:
92,140,309737,1,2,0:0:0:0:
76,136,309845,1,0,0:0:0:0:
60,132,309954,2,0,L|48:72,1,56.9999982604981,12|0,0:0|0:0,0:0:0:0:
16,200,310171,2,0,L|28:264,1,56.9999982604981,2|4,0:0|0:0,0:0:0:0:
104,328,310389,6,0,B|148:340|176:324|176:324|192:344|192:344|220:328|248:328,1,142.5,12|0,0:0|0:0,0:0:0:0:
316,368,310823,2,0,P|324:336|320:308,1,47.5,12|0,0:0|0:0,0:0:0:0:
280,240,311041,2,0,B|332:216|372:244|372:244|392:232|392:232|416:244|432:236,1,142.5,2|0,0:0|0:0,0:0:0:0:
492,216,311476,2,0,P|492:264|488:272,1,47.5,4|4,0:0|0:0,0:0:0:0:
424,144,311693,2,0,L|424:168,2,23.75,8|0|0,0:0|0:0|0:0,0:0:0:0:
476,72,311910,2,0,P|436:56|412:60,1,47.5,10|0,0:0|0:0,0:0:0:0:
356,96,312128,5,4,0:0:0:0:
344,104,312237,1,0,0:0:0:0:
336,112,312345,2,0,L|340:48,1,56.9999982604981,2|8,0:0|0:0,0:0:0:0:
220,128,312563,1,4,0:0:0:0:
236,112,312671,1,0,0:0:0:0:
252,96,312780,2,0,L|248:168,1,56.9999982604981,2|8,0:0|0:0,0:0:0:0:
344,232,312997,5,4,0:0:0:0:
324,248,313106,1,0,0:0:0:0:
300,264,313215,2,0,L|304:204,1,56.9999982604981,2|8,0:0|0:0,0:0:0:0:
168,300,313432,1,4,0:0:0:0:
192,280,313541,1,0,0:0:0:0:
216,260,313650,2,0,L|212:332,1,56.9999982604981,2|8,0:0|0:0,0:0:0:0:
52,340,313867,6,0,L|44:272,1,56.9999982604981,12|0,0:0|0:0,0:0:0:0:
116,164,314084,2,0,L|128:248,1,56.9999982604981,8|0,0:0|0:0,0:0:0:0:
212,316,314302,2,0,L|148:324,1,56.9999982604981,12|0,0:0|0:0,0:0:0:0:
200,156,314519,2,0,L|208:224,1,56.9999982604981,8|0,0:0|0:0,0:0:0:0:
28,196,314737,6,0,L|40:88,1,106.875004076958,10|0,0:0|0:0,0:0:0:0:
108,36,315171,2,0,L|140:32,2,17.812500679493,6|0|0,0:0|0:0|0:0,0:0:0:0:
204,88,315389,2,0,L|172:84,2,17.812500679493,2|0|0,0:0|0:0|0:0,0:0:0:0:
364,172,315606,6,0,P|386:92|336:28,1,170.999994781494,4|8,0:0|0:0,0:0:0:0:
292,204,316041,2,0,P|316:236|356:252,1,56.9999982604981,10|0,0:0|0:0,0:0:0:0:
468,300,316258,2,0,P|412:300|352:348,1,113.999996520996,4|12,0:0|0:0,0:0:0:0:
284,308,316584,1,0,0:0:0:0:
284,308,316693,2,0,L|300:364,1,56.9999982604981,2|0,0:0|0:0,0:0:0:0:
200,256,316910,2,0,L|180:324,1,56.9999982604981,12|0,0:0|0:0,0:0:0:0:
96,196,317128,2,0,L|112:252,1,56.9999982604981,2|4,0:0|0:0,0:0:0:0:
0,208,317345,6,0,P|28:128|104:100,1,170.999994781494
180,152,317780,2,0,P|196:112|188:76,1,56.9999982604981,12|0,0:0|0:0,0:0:0:0:
264,200,317997,6,0,P|288:244|336:248,1,95,4|4,0:0|0:0,0:0:0:0:
368,228,318323,1,4,0:0:0:0:
416,217,318432,1,2,0:0:0:0:
464,236,318541,1,4,0:0:0:0:
484,288,318650,1,12,0:0:0:0:
468,348,318758,1,0,0:0:0:0:
404,372,318867,1,0,0:0:0:0:
344,332,318976,1,0,0:0:0:0:
268,308,319084,6,0,P|232:304|204:312,1,56.9999982604981,4|0,0:0|0:0,0:0:0:0:
120,364,319302,2,0,P|104:324|104:296,1,56.9999982604981,2|0,0:0|0:0,0:0:0:0:
176,228,319519,2,0,L|176:172,1,56.9999982604981,8|0,0:0|0:0,0:0:0:0:
80,120,319737,2,0,L|80:192,1,56.9999982604981,4|0,0:0|0:0,0:0:0:0:
172,80,319954,1,12,0:0:0:0:
172,80,320063,2,0,B|228:96|228:96|288:80,1,113.999996520996,6|0,0:0|0:0,0:0:0:0:
348,32,320389,2,0,P|368:76|360:104,1,56.9999982604981,12|0,0:0|0:0,0:0:0:0:
424,156,320606,2,0,L|496:144,1,56.9999982604981,12|0,0:0|0:0,0:0:0:0:
416,240,320823,6,0,P|352:204|340:148,1,113.999996520996,4|10,0:0|0:0,0:0:0:0:
252,40,321150,1,0,0:0:0:0:
252,40,321258,2,0,P|252:113|210:151,1,113.999996520996,4|4,0:0|0:0,0:0:0:0:
164,272,321584,1,0,0:0:0:0:
164,272,321693,2,0,P|188:248|216:236,1,56.9999982604981,10|0,0:0|0:0,0:0:0:0:
272,309,321910,2,0,L|244:312,2,28.4999991302491,4|0|0,0:0|0:0|0:0,0:0:0:0:
364,340,322128,2,0,L|352:264,1,56.9999982604981,4|4,0:0|0:0,0:0:0:0:
452,192,322345,2,0,L|460:256,1,56.9999982604981,10|4,0:0|0:0,0:0:0:0:
284,180,322563,6,0,B|328:220|376:200,1,95,4|0,0:0|0:0,0:0:0:0:
264,104,322997,2,0,B|212:116|204:173,1,95,8|0,0:0|0:0,0:0:0:0:
348,124,323432,2,0,P|340:56|272:16,1,142.5,4|4,0:0|0:0,0:0:0:0:
282,17,323867,1,8,0:0:0:0:
160,100,324084,2,0,L|108:92,1,47.5,4|8,0:0|0:0,0:0:0:0:
48,128,324302,6,0,P|38:83|60:40,1,95,4|0,0:0|0:0,0:0:0:0:
116,172,324737,2,0,P|81:203|32:208,1,95,8|0,0:0|0:0,0:0:0:0:
160,100,325171,2,0,P|196:144|180:228,1,142.5,4|4,0:0|0:0,0:0:0:0:
183,224,325606,1,8,0:0:0:0:
304,300,325823,2,0,L|356:293,1,47.5,4|8,0:0|0:0,0:0:0:0:
401,245,326041,6,0,P|423:285|412:330,1,95,4|0,0:0|0:0,0:0:0:0:
326,218,326476,2,0,P|350:178|394:165,1,95,8|0,0:0|0:0,0:0:0:0:
304,300,326910,2,0,P|257:267|249:182,1,142.5,4|4,0:0|0:0,0:0:0:0:
247,187,327345,1,8,0:0:0:0:
136,131,327563,2,0,L|84:139,1,47.5,4|8,0:0|0:0,0:0:0:0:
26,105,327780,6,0,P|15:150|36:192,1,95,4|0,0:0|0:0,0:0:0:0:
92,59,328215,2,0,P|57:27|8:28,1,95,8|0,0:0|0:0,0:0:0:0:
136,131,328650,2,0,P|172:87|156:3,1,142.5,4|4,0:0|0:0,0:0:0:0:
160,7,329084,1,8,0:0:0:0:
279,84,329302,2,0,L|331:76,1,47.5,4|8,0:0|0:0,0:0:0:0:
412,32,329519,6,0,L|404:128,1,95,4|4,0:0|0:0,0:0:0:0:
432,240,329954,2,0,P|376:240|336:212,1,95,12|0,0:0|0:0,0:0:0:0:
244,168,330389,2,0,P|202:145|155:148,1,95,4|4,0:0|0:0,0:0:0:0:
88,240,330823,2,0,L|192:224,1,95,12|4,0:0|0:0,0:0:0:0:
181,225,331150,1,8,0:0:0:0:
181,225,331258,6,0,L|172:284,1,47.5,4|0,0:0|0:0,0:0:0:0:
224,336,331476,1,4,0:0:0:0:
368,264,331693,2,0,L|272:272,1,95,12|0,0:0|0:0,0:0:0:0:
200,144,332128,2,0,L|312:152,1,95,4|4,0:0|0:0,0:0:0:0:
404,188,332563,2,0,P|408:136|384:88,1,95,12|4,0:0|0:0,0:0:0:0:
310,74,332889,1,8,0:0:0:0:
310,74,332997,6,0,L|300:28,3,47.5,4|0|10|2,0:0|0:0|0:0|0:0,0:0:0:0:
218,101,333432,2,0,L|208:148,3,47.5,12|0|10|10,0:0|0:0|0:0|0:0,0:0:0:0:
120,160,333867,5,4,0:0:0:0:
129,191,333976,1,0,0:0:0:0:
149,217,334084,1,10,0:0:0:0:
178,234,334193,1,2,0:0:0:0:
211,238,334302,6,0,L|248:224,2,23.75,12|0|0,0:0|0:0|0:0,0:0:0:0:
184,320,334519,2,0,L|248:332,1,47.5,10|10,0:0|0:0,0:0:0:0:
304,288,334737,6,0,L|320:324,5,31.6666666666667,4|0|0|0|14|0,0:0|0:0|0:0|0:0|0:0|0:0,0:0:0:0:
376,228,335171,2,0,L|384:264,5,31.6666666666667,12|0|0|0|0|0,0:0|0:0|0:0|0:0|0:0|0:0,0:0:0:0:
459,279,335606,2,0,L|464:248,5,31.6666666666667,4|0|0|0|14|0,0:0|0:0|0:0|0:0|0:0|0:0,0:0:0:0:
512,192,336041,5,12,0:0:0:0:
512,192,336150,1,4,0:0:0:0:
512,192,336258,2,0,L|464:132,1,71.2500027179719,10|10,0:0|0:0,0:0:0:0:
384,24,336476,6,0,P|388:72|332:124,1,113.999996520996,4|0,0:0|0:0,0:0:0:0:
252,180,336802,2,0,B|212:172|212:172|172:176|172:176|116:168,1,113.999996520996,8|8,0:0|0:0,0:0:0:0:
56,224,337128,2,0,P|40:184|48:148,1,56.9999982604981,4|8,0:0|0:0,0:0:0:0:
44,64,337345,2,0,B|84:80|84:80|172:64,1,113.999996520996,4|0,0:0|0:0,0:0:0:0:
262,73,337671,2,0,P|274:129|242:189,1,113.999996520996,8|8,0:0|0:0,0:0:0:0:
188,268,337997,2,0,L|256:264,1,56.9999982604981,4|8,0:0|0:0,0:0:0:0:
320,344,338215,6,0,P|352:300|340:224,1,113.999996520996,4|0,0:0|0:0,0:0:0:0:
352,132,338541,2,0,P|384:164|456:152,1,113.999996520996,8|8,0:0|0:0,0:0:0:0:
504,252,338867,2,0,B|476:244|476:244|440:252,1,56.9999982604981,4|8,0:0|0:0,0:0:0:0:
320,344,339084,1,12,0:0:0:0:
240,224,339302,2,0,L|176:240,1,56.9999982604981,4|0,0:0|0:0,0:0:0:0:
112,192,339519,1,12,0:0:0:0:
200,340,339737,1,8,0:0:0:0:
36,236,339954,6,0,P|24:188|56:124,1,113.999996520996,4|0,0:0|0:0,0:0:0:0:
136,64,340280,2,0,B|172:84|172:84|260:56,1,113.999996520996,8|8,0:0|0:0,0:0:0:0:
348,44,340606,2,0,P|344:96|336:112,1,56.9999982604981,4|8,0:0|0:0,0:0:0:0:
300,200,340823,2,0,P|388:196|412:224,1,113.999996520996,4|0,0:0|0:0,0:0:0:0:
488,280,341150,2,0,P|512:228|492:152,1,113.999996520996,8|8,0:0|0:0,0:0:0:0:
344,288,341476,2,0,L|408:296,1,56.9999982604981,4|8,0:0|0:0,0:0:0:0:
296,360,341693,6,0,P|248:336|180:360,1,113.999996520996,4|0,0:0|0:0,0:0:0:0:
48,288,342019,2,0,P|144:288|160:264,1,113.999996520996,8|8,0:0|0:0,0:0:0:0:
88,172,342345,2,0,L|96:236,1,56.9999982604981,4|8,0:0|0:0,0:0:0:0:
24,132,342563,2,0,P|60:100|88:96,1,56.9999982604981,10|4,0:0|0:0,0:0:0:0:
164,120,342780,2,0,L|168:160,2,28.4999991302491,12|0|0,0:0|0:0|0:0,0:0:0:0:
224,220,342997,2,0,P|260:200|288:200,1,56.9999982604981,10|0,0:0|0:0,0:0:0:0:
384,240,343215,2,0,L|380:192,2,28.4999991302491,12|0|0,0:0|0:0|0:0,0:0:0:0:
432,336,343432,6,0,P|464:312|480:232,1,113.999996520996,4|0,0:0|0:0,0:0:0:0:
484,136,343758,2,0,B|448:156|448:156|376:116,1,113.999996520996,8|8,0:0|0:0,0:0:0:0:
288,72,344084,2,0,P|280:128|288:148,1,56.9999982604981,4|8,0:0|0:0,0:0:0:0:
320,228,344302,2,0,P|248:232|200:192,1,113.999996520996,4|0,0:0|0:0,0:0:0:0:
116,168,344628,2,0,B|108:216|108:216|120:248|120:248|112:288,1,113.999996520996,8|8,0:0|0:0,0:0:0:0:
200,344,344954,2,0,L|192:272,1,56.9999982604981,4|8,0:0|0:0,0:0:0:0:
32,260,345171,6,0,P|40:312|104:356,1,113.999996520996,4|0,0:0|0:0,0:0:0:0:
200,344,345497,2,0,L|316:352,1,113.999996520996,8|8,0:0|0:0,0:0:0:0:
420,360,345823,2,0,P|416:320|400:296,1,56.9999982604981,4|8,0:0|0:0,0:0:0:0:
320,240,346041,1,14,0:0:0:0:
408,148,346258,2,0,L|392:77,1,56.9999982604981,4|0,0:0|0:0,0:0:0:0:
432,24,346476,1,10,0:0:0:0:
316,152,346693,1,10,0:0:0:0:
496,132,346910,6,0,P|496:176|436:232,1,113.999996520996,4|0,0:0|0:0,0:0:0:0:
364,292,347237,2,0,B|300:268|300:268|240:284,1,113.999996520996,8|8,0:0|0:0,0:0:0:0:
172,348,347563,2,0,P|148:300|156:276,1,56.9999982604981,4|8,0:0|0:0,0:0:0:0:
196,200,347780,2,0,P|132:212|92:180,1,113.999996520996,4|0,0:0|0:0,0:0:0:0:
148,72,348106,2,0,B|168:52|168:52|152:148,1,113.999996520996,8|8,0:0|0:0,0:0:0:0:
72,100,348432,2,0,P|68:60|80:32,1,56.9999982604981,4|8,0:0|0:0,0:0:0:0:
148,72,348650,6,0,L|208:72,1,56.9999982604981,8|4,0:0|0:0,0:0:0:0:
264,128,348867,2,0,P|312:116|336:124,1,56.9999982604981,12|0,0:0|0:0,0:0:0:0:
408,152,349084,2,0,L|408:96,1,47.5,8|4,0:0|0:0,0:0:0:0:
500,152,349302,2,0,L|500:208,1,47.5,12|0,0:0|0:0,0:0:0:0:
512,304,349519,2,0,P|477:293|448:296,1,47.5,12|0,0:0|0:0,0:0:0:0:
388,240,349737,2,0,L|416:232,2,23.75,8|0|0,0:0|0:0|0:0,0:0:0:0:
322,283,349954,6,0,B|308:252|308:252|312:220,2,63.3333333333333,12|8|12,0:0|0:0|0:0,0:0:0:0:
368,152,350389,6,0,P|332:136|264:148,1,95,4|0,0:0|0:0,0:0:0:0:
208,196,350715,2,0,P|188:148|200:100,1,95,8|8,0:0|0:0,0:0:0:0:
264,56,351041,1,4,0:0:0:0:
264,56,351150,1,8,0:0:0:0:
264,56,351258,2,0,P|204:24|160:36,1,95,4|0,0:0|0:0,0:0:0:0:
120,88,351584,1,8,0:0:0:0:
120,88,351693,2,0,L|64:76,1,47.5,0|8,0:0|0:0,0:0:0:0:
0,48,351910,1,0,0:0:0:0:
0,48,352019,1,0,0:0:0:0:
0,48,352128,6,0,P|-8:104|16:140,1,95,4|0,0:0|0:0,0:0:0:0:
96,168,352454,2,0,L|44:256,1,95,8|8,0:0|0:0,0:0:0:0:
4,328,352780,1,4,0:0:0:0:
4,328,352889,1,8,0:0:0:0:
4,328,352997,2,0,L|64:320,1,47.5,4|8,0:0|0:0,0:0:0:0:
124,284,353215,2,0,L|144:344,1,47.5,8|4,0:0|0:0,0:0:0:0:
216,376,353432,1,12,0:0:0:0:
252,168,353650,1,12,0:0:0:0:
252,168,353867,6,0,B|308:184|308:184|364:168,1,95,4|0,0:0|0:0,0:0:0:0:
432,152,354193,2,0,P|432:200|392:248,1,95,8|8,0:0|0:0,0:0:0:0:
320,264,354519,1,4,0:0:0:0:
320,264,354628,1,8,0:0:0:0:
320,264,354737,2,0,B|336:308|336:308|324:360,1,95,4|0,0:0|0:0,0:0:0:0:
200,352,355063,2,0,B|189:305|189:305|205:261,1,95,8|8,0:0|0:0,0:0:0:0:
252,184,355389,1,4,0:0:0:0:
252,184,355497,1,8,0:0:0:0:
252,184,355606,6,0,P|200:168|156:188,1,95,4|0,0:0|0:0,0:0:0:0:
108,252,355932,2,0,B|76:212|76:212|76:152,1,95,8|8,0:0|0:0,0:0:0:0:
128,100,356258,2,0,L|120:40,1,47.5,4|8,0:0|0:0,0:0:0:0:
248,92,356476,2,0,L|312:88,1,47.5,8|4,0:0|0:0,0:0:0:0:
192,220,356693,2,0,L|184:164,1,47.5,12|0,0:0|0:0,0:0:0:0:
288,168,356910,2,0,L|356:164,1,47.5,12|4,0:0|0:0,0:0:0:0:
464,64,357128,2,0,L|400:68,1,47.5,8|0,0:0|0:0,0:0:0:0:
372,240,357345,6,0,P|436:228|472:288,1,142.5,4|8,0:0|0:0,0:0:0:0:
392,332,357780,2,0,B|348:340|348:340|300:328|300:328|240:340,1,142.5,4|8,0:0|0:0,0:0:0:0:
164,360,358215,2,0,P|164:304|232:252,1,142.5,4|8,0:0|0:0,0:0:0:0:
292,192,358650,2,0,P|349:153|355:84,1,142.5,4|8,0:0|0:0,0:0:0:0:
260,16,359084,6,0,B|280:108|280:108|212:88,1,142.5,4|8,0:0|0:0,0:0:0:0:
152,56,359519,2,0,P|144:128|192:176,1,142.5,4|8,0:0|0:0,0:0:0:0:
233,94,359954,1,4,0:0:0:0:
264,248,360171,2,0,L|320:240,1,47.5,4|8,0:0|0:0,0:0:0:0:
372,280,360389,2,0,L|408:240,1,47.5,8|0,0:0|0:0,0:0:0:0:
468,204,360606,2,0,L|465:150,1,47.5,4|0,0:0|0:0,0:0:0:0:
412,96,360823,5,4,0:0:0:0:
468,300,361041,1,8,0:0:0:0:
276,224,361258,1,4,0:0:0:0:
412,96,361476,1,8,0:0:0:0:
368,300,361693,1,4,0:0:0:0:
188,344,361910,2,0,L|176:340,4,11.875,8|0|0|0|0,0:0|0:0|0:0|0:0|0:0,0:0:0:0:
104,288,362128,2,0,L|64:300,2,23.75,4|0|0,0:0|0:0|0:0,0:0:0:0:
32,216,362345,2,0,L|48:216,4,11.875,8|0|0|0|0,0:0|0:0|0:0|0:0|0:0,0:0:0:0:
48,128,362563,6,0,L|116:120,1,47.5,4|8,0:0|0:0,0:0:0:0:
168,44,362780,2,0,L|160:96,1,47.5,8|8,0:0|0:0,0:0:0:0:
212,176,362997,2,0,L|160:168,1,47.5,4|8,0:0|0:0,0:0:0:0:
240,96,363215,2,0,L|288:88,1,47.5,8|8,0:0|0:0,0:0:0:0:
368,40,363432,6,0,L|360:72,2,31.6666666666667,4|0|0,0:0|0:0|0:0,0:0:0:0:
400,168,363650,2,0,L|408:137,2,31.6666666666667,8|0|0,0:0|0:0|0:0,0:0:0:0:
464,56,363867,2,0,L|468:28,3,23.75,8|0|8|0,0:0|0:0|0:0|0:0,0:0:0:0:
500,128,364084,2,0,L|496:144,6,11.875,8|0|0|0|0|0|0,0:0|0:0|0:0|0:0|0:0|0:0|0:0,0:0:0:0:
480,172,364302,5,4,0:0:0:0:
