osu file format v14

[General]
AudioFilename: audio.mp3
AudioLeadIn: 0
PreviewTime: 56985
Countdown: 0
SampleSet: Soft
StackLeniency: 0.7
Mode: 2
LetterboxInBreaks: 0
WidescreenStoryboard: 1

[Editor]
Bookmarks: 15246,56985,140474,147430,152647,154387,168300,196159,210072
DistanceSpacing: 1
BeatDivisor: 4
GridSize: 4
TimelineZoom: 1.5

[Metadata]
Title:Bad Apple!! feat. nomico
TitleUnicode:Bad Apple!! feat. nomico
Artist:Masayoshi Minoshima
ArtistUnicode:Masayoshi Minoshima
Creator:Kukkai
Version:Salad
Source:東方幻想郷 ~ Lotus Land Story
Tags:東方Project Touhou Project Elly Stage 3 Alstroemeria Records Lovelight video game vgm japanese jpop j-pop pop zun のみこ マサヨシ ミノシマ th04 太田 順也 上海アリス幻樂団 Team Shanghai Alice Electronic
BeatmapID:4045178
BeatmapSetID:1952041

[Difficulty]
HPDrainRate:2
CircleSize:2
OverallDifficulty:6
ApproachRate:6
SliderMultiplier:1.6
SliderTickRate:1

[Events]
//Background and Video events
0,0,"bggggg.jpg",0,0
Video,0,"vdo.mp4"
//Break Periods
2,85011,97674
//Storyboard Layer 0 (Background)
//Storyboard Layer 1 (Fail)
//Storyboard Layer 2 (Pass)
//Storyboard Layer 3 (Foreground)
//Storyboard Layer 4 (Overlay)
//Storyboard Sound Samples

[TimingPoints]
1333,434.782608695652,4,2,1,60,1,0
15246,-100,4,2,1,70,0,0
29159,-100,4,2,1,70,0,0
43072,-100,4,2,1,75,0,0
70898,-100,4,2,1,80,0,1
84811,-100,4,2,1,50,0,0
98724,-100,4,2,1,60,0,0
111767,-100,4,2,1,70,0,0
112637,-100,4,2,1,80,0,0
126550,-100,4,2,1,75,0,0
168289,-100,4,2,1,80,0,1
182202,-100,4,2,1,70,0,0
196159,-100,4,2,1,60,0,0

[Colours]
Combo1 : 85,85,85
Combo2 : 191,191,191

[HitObjects]
192,184,1333,6,0,L|24:184,2,160,4|0|0,1:1|1:2|1:2,0:0:0:0:
352,188,2637,2,0,L|352:92,1,80,0|0,1:2|1:2,0:0:0:0:
268,108,3072,6,0,L|104:108,1,160,0|0,1:2|1:2,0:0:0:0:
268,104,3941,2,0,L|456:104,1,160,0|0,1:2|1:2,0:0:0:0:
348,104,4593,1,0,1:2:0:0:
264,348,4811,6,0,L|264:176,1,160,0|0,1:2|1:2,0:0:0:0:
424,184,5680,1,0,1:2:0:0:
264,180,6115,2,0,L|152:180,1,80,0|0,1:2|1:2,0:0:0:0:
264,184,6550,6,0,L|456:184,2,160,0|0|0,1:2|1:2|1:2,0:0:0:0:
104,192,7854,2,0,L|104:104,1,80,0|0,1:2|1:2,0:0:0:0:
184,104,8289,6,0,L|368:104,1,160,0|0,1:2|1:2,0:0:0:0:
184,112,9159,2,0,L|184:304,1,160,0|0,1:2|1:2,0:0:0:0:
264,268,9811,1,0,1:2:0:0:
344,268,10028,6,0,L|148:268,1,160,0|0,1:2|1:2,0:0:0:0:
344,264,10898,2,0,L|344:88,1,160,0|0,1:2|1:2,0:0:0:0:
264,108,11550,1,0,1:2:0:0:
184,104,11767,6,0,L|16:104,2,160,0|0|0,1:2|1:2|1:2,0:0:0:0:
344,104,13072,2,0,L|344:196,1,80,0|0,1:2|1:2,0:0:0:0:
264,180,13506,6,0,L|264:356,1,160,0|0,1:2|1:2,0:0:0:0:
424,344,14376,1,0,1:2:0:0:
116,252,14811,1,4,1:2:0:0:
428,268,15246,6,0,L|428:140,1,120,4|2,1:1|0:2,0:0:0:0:
308,148,15898,1,2,0:2:0:0:
228,148,16115,2,0,L|72:148,2,120,2|2|2,1:2|0:2|0:2,0:0:0:0:
308,148,16985,6,0,L|464:148,2,120,2|2|2,1:2|0:2|0:2,0:0:0:0:
228,144,17854,1,2,1:2:0:0:
228,224,18072,1,2,0:2:0:0:
308,228,18289,2,0,L|308:312,1,80,2|2,1:2|1:2,0:0:0:0:
128,304,18724,6,0,P|92:272|136:200,1,120,2|2,1:2|0:2,0:0:0:0:
232,208,19376,1,2,0:2:0:0:
312,212,19593,2,0,L|464:212,2,120,2|2|2,1:2|0:2|0:2,0:0:0:0:
232,212,20463,6,0,L|100:212,2,120,2|2|2,1:2|0:2|0:2,0:0:0:0:
312,212,21332,1,2,1:2:0:0:
312,132,21550,1,2,0:2:0:0:
232,132,21767,1,2,1:2:0:0:
232,52,21985,1,2,1:2:0:0:
408,144,22202,6,0,P|432:100|368:36,1,120,2|2,1:2|0:2,0:0:0:0:
280,40,22854,1,2,0:2:0:0:
200,40,23072,2,0,P|180:100|216:156,1,120,2|2,1:2|0:2,0:0:0:0:
324,148,23724,1,2,0:2:0:0:
404,148,23941,6,0,L|256:148,1,120,2|2,1:2|0:2,0:0:0:0:
164,152,24593,1,2,0:2:0:0:
244,156,24811,1,2,1:2:0:0:
324,156,25028,1,2,0:2:0:0:
324,156,25246,1,2,1:2:0:0:
244,156,25463,1,2,1:2:0:0:
68,156,25680,6,0,P|48:104|96:28,1,120,2|2,1:2|0:2,0:0:0:0:
192,44,26332,1,2,0:2:0:0:
272,44,26550,2,0,L|424:44,1,120,2|2,1:2|0:2,0:0:0:0:
272,44,27202,1,2,0:2:0:0:
192,48,27419,6,0,L|56:48,1,120,2|2,1:2|0:2,0:0:0:0:
192,44,28072,1,2,0:2:0:0:
372,336,28289,1,6,1:2:0:0:
420,319,28433,1,6,1:2:0:0:
440,271,28578,1,6,1:2:0:0:
415,226,28723,1,6,1:2:0:0:
365,215,28868,1,6,1:2:0:0:
128,212,29159,6,0,L|128:40,1,160,4|2,1:1|1:2,0:0:0:0:
208,52,29811,1,2,0:2:0:0:
288,52,30028,1,2,1:2:0:0:
128,52,30463,1,2,1:2:0:0:
48,56,30680,1,2,0:2:0:0:
128,52,30898,5,2,1:2:0:0:
288,52,31332,1,2,1:2:0:0:
128,52,31767,2,0,L|128:216,1,160,2|2,1:2|1:2,0:0:0:0:
208,208,32419,1,2,1:2:0:0:
288,212,32637,6,0,L|112:212,1,160,2|2,1:2|1:2,0:0:0:0:
48,208,33289,1,2,0:2:0:0:
128,208,33506,1,2,1:2:0:0:
288,212,33941,1,2,1:2:0:0:
368,212,34159,1,2,0:2:0:0:
288,212,34376,5,2,1:2:0:0:
128,208,34811,1,2,1:2:0:0:
288,212,35246,1,2,1:2:0:0:
288,132,35463,1,2,1:2:0:0:
208,132,35680,1,2,1:2:0:0:
128,128,35897,1,2,0:2:0:0:
312,52,36115,6,0,L|472:52,1,160,4|2,1:1|1:2,0:0:0:0:
392,52,36767,1,2,0:2:0:0:
312,52,36985,1,2,1:2:0:0:
152,52,37419,1,2,1:2:0:0:
232,52,37637,1,2,0:2:0:0:
312,52,37854,5,2,1:2:0:0:
312,212,38289,1,2,1:2:0:0:
164,208,38724,2,0,P|128:164|184:76,1,160,2|2,1:2|1:2,0:0:0:0:
244,212,39376,1,2,1:2:0:0:
336,356,39593,6,0,P|360:304|320:208,1,160,2|2,1:2|1:2,0:0:0:0:
244,212,40246,1,2,0:2:0:0:
164,212,40463,1,2,1:2:0:0:
324,208,40898,1,2,1:2:0:0:
404,208,41115,1,2,0:2:0:0:
324,208,41332,5,2,1:2:0:0:
164,212,41767,1,2,1:2:0:0:
324,212,42202,1,6,1:2:0:0:
374,197,42346,1,4,1:2:0:0:
397,150,42491,1,4,1:2:0:0:
378,102,42636,1,6,1:2:0:0:
330,83,42781,1,4,1:2:0:0:
96,316,43072,6,0,P|68:236|124:180,1,160,4|2,1:1|1:2,0:0:0:0:
192,184,43724,1,2,0:2:0:0:
272,184,43941,1,2,1:2:0:0:
112,184,44376,1,2,1:2:0:0:
32,184,44593,1,2,0:2:0:0:
112,184,44811,5,2,1:2:0:0:
272,184,45246,1,2,1:2:0:0:
432,184,45680,1,2,1:2:0:0:
352,188,45898,1,2,0:2:0:0:
272,184,46115,1,2,1:2:0:0:
276,104,46332,1,2,1:2:0:0:
456,304,46550,6,0,P|476:216|432:168,1,160,2|2,1:2|1:2,0:0:0:0:
352,168,47202,1,2,0:2:0:0:
272,168,47419,1,2,1:2:0:0:
112,164,47854,1,2,1:2:0:0:
192,168,48072,1,2,0:2:0:0:
272,168,48289,5,2,1:2:0:0:
432,168,48724,1,2,1:2:0:0:
272,168,49159,1,2,1:2:0:0:
272,168,49376,1,2,1:2:0:0:
352,168,49593,1,2,1:2:0:0:
352,168,49811,1,2,0:2:0:0:
168,268,50028,6,0,L|8:268,1,160,4|2,1:1|1:2,0:0:0:0:
88,268,50680,1,2,0:2:0:0:
168,272,50898,1,2,1:2:0:0:
328,276,51332,1,2,1:2:0:0:
328,196,51550,1,2,0:2:0:0:
248,196,51767,5,2,1:2:0:0:
408,204,52202,1,2,1:2:0:0:
248,196,52637,1,2,1:2:0:0:
168,196,52854,1,2,0:2:0:0:
168,196,53072,1,2,1:2:0:0:
248,196,53289,1,2,1:2:0:0:
428,200,53506,6,0,P|460:112|408:64,1,160,2|2,1:2|1:2,0:0:0:0:
340,68,54159,1,2,0:2:0:0:
260,68,54376,1,2,1:2:0:0:
100,68,54811,1,2,1:2:0:0:
100,68,55028,1,2,0:2:0:0:
280,352,55246,6,0,L|280:160,1,160,6|6,1:2|1:2,0:0:0:0:
104,204,56115,2,0,L|104:16,1,160,4|4,1:2|1:2,0:0:0:0:
376,356,56985,5,4,1:1:0:0:
450,336,57202,1,2,0:2:0:0:
481,265,57419,1,2,1:2:0:0:
443,197,57637,1,2,0:2:0:0:
367,185,57854,1,2,1:2:0:0:
208,184,58289,1,2,1:2:0:0:
367,185,58724,6,0,L|368:84,1,80,2|0,1:2|0:2,0:0:0:0:
288,108,59159,1,2,1:2:0:0:
208,108,59376,2,0,L|208:208,1,80,0|2,0:2|1:2,0:0:0:0:
368,188,60028,1,2,1:2:0:0:
288,188,60246,1,2,1:2:0:0:
112,192,60463,6,0,L|112:88,1,80,2|2,1:2|0:2,0:0:0:0:
192,112,60898,2,0,L|288:112,2,80,2|2|2,1:2|0:2|1:2,0:0:0:0:
32,108,61767,1,2,1:2:0:0:
192,112,62202,6,0,L|192:212,1,80,2|2,1:2|0:2,0:0:0:0:
112,188,62637,1,2,1:2:0:0:
32,188,62854,2,0,L|32:280,1,80,2|2,0:2|1:2,0:0:0:0:
192,268,63506,2,0,L|296:268,1,80,2|2,1:2|0:2,0:0:0:0:
88,216,63941,5,4,1:1:0:0:
31,162,64158,1,2,0:2:0:0:
31,84,64375,1,2,1:2:0:0:
87,30,64593,1,2,0:2:0:0:
165,33,64810,1,2,1:2:0:0:
328,36,65246,1,2,1:2:0:0:
165,33,65680,6,0,L|164:144,1,80,2|0,1:2|0:2,0:0:0:0:
244,124,66115,1,2,1:2:0:0:
164,124,66332,1,0,0:2:0:0:
84,124,66549,1,2,1:2:0:0:
244,128,66985,2,0,L|244:224,1,80,2|2,1:2|1:2,0:0:0:0:
64,288,67419,5,2,1:2:0:0:
64,208,67637,1,2,0:2:0:0:
144,212,67854,1,2,1:2:0:0:
224,216,68072,1,2,0:2:0:0:
304,216,68289,1,2,1:2:0:0:
144,212,68724,1,2,1:2:0:0:
304,216,69159,6,0,L|420:216,2,80,2|0|2,1:2|0:2|1:2,0:0:0:0:
224,216,69811,1,0,0:2:0:0:
144,212,70028,1,6,1:2:0:0:
94,197,70172,1,4,1:2:0:0:
71,150,70317,1,4,1:2:0:0:
91,102,70462,1,6,1:2:0:0:
140,85,70607,1,4,1:2:0:0:
392,320,70898,6,0,L|392:236,1,80,4|2,1:1|0:2,0:0:0:0:
312,248,71332,2,0,L|312:136,1,80,6|2,1:2|0:2,0:0:0:0:
392,148,71767,1,6,1:2:0:0:
228,148,72202,1,6,1:2:0:0:
68,144,72637,6,0,L|164:144,1,80,6|0,1:2|0:2,0:0:0:0:
228,148,73072,2,0,L|228:48,1,80,6|0,1:2|0:2,0:0:0:0:
148,64,73506,1,6,1:2:0:0:
316,64,73941,2,0,L|408:64,1,80,6|2,1:2|1:2,0:0:0:0:
208,352,74376,6,0,L|208:252,1,80,6|2,1:2|0:2,0:0:0:0:
288,268,74811,2,0,L|380:268,2,80,6|2|6,1:2|0:2|1:2,0:0:0:0:
144,268,75680,1,6,1:2:0:0:
296,268,76115,6,0,L|296:168,1,80,6|2,1:2|0:2,0:0:0:0:
216,184,76550,1,6,1:2:0:0:
136,188,76767,2,0,L|136:84,1,80,2|6,0:2|1:2,0:0:0:0:
296,104,77419,2,0,L|408:104,1,80,6|2,1:2|0:2,0:0:0:0:
184,348,77854,5,4,1:2:0:0:
107,339,78071,1,2,0:2:0:0:
72,270,78288,1,6,1:2:0:0:
109,203,78506,1,2,0:2:0:0:
186,197,78723,1,6,1:2:0:0:
348,196,79159,1,6,1:2:0:0:
186,197,79593,6,0,L|188:112,1,80,6|0,1:2|0:2,0:0:0:0:
268,112,80028,1,6,1:2:0:0:
348,108,80246,2,0,L|348:212,1,80,0|6,0:2|1:2,0:0:0:0:
188,192,80898,2,0,L|84:192,1,80,6|2,1:2|1:2,0:0:0:0:
296,360,81332,5,6,1:2:0:0:
377,334,81549,1,2,0:2:0:0:
409,255,81766,1,6,1:2:0:0:
369,180,81984,1,2,0:2:0:0:
286,163,82201,1,6,1:2:0:0:
124,172,82637,1,6,1:2:0:0:
288,176,83072,6,0,L|288:76,1,80,6|0,1:2|0:2,0:0:0:0:
200,84,83506,2,0,L|200:184,1,80,6|0,1:2|0:2,0:0:0:0:
288,176,83941,1,4,1:2:0:0:
340,176,84086,1,4,1:2:0:0:
392,176,84231,1,4,1:2:0:0:
444,176,84376,1,4,1:2:0:0:
392,176,84521,1,4,1:2:0:0:
144,256,84811,5,4,1:1:0:0:
172,196,98724,6,0,L|356:196,1,160,2|2,0:2|0:2,0:0:0:0:
332,196,99376,1,2,0:2:0:0:
260,196,99593,1,2,0:2:0:0:
116,196,100028,1,2,0:2:0:0:
260,196,100463,6,0,P|292:104|240:56,1,160,2|2,0:2|0:2,0:0:0:0:
184,60,101115,1,2,0:2:0:0:
112,60,101332,1,2,0:2:0:0:
256,60,101767,1,2,0:2:0:0:
96,64,102202,6,0,P|56:140|96:196,1,160,2|2,0:2|0:2,0:0:0:0:
164,196,102854,1,2,0:2:0:0:
236,196,103072,1,2,0:2:0:0:
380,196,103506,1,2,0:2:0:0:
236,196,103941,6,0,L|408:196,1,160,2|2,0:2|0:2,0:0:0:0:
324,196,104593,1,2,0:2:0:0:
252,196,104811,1,2,0:2:0:0:
108,192,105246,1,2,0:2:0:0:
280,324,105680,6,0,P|320:288|264:208,1,160,2|2,0:2|0:2,0:0:0:0:
204,204,106332,1,2,0:2:0:0:
132,200,106550,2,0,L|320:200,1,160,2|2,0:2|0:2,0:0:0:0:
148,216,107419,6,0,P|96:168|164:112,1,160,2|2,0:2|0:2,0:0:0:0:
216,108,108072,1,2,0:2:0:0:
288,112,108289,2,0,L|456:112,1,160,2|2,0:2|0:2,0:0:0:0:
288,360,109159,6,0,L|288:192,1,160,2|2,0:2|0:2,0:0:0:0:
368,200,109811,1,2,0:2:0:0:
448,200,110028,2,0,L|448:16,1,160,2|2,0:2|0:2,0:0:0:0:
288,52,110898,5,2,0:2:0:0:
444,356,111767,2,0,L|444:168,1,160,4|4,1:2|1:2,0:0:0:0:
92,196,112637,6,0,P|56:156|100:88,1,120,4|2,1:1|0:2,0:0:0:0:
196,100,113289,1,2,0:2:0:0:
276,96,113506,2,0,L|432:96,2,120,2|2|2,1:2|0:2|0:2,0:0:0:0:
196,92,114376,6,0,L|56:92,2,120,2|2|2,1:2|0:2|0:2,0:0:0:0:
276,96,115246,2,0,L|276:188,1,80,2|2,1:2|0:2,0:0:0:0:
196,184,115680,2,0,L|196:264,1,80,2|2,1:2|1:2,0:0:0:0:
376,264,116115,6,0,L|504:264,2,120,2|2|2,1:2|0:2|0:2,0:0:0:0:
296,264,116985,2,0,P|264:204|304:156,1,120,2|2,1:2|0:2,0:0:0:0:
408,168,117637,1,2,0:2:0:0:
328,168,117854,6,0,L|172:168,2,120,2|2|2,1:2|0:2|0:2,0:0:0:0:
408,172,118724,1,2,1:2:0:0:
488,172,118941,1,2,0:2:0:0:
488,172,119159,1,2,1:2:0:0:
408,172,119376,1,2,1:2:0:0:
228,220,119593,6,0,L|92:220,2,120,2|2|2,1:2|0:2|0:2,0:0:0:0:
308,216,120463,2,0,L|456:216,2,120,2|2|2,1:2|0:2|0:2,0:0:0:0:
228,212,121332,6,0,L|80:212,2,120,2|2|2,1:2|0:2|0:2,0:0:0:0:
308,212,122202,2,0,L|308:120,1,80,2|2,1:2|0:2,0:0:0:0:
228,132,122637,2,0,L|128:132,1,80,2|2,1:2|1:2,0:0:0:0:
324,72,123072,6,0,L|480:72,2,120,2|2|2,1:2|0:2|0:2,0:0:0:0:
244,68,123941,2,0,P|204:128|244:176,1,120,2|2,1:2|0:2,0:0:0:0:
344,172,124593,1,2,0:2:0:0:
424,176,124811,6,0,P|456:232|404:288,1,120,2|2,1:2|0:2,0:0:0:0:
312,276,125463,1,2,0:2:0:0:
124,284,125680,1,6,1:2:0:0:
73,273,125824,1,0,0:0:0:0:
48,228,125969,1,0,0:0:0:0:
68,180,126114,1,0,0:0:0:0:
117,164,126259,1,0,0:0:0:0:
364,296,126550,6,0,P|392:248|352:152,1,160,4|2,1:1|1:2,0:0:0:0:
276,160,127202,1,2,0:2:0:0:
196,160,127419,2,0,L|376:160,1,160,2|2,1:2|1:2,0:0:0:0:
436,160,128071,1,2,0:2:0:0:
356,160,128289,5,2,1:2:0:0:
196,160,128723,1,2,1:2:0:0:
356,160,129158,2,0,P|384:112|340:24,1,160,2|2,1:2|1:2,0:0:0:0:
260,28,129810,1,2,1:2:0:0:
180,24,130028,6,0,L|360:24,1,160,2|2,1:2|1:2,0:0:0:0:
420,28,130680,1,2,0:2:0:0:
340,24,130897,1,2,1:2:0:0:
180,32,131332,6,0,L|80:32,2,80,2|2|2,1:2|0:2|1:2,0:0:0:0:
340,32,132202,1,2,1:2:0:0:
180,36,132636,1,2,1:2:0:0:
180,36,132854,1,2,1:2:0:0:
260,40,133071,1,2,1:2:0:0:
340,40,133289,1,2,0:2:0:0:
156,352,133506,6,0,P|112:312|176:244,1,160,4|2,1:1|1:2,0:0:0:0:
240,244,134158,1,2,0:2:0:0:
320,244,134376,2,0,L|136:244,1,160,2|2,1:2|1:2,0:0:0:0:
80,244,135028,1,2,0:2:0:0:
160,244,135245,5,2,1:2:0:0:
320,244,135680,1,2,1:2:0:0:
160,244,136115,2,0,P|124:180|180:112,1,160,2|2,1:2|1:2,0:0:0:0:
248,116,136767,1,2,1:2:0:0:
328,116,136984,6,0,P|372:164|320:236,1,160,2|2,1:2|1:2,0:0:0:0:
248,232,137636,1,2,0:2:0:0:
168,232,137854,1,2,1:2:0:0:
328,236,138289,2,0,L|328:144,1,80,2|2,1:2|0:2,0:0:0:0:
248,152,138723,6,0,L|84:152,1,160,2|2,1:2|1:2,0:0:0:0:
256,356,139593,1,6,1:2:0:0:
307,354,139737,1,4,1:2:0:0:
332,310,139882,1,4,1:2:0:0:
309,265,140027,1,6,1:2:0:0:
258,262,140172,1,4,1:2:0:0:
28,264,140463,6,0,L|28:80,1,160,4|2,1:1|1:2,0:0:0:0:
108,104,141115,1,2,0:2:0:0:
188,104,141332,1,2,1:2:0:0:
348,104,141767,1,2,1:2:0:0:
268,104,141984,1,2,0:2:0:0:
188,104,142201,5,2,1:2:0:0:
348,104,142636,1,2,1:2:0:0:
188,96,143071,1,2,1:2:0:0:
188,176,143289,1,2,0:2:0:0:
268,180,143506,1,2,1:2:0:0:
268,180,143723,1,2,1:2:0:0:
88,340,143941,6,0,L|88:176,1,160,2|2,1:2|1:2,0:0:0:0:
168,184,144593,1,2,0:2:0:0:
248,184,144810,1,2,1:2:0:0:
88,180,145245,1,2,1:2:0:0:
88,180,145463,1,2,0:2:0:0:
168,180,145680,5,2,1:2:0:0:
328,184,146115,1,2,1:2:0:0:
168,180,146550,1,2,1:2:0:0:
88,180,146767,1,2,1:2:0:0:
88,180,146984,1,2,1:2:0:0:
168,180,147202,1,2,0:2:0:0:
344,368,147419,6,0,P|376:316|320:240,1,160,4|2,1:1|1:2,0:0:0:0:
248,244,148071,1,2,0:2:0:0:
168,244,148289,1,2,1:2:0:0:
326,241,148723,1,2,1:2:0:0:
324,176,148941,1,2,0:2:0:0:
228,176,149158,5,2,1:2:0:0:
388,176,149593,1,2,1:2:0:0:
208,184,150028,1,2,1:2:0:0:
208,248,150245,1,2,0:2:0:0:
288,180,150463,1,2,1:2:0:0:
284,244,150680,1,2,1:2:0:0:
108,364,150897,6,0,P|68:324|128:244,1,160,2|2,1:2|1:2,0:0:0:0:
192,248,151550,1,2,0:2:0:0:
272,248,151767,1,2,1:2:0:0:
432,180,152202,1,2,1:2:0:0:
352,180,152419,1,2,0:2:0:0:
176,176,152636,5,6,1:2:0:0:
176,176,153071,1,6,1:2:0:0:
336,176,153506,1,4,1:2:0:0:
176,176,153941,1,4,1:2:0:0:
456,72,154376,5,4,1:1:0:0:
456,152,154593,1,2,0:2:0:0:
376,152,154810,1,2,1:2:0:0:
296,152,155028,1,2,0:2:0:0:
296,232,155245,1,2,1:2:0:0:
456,232,155680,1,2,1:2:0:0:
296,232,156115,5,2,1:2:0:0:
219,222,156332,1,0,0:2:0:0:
183,153,156549,1,2,1:2:0:0:
218,85,156767,1,0,0:2:0:0:
294,74,156984,1,2,1:2:0:0:
456,72,157419,2,0,L|456:164,1,80,2|2,1:2|1:2,0:0:0:0:
276,268,157854,6,0,L|192:268,2,80,2|2|2,1:2|0:2|1:2,0:0:0:0:
356,268,158506,2,0,L|356:164,1,80,2|2,0:2|1:2,0:0:0:0:
196,188,159158,1,2,1:2:0:0:
36,188,159593,5,2,1:2:0:0:
36,108,159810,1,2,0:2:0:0:
116,108,160028,1,2,1:2:0:0:
196,108,160245,1,2,0:2:0:0:
196,108,160463,1,2,1:2:0:0:
36,104,160897,1,2,1:2:0:0:
116,104,161115,1,2,0:2:0:0:
296,360,161332,5,4,1:1:0:0:
296,280,161550,1,2,0:2:0:0:
216,280,161767,1,2,1:2:0:0:
216,200,161984,1,2,0:2:0:0:
296,200,162202,1,2,1:2:0:0:
456,204,162636,1,2,1:2:0:0:
296,200,163071,5,2,1:2:0:0:
216,200,163289,1,0,0:2:0:0:
212,120,163506,1,2,1:2:0:0:
292,120,163723,1,0,0:2:0:0:
372,120,163941,1,2,1:2:0:0:
212,120,164376,2,0,L|212:28,1,80,2|2,1:2|1:2,0:0:0:0:
392,364,164810,5,2,1:2:0:0:
466,342,165027,1,2,0:2:0:0:
496,271,165246,1,2,1:2:0:0:
459,203,165462,1,2,0:2:0:0:
382,190,165679,1,2,1:2:0:0:
224,192,166115,1,2,1:2:0:0:
382,190,166550,5,2,1:2:0:0:
384,112,166767,1,0,0:2:0:0:
304,112,166984,1,2,1:2:0:0:
224,112,167202,1,0,0:2:0:0:
144,112,167419,1,6,1:2:0:0:
96,132,167563,1,4,1:2:0:0:
76,180,167708,1,4,1:2:0:0:
97,228,167853,1,6,1:2:0:0:
145,248,167998,1,4,1:2:0:0:
380,252,168289,6,0,L|380:160,1,80,4|2,1:1|0:2,0:0:0:0:
300,168,168723,1,6,1:2:0:0:
380,168,168940,1,2,0:2:0:0:
460,168,169159,1,6,1:2:0:0:
300,176,169593,1,6,1:2:0:0:
140,180,170028,2,0,L|140:88,1,80,6|0,1:2|0:2,0:0:0:0:
220,100,170463,6,0,L|320:100,2,80,6|0|6,1:2|0:2|1:2,0:0:0:0:
60,92,171332,2,0,L|60:176,1,80,6|2,1:2|1:2,0:0:0:0:
240,272,171767,6,0,L|328:272,2,80,6|2|6,1:2|0:2|1:2,0:0:0:0:
160,272,172419,2,0,L|160:168,1,80,2|6,0:2|1:2,0:0:0:0:
320,188,173071,1,6,1:2:0:0:
160,188,173506,5,6,1:2:0:0:
85,168,173723,1,2,0:2:0:0:
52,98,173940,1,6,1:2:0:0:
86,28,174158,1,2,0:2:0:0:
161,10,174375,1,6,1:2:0:0:
320,32,174810,2,0,L|224:32,1,80,6|2,1:2|0:2,0:0:0:0:
64,308,175245,6,0,L|64:224,1,80,0|2,1:1|0:2,0:0:0:0:
144,228,175680,2,0,L|240:228,2,80,6|2|6,1:2|0:2|1:2,0:0:0:0:
304,240,176550,1,6,1:2:0:0:
464,248,176984,6,0,L|464:152,1,80,6|0,1:2|0:2,0:0:0:0:
384,164,177419,1,6,1:2:0:0:
304,164,177636,2,0,L|304:64,1,80,0|6,0:2|1:2,0:0:0:0:
464,76,178289,2,0,L|376:76,1,80,6|2,1:2|1:2,0:0:0:0:
208,356,178723,6,0,L|208:252,1,80,6|2,1:2|0:2,0:0:0:0:
288,272,179158,2,0,L|288:176,1,80,6|2,1:2|0:2,0:0:0:0:
208,192,179593,1,6,1:2:0:0:
48,192,180028,1,6,1:2:0:0:
208,192,180463,6,0,L|208:104,1,80,2|0,1:2|0:2,0:0:0:0:
128,108,180897,2,0,L|128:20,1,80,6|0,1:2|0:2,0:0:0:0:
308,352,181332,2,0,L|492:352,1,160,4|4,1:2|1:2,0:0:0:0:
168,312,182202,6,0,P|128:272|184:188,1,160,4|2,1:1|0:2,0:0:0:0:
248,192,182854,1,2,0:2:0:0:
328,192,183071,1,2,0:2:0:0:
168,192,183506,1,2,0:2:0:0:
328,192,183941,6,0,L|140:192,1,160,2|2,0:2|0:2,0:0:0:0:
88,188,184593,1,2,0:2:0:0:
168,192,184810,1,2,0:2:0:0:
328,192,185245,1,2,0:2:0:0:
168,192,185680,6,0,P|132:164|184:80,1,160,2|2,0:2|0:2,0:0:0:0:
256,76,186332,1,2,0:2:0:0:
336,80,186549,2,0,L|152:80,1,160,2|2,0:2|0:2,0:0:0:0:
336,76,187419,6,0,L|336:256,1,160,2|2,0:2|0:2,0:0:0:0:
256,228,188071,1,2,0:2:0:0:
176,228,188288,2,0,L|8:228,1,160,2|2,0:2|0:2,0:0:0:0:
300,344,189158,6,0,P|320:300|276:200,1,160,2|2,0:2|0:2,0:0:0:0:
200,200,189810,1,2,0:2:0:0:
120,196,190028,2,0,L|120:32,1,160,2|2,0:2|0:2,0:0:0:0:
280,36,190897,6,0,L|112:36,1,160,2|2,0:2|0:2,0:0:0:0:
40,36,191549,1,2,0:2:0:0:
120,40,191767,2,0,L|280:40,1,160,2|2,0:2|0:2,0:0:0:0:
120,40,192636,6,0,P|84:88|120:184,1,160,2|2,0:2|0:2,0:0:0:0:
192,180,193288,1,2,0:2:0:0:
272,184,193506,2,0,L|436:184,1,160,2|2,0:2|0:2,0:0:0:0:
272,188,194375,6,0,L|272:20,1,160,2|2,0:2|0:2,0:0:0:0:
352,32,195028,1,2,0:2:0:0:
432,36,195245,1,2,0:2:0:0:
463,78,195389,1,0,0:0:0:0:
466,130,195534,1,0,0:0:0:0:
439,175,195679,1,2,0:2:0:0:
392,198,195824,1,0,0:0:0:0:
160,308,196115,5,6,1:1:0:0:
160,148,196549,1,0,0:0:0:0:
232,152,196767,1,0,0:0:0:0:
304,152,196984,1,0,0:0:0:0:
304,152,197419,1,0,0:0:0:0:
160,152,197854,5,2,0:2:0:0:
304,152,198288,1,0,0:0:0:0:
232,152,198506,1,0,0:0:0:0:
160,152,198723,1,0,0:0:0:0:
160,152,199158,1,0,0:0:0:0:
324,268,199593,5,2,0:2:0:0:
468,272,200028,1,0,0:0:0:0:
396,268,200245,1,0,0:0:0:0:
324,268,200462,1,0,0:0:0:0:
324,268,200897,1,0,0:0:0:0:
160,296,201332,5,0,0:0:0:0:
304,300,201767,1,0,0:0:0:0:
304,228,201984,1,0,0:0:0:0:
304,156,202202,1,0,0:0:0:0:
160,152,202636,1,0,0:0:0:0:
328,72,203071,5,2,0:2:0:0:
184,64,203505,1,0,0:0:0:0:
112,64,203723,1,0,0:0:0:0:
184,64,203940,1,0,0:0:0:0:
184,64,204375,1,0,0:0:0:0:
344,368,204810,5,2,0:2:0:0:
344,224,205246,1,0,0:0:0:0:
272,220,205462,1,0,0:0:0:0:
200,220,205679,1,0,0:0:0:0:
344,224,206114,1,0,0:0:0:0:
184,196,206549,5,2,0:2:0:0:
180,116,206767,1,0,0:0:0:0:
260,116,206984,1,0,0:0:0:0:
340,116,207202,1,0,0:0:0:0:
260,116,207419,1,0,0:0:0:0:
98,113,207854,1,0,0:0:0:0:
258,361,208288,5,0,0:0:0:0:
338,361,208506,1,0,0:0:0:0:
342,281,208723,1,0,0:0:0:0:
262,281,208941,1,0,0:0:0:0:
182,281,209158,6,0,P|140:208|320:100,1,320,0|4,0:0|1:1,0:0:0:0:
256,192,210462,12,0,216984,0:0:0:0:
