osu file format v14

[General]
AudioFilename: audio.mp3
AudioLeadIn: 0
PreviewTime: 56985
Countdown: 0
SampleSet: Soft
StackLeniency: 0.7
Mode: 2
LetterboxInBreaks: 0
WidescreenStoryboard: 1

[Editor]
Bookmarks: 43072,56985,140474,154387,168300,196159,210072
DistanceSpacing: 1.7
BeatDivisor: 3
GridSize: 4
TimelineZoom: 1.5

[Metadata]
Title:Bad Apple!! feat. nomico
TitleUnicode:Bad Apple!! feat. nomico
Artist:Masayoshi Minoshima
ArtistUnicode:Masayoshi Minoshima
Creator:Kukkai
Version:Rain
Source:東方幻想郷 ~ Lotus Land Story
Tags:東方Project Touhou Project Elly Stage 3 Alstroemeria Records Lovelight video game vgm japanese jpop j-pop pop zun のみこ マサヨシ ミノシマ th04 太田 順也 上海アリス幻樂団 Team Shanghai Alice Electronic
BeatmapID:4042210
BeatmapSetID:1952041

[Difficulty]
HPDrainRate:4
CircleSize:4
OverallDifficulty:8
ApproachRate:8
SliderMultiplier:2.1
SliderTickRate:1

[Events]
//Background and Video events
0,0,"bggggg.jpg",0,0
Video,0,"vdo.mp4"
//Break Periods
//Storyboard Layer 0 (Background)
//Storyboard Layer 1 (Fail)
//Storyboard Layer 2 (Pass)
//Storyboard Layer 3 (Foreground)
//Storyboard Layer 4 (Overlay)
//Storyboard Sound Samples

[TimingPoints]
1333,434.782608695652,4,2,1,60,1,0
15246,-100,4,2,1,70,0,0
29159,-100,4,2,1,70,0,0
43072,-100,4,2,1,75,0,0
70898,-100,4,2,1,80,0,1
84811,-100,4,2,1,50,0,0
98724,-100,4,2,1,60,0,0
111767,-100,4,2,1,70,0,0
112637,-100,4,2,1,80,0,0
126550,-100,4,2,1,75,0,0
168289,-100,4,2,1,80,0,1
182202,-100,4,2,1,70,0,0
196159,-100,4,2,1,60,0,0

[Colours]
Combo1 : 85,85,85
Combo2 : 191,191,191

[HitObjects]
372,352,1333,6,0,L|372:232,1,105,4|0,1:1|0:0,0:0:0:0:
193,240,1767,2,0,L|193:108,1,105,0|0,1:2|0:0,0:0:0:0:
372,124,2202,6,0,L|372:0,1,105,0|0,1:2|0:0,0:0:0:0:
192,16,2637,2,0,L|128:16,1,52.5,0|0,1:2|1:2,0:0:0:0:
192,16,2854,2,0,L|284:16,1,52.5,0|0,1:2|1:2,0:0:0:0:
296,16,3072,6,0,L|296:160,1,105,0|0,1:2|0:0,0:0:0:0:
120,128,3506,2,0,L|-4:128,1,105,0|0,1:2|0:0,0:0:0:0:
193,128,3941,6,0,L|337:128,1,105,0|0,1:2|0:0,0:0:0:0:
120,128,4376,1,0,1:2:0:0:
298,128,4593,1,0,1:2:0:0:
120,128,4811,6,0,L|120:280,1,105,0|0,1:2|0:0,0:0:0:0:
298,233,5246,2,0,L|298:113,1,105,0|0,1:2|0:0,0:0:0:0:
476,130,5680,6,0,L|476:274,1,105,0|0,1:2|0:0,0:0:0:0:
297,249,6115,2,0,L|297:185,1,52.5,0|0,1:2|1:2,0:0:0:0:
353,193,6332,2,0,L|353:117,1,52.5,0|0,1:2|1:2,0:0:0:0:
297,249,6550,6,0,L|173:249,1,105,0|0,1:2|0:0,0:0:0:0:
370,247,6985,2,0,L|370:103,1,105,0|0,1:2|0:0,0:0:0:0:
191,147,7419,6,0,L|191:11,1,105,0|0,1:2|0:0,0:0:0:0:
369,32,7854,1,0,1:2:0:0:
191,42,8072,1,0,1:2:0:0:
370,37,8289,6,0,L|370:169,1,105,0|0,1:2|0:0,0:0:0:0:
192,148,8724,2,0,L|56:148,1,105,0|0,1:2|0:0,0:0:0:0:
264,152,9159,6,0,L|392:152,1,105,0|0,1:2|0:0,0:0:0:0:
200,156,9593,2,0,L|120:156,1,52.5,0|0,1:2|1:2,0:0:0:0:
96,156,9811,2,0,L|168:156,1,52.5,0|0,1:2|1:2,0:0:0:0:
200,160,10028,6,0,L|200:24,1,105,0|0,1:2|0:0,0:0:0:0:
20,48,10463,2,0,L|20:176,1,105,0|0,1:2|0:0,0:0:0:0:
200,160,10898,6,0,L|328:160,1,105,0|0,1:2|0:0,0:0:0:0:
128,160,11332,1,0,1:2:0:0:
300,164,11550,1,0,1:2:0:0:
120,160,11767,6,0,L|120:44,1,105,0|0,1:2|0:0,0:0:0:0:
300,52,12202,2,0,L|436:52,1,105,0|0,1:2|0:0,0:0:0:0:
228,48,12637,6,0,L|112:48,1,105,0|0,1:2|0:0,0:0:0:0:
300,52,13072,2,0,L|300:128,1,52.5,0|0,1:2|1:2,0:0:0:0:
240,112,13289,2,0,L|240:168,1,52.5,0|0,1:2|1:2,0:0:0:0:
300,52,13506,6,0,L|436:52,1,105,0|0,1:2|0:0,0:0:0:0:
228,52,13941,2,0,L|108:52,1,105,0|0,1:2|0:0,0:0:0:0:
300,52,14376,2,0,L|300:172,1,105,0|0,1:2|0:0,0:0:0:0:
24,156,14811,1,4,1:2:0:0:
256,160,15246,6,0,L|140:160,1,105,4|2,1:1|0:2,0:0:0:0:
204,160,15572,1,2,0:2:0:0:
308,164,15789,2,0,L|384:164,2,52.5,2|2|2,0:2|0:2|0:2,0:0:0:0:
120,308,16115,6,0,L|120:192,1,105,2|2,1:2|0:2,0:0:0:0:
172,200,16441,1,2,0:2:0:0:
276,200,16659,1,2,0:2:0:0:
221,200,16767,1,2,0:2:0:0:
166,200,16876,1,2,0:2:0:0:
356,148,16985,6,0,L|488:148,1,105,2|2,1:2|0:2,0:0:0:0:
408,148,17311,1,2,0:2:0:0:
304,148,17528,1,2,0:2:0:0:
252,148,17637,2,0,L|252:68,1,52.5,2|2,0:2|0:2,0:0:0:0:
432,288,17854,6,0,P|448:224|408:192,1,105,2|2,1:2|0:2,0:0:0:0:
372,200,18180,1,2,0:2:0:0:
184,204,18289,2,0,P|156:144|208:112,1,105,2|2,1:2|1:2,0:0:0:0:
228,120,18615,1,2,0:2:0:0:
416,120,18724,6,0,L|276:120,1,105,2|2,1:2|0:2,0:0:0:0:
260,120,19050,1,2,0:2:0:0:
364,120,19267,2,0,L|452:120,2,52.5,2|2|2,0:2|0:2|0:2,0:0:0:0:
172,348,19593,6,0,L|44:348,1,105,2|2,1:2|0:2,0:0:0:0:
120,348,19919,1,2,0:2:0:0:
224,348,20137,2,0,L|296:348,2,52.5,2|2|2,0:2|0:2|0:2,0:0:0:0:
40,288,20463,6,0,P|20:224|64:200,1,105,2|2,1:2|0:2,0:0:0:0:
96,204,20789,1,2,0:2:0:0:
208,204,21006,1,2,0:2:0:0:
260,192,21115,1,2,0:2:0:0:
260,192,21224,1,2,0:2:0:0:
80,152,21332,6,0,P|64:92|120:60,1,105,2|2,1:2|0:2,0:0:0:0:
144,64,21659,1,2,0:2:0:0:
332,328,21767,2,0,P|348:268|292:236,1,105,2|2,1:2|1:2,0:0:0:0:
268,240,22094,1,2,0:2:0:0:
92,180,22202,6,0,L|220:180,1,105,2|2,1:2|0:2,0:0:0:0:
248,180,22528,1,2,0:2:0:0:
144,176,22746,2,0,L|144:100,1,52.5,2|2,0:2|0:2,0:0:0:0:
196,124,22963,1,2,0:2:0:0:
384,228,23072,6,0,P|408:168|356:144,1,105,2|2,1:2|0:2,0:0:0:0:
332,144,23398,1,2,0:2:0:0:
436,144,23615,2,0,L|516:144,2,52.5,2|2|2,0:2|0:2|0:2,0:0:0:0:
248,252,23941,6,0,L|108:252,1,105,2|2,1:2|0:2,0:0:0:0:
196,252,24267,1,2,0:2:0:0:
300,252,24485,2,0,L|356:252,2,52.5,2|2|2,0:2|0:2|0:2,0:0:0:0:
112,200,24811,6,0,P|88:136|120:108,1,105,2|2,1:2|0:2,0:0:0:0:
160,112,25137,1,2,0:2:0:0:
352,188,25246,2,0,P|376:124|344:96,1,105,2|2,1:2|1:2,0:0:0:0:
304,100,25572,1,2,0:2:0:0:
128,56,25680,6,0,L|16:56,1,105,2|2,1:2|0:2,0:0:0:0:
76,56,26006,1,2,0:2:0:0:
180,56,26224,1,2,0:2:0:0:
127,56,26332,1,2,0:2:0:0:
75,56,26441,1,2,0:2:0:0:
244,216,26550,6,0,L|380:216,1,105,2|2,1:2|0:2,0:0:0:0:
296,216,26876,1,2,0:2:0:0:
192,216,27093,2,0,L|128:216,2,52.5,2|2|2,0:2|0:2|0:2,0:0:0:0:
372,212,27419,6,0,P|400:152|356:128,1,105,2|2,1:2|0:2,0:0:0:0:
328,132,27746,1,2,0:2:0:0:
224,132,27963,1,2,0:2:0:0:
276,132,28071,1,2,0:2:0:0:
329,132,28180,1,2,0:2:0:0:
144,80,28289,6,0,L|60:80,2,70,6|6|6,1:2|1:2|1:2,0:0:0:0:
360,80,28724,2,0,L|436:80,2,70,6|6|6,1:2|1:2|1:2,0:0:0:0:
116,264,29159,6,0,L|116:136,1,105,4|2,1:1|0:2,0:0:0:0:
292,168,29593,2,0,L|144:168,1,105,2|2,1:2|0:2,0:0:0:0:
364,168,30028,6,0,P|428:120|352:44,1,210,2|2,1:2|1:2,0:0:0:0:
180,40,30680,1,2,0:2:0:0:
357,43,30898,6,0,L|137:43,2,210,2|2|2,1:2|1:2|1:2,0:0:0:0:
464,44,31985,1,2,0:2:0:0:
284,44,32202,1,2,1:2:0:0:
464,44,32419,1,2,1:2:0:0:
148,228,32637,6,0,L|36:228,2,105,2|2|2,1:2|0:2|1:2,0:0:0:0:
328,228,33289,1,2,0:2:0:0:
148,228,33506,6,0,L|368:228,1,210,2|2,1:2|1:2,0:0:0:0:
180,228,34159,1,2,0:2:0:0:
358,228,34376,6,0,L|358:360,1,105,2|2,1:2|0:2,0:0:0:0:
248,336,34811,2,0,L|128:336,1,105,2|2,1:2|0:2,0:0:0:0:
320,332,35246,5,2,1:2:0:0:
143,336,35463,1,2,1:2:0:0:
320,332,35680,2,0,L|468:332,1,105,2|2,1:2|0:2,0:0:0:0:
128,132,36115,6,0,L|16:132,2,105,4|2|2,1:1|0:2|1:2,0:0:0:0:
308,132,36767,1,2,0:2:0:0:
128,132,36985,6,0,L|360:132,1,210,2|2,1:2|1:2,0:0:0:0:
160,132,37637,1,2,0:2:0:0:
338,132,37854,6,0,L|106:132,2,210,2|2|2,1:2|1:2|1:2,0:0:0:0:
338,132,38941,1,2,0:2:0:0:
160,132,39159,1,2,1:2:0:0:
338,132,39376,1,2,1:2:0:0:
64,216,39593,6,0,L|180:216,1,105,2|2,1:2|0:2,0:0:0:0:
348,216,40028,2,0,L|348:104,1,105,2|2,1:2|0:2,0:0:0:0:
172,108,40463,6,0,L|420:108,1,210,2|2,1:2|1:2,0:0:0:0:
204,104,41115,1,2,0:2:0:0:
380,100,41332,6,0,L|380:208,1,105,2|0,1:2|0:2,0:0:0:0:
200,208,41767,2,0,L|92:208,1,105,2|0,1:2|0:2,0:0:0:0:
400,144,42202,6,0,L|492:144,2,70,6|4|4,1:2|1:2|1:2,0:0:0:0:
160,112,42637,1,6,1:2:0:0:
230,112,42781,1,4,1:2:0:0:
300,112,42926,1,4,1:2:0:0:
56,300,43072,6,0,L|56:184,1,105,4|2,1:1|0:2,0:0:0:0:
236,200,43506,2,0,L|116:200,1,105,2|2,1:2|0:2,0:0:0:0:
308,204,43941,6,0,P|364:168|288:76,1,210,2|2,1:2|1:2,0:0:0:0:
120,76,44593,1,2,0:2:0:0:
298,74,44811,6,0,L|50:74,2,210,2|2|2,1:2|1:2|1:2,0:0:0:0:
412,80,45898,1,2,0:2:0:0:
232,80,46115,1,2,1:2:0:0:
411,80,46332,1,2,1:2:0:0:
136,268,46550,6,0,L|28:268,2,105,2|2|2,1:2|0:2|1:2,0:0:0:0:
316,256,47202,1,2,0:2:0:0:
136,268,47419,6,0,P|100:224|216:144,1,210,2|2,1:2|1:2,0:0:0:0:
364,132,48072,1,2,0:2:0:0:
64,284,48289,6,0,L|64:160,1,105,2|2,1:2|0:2,0:0:0:0:
244,176,48724,2,0,L|128:176,1,105,2|2,1:2|0:2,0:0:0:0:
420,100,49159,5,2,1:2:0:0:
240,100,49376,1,2,1:2:0:0:
420,100,49593,2,0,L|420:208,1,105,2|2,1:2|0:2,0:0:0:0:
120,236,50028,5,4,1:1:0:0:
276,236,50246,1,2,0:2:0:0:
432,240,50463,2,0,L|432:136,1,105,2|2,1:2|0:2,0:0:0:0:
256,156,50898,6,0,P|192:116|272:40,1,210,2|2,1:2|1:2,0:0:0:0:
440,44,51550,1,2,0:2:0:0:
160,352,51767,6,0,L|380:352,2,210,2|2|2,1:2|1:2|1:2,0:0:0:0:
160,352,52854,1,2,0:2:0:0:
340,352,53072,1,2,1:2:0:0:
160,352,53289,1,2,1:2:0:0:
436,160,53506,6,0,L|436:44,1,105,2|2,1:2|0:2,0:0:0:0:
256,52,53941,1,2,1:2:0:0:
436,56,54159,1,2,0:2:0:0:
256,52,54376,6,0,L|496:52,1,210,2|2,1:2|1:2,0:0:0:0:
360,52,55028,1,2,0:2:0:0:
84,360,55246,6,0,L|84:224,1,105,6|0,1:2|0:2,0:0:0:0:
264,256,55680,2,0,L|388:256,1,105,6|0,1:2|0:2,0:0:0:0:
88,116,56115,6,0,L|212:116,1,105,4|0,1:2|0:0,0:0:0:0:
480,84,56550,2,0,L|352:84,1,105,4|0,1:2|0:0,0:0:0:0:
100,240,56985,6,0,L|100:128,1,105,4|2,1:1|0:2,0:0:0:0:
280,140,57419,1,2,1:2:0:0:
100,136,57637,1,2,0:2:0:0:
384,104,57854,6,0,L|504:104,1,105,2|0,1:2|0:2,0:0:0:0:
312,104,58289,1,2,1:2:0:0:
488,104,58506,1,2,0:2:0:0:
208,288,58724,6,0,L|208:180,1,105,2|0,1:2|0:2,0:0:0:0:
388,196,59159,2,0,L|388:64,1,105,2|0,1:2|0:2,0:0:0:0:
88,88,59593,6,0,L|324:88,1,210,2|2,1:2|1:2,0:0:0:0:
120,88,60246,1,2,1:2:0:0:
416,252,60463,6,0,L|416:128,1,105,2|2,1:2|0:2,0:0:0:0:
236,148,60898,2,0,L|124:148,1,105,2|2,1:2|0:2,0:0:0:0:
432,144,61332,6,0,L|432:32,1,105,2|0,1:2|0:2,0:0:0:0:
252,36,61767,1,2,1:2:0:0:
432,36,61985,1,2,0:2:0:0:
156,288,62202,6,0,L|268:288,1,105,2|2,1:2|0:2,0:0:0:0:
440,284,62637,2,0,L|440:148,1,105,2|2,1:2|0:2,0:0:0:0:
140,176,63072,6,0,P|112:124|160:80,1,105,2|2,1:2|1:2,0:0:0:0:
184,92,63398,1,0,0:0:0:0:
368,156,63506,2,0,P|396:104|348:60,1,105,2|2,1:2|0:2,0:0:0:0:
324,72,63832,1,0,0:0:0:0:
156,196,63941,6,0,L|36:196,1,105,4|2,1:1|0:2,0:0:0:0:
228,196,64376,1,2,1:2:0:0:
52,196,64593,1,2,0:2:0:0:
332,196,64811,6,0,L|332:60,1,105,2|0,1:2|0:2,0:0:0:0:
152,92,65246,2,0,L|44:92,1,105,2|2,1:2|0:2,0:0:0:0:
352,248,65680,5,2,1:2:0:0:
172,244,65898,1,0,0:2:0:0:
352,248,66115,2,0,L|480:248,1,105,2|0,1:2|0:2,0:0:0:0:
180,180,66550,6,0,P|120:144|192:56,1,210,2|2,1:2|1:2,0:0:0:0:
364,52,67202,1,2,1:2:0:0:
56,328,67419,6,0,L|56:208,1,105,2|2,1:2|0:2,0:0:0:0:
236,224,67854,2,0,L|108:224,1,105,2|2,1:2|0:2,0:0:0:0:
416,236,68289,6,0,L|416:116,1,105,2|0,1:2|0:2,0:0:0:0:
236,136,68724,2,0,L|104:136,1,105,2|2,1:2|0:2,0:0:0:0:
412,264,69159,5,2,1:2:0:0:
256,264,69376,1,0,0:2:0:0:
100,264,69593,2,0,L|100:152,1,105,2|0,1:2|0:2,0:0:0:0:
384,156,70028,6,0,L|472:156,2,70,6|4|4,1:2|1:2|1:2,0:0:0:0:
136,96,70463,2,0,L|48:96,2,70,6|4|4,1:2|1:2|1:2,0:0:0:0:
380,156,70898,6,0,L|248:156,1,105,4|2,1:1|0:2,0:0:0:0:
452,156,71332,2,0,L|452:40,1,105,6|2,1:2|0:2,0:0:0:0:
148,224,71767,6,0,L|148:112,1,105,6|0,1:2|0:2,0:0:0:0:
328,120,72202,1,6,1:2:0:0:
148,119,72419,1,2,0:2:0:0:
472,196,72637,6,0,L|352:196,1,105,6|0,1:2|0:2,0:0:0:0:
188,196,73072,2,0,L|308:196,1,105,6|0,1:2|0:2,0:0:0:0:
16,196,73506,6,0,L|16:52,1,105,6|2,1:2|0:2,0:0:0:0:
196,92,73941,1,6,1:2:0:0:
16,92,74159,1,2,1:2:0:0:
304,364,74376,6,0,L|152:364,1,105,6|2,1:2|0:2,0:0:0:0:
20,360,74811,2,0,L|20:236,1,105,6|2,1:2|0:2,0:0:0:0:
332,216,75246,6,0,L|464:216,1,105,6|0,1:2|0:2,0:0:0:0:
260,216,75680,2,0,L|408:216,1,105,6|2,1:2|0:2,0:0:0:0:
88,144,76115,5,6,1:2:0:0:
268,152,76332,1,2,0:2:0:0:
88,144,76550,2,0,L|88:32,1,105,6|2,1:2|0:2,0:0:0:0:
372,228,76985,6,0,L|488:228,1,105,6|2,1:2|1:2,0:0:0:0:
424,228,77311,1,0,0:0:0:0:
244,160,77419,2,0,L|128:160,1,105,6|2,1:2|0:2,0:0:0:0:
192,160,77745,1,0,0:0:0:0:
368,160,77854,6,0,L|484:160,1,105,4|2,1:2|0:2,0:0:0:0:
296,160,78289,1,6,1:2:0:0:
472,160,78506,1,2,0:2:0:0:
192,104,78724,6,0,L|192:232,1,105,6|0,1:2|0:2,0:0:0:0:
348,204,79159,1,6,1:2:0:0:
504,200,79376,1,2,0:2:0:0:
228,256,79593,6,0,L|360:256,1,105,6|0,1:2|0:2,0:0:0:0:
156,256,80028,1,6,1:2:0:0:
332,256,80246,1,0,0:2:0:0:
40,188,80463,6,0,L|40:64,1,105,6|2,1:2|0:2,0:0:0:0:
220,84,80898,1,6,1:2:0:0:
40,88,81115,1,2,1:2:0:0:
320,184,81332,6,0,L|212:184,1,105,6|2,1:2|0:2,0:0:0:0:
392,184,81767,2,0,L|504:184,1,105,6|2,1:2|0:2,0:0:0:0:
180,180,82202,6,0,L|180:56,1,105,6|0,1:2|0:2,0:0:0:0:
360,76,82637,1,6,1:2:0:0:
180,76,82854,1,2,0:2:0:0:
488,256,83072,6,0,L|348:256,1,105,6|0,1:2|0:2,0:0:0:0:
204,256,83506,2,0,L|332:256,1,105,6|0,1:2|0:2,0:0:0:0:
32,184,83941,6,0,L|32:88,1,70,4|4,1:2|1:2,0:0:0:0:
104,112,84231,1,4,1:2:0:0:
332,56,84376,1,4,1:2:0:0:
262,56,84520,1,4,1:2:0:0:
192,56,84665,1,4,1:2:0:0:
432,56,84811,6,0,L|432:160,1,105,4|0,1:1|0:0,0:0:0:0:
328,164,85246,1,0,0:0:0:0:
432,164,85463,1,0,0:0:0:0:
272,360,85680,6,0,L|500:360,1,210,0|0,0:0|0:0,0:0:0:0:
376,360,86332,1,0,0:0:0:0:
216,308,86550,6,0,L|216:184,1,105,2|0,0:2|0:0,0:0:0:0:
320,204,86985,2,0,L|200:204,1,105,0|0,0:0|0:0,0:0:0:0:
384,204,87419,6,0,P|440:176|368:84,1,210,0|0,0:0|0:0,0:0:0:0:
272,84,88072,1,0,0:0:0:0:
96,188,88289,6,0,L|216:188,1,105,2|0,0:2|0:0,0:0:0:0:
96,188,88724,2,0,L|96:68,1,105,0|0,0:0|0:0,0:0:0:0:
264,36,89159,6,0,L|48:36,1,210,0|0,0:0|0:0,0:0:0:0:
160,36,89811,1,0,0:0:0:0:
328,304,90028,6,0,L|212:304,1,105,0|0,0:0|0:0,0:0:0:0:
328,304,90463,2,0,L|328:192,1,105,0|0,0:0|0:0,0:0:0:0:
160,192,90898,6,0,P|104:160|172:60,1,210,0|0,0:0|0:0,0:0:0:0:
268,60,91550,1,0,0:0:0:0:
436,136,91767,6,0,L|320:136,1,105,2|0,0:2|0:0,0:0:0:0:
224,132,92202,2,0,L|364:132,1,105,0|0,0:0|0:0,0:0:0:0:
160,244,92637,6,0,L|392:244,1,210,0|0,0:0|0:0,0:0:0:0:
264,244,93289,1,0,0:0:0:0:
96,188,93506,6,0,L|96:80,1,105,2|0,0:2|0:0,0:0:0:0:
200,84,93941,2,0,L|88:84,1,105,0|0,0:0|0:0,0:0:0:0:
264,208,94376,6,0,P|340:136|252:92,1,210,0|0,0:0|0:0,0:0:0:0:
172,84,95028,1,0,0:0:0:0:
344,300,95246,6,0,L|344:184,1,105,2|0,0:2|0:0,0:0:0:0:
240,196,95680,2,0,L|240:84,1,105,0|0,0:0|0:0,0:0:0:0:
408,48,96115,6,0,L|184:48,1,210,0|0,0:0|0:0,0:0:0:0:
304,48,96767,1,0,0:0:0:0:
136,244,96985,6,0,L|136:136,1,105,0|0,0:0|0:0,0:0:0:0:
240,140,97419,2,0,L|240:24,1,105,0|0,0:0|0:0,0:0:0:0:
72,240,97854,6,0,P|24:168|108:92,1,210,0|0,0:0|0:0,0:0:0:0:
204,92,98506,1,0,0:0:0:0:
484,88,98724,6,0,L|370:88,1,105,2|2,0:2|0:2,0:0:0:0:
272,88,99159,2,0,L|408:88,1,105,2|2,0:2|0:2,0:0:0:0:
208,244,99593,6,0,L|428:244,1,210,2|2,0:2|0:2,0:0:0:0:
312,244,100246,1,2,0:2:0:0:
140,244,100463,6,0,L|140:128,1,105,2|2,0:2|0:2,0:0:0:0:
244,140,100898,2,0,L|132:140,1,105,2|2,0:2|0:2,0:0:0:0:
312,76,101332,6,0,L|56:76,1,210,2|2,0:2|0:2,0:0:0:0:
208,72,101985,1,2,0:2:0:0:
376,208,102202,6,0,L|256:208,1,105,2|2,0:2|0:2,0:0:0:0:
376,208,102637,2,0,L|508:208,1,105,2|2,0:2|0:2,0:0:0:0:
312,272,103072,6,0,P|252:236|328:152,1,210,2|2,0:2|0:2,0:0:0:0:
424,148,103724,1,2,0:2:0:0:
256,256,103941,6,0,L|112:256,1,105,2|2,0:2|0:2,0:0:0:0:
256,256,104376,2,0,L|376:256,1,105,2|2,0:2|0:2,0:0:0:0:
192,168,104811,6,0,L|408:168,1,210,2|2,0:2|0:2,0:0:0:0:
402,168,105463,1,2,0:2:0:0:
124,268,105680,6,0,L|232:268,1,105,2|2,0:2|0:2,0:0:0:0:
336,272,106115,2,0,L|336:152,1,105,2|2,0:2|0:2,0:0:0:0:
168,172,106550,6,0,P|92:144|172:40,1,210,2|2,0:2|0:2,0:0:0:0:
228,40,107202,1,2,0:2:0:0:
392,240,107419,6,0,L|264:240,1,105,2|2,0:2|0:2,0:0:0:0:
392,240,107854,2,0,L|392:124,1,105,2|2,0:2|0:2,0:0:0:0:
224,128,108289,6,0,L|-4:128,1,210,2|2,0:2|0:2,0:0:0:0:
120,124,108941,1,2,0:2:0:0:
288,336,109159,6,0,L|288:228,1,105,2|2,0:2|0:2,0:0:0:0:
184,236,109593,2,0,L|184:120,1,105,2|2,0:2|0:2,0:0:0:0:
356,64,110028,6,0,L|112:64,1,210,2|2,0:2|0:2,0:0:0:0:
40,64,110680,1,2,0:2:0:0:
208,324,110898,6,0,L|208:200,1,105,2|2,0:2|0:2,0:0:0:0:
104,224,111332,2,0,L|104:112,1,105,2|2,0:2|0:2,0:0:0:0:
384,240,111767,6,0,L|520:240,1,105,4|0,1:2|0:0,0:0:0:0:
200,136,112202,2,0,L|92:136,1,105,4|0,1:2|0:0,0:0:0:0:
384,140,112637,6,0,L|492:140,1,105,4|2,1:1|0:2,0:0:0:0:
436,140,112963,1,2,0:2:0:0:
256,140,113180,1,2,0:2:0:0:
308,140,113288,1,0,0:0:0:0:
361,140,113397,1,2,0:2:0:0:
184,244,113506,6,0,L|64:244,1,105,2|2,1:2|0:2,0:0:0:0:
131,248,113832,1,2,0:2:0:0:
308,244,114050,2,0,L|392:244,2,52.5,2|2|2,0:2|0:2|0:2,0:0:0:0:
120,192,114376,6,0,P|96:132|140:108,1,105,2|2,1:2|0:2,0:0:0:0:
172,108,114702,1,2,0:2:0:0:
352,104,114919,1,2,0:2:0:0:
300,104,115028,1,2,0:2:0:0:
248,104,115137,1,2,0:2:0:0:
432,224,115246,6,0,P|456:168|412:140,1,105,2|2,1:2|0:2,0:0:0:0:
376,144,115572,1,2,0:2:0:0:
204,236,115680,2,0,L|80:236,1,105,2|2,1:2|1:2,0:0:0:0:
152,236,116006,1,2,0:2:0:0:
340,140,116115,6,0,P|356:76|308:52,1,105,2|2,1:2|0:2,0:0:0:0:
280,56,116441,1,2,0:2:0:0:
101,53,116659,2,0,L|101:-3,1,52.5,2|2,0:2|0:2,0:0:0:0:
153,53,116876,1,2,0:2:0:0:
337,197,116985,6,0,L|469:197,1,105,2|2,1:2|0:2,0:0:0:0:
389,197,117311,1,2,0:2:0:0:
212,196,117528,1,2,0:2:0:0:
264,196,117636,1,0,0:0:0:0:
317,196,117745,1,2,0:2:0:0:
128,168,117854,6,0,P|104:116|148:80,1,105,2|2,1:2|0:2,0:0:0:0:
184,84,118180,1,2,0:2:0:0:
365,81,118398,2,0,L|437:81,2,52.5,2|2|2,0:2|0:2|0:2,0:0:0:0:
177,349,118724,6,0,P|161:285|201:261,1,105,2|2,1:2|0:2,0:0:0:0:
237,265,119050,1,2,0:2:0:0:
413,265,119159,2,0,P|441:213|393:181,1,105,2|2,1:2|1:2,0:0:0:0:
361,185,119485,1,2,0:2:0:0:
176,100,119593,6,0,L|64:100,1,105,2|2,1:2|0:2,0:0:0:0:
71,100,119919,1,2,0:2:0:0:
248,96,120137,1,2,0:2:0:0:
195,96,120245,1,2,0:2:0:0:
143,96,120354,1,2,0:2:0:0:
328,260,120463,6,0,L|440:260,1,105,2|2,1:2|0:2,0:0:0:0:
433,260,120789,1,2,0:2:0:0:
252,260,121006,1,2,0:2:0:0:
304,260,121114,1,0,0:0:0:0:
357,260,121223,1,2,0:2:0:0:
176,200,121332,6,0,P|156:144|188:112,1,105,2|2,1:2|0:2,0:0:0:0:
236,112,121659,1,2,0:2:0:0:
56,108,121876,2,0,L|-4:108,2,52.5,2|2|2,0:2|0:2|0:2,0:0:0:0:
256,220,122202,6,0,L|368:220,1,105,2|2,1:2|0:2,0:0:0:0:
312,220,122528,1,2,0:2:0:0:
132,168,122637,2,0,L|20:168,1,105,2|2,1:2|1:2,0:0:0:0:
76,168,122963,1,2,0:2:0:0:
272,168,123072,6,0,P|292:100|248:72,1,105,2|2,1:2|0:2,0:0:0:0:
220,80,123398,1,2,0:2:0:0:
400,80,123615,2,0,L|480:80,2,52.5,2|2|2,0:2|0:2|0:2,0:0:0:0:
212,208,123941,6,0,L|100:208,1,105,2|2,1:2|0:2,0:0:0:0:
160,208,124267,1,2,0:2:0:0:
340,212,124485,1,2,0:2:0:0:
287,212,124593,1,2,0:2:0:0:
235,212,124702,1,2,0:2:0:0:
420,216,124811,6,0,P|444:156|396:128,1,105,2|2,1:2|0:2,0:0:0:0:
368,128,125137,1,2,0:2:0:0:
188,120,125354,2,0,L|112:120,2,52.5,2|2|2,0:2|0:2|0:2,0:0:0:0:
380,72,125680,6,0,L|468:72,2,70,6|6|6,1:2|1:2|1:2,0:0:0:0:
144,68,126115,1,6,1:2:0:0:
214,68,126259,1,6,1:2:0:0:
284,68,126404,1,6,1:2:0:0:
36,272,126550,6,0,L|36:136,1,105,4|2,1:1|0:2,0:0:0:0:
216,168,126984,2,0,L|76:168,1,105,2|2,1:2|0:2,0:0:0:0:
288,176,127419,6,0,L|524:176,1,210,2|2,1:2|1:2,0:0:0:0:
296,176,128071,1,2,0:2:0:0:
476,168,128289,6,0,L|476:28,1,105,2|0,1:2|0:2,0:0:0:0:
296,76,128723,2,0,L|164:76,1,105,2|0,1:2|0:2,0:0:0:0:
368,76,129158,6,0,L|484:76,1,105,2|2,1:2|0:2,0:0:0:0:
296,76,129593,1,2,1:2:0:0:
473,76,129810,1,2,1:2:0:0:
172,368,130028,6,0,L|168:224,1,105,2|2,1:2|0:2,0:0:0:0:
348,264,130463,2,0,L|352:152,1,105,2|2,1:2|0:2,0:0:0:0:
176,156,130897,6,0,P|104:120|200:64,1,210,2|2,1:2|1:2,0:0:0:0:
352,48,131550,1,2,0:2:0:0:
52,352,131767,6,0,L|36:216,1,105,2|2,1:2|0:2,0:0:0:0:
220,244,132202,2,0,L|84:244,1,105,2|2,1:2|0:2,0:0:0:0:
392,184,132636,5,2,1:2:0:0:
212,184,132854,1,2,1:2:0:0:
392,184,133071,2,0,L|392:52,1,105,2|2,1:2|0:2,0:0:0:0:
100,76,133506,6,0,L|236:76,2,105,4|2|2,1:1|0:2|1:2,0:0:0:0:
280,76,134158,1,2,0:2:0:0:
100,76,134376,6,0,P|28:128|128:188,1,210,2|2,1:2|1:2,0:0:0:0:
272,204,135028,1,2,0:2:0:0:
96,208,135245,6,0,L|96:72,1,105,2|0,1:2|0:2,0:0:0:0:
276,108,135680,2,0,L|412:108,1,105,2|0,1:2|0:2,0:0:0:0:
201,108,136115,6,0,L|77:108,1,105,2|2,1:2|0:2,0:0:0:0:
276,108,136550,1,2,1:2:0:0:
96,108,136767,1,2,1:2:0:0:
376,272,136984,5,2,1:2:0:0:
484,352,137202,2,0,L|484:236,1,105,2|2,0:2|1:2,0:0:0:0:
304,248,137636,1,2,0:2:0:0:
484,247,137854,6,0,L|232:247,1,210,2|2,1:2|1:2,0:0:0:0:
452,248,138506,1,2,0:2:0:0:
176,256,138723,6,0,L|188:140,1,105,2|0,1:2|0:2,0:0:0:0:
364,152,139158,2,0,L|376:40,1,105,2|0,1:2|0:2,0:0:0:0:
96,160,139593,6,0,L|0:160,2,70,6|4|4,1:2|1:2|1:2,0:0:0:0:
336,80,140028,1,6,1:2:0:0:
266,80,140172,1,4,1:2:0:0:
196,80,140317,1,4,1:2:0:0:
436,264,140463,6,0,L|436:148,1,105,4|2,1:1|0:2,0:0:0:0:
328,160,140897,1,2,1:2:0:0:
508,160,141115,1,2,0:2:0:0:
328,160,141332,6,0,P|256:120|348:68,1,210,2|2,1:2|1:2,0:0:0:0:
508,56,141984,1,2,0:2:0:0:
168,160,142202,6,0,L|280:160,1,105,2|0,1:2|0:2,0:0:0:0:
452,168,142636,2,0,L|452:36,1,105,2|0,1:2|0:2,0:0:0:0:
275,68,143071,6,0,L|399:68,1,105,2|2,1:2|0:2,0:0:0:0:
200,68,143506,1,2,1:2:0:0:
380,68,143723,1,2,1:2:0:0:
100,252,143941,6,0,L|216:252,1,105,2|2,1:2|0:2,0:0:0:0:
312,248,144376,1,2,1:2:0:0:
132,248,144593,1,2,0:2:0:0:
312,256,144810,6,0,P|380:204|300:140,1,210,2|2,1:2|1:2,0:0:0:0:
128,140,145463,1,2,0:2:0:0:
424,348,145680,6,0,L|424:224,1,105,2|2,1:2|0:2,0:0:0:0:
244,244,146115,2,0,L|364:244,1,105,2|2,1:2|0:2,0:0:0:0:
72,172,146550,5,2,1:2:0:0:
252,172,146767,1,2,1:2:0:0:
72,172,146984,2,0,L|72:64,1,105,2|2,1:2|0:2,0:0:0:0:
376,232,147419,6,0,L|256:232,1,105,4|2,1:1|0:2,0:0:0:0:
92,236,147854,2,0,L|92:124,1,105,2|2,1:2|0:2,0:0:0:0:
268,120,148289,6,0,P|328:160|256:256,1,210,2|2,1:2|1:2,0:0:0:0:
88,256,148941,1,2,0:2:0:0:
392,252,149158,6,0,L|392:136,1,105,2|0,1:2|0:2,0:0:0:0:
212,148,149593,2,0,L|92:148,1,105,2|0,1:2|0:2,0:0:0:0:
288,148,150028,6,0,L|392:148,1,105,2|2,1:2|0:2,0:0:0:0:
212,148,150463,1,2,1:2:0:0:
392,148,150680,1,2,1:2:0:0:
112,80,150897,6,0,L|260:80,1,105,2|2,1:2|0:2,0:0:0:0:
40,80,151332,2,0,L|40:192,1,105,2|2,1:2|0:2,0:0:0:0:
216,192,151767,6,0,P|288:124|208:76,1,210,2|2,1:2|1:2,0:0:0:0:
40,76,152419,1,2,0:2:0:0:
344,352,152636,6,0,L|344:228,1,105,6|0,1:2|0:2,0:0:0:0:
164,248,153071,2,0,L|164:136,1,105,6|0,1:2|0:2,0:0:0:0:
472,68,153506,6,0,L|328:68,1,105,4|0,1:2|0:0,0:0:0:0:
80,76,153941,2,0,L|220:76,1,105,4|0,1:2|0:0,0:0:0:0:
460,68,154376,6,0,L|336:68,1,105,4|2,1:1|0:2,0:0:0:0:
248,68,154810,1,2,1:2:0:0:
428,68,155028,1,2,0:2:0:0:
124,332,155245,6,0,L|120:212,1,105,2|0,1:2|0:2,0:0:0:0:
300,232,155680,1,2,1:2:0:0:
124,228,155897,1,2,0:2:0:0:
404,156,156115,6,0,L|276:156,1,105,2|0,1:2|0:2,0:0:0:0:
120,152,156550,2,0,L|132:44,1,105,2|0,1:2|0:2,0:0:0:0:
432,240,156984,6,0,L|196:240,1,210,2|2,1:2|1:2,0:0:0:0:
400,240,157636,1,2,1:2:0:0:
100,352,157854,6,0,L|104:240,1,105,2|2,1:2|0:2,0:0:0:0:
284,252,158289,2,0,L|392:252,1,105,2|2,1:2|0:2,0:0:0:0:
84,188,158723,6,0,L|84:68,1,105,2|0,1:2|0:2,0:0:0:0:
264,80,159158,1,2,1:2:0:0:
84,80,159376,1,2,0:2:0:0:
360,264,159593,6,0,L|236:264,1,105,2|2,1:2|0:2,0:0:0:0:
432,268,160028,2,0,L|436:144,1,105,2|2,1:2|0:2,0:0:0:0:
136,160,160463,6,0,L|24:160,1,105,2|2,1:2|1:2,0:0:0:0:
80,160,160789,1,0,0:0:0:0:
256,92,160897,2,0,L|368:92,1,105,2|2,1:2|0:2,0:0:0:0:
312,92,161223,1,0,0:0:0:0:
128,340,161332,6,0,L|4:340,1,105,4|2,1:1|0:2,0:0:0:0:
200,340,161767,1,2,1:2:0:0:
24,340,161984,1,2,0:2:0:0:
304,288,162202,6,0,L|316:176,1,105,2|0,1:2|0:2,0:0:0:0:
208,180,162636,1,2,1:2:0:0:
388,188,162854,1,2,0:2:0:0:
84,104,163071,6,0,L|188:104,1,105,2|0,1:2|0:2,0:0:0:0:
368,100,163506,2,0,L|376:220,1,105,2|0,1:2|0:2,0:0:0:0:
72,288,163941,6,0,L|320:288,1,210,2|2,1:2|1:2,0:0:0:0:
104,292,164593,1,2,1:2:0:0:
404,280,164810,6,0,L|396:148,1,105,2|2,1:2|0:2,0:0:0:0:
220,176,165245,2,0,L|100:176,1,105,2|2,1:2|0:2,0:0:0:0:
416,176,165680,6,0,L|416:68,1,105,2|0,1:2|0:2,0:0:0:0:
236,72,166115,2,0,L|348:72,1,105,2|2,1:2|0:2,0:0:0:0:
64,332,166550,5,2,1:2:0:0:
220,332,166767,1,0,0:2:0:0:
376,336,166984,2,0,L|396:220,1,105,2|0,1:2|0:2,0:0:0:0:
116,228,167419,6,0,L|28:228,2,70,6|4|4,1:2|1:2|1:2,0:0:0:0:
352,180,167854,2,0,L|444:180,2,70,6|4|4,1:2|1:2|1:2,0:0:0:0:
136,176,168289,6,0,L|8:176,1,105,4|2,1:1|0:2,0:0:0:0:
208,176,168723,1,6,1:2:0:0:
32,176,168941,1,2,0:2:0:0:
312,180,169158,6,0,L|328:76,1,105,6|0,1:2|0:2,0:0:0:0:
172,76,169593,1,6,1:2:0:0:
16,72,169810,1,2,0:2:0:0:
296,304,170028,6,0,L|424:304,1,105,6|0,1:2|0:2,0:0:0:0:
224,308,170463,2,0,L|204:192,1,105,6|0,1:2|0:2,0:0:0:0:
504,140,170897,6,0,L|392:140,1,105,6|2,1:2|0:2,0:0:0:0:
220,136,171332,1,6,1:2:0:0:
396,132,171550,1,2,1:2:0:0:
112,360,171767,6,0,L|108:216,1,105,6|2,1:2|0:2,0:0:0:0:
288,256,172202,2,0,L|432:252,1,105,6|2,1:2|0:2,0:0:0:0:
96,188,172636,6,0,L|96:80,1,105,6|0,1:2|0:2,0:0:0:0:
276,84,173071,2,0,L|144:84,1,105,6|2,1:2|0:2,0:0:0:0:
452,368,173506,6,0,L|456:256,1,105,6|2,1:2|0:2,0:0:0:0:
276,264,173941,1,6,1:2:0:0:
452,264,174158,1,2,0:2:0:0:
144,208,174376,6,0,P|124:148|160:120,1,105,6|2,1:2|1:2,0:0:0:0:
204,124,174702,1,0,0:0:0:0:
388,128,174810,2,0,P|408:68|372:40,1,105,6|2,1:2|0:2,0:0:0:0:
328,44,175136,1,0,0:0:0:0:
152,360,175245,6,0,L|144:232,1,105,0|2,1:1|0:2,0:0:0:0:
252,244,175680,1,6,1:2:0:0:
72,248,175897,1,2,0:2:0:0:
376,184,176115,6,0,L|488:184,1,105,6|0,1:2|0:2,0:0:0:0:
304,184,176550,1,6,1:2:0:0:
480,188,176767,1,2,0:2:0:0:
184,364,176984,6,0,L|184:256,1,105,6|0,1:2|0:2,0:0:0:0:
340,268,177419,1,6,1:2:0:0:
496,264,177636,1,0,0:2:0:0:
212,184,177854,6,0,L|100:184,1,105,6|2,1:2|0:2,0:0:0:0:
284,184,178289,1,6,1:2:0:0:
108,184,178506,1,2,1:2:0:0:
392,180,178723,6,0,L|408:72,1,105,6|2,1:2|0:2,0:0:0:0:
228,72,179158,1,6,1:2:0:0:
404,72,179376,1,2,0:2:0:0:
124,256,179593,6,0,L|252:256,1,105,6|0,1:2|0:2,0:0:0:0:
408,260,180028,2,0,L|416:136,1,105,6|2,1:2|0:2,0:0:0:0:
112,152,180463,6,0,L|236:152,1,105,2|0,1:2|0:2,0:0:0:0:
40,148,180897,2,0,L|40:28,1,105,6|0,1:2|0:2,0:0:0:0:
340,308,181332,6,0,L|472:308,1,105,4|0,1:2|0:0,0:0:0:0:
164,240,181767,2,0,L|56:240,1,105,4|0,1:2|0:0,0:0:0:0:
384,232,182202,6,0,L|384:128,1,105,4|2,1:1|0:2,0:0:0:0:
276,128,182636,2,0,L|432:128,1,105,2|2,0:2|0:2,0:0:0:0:
276,128,183071,6,0,P|216:92|296:8,1,210,2|2,0:2|0:2,0:0:0:0:
384,40,183723,1,2,0:2:0:0:
204,364,183941,6,0,L|200:248,1,105,2|2,0:2|0:2,0:0:0:0:
304,260,184375,2,0,L|308:152,1,105,2|2,0:2|0:2,0:0:0:0:
200,148,184810,6,0,L|428:148,1,210,2|2,0:2|0:2,0:0:0:0:
304,148,185462,1,2,0:2:0:0:
124,160,185680,6,0,L|252:160,1,105,2|2,0:2|0:2,0:0:0:0:
124,160,186115,2,0,L|120:52,1,105,2|2,0:2|0:2,0:0:0:0:
228,56,186549,6,0,L|12:56,1,210,2|2,0:2|0:2,0:0:0:0:
124,56,187202,1,2,0:2:0:0:
300,364,187419,6,0,L|292:248,1,105,2|2,0:2|0:2,0:0:0:0:
184,256,187854,2,0,L|192:144,1,105,2|2,0:2|0:2,0:0:0:0:
372,152,188288,6,0,P|432:120|344:36,1,210,2|2,0:2|0:2,0:0:0:0:
264,28,188941,1,2,0:2:0:0:
84,32,189158,6,0,L|92:160,1,105,2|2,0:2|0:2,0:0:0:0:
196,140,189593,2,0,L|84:140,1,105,2|2,0:2|0:2,0:0:0:0:
196,140,190028,6,0,L|432:140,1,210,2|2,0:2|0:2,0:0:0:0:
300,136,190680,1,2,0:2:0:0:
480,128,190897,6,0,L|472:252,1,105,2|2,0:2|0:2,0:0:0:0:
368,229,191332,2,0,L|508:233,1,105,2|2,0:2|0:2,0:0:0:0:
368,229,191767,6,0,L|136:228,1,210,2|2,0:2|0:2,0:0:0:0:
264,228,192419,1,2,0:2:0:0:
84,224,192636,6,0,L|80:112,1,105,2|2,0:2|0:2,0:0:0:0:
184,120,193071,2,0,L|308:120,1,105,2|2,0:2|0:2,0:0:0:0:
184,224,193506,6,0,P|104:184|176:108,1,210,2|2,0:2|0:2,0:0:0:0:
264,104,194158,1,2,0:2:0:0:
444,104,194375,6,0,L|328:104,1,105,2|2,0:2|0:2,0:0:0:0:
444,104,194810,2,0,L|448:220,1,105,2|2,0:2|0:2,0:0:0:0:
268,220,195245,6,0,L|184:220,2,70,2|0|0,0:2|0:0|0:0,0:0:0:0:
340,220,195680,2,0,L|412:220,2,70,2|0|0,0:2|0:0|0:0,0:0:0:0:
116,316,196115,5,6,1:1:0:0:
116,236,196332,1,0,0:0:0:0:
220,236,196549,1,0,0:0:0:0:
220,132,196767,1,0,0:0:0:0:
116,132,196984,1,0,0:0:0:0:
328,132,197419,1,0,0:0:0:0:
432,132,197636,1,0,0:0:0:0:
264,280,197854,5,2,0:2:0:0:
160,280,198071,1,0,0:0:0:0:
160,280,198288,1,0,0:0:0:0:
264,280,198506,1,0,0:0:0:0:
368,280,198723,1,0,0:0:0:0:
156,276,199158,1,0,0:0:0:0:
156,172,199375,1,0,0:0:0:0:
324,92,199593,5,2,0:2:0:0:
220,92,199810,1,0,0:0:0:0:
116,92,200028,1,0,0:0:0:0:
116,196,200245,1,0,0:0:0:0:
220,196,200462,1,0,0:0:0:0:
8,196,200897,1,0,0:0:0:0:
112,196,201115,1,0,0:0:0:0:
284,192,201332,5,0,0:0:0:0:
284,88,201549,1,0,0:0:0:0:
180,92,201767,1,0,0:0:0:0:
284,92,201984,1,0,0:0:0:0:
388,92,202202,1,0,0:0:0:0:
180,92,202636,1,0,0:0:0:0:
76,96,202854,1,0,0:0:0:0:
244,332,203071,5,2,0:2:0:0:
348,332,203288,1,0,0:0:0:0:
348,228,203506,1,0,0:0:0:0:
244,228,203723,1,0,0:0:0:0:
140,228,203941,1,0,0:0:0:0:
348,228,204375,1,0,0:0:0:0:
452,228,204593,1,0,0:0:0:0:
284,188,204810,5,2,0:2:0:0:
284,84,205028,1,0,0:0:0:0:
388,84,205245,1,0,0:0:0:0:
392,188,205462,1,0,0:0:0:0:
288,184,205680,1,0,0:0:0:0:
500,188,206115,1,0,0:0:0:0:
392,188,206332,1,0,0:0:0:0:
220,360,206549,5,2,0:2:0:0:
220,256,206767,1,0,0:0:0:0:
324,256,206984,1,0,0:0:0:0:
220,256,207202,1,0,0:0:0:0:
116,256,207419,1,0,0:0:0:0:
328,252,207854,1,0,0:0:0:0:
432,248,208071,1,0,0:0:0:0:
264,184,208288,5,0,0:0:0:0:
160,184,208506,1,0,0:0:0:0:
156,80,208723,1,0,0:0:0:0:
260,80,208941,1,0,0:0:0:0:
424,320,209158,2,0,P|484:240|300:88,1,367.5,0|0,0:0|0:0,0:0:0:0:
116,88,210028,5,4,1:1:0:0:
256,192,210245,12,0,216984,0:0:0:0:
