osu file format v14

[General]
AudioFilename: audio.mp3
AudioLeadIn: 0
PreviewTime: 56985
Countdown: 0
SampleSet: Soft
StackLeniency: 0.7
Mode: 2
LetterboxInBreaks: 0
WidescreenStoryboard: 1

[Editor]
Bookmarks: 36115,56985,140474,154387,168300,196159,210072
DistanceSpacing: 1
BeatDivisor: 4
GridSize: 4
TimelineZoom: 1.5

[Metadata]
Title:Bad Apple!! feat. nomico
TitleUnicode:Bad Apple!! feat. nomico
Artist:Masayoshi Minoshima
ArtistUnicode:Masayoshi Minoshima
Creator:Kukkai
Version:Platter
Source:東方幻想郷 ~ Lotus Land Story
Tags:東方Project Touhou Project Elly Stage 3 Alstroemeria Records Lovelight video game vgm japanese jpop j-pop pop zun のみこ マサヨシ ミノシマ th04 太田 順也 上海アリス幻樂団 Team Shanghai Alice Electronic
BeatmapID:4042235
BeatmapSetID:1952041

[Difficulty]
HPDrainRate:3
CircleSize:3
OverallDifficulty:7
ApproachRate:7
SliderMultiplier:1.8
SliderTickRate:1

[Events]
//Background and Video events
0,0,"bggggg.jpg",0,0
Video,0,"vdo.mp4"
//Break Periods
2,85011,97824
//Storyboard Layer 0 (Background)
//Storyboard Layer 1 (Fail)
//Storyboard Layer 2 (Pass)
//Storyboard Layer 3 (Foreground)
//Storyboard Layer 4 (Overlay)
//Storyboard Sound Samples

[TimingPoints]
1333,434.782608695652,4,2,1,60,1,0
15246,-100,4,2,1,70,0,0
29159,-100,4,2,1,70,0,0
43072,-100,4,2,1,75,0,0
70898,-100,4,2,1,80,0,1
84811,-100,4,2,1,50,0,0
98724,-100,4,2,1,60,0,0
111767,-100,4,2,1,70,0,0
112637,-100,4,2,1,80,0,0
126550,-100,4,2,1,75,0,0
168289,-100,4,2,1,80,0,1
182202,-100,4,2,1,70,0,0
196159,-100,4,2,1,60,0,0

[Colours]
Combo1 : 85,85,85
Combo2 : 191,191,191

[HitObjects]
300,356,1333,6,0,L|300:236,1,90,4|0,1:1|0:0,0:0:0:0:
212,264,1767,2,0,L|212:144,1,90,0|0,1:2|0:0,0:0:0:0:
124,184,2202,6,0,L|124:56,1,90,0|0,1:2|0:0,0:0:0:0:
304,96,2637,2,0,L|372:96,2,45,0|0|0,1:2|1:2|1:2,0:0:0:0:
260,96,2963,1,0,1:2:0:0:
216,96,3072,6,0,L|116:96,1,90,0|0,1:2|0:0,0:0:0:0:
216,96,3506,2,0,L|340:96,1,90,0|0,1:2|0:0,0:0:0:0:
396,96,3941,6,0,L|396:208,1,90,0|0,1:2|0:0,0:0:0:0:
208,308,4376,2,0,L|208:208,1,90,0|0,1:2|1:2,0:0:0:0:
396,96,4811,6,0,L|272:96,1,90,0|0,1:2|0:0,0:0:0:0:
216,100,5246,2,0,L|216:220,1,90,0|0,1:2|0:0,0:0:0:0:
304,188,5680,6,0,L|304:288,1,90,0|0,1:2|0:0,0:0:0:0:
120,280,6115,2,0,L|52:280,2,45,0|0|0,1:2|1:2|1:2,0:0:0:0:
164,280,6441,1,0,1:2:0:0:
208,280,6550,6,0,L|316:280,1,90,0|0,1:2|0:0,0:0:0:0:
208,280,6985,2,0,L|208:148,1,90,0|0,1:2|0:0,0:0:0:0:
296,196,7419,6,0,L|296:80,1,90,0|0,1:2|0:0,0:0:0:0:
112,116,7854,2,0,L|8:116,1,90,0|0,1:2|1:2,0:0:0:0:
204,116,8289,6,0,L|304:116,1,90,0|0,1:2|0:0,0:0:0:0:
204,116,8724,2,0,L|204:216,1,90,0|0,1:2|0:0,0:0:0:0:
296,208,9159,6,0,L|296:112,1,90,0|0,1:2|0:0,0:0:0:0:
120,112,9593,2,0,L|64:112,1,45,0|0,1:2|1:2,0:0:0:0:
75,112,9811,1,0,1:2:0:0:
120,112,9919,1,0,1:2:0:0:
164,112,10028,6,0,L|276:112,1,90,0|0,1:2|0:0,0:0:0:0:
344,112,10463,2,0,L|344:228,1,90,0|0,1:2|0:0,0:0:0:0:
252,204,10898,6,0,L|144:204,1,90,0|0,1:2|0:0,0:0:0:0:
344,344,11332,2,0,L|344:240,1,90,0|0,1:2|1:2,0:0:0:0:
164,252,11767,6,0,L|164:132,1,90,0|0,1:2|0:0,0:0:0:0:
256,156,12202,2,0,L|364:156,1,90,0|0,1:2|0:0,0:0:0:0:
256,156,12637,6,0,L|136:156,1,90,0|0,1:2|0:0,0:0:0:0:
352,84,13072,1,0,1:2:0:0:
396,84,13180,1,0,1:2:0:0:
396,84,13289,1,0,1:2:0:0:
352,84,13398,1,0,1:2:0:0:
308,84,13506,6,0,L|192:84,1,90,0|0,1:2|0:0,0:0:0:0:
308,84,13941,2,0,L|308:192,1,90,0|0,1:2|0:0,0:0:0:0:
216,172,14376,6,0,L|104:172,1,90,0|0,1:2|0:0,0:0:0:0:
312,88,14811,1,4,1:2:0:0:
152,200,15246,6,0,L|-8:200,2,135,4|2|2,1:1|0:2|0:2,0:0:0:0:
332,196,16115,2,0,L|488:196,2,135,2|2|2,1:2|0:2|0:2,0:0:0:0:
152,200,16985,6,0,P|112:152|176:104,1,135,2|2,1:2|0:2,0:0:0:0:
284,100,17637,1,2,0:2:0:0:
104,268,17854,6,0,L|104:152,1,90,2|2,1:2|0:2,0:0:0:0:
194,178,18289,2,0,L|90:178,1,90,2|2,1:2|1:2,0:0:0:0:
404,180,18724,6,0,P|428:132|384:60,1,135,2|2,1:2|0:2,0:0:0:0:
260,64,19376,1,2,0:2:0:0:
84,104,19593,6,0,L|256:104,2,135,2|2|2,1:2|0:2|0:2,0:0:0:0:
268,160,20463,6,0,L|424:160,2,135,2|2|2,1:2|0:2|0:2,0:0:0:0:
88,104,21332,6,0,L|196:104,1,90,2|2,1:2|0:2,0:0:0:0:
88,104,21767,2,0,L|88:228,1,90,2|2,1:2|1:2,0:0:0:0:
384,268,22202,6,0,L|224:268,2,135,2|2|2,1:2|0:2|0:2,0:0:0:0:
200,200,23072,2,0,P|160:152|224:104,1,135,2|2,1:2|0:2,0:0:0:0:
332,108,23724,1,2,0:2:0:0:
152,56,23941,6,0,L|8:56,2,135,2|2|2,1:2|0:2|0:2,0:0:0:0:
336,224,24811,2,0,L|440:224,1,90,2|2,1:2|0:2,0:0:0:0:
336,224,25246,2,0,L|448:224,1,90,2|2,1:2|1:2,0:0:0:0:
128,196,25680,6,0,P|80:136|140:88,1,135,2|2,1:2|0:2,0:0:0:0:
240,96,26332,1,2,0:2:0:0:
424,192,26550,2,0,L|252:192,2,135,2|2|2,1:2|0:2|0:2,0:0:0:0:
240,256,27419,6,0,L|64:256,2,135,2|2|2,1:2|0:2|0:2,0:0:0:0:
420,260,28289,1,6,1:2:0:0:
475,243,28433,1,6,1:2:0:0:
498,190,28578,1,6,1:2:0:0:
471,139,28723,1,6,1:2:0:0:
414,128,28868,1,6,1:2:0:0:
356,128,29014,1,6,1:2:0:0:
120,124,29159,5,4,1:1:0:0:
32,124,29376,1,2,0:2:0:0:
32,212,29593,1,2,1:2:0:0:
124,216,29811,1,2,0:2:0:0:
296,148,30028,6,0,L|100:148,1,180,2|2,1:2|1:2,0:0:0:0:
116,148,30680,1,2,0:2:0:0:
300,72,30898,6,0,L|480:72,2,180,2|2|2,1:2|1:2|1:2,0:0:0:0:
208,72,31985,1,2,0:2:0:0:
388,76,32202,2,0,L|388:184,1,90,2|2,1:2|1:2,0:0:0:0:
204,352,32637,6,0,L|204:256,1,90,2|2,1:2|0:2,0:0:0:0:
296,264,33072,2,0,L|396:264,1,90,2|2,1:2|0:2,0:0:0:0:
296,264,33506,6,0,L|88:264,1,180,2|2,1:2|1:2,0:0:0:0:
208,264,34159,1,2,0:2:0:0:
384,268,34376,6,0,L|384:168,1,90,2|2,1:2|0:2,0:0:0:0:
292,176,34811,2,0,L|188:176,1,90,2|2,1:2|0:2,0:0:0:0:
384,184,35246,6,0,L|384:88,1,90,2|2,1:2|1:2,0:0:0:0:
204,96,35680,2,0,L|204:204,1,90,2|2,1:2|0:2,0:0:0:0:
488,360,36115,6,0,L|488:232,1,90,4|2,1:1|0:2,0:0:0:0:
398,270,36550,2,0,L|518:270,1,90,2|2,1:2|0:2,0:0:0:0:
398,270,36985,6,0,L|190:270,1,180,2|2,1:2|1:2,0:0:0:0:
128,272,37637,1,2,0:2:0:0:
308,268,37854,6,0,L|108:268,2,180,2|2|2,1:2|1:2|1:2,0:0:0:0:
400,268,38941,1,2,0:2:0:0:
220,268,39159,2,0,L|220:168,1,90,2|2,1:2|1:2,0:0:0:0:
400,178,39593,6,0,L|400:294,1,90,2|2,1:2|0:2,0:0:0:0:
308,270,40028,2,0,L|412:270,1,90,2|2,1:2|0:2,0:0:0:0:
308,270,40463,6,0,L|88:270,1,180,2|2,1:2|1:2,0:0:0:0:
220,270,41115,1,2,0:2:0:0:
400,276,41332,6,0,L|400:176,1,90,2|0,1:2|0:2,0:0:0:0:
220,180,41767,2,0,L|92:180,1,90,2|0,1:2|0:2,0:0:0:0:
312,180,42202,5,6,1:2:0:0:
370,178,42346,1,4,1:2:0:0:
411,136,42491,1,4,1:2:0:0:
412,78,42636,1,6,1:2:0:0:
371,35,42781,1,4,1:2:0:0:
313,33,42926,1,4,1:2:0:0:
92,268,43072,6,0,L|92:172,1,90,4|2,1:1|0:2,0:0:0:0:
180,184,43506,1,2,1:2:0:0:
272,184,43724,1,2,0:2:0:0:
180,184,43941,6,0,P|120:152|200:96,1,180,2|2,1:2|1:2,0:0:0:0:
268,88,44593,1,2,0:2:0:0:
444,32,44811,6,0,L|232:32,2,180,2|2|2,1:2|1:2|1:2,0:0:0:0:
352,32,45898,1,2,0:2:0:0:
172,296,46115,2,0,L|172:192,1,90,2|2,1:2|1:2,0:0:0:0:
352,208,46550,6,0,L|448:208,1,90,2|2,1:2|0:2,0:0:0:0:
352,208,46985,2,0,L|240:208,1,90,2|2,1:2|0:2,0:0:0:0:
352,208,47419,6,0,P|412:144|340:100,1,180,2|2,1:2|1:2,0:0:0:0:
264,100,48072,1,2,0:2:0:0:
84,308,48289,6,0,L|84:200,1,90,2|2,1:2|0:2,0:0:0:0:
176,220,48724,2,0,L|76:220,1,90,2|2,1:2|0:2,0:0:0:0:
268,220,49159,6,0,L|364:220,1,90,2|2,1:2|1:2,0:0:0:0:
176,172,49593,2,0,L|176:76,1,90,2|2,1:2|0:2,0:0:0:0:
468,240,50028,6,0,L|360:240,1,90,4|2,1:1|0:2,0:0:0:0:
288,240,50463,2,0,L|288:136,1,90,2|2,1:2|0:2,0:0:0:0:
376,160,50898,6,0,L|164:160,1,180,2|2,1:2|1:2,0:0:0:0:
288,160,51550,1,2,0:2:0:0:
108,100,51767,6,0,L|300:100,2,180,2|2|2,1:2|1:2|1:2,0:0:0:0:
108,100,52854,1,2,0:2:0:0:
288,256,53072,2,0,L|384:256,1,90,2|2,1:2|1:2,0:0:0:0:
196,200,53506,5,2,1:2:0:0:
104,200,53724,1,2,0:2:0:0:
104,200,53941,1,2,1:2:0:0:
196,200,54159,1,2,0:2:0:0:
284,200,54376,6,0,L|92:200,1,180,2|2,1:2|1:2,0:0:0:0:
196,196,55028,1,2,0:2:0:0:
480,360,55246,6,0,L|480:268,1,90,6|0,1:2|0:2,0:0:0:0:
308,280,55680,2,0,L|308:168,1,90,6|0,1:2|0:2,0:0:0:0:
136,184,56115,2,0,L|136:72,1,90,4|0,1:2|0:0,0:0:0:0:
308,104,56550,2,0,L|408:104,1,90,4|0,1:2|0:0,0:0:0:0:
100,248,56985,6,0,L|100:148,1,90,4|2,1:1|0:2,0:0:0:0:
192,156,57419,2,0,L|296:156,1,90,2|2,1:2|0:2,0:0:0:0:
100,352,57854,6,0,P|40:312|116:256,1,180,2|2,1:2|1:2,0:0:0:0:
188,252,58506,1,2,0:2:0:0:
372,256,58724,6,0,L|372:160,1,90,2|0,1:2|0:2,0:0:0:0:
280,168,59159,2,0,L|184:168,1,90,2|0,1:2|0:2,0:0:0:0:
372,172,59593,6,0,P|424:128|340:68,1,180,2|2,1:2|1:2,0:0:0:0:
224,68,60246,1,2,1:2:0:0:
88,256,60463,6,0,L|88:152,1,90,2|2,1:2|0:2,0:0:0:0:
178,166,60898,2,0,L|70:166,1,90,2|2,1:2|0:2,0:0:0:0:
268,168,61332,6,0,P|312:136|244:52,1,180,2|2,1:2|1:2,0:0:0:0:
164,48,61985,1,2,0:2:0:0:
344,52,62202,5,2,1:2:0:0:
432,52,62419,1,2,0:2:0:0:
432,52,62637,1,2,1:2:0:0:
344,52,62854,1,2,0:2:0:0:
160,336,63072,6,0,L|160:240,1,90,2|2,1:2|1:2,0:0:0:0:
344,52,63506,2,0,L|344:156,1,90,2|2,1:2|0:2,0:0:0:0:
48,236,63941,6,0,L|152:236,1,90,4|2,1:1|0:2,0:0:0:0:
228,236,64376,2,0,L|104:236,1,90,2|2,1:2|0:2,0:0:0:0:
320,240,64811,6,0,P|360:200|288:116,1,180,2|2,1:2|1:2,0:0:0:0:
208,120,65463,1,2,0:2:0:0:
28,68,65680,6,0,L|144:68,1,90,2|0,1:2|0:2,0:0:0:0:
28,68,66115,2,0,L|28:176,1,90,2|0,1:2|0:2,0:0:0:0:
208,312,66550,6,0,L|16:312,1,180,2|2,1:2|1:2,0:0:0:0:
164,240,67202,1,2,1:2:0:0:
300,236,67419,6,0,L|300:144,1,90,2|2,1:2|0:2,0:0:0:0:
208,144,67854,2,0,L|208:32,1,90,2|2,1:2|0:2,0:0:0:0:
392,64,68289,6,0,P|448:100|376:176,1,180,2|2,1:2|1:2,0:0:0:0:
308,180,68941,1,2,0:2:0:0:
136,272,69159,6,0,L|236:272,1,90,2|0,1:2|0:2,0:0:0:0:
136,272,69593,2,0,L|36:272,1,90,2|0,1:2|0:2,0:0:0:0:
228,192,70028,6,0,L|304:192,2,60,6|4|4,1:2|1:2|1:2,0:0:0:0:
168,192,70463,2,0,L|108:192,2,60,6|4|4,1:2|1:2|1:2,0:0:0:0:
380,320,70898,6,0,L|380:224,1,90,4|2,1:1|0:2,0:0:0:0:
200,232,71332,2,0,L|88:232,1,90,6|2,1:2|0:2,0:0:0:0:
296,120,71767,6,0,L|90:120,1,180,6|6,1:2|1:2,0:0:0:0:
26,120,72419,1,2,0:2:0:0:
328,328,72637,6,0,L|328:220,1,90,6|0,1:2|0:2,0:0:0:0:
148,240,73072,2,0,L|272:240,1,90,6|0,1:2|0:2,0:0:0:0:
60,240,73506,6,0,P|16:208|76:116,1,180,6|6,1:2|1:2,0:0:0:0:
156,116,74159,1,2,1:2:0:0:
448,360,74376,6,0,L|448:248,1,90,6|2,1:2|0:2,0:0:0:0:
268,272,74811,2,0,L|172:272,1,90,6|2,1:2|0:2,0:0:0:0:
360,276,75246,6,0,P|424:248|384:152,1,180,6|6,1:2|1:2,0:0:0:0:
308,164,75898,1,2,0:2:0:0:
16,160,76115,6,0,L|16:56,1,90,6|2,1:2|0:2,0:0:0:0:
196,72,76550,2,0,L|80:72,1,90,6|2,1:2|0:2,0:0:0:0:
288,72,76985,6,0,L|288:168,1,90,6|2,1:2|1:2,0:0:0:0:
192,160,77419,2,0,L|96:160,1,90,6|2,1:2|0:2,0:0:0:0:
400,268,77854,6,0,L|504:268,1,90,4|2,1:2|0:2,0:0:0:0:
308,264,78289,2,0,L|308:140,1,90,6|2,1:2|0:2,0:0:0:0:
488,180,78724,6,0,L|280:180,1,180,6|6,1:2|1:2,0:0:0:0:
396,180,79376,1,2,0:2:0:0:
108,184,79593,6,0,L|108:84,1,90,6|0,1:2|0:2,0:0:0:0:
288,100,80028,2,0,L|288:220,1,90,6|0,1:2|0:2,0:0:0:0:
108,188,80463,6,0,L|304:188,1,180,6|6,1:2|1:2,0:0:0:0:
200,188,81115,1,2,1:2:0:0:
484,188,81332,6,0,L|484:80,1,90,6|2,1:2|0:2,0:0:0:0:
304,96,81767,2,0,L|404:96,1,90,6|2,1:2|0:2,0:0:0:0:
212,92,82202,6,0,P|152:144|224:200,1,180,6|6,1:2|1:2,0:0:0:0:
300,200,82854,1,2,0:2:0:0:
16,280,83072,6,0,L|16:176,1,90,6|0,1:2|0:2,0:0:0:0:
196,192,83506,2,0,L|296:192,1,90,6|0,1:2|0:2,0:0:0:0:
104,196,83941,5,4,1:2:0:0:
54,163,84085,1,4,1:2:0:0:
33,108,84230,1,4,1:2:0:0:
47,51,84375,1,4,1:2:0:0:
93,14,84520,1,4,1:2:0:0:
152,10,84665,1,4,1:2:0:0:
380,304,84811,5,4,1:1:0:0:
168,328,98724,6,0,L|168:228,1,90,2|2,0:2|0:2,0:0:0:0:
260,240,99159,2,0,L|360:240,1,90,2|2,0:2|0:2,0:0:0:0:
260,240,99593,6,0,L|64:240,1,180,2|2,0:2|0:2,0:0:0:0:
172,236,100246,1,2,0:2:0:0:
352,168,100463,6,0,L|448:168,2,90,2|2|2,0:2|0:2|0:2,0:0:0:0:
260,168,101115,1,2,0:2:0:0:
172,168,101332,6,0,L|384:168,1,180,2|2,0:2|0:2,0:0:0:0:
352,168,101985,1,2,0:2:0:0:
172,336,102202,6,0,L|172:232,1,90,2|2,0:2|0:2,0:0:0:0:
260,256,102637,2,0,L|260:148,1,90,2|2,0:2|0:2,0:0:0:0:
172,160,103072,6,0,P|112:136|192:80,1,180,2|2,0:2|0:2,0:0:0:0:
256,64,103724,1,2,0:2:0:0:
436,224,103941,6,0,L|332:224,1,90,2|2,0:2|0:2,0:0:0:0:
256,228,104376,2,0,L|256:120,1,90,2|2,0:2|0:2,0:0:0:0:
348,136,104811,6,0,P|408:100|340:36,1,180,2|2,0:2|0:2,0:0:0:0:
260,32,105463,1,2,0:2:0:0:
80,256,105680,6,0,L|184:256,1,90,2|2,0:2|0:2,0:0:0:0:
260,252,106115,2,0,L|148:252,1,90,2|2,0:2|0:2,0:0:0:0:
260,252,106550,6,0,L|456:252,1,180,2|2,0:2|0:2,0:0:0:0:
348,248,107202,1,2,0:2:0:0:
168,244,107419,6,0,L|168:140,1,90,2|2,0:2|0:2,0:0:0:0:
260,152,107854,2,0,L|384:152,1,90,2|2,0:2|0:2,0:0:0:0:
260,152,108289,6,0,L|40:152,1,180,2|2,0:2|0:2,0:0:0:0:
172,152,108941,1,2,0:2:0:0:
360,312,109159,5,2,0:2:0:0:
448,312,109376,1,2,0:2:0:0:
448,312,109593,1,2,0:2:0:0:
360,312,109811,1,2,0:2:0:0:
272,312,110028,6,0,L|472:312,1,180,2|2,0:2|0:2,0:0:0:0:
360,308,110680,1,2,0:2:0:0:
180,240,110898,6,0,L|180:144,1,90,2|2,0:2|0:2,0:0:0:0:
268,152,111332,2,0,L|368:152,1,90,2|2,0:2|0:2,0:0:0:0:
176,332,111767,6,0,L|176:224,1,90,4|0,1:2|0:0,0:0:0:0:
464,184,112202,2,0,L|356:184,1,90,4|0,1:2|0:0,0:0:0:0:
68,160,112637,6,0,L|228:160,2,135,4|2|2,1:1|0:2|0:2,0:0:0:0:
248,160,113506,2,0,L|416:160,2,135,2|2|2,1:2|0:2|0:2,0:0:0:0:
68,164,114376,6,0,L|244:164,2,135,2|2|2,1:2|0:2|0:2,0:0:0:0:
248,164,115246,2,0,L|248:276,1,90,2|2,1:2|0:2,0:0:0:0:
68,264,115680,2,0,L|68:172,1,90,2|2,1:2|1:2,0:0:0:0:
368,256,116115,6,0,L|512:256,2,135,2|2|2,1:2|0:2|0:2,0:0:0:0:
188,252,116985,2,0,L|36:252,2,135,2|2|2,1:2|0:2|0:2,0:0:0:0:
368,256,117854,6,0,L|196:256,2,135,2|2|2,1:2|0:2|0:2,0:0:0:0:
188,256,118724,6,0,L|188:160,1,90,2|2,1:2|0:2,0:0:0:0:
368,172,119159,2,0,L|368:72,1,90,2|2,1:2|1:2,0:0:0:0:
60,244,119593,6,0,P|44:148|92:128,1,135,2|2,1:2|0:2,0:0:0:0:
200,136,120246,1,2,0:2:0:0:
380,132,120463,2,0,P|416:176|352:252,1,135,2|2,1:2|0:2,0:0:0:0:
252,252,121115,1,2,0:2:0:0:
72,252,121332,6,0,L|244:252,2,135,2|2|2,1:2|0:2|0:2,0:0:0:0:
252,252,122202,2,0,L|364:252,1,90,2|2,1:2|0:2,0:0:0:0:
160,252,122637,2,0,L|160:156,1,90,2|2,1:2|1:2,0:0:0:0:
456,160,123072,6,0,P|472:112|408:56,1,135,2|2,1:2|0:2,0:0:0:0:
288,60,123724,1,2,0:2:0:0:
108,56,123941,2,0,L|272:56,2,135,2|2|2,1:2|0:2|0:2,0:0:0:0:
288,60,124811,6,0,L|456:60,2,135,2|2|2,1:2|0:2|0:2,0:0:0:0:
108,64,125680,2,0,L|108:148,1,60,6|6,1:2|1:2,0:0:0:0:
168,124,125970,1,6,1:2:0:0:
228,124,126115,1,6,1:2:0:0:
288,128,126260,2,0,L|288:216,1,60,6|6,1:2|1:2,0:0:0:0:
64,348,126550,6,0,L|64:248,1,90,4|2,1:1|0:2,0:0:0:0:
152,260,126984,2,0,L|52:260,1,90,2|2,1:2|0:2,0:0:0:0:
244,192,127419,6,0,L|432:192,1,180,2|2,1:2|1:2,0:0:0:0:
332,192,128071,1,2,0:2:0:0:
152,156,128289,6,0,L|364:156,2,180,2|2|2,1:2|1:2|1:2,0:0:0:0:
156,64,129376,1,2,0:2:0:0:
336,68,129593,2,0,L|336:176,1,90,2|2,1:2|1:2,0:0:0:0:
44,332,130028,6,0,L|160:332,1,90,2|2,1:2|0:2,0:0:0:0:
224,328,130463,2,0,L|116:328,1,90,2|2,1:2|0:2,0:0:0:0:
316,280,130897,6,0,P|368:236|296:168,1,180,2|2,1:2|1:2,0:0:0:0:
216,164,131550,1,2,0:2:0:0:
36,168,131767,6,0,L|36:60,1,90,2|2,1:2|0:2,0:0:0:0:
128,76,132202,2,0,L|20:76,1,90,2|2,1:2|0:2,0:0:0:0:
220,76,132636,6,0,L|320:76,1,90,2|2,1:2|1:2,0:0:0:0:
132,260,133071,2,0,L|132:152,1,90,2|2,1:2|0:2,0:0:0:0:
424,264,133506,6,0,L|424:168,1,90,4|2,1:1|0:2,0:0:0:0:
332,168,133941,2,0,L|236:168,1,90,2|2,1:2|0:2,0:0:0:0:
424,168,134376,6,0,P|468:104|384:40,1,180,2|2,1:2|1:2,0:0:0:0:
316,40,135028,1,2,0:2:0:0:
136,236,135245,6,0,L|332:236,2,180,2|2|2,1:2|1:2|1:2,0:0:0:0:
228,236,136332,1,2,0:2:0:0:
412,232,136550,2,0,L|412:124,1,90,2|2,1:2|1:2,0:0:0:0:
228,236,136984,5,2,1:2:0:0:
140,240,137201,1,2,0:2:0:0:
140,240,137418,1,2,1:2:0:0:
228,236,137636,1,2,0:2:0:0:
412,136,137854,6,0,L|228:136,1,180,2|2,1:2|1:2,0:0:0:0:
140,132,138506,1,2,0:2:0:0:
316,352,138723,6,0,L|316:252,1,90,2|0,1:2|0:2,0:0:0:0:
224,268,139158,2,0,L|224:144,1,90,2|0,1:2|0:2,0:0:0:0:
408,184,139593,1,6,1:2:0:0:
460,158,139737,1,4,1:2:0:0:
484,104,139882,1,4,1:2:0:0:
466,48,140027,1,6,1:2:0:0:
417,17,140172,1,4,1:2:0:0:
359,25,140317,1,4,1:2:0:0:
148,360,140463,6,0,L|148:264,1,90,4|2,1:1|0:2,0:0:0:0:
236,272,140897,2,0,L|136:268,1,90,2|2,1:2|0:2,0:0:0:0:
328,188,141332,6,0,L|112:188,1,180,2|2,1:2|1:2,0:0:0:0:
240,188,141984,1,2,0:2:0:0:
60,124,142202,6,0,L|272:124,2,180,2|2|2,1:2|1:2|1:2,0:0:0:0:
152,124,143289,1,2,0:2:0:0:
336,128,143506,2,0,L|336:28,1,90,2|2,1:2|1:2,0:0:0:0:
40,296,143941,6,0,L|40:200,1,90,2|2,1:2|0:2,0:0:0:0:
132,212,144376,2,0,L|32:212,1,90,2|2,1:2|0:2,0:0:0:0:
224,208,144810,6,0,L|440:208,1,180,2|2,1:2|1:2,0:0:0:0:
312,208,145463,1,2,0:2:0:0:
136,208,145680,6,0,L|136:112,1,90,2|2,1:2|0:2,0:0:0:0:
228,120,146115,2,0,L|120:120,1,90,2|2,1:2|0:2,0:0:0:0:
316,120,146550,6,0,L|316:20,1,90,2|2,1:2|1:2,0:0:0:0:
140,120,146984,2,0,L|140:224,1,90,2|2,1:2|0:2,0:0:0:0:
432,292,147419,6,0,L|324:292,1,90,4|2,1:1|0:2,0:0:0:0:
252,288,147854,2,0,L|252:184,1,90,2|2,1:2|0:2,0:0:0:0:
432,284,148289,6,0,P|480:240|400:164,1,180,2|2,1:2|1:2,0:0:0:0:
332,164,148941,1,2,0:2:0:0:
156,100,149158,6,0,L|352:100,2,180,2|2|2,1:2|1:2|1:2,0:0:0:0:
64,100,150245,1,2,0:2:0:0:
244,104,150463,2,0,L|244:216,1,90,2|2,1:2|1:2,0:0:0:0:
64,100,150897,6,0,L|168:100,1,90,2|2,1:2|0:2,0:0:0:0:
244,100,151332,2,0,L|244:8,1,90,2|2,1:2|0:2,0:0:0:0:
60,356,151767,6,0,P|24:312|104:220,1,180,2|2,1:2|1:2,0:0:0:0:
172,220,152419,1,2,0:2:0:0:
460,216,152636,6,0,L|460:120,1,90,6|0,1:2|0:2,0:0:0:0:
280,124,153071,2,0,L|280:224,1,90,6|0,1:2|0:2,0:0:0:0:
460,216,153506,6,0,L|460:104,1,90,4|0,1:2|0:0,0:0:0:0:
280,128,153941,2,0,L|148:128,1,90,4|0,1:2|0:0,0:0:0:0:
484,312,154376,6,0,L|484:200,1,90,4|2,1:1|0:2,0:0:0:0:
394,222,154810,2,0,L|494:222,1,90,2|2,1:2|0:2,0:0:0:0:
304,144,155245,6,0,L|512:144,1,180,2|2,1:2|1:2,0:0:0:0:
392,144,155897,1,2,0:2:0:0:
208,320,156115,6,0,L|208:212,1,90,2|0,1:2|0:2,0:0:0:0:
300,236,156550,2,0,L|300:132,1,90,2|0,1:2|0:2,0:0:0:0:
120,152,156984,6,0,P|72:112|136:32,1,180,2|2,1:2|1:2,0:0:0:0:
268,36,157636,1,2,1:2:0:0:
408,40,157854,6,0,L|408:136,1,90,2|2,1:2|0:2,0:0:0:0:
316,132,158289,2,0,L|428:132,1,90,2|2,1:2|0:2,0:0:0:0:
224,288,158723,6,0,L|8:288,1,180,2|2,1:2|1:2,0:0:0:0:
136,292,159376,1,2,0:2:0:0:
316,292,159593,6,0,L|316:196,1,90,2|2,1:2|0:2,0:0:0:0:
224,200,160028,2,0,L|116:200,1,90,2|2,1:2|0:2,0:0:0:0:
316,148,160463,6,0,L|316:52,1,90,2|2,1:2|1:2,0:0:0:0:
136,196,160897,2,0,L|136:100,1,90,2|2,1:2|0:2,0:0:0:0:
456,316,161332,6,0,L|456:216,1,90,4|2,1:1|0:2,0:0:0:0:
364,232,161767,2,0,L|252:232,1,90,2|2,1:2|0:2,0:0:0:0:
456,160,162202,6,0,L|236:160,1,180,2|2,1:2|1:2,0:0:0:0:
184,164,162854,1,2,0:2:0:0:
364,160,163071,6,0,L|364:52,1,90,2|0,1:2|0:2,0:0:0:0:
272,72,163506,2,0,L|380:72,1,90,2|0,1:2|0:2,0:0:0:0:
180,268,163941,6,0,L|384:268,1,180,2|2,1:2|1:2,0:0:0:0:
220,200,164593,1,2,1:2:0:0:
80,196,164810,6,0,L|80:96,1,90,2|2,1:2|0:2,0:0:0:0:
172,112,165245,2,0,L|72:112,1,90,2|2,1:2|0:2,0:0:0:0:
260,48,165680,6,0,L|48:48,1,180,2|2,1:2|1:2,0:0:0:0:
172,48,166332,1,2,0:2:0:0:
352,308,166550,6,0,L|352:200,1,90,2|0,1:2|0:2,0:0:0:0:
264,220,166984,2,0,L|152:220,1,90,2|0,1:2|0:2,0:0:0:0:
360,240,167419,5,6,1:2:0:0:
418,235,167563,1,4,1:2:0:0:
457,191,167708,1,4,1:2:0:0:
456,133,167853,1,6,1:2:0:0:
414,91,167998,1,4,1:2:0:0:
356,90,168143,1,4,1:2:0:0:
144,344,168289,6,0,L|144:244,1,90,4|2,1:1|0:2,0:0:0:0:
324,252,168723,2,0,L|324:152,1,90,6|2,1:2|0:2,0:0:0:0:
144,164,169158,6,0,L|340:164,1,180,6|6,1:2|1:2,0:0:0:0:
416,164,169810,1,2,0:2:0:0:
124,340,170028,6,0,L|224:340,1,90,6|0,1:2|0:2,0:0:0:0:
396,340,170463,2,0,L|396:232,1,90,6|0,1:2|0:2,0:0:0:0:
216,248,170897,6,0,L|24:248,1,180,6|6,1:2|1:2,0:0:0:0:
128,248,171550,1,2,1:2:0:0:
424,256,171767,6,0,L|424:152,1,90,6|2,1:2|0:2,0:0:0:0:
244,160,172202,2,0,L|244:36,1,90,6|2,1:2|0:2,0:0:0:0:
424,72,172636,6,0,L|212:72,1,180,6|6,1:2|1:2,0:0:0:0:
336,72,173289,1,2,0:2:0:0:
44,360,173506,6,0,L|44:252,1,90,6|2,1:2|0:2,0:0:0:0:
224,272,173941,2,0,L|224:172,1,90,6|2,1:2|0:2,0:0:0:0:
44,176,174376,6,0,L|160:176,1,90,6|2,1:2|1:2,0:0:0:0:
224,272,174810,2,0,L|120:272,1,90,6|2,1:2|0:2,0:0:0:0:
424,268,175245,6,0,L|424:168,1,90,0|2,1:1|0:2,0:0:0:0:
244,176,175680,2,0,L|364:176,1,90,6|2,1:2|0:2,0:0:0:0:
152,180,176115,6,0,P|76:136|144:52,1,180,6|6,1:2|1:2,0:0:0:0:
192,60,176767,1,2,0:2:0:0:
480,356,176984,6,0,L|480:256,1,90,6|0,1:2|0:2,0:0:0:0:
300,268,177419,2,0,L|188:268,1,90,6|0,1:2|0:2,0:0:0:0:
392,268,177854,6,0,P|452:248|396:148,1,180,6|6,1:2|1:2,0:0:0:0:
336,152,178506,1,2,1:2:0:0:
48,288,178723,6,0,L|48:176,1,90,6|2,1:2|0:2,0:0:0:0:
228,196,179158,2,0,L|104:196,1,90,6|2,1:2|0:2,0:0:0:0:
320,200,179593,6,0,L|516:200,1,180,6|6,1:2|1:2,0:0:0:0:
412,200,180245,1,2,0:2:0:0:
120,208,180463,6,0,L|120:104,1,90,2|0,1:2|0:2,0:0:0:0:
300,120,180897,2,0,L|396:120,1,90,6|0,1:2|0:2,0:0:0:0:
104,340,181332,6,0,L|104:236,1,90,4|0,1:2|0:0,0:0:0:0:
424,240,181767,2,0,L|424:136,1,90,4|0,1:2|0:0,0:0:0:0:
104,188,182203,5,4,1:1:0:0:
104,100,182420,1,2,0:2:0:0:
192,104,182637,1,2,0:2:0:0:
104,100,182855,1,2,0:2:0:0:
192,104,183072,6,0,L|408:104,1,180,2|2,0:2|0:2,0:0:0:0:
280,104,183724,1,2,0:2:0:0:
464,296,183942,5,2,0:2:0:0:
376,296,184159,1,2,0:2:0:0:
288,296,184376,1,2,0:2:0:0:
288,204,184594,1,2,0:2:0:0:
376,212,184811,6,0,P|428:176|352:100,1,180,2|2,0:2|0:2,0:0:0:0:
284,96,185463,1,2,0:2:0:0:
104,284,185681,5,2,0:2:0:0:
104,196,185898,1,2,0:2:0:0:
196,196,186116,1,2,0:2:0:0:
284,196,186333,1,2,0:2:0:0:
196,196,186550,6,0,L|8:196,1,180,2|2,0:2|0:2,0:0:0:0:
108,192,187203,1,2,0:2:0:0:
284,204,187420,5,2,0:2:0:0:
284,204,187637,1,2,0:2:0:0:
192,204,187855,1,2,0:2:0:0:
192,204,188072,1,2,0:2:0:0:
284,204,188289,6,0,L|492:204,1,180,2|2,0:2|0:2,0:0:0:0:
372,204,188942,1,2,0:2:0:0:
184,200,189159,5,2,0:2:0:0:
96,200,189376,1,2,0:2:0:0:
96,200,189594,1,2,0:2:0:0:
184,200,189811,1,2,0:2:0:0:
276,200,190029,6,0,L|72:200,1,180,2|2,0:2|0:2,0:0:0:0:
188,196,190681,1,2,0:2:0:0:
368,160,190898,5,2,0:2:0:0:
368,68,191116,1,2,0:2:0:0:
280,64,191333,1,2,0:2:0:0:
192,64,191550,1,2,0:2:0:0:
280,64,191768,6,0,L|480:64,1,180,2|2,0:2|0:2,0:0:0:0:
368,64,192420,1,2,0:2:0:0:
184,328,192637,5,2,0:2:0:0:
276,332,192855,1,2,0:2:0:0:
364,332,193072,1,2,0:2:0:0:
364,244,193289,1,2,0:2:0:0:
272,240,193507,6,0,L|80:240,1,180,2|2,0:2|0:2,0:0:0:0:
184,240,194159,1,2,0:2:0:0:
364,188,194376,5,2,0:2:0:0:
368,96,194594,1,2,0:2:0:0:
280,92,194811,1,2,0:2:0:0:
276,184,195029,1,2,0:2:0:0:
456,312,195246,5,2,0:2:0:0:
486,261,195390,1,0,0:0:0:0:
486,202,195535,1,0,0:0:0:0:
455,151,195680,1,2,0:2:0:0:
402,124,195825,1,0,0:0:0:0:
343,128,195970,1,0,0:0:0:0:
124,312,196116,5,6,1:1:0:0:
124,224,196333,1,0,0:0:0:0:
212,224,196550,1,0,0:0:0:0:
124,224,196768,1,0,0:0:0:0:
36,224,196985,5,0,0:0:0:0:
216,224,197420,1,0,0:0:0:0:
304,224,197637,1,0,0:0:0:0:
124,144,197855,5,2,0:2:0:0:
124,56,198072,1,0,0:0:0:0:
212,52,198289,1,0,0:0:0:0:
304,52,198507,1,0,0:0:0:0:
304,52,198724,5,0,0:0:0:0:
124,56,199159,1,0,0:0:0:0:
212,56,199376,1,0,0:0:0:0:
396,308,199594,5,2,0:2:0:0:
396,220,199811,1,0,0:0:0:0:
304,220,200029,1,0,0:0:0:0:
396,220,200246,1,0,0:0:0:0:
484,220,200463,5,0,0:0:0:0:
304,220,200898,1,0,0:0:0:0:
212,224,201116,1,0,0:0:0:0:
392,156,201333,5,0,0:0:0:0:
480,156,201550,1,0,0:0:0:0:
480,156,201768,1,0,0:0:0:0:
392,156,201985,1,0,0:0:0:0:
300,156,202203,5,0,0:0:0:0:
120,152,202637,1,0,0:0:0:0:
120,60,202855,1,0,0:0:0:0:
304,64,203072,5,2,0:2:0:0:
216,64,203289,1,0,0:0:0:0:
120,60,203507,1,0,0:0:0:0:
216,64,203724,1,0,0:0:0:0:
308,64,203942,5,0,0:0:0:0:
120,60,204376,1,0,0:0:0:0:
120,60,204594,1,0,0:0:0:0:
300,272,204811,5,2,0:2:0:0:
300,180,205029,1,0,0:0:0:0:
212,180,205246,1,0,0:0:0:0:
124,180,205463,1,0,0:0:0:0:
124,88,205681,5,0,0:0:0:0:
304,96,206116,1,0,0:0:0:0:
392,96,206333,1,0,0:0:0:0:
212,300,206550,5,2,0:2:0:0:
120,300,206768,1,0,0:0:0:0:
124,212,206985,1,0,0:0:0:0:
216,212,207203,1,0,0:0:0:0:
304,212,207420,5,0,0:0:0:0:
124,212,207855,1,0,0:0:0:0:
124,124,208072,1,0,0:0:0:0:
300,124,208289,5,0,0:0:0:0:
392,124,208507,1,0,0:0:0:0:
392,124,208724,1,0,0:0:0:0:
300,124,208942,1,0,0:0:0:0:
116,356,209159,6,0,P|44:324|140:208,1,270,0|0,0:0|0:0,0:0:0:0:
424,208,210029,5,4,1:1:0:0:
256,192,210246,12,0,216985,0:0:0:0:
