osu file format v14

[General]
AudioFilename: audio.mp3
AudioLeadIn: 0
PreviewTime: 56985
Countdown: 0
SampleSet: Soft
StackLeniency: 0.7
Mode: 2
LetterboxInBreaks: 0
WidescreenStoryboard: 0

[Editor]
Bookmarks: 32637,36115,39593,41332,56985,140474,154387,168300,196159,210072
DistanceSpacing: 1.5
BeatDivisor: 4
GridSize: 4
TimelineZoom: 1.5

[Metadata]
Title:Bad Apple!! feat. nomico
TitleUnicode:Bad Apple!! feat. nomico
Artist:Masayoshi Minoshima
ArtistUnicode:Masayoshi Minoshima
Creator:Kukkai
Version:Overdose
Source:東方幻想郷 ~ Lotus Land Story
Tags:東方Project Touhou Project Elly Stage 3 Alstroemeria Records Lovelight video game vgm japanese jpop j-pop pop zun のみこ マサヨシ ミノシマ th04 太田 順也 上海アリス幻樂団 Team Shanghai Alice Electronic
BeatmapID:4042197
BeatmapSetID:1952041

[Difficulty]
HPDrainRate:5
CircleSize:5
OverallDifficulty:8.5
ApproachRate:8.5
SliderMultiplier:2.3
SliderTickRate:2

[Events]
//Background and Video events
0,0,"bggggg.jpg",0,0
Video,0,"vdo.mp4"
//Break Periods
//Storyboard Layer 0 (Background)
//Storyboard Layer 1 (Fail)
//Storyboard Layer 2 (Pass)
//Storyboard Layer 3 (Foreground)
//Storyboard Layer 4 (Overlay)
//Storyboard Sound Samples

[TimingPoints]
1333,434.782608695652,4,2,1,60,1,0
15246,-100,4,2,1,70,0,0
29159,-100,4,2,1,70,0,0
43072,-100,4,2,1,75,0,0
70898,-90.9090909090909,4,2,1,80,0,1
84811,-100,4,2,1,50,0,0
98724,-100,4,2,1,60,0,0
111767,-100,4,2,1,70,0,0
112637,-100,4,2,1,80,0,0
126550,-100,4,2,1,75,0,0
168289,-90.9090909090909,4,2,1,80,0,1
182202,-100,4,2,1,70,0,0
196159,-100,4,2,1,60,0,0

[Colours]
Combo1 : 85,85,85
Combo2 : 191,191,191

[HitObjects]
84,336,1333,6,0,L|84:216,1,115,4|0,1:1|0:0,0:0:0:0:
256,220,1767,2,0,L|256:96,1,115,0|0,1:2|0:0,0:0:0:0:
428,100,2202,2,0,L|428:232,1,115,0|0,1:2|0:0,0:0:0:0:
256,220,2637,1,0,1:2:0:0:
200,220,2746,1,0,1:2:0:0:
256,220,2854,1,0,1:2:0:0:
312,220,2963,1,0,1:2:0:0:
256,220,3072,6,0,L|108:220,1,115,0|0,1:2|0:0,0:0:0:0:
312,220,3506,2,0,L|312:88,1,115,0|0,1:2|0:0,0:0:0:0:
141,105,3941,2,0,L|141:249,1,115,0|0,1:2|0:0,0:0:0:0:
312,220,4376,1,0,1:2:0:0:
141,220,4593,1,0,1:2:0:0:
312,220,4811,6,0,L|452:220,1,115,0|0,1:2|0:0,0:0:0:0:
256,220,5246,2,0,L|256:88,1,115,0|0,1:2|0:0,0:0:0:0:
84,112,5680,2,0,L|84:248,1,115,0|0,1:2|0:0,0:0:0:0:
256,220,6115,1,0,1:2:0:0:
200,224,6224,1,0,1:2:0:0:
144,224,6332,1,0,1:2:0:0:
200,224,6441,1,0,1:2:0:0:
256,220,6550,6,0,L|388:220,1,115,0|0,1:2|0:0,0:0:0:0:
200,220,6985,2,0,L|200:72,1,115,0|0,1:2|0:0,0:0:0:0:
372,116,7419,2,0,L|372:0,1,115,0|0,1:2|0:0,0:0:0:0:
200,4,7854,1,0,1:2:0:0:
372,1,8072,1,0,1:2:0:0:
200,4,8289,6,0,L|200:144,1,115,0|0,1:2|0:0,0:0:0:0:
372,120,8724,2,0,L|244:120,1,115,0|0,1:2|0:0,0:0:0:0:
428,120,9159,2,0,L|428:256,1,115,0|0,1:2|0:0,0:0:0:0:
256,232,9593,1,0,1:2:0:0:
200,236,9702,1,0,1:2:0:0:
256,232,9811,1,0,1:2:0:0:
312,232,9919,1,0,1:2:0:0:
256,232,10028,6,0,L|104:232,1,115,0|0,1:2|0:0,0:0:0:0:
312,232,10463,2,0,L|312:104,1,115,0|0,1:2|0:0,0:0:0:0:
140,124,10898,2,0,L|12:124,1,115,0|0,1:2|0:0,0:0:0:0:
196,120,11332,1,0,1:2:0:0:
25,124,11550,1,0,1:2:0:0:
196,120,11767,6,0,L|196:268,1,115,0|0,1:2|0:0,0:0:0:0:
368,232,12202,2,0,L|368:104,1,115,0|0,1:2|0:0,0:0:0:0:
196,116,12637,2,0,L|44:116,1,115,0|0,1:2|0:0,0:0:0:0:
252,116,13072,1,0,1:2:0:0:
308,116,13180,1,0,1:2:0:0:
252,116,13289,1,0,1:2:0:0:
196,116,13398,1,0,1:2:0:0:
140,116,13506,6,0,L|280:116,1,115,0|0,1:2|0:0,0:0:0:0:
84,120,13941,2,0,L|84:248,1,115,0|0,1:2|0:0,0:0:0:0:
256,232,14376,2,0,L|124:232,1,115,0|0,1:2|0:0,0:0:0:0:
500,156,14811,1,4,1:2:0:0:
8,168,15246,6,0,L|8:48,1,115,4|2,1:1|0:2,0:0:0:0:
180,356,15680,1,0,1:2:0:0:
180,300,15789,1,2,0:2:0:0:
124,300,15898,1,2,0:2:0:0:
124,244,16006,1,2,0:2:0:0:
296,248,16115,6,0,L|416:248,1,115,2|2,1:2|0:2,0:0:0:0:
236,180,16550,2,0,L|164:180,1,57.5,0|2,1:2|0:2,0:0:0:0:
236,180,16767,2,0,L|316:180,1,57.5,2|2,0:2|0:2,0:0:0:0:
464,176,16985,6,0,L|464:40,1,115,2|2,1:2|0:2,0:0:0:0:
292,60,17419,2,0,L|292:128,1,57.5,0|2,1:2|0:2,0:0:0:0:
352,116,17637,2,0,L|352:196,1,57.5,2|2,0:2|0:2,0:0:0:0:
176,280,17854,5,2,1:2:0:0:
292,280,18072,2,0,L|204:280,1,57.5,2|2,0:2|0:2,0:0:0:0:
64,224,18289,1,2,1:2:0:0:
344,176,18506,2,0,L|276:176,1,57.5,2|2,1:2|0:2,0:0:0:0:
96,175,18724,6,0,P|76:115|116:75,1,115,2|2,1:2|0:2,0:0:0:0:
280,71,19159,2,0,L|192:71,1,57.5,0|2,1:2|0:2,0:0:0:0:
280,71,19376,2,0,L|344:71,1,57.5,2|2,0:2|0:2,0:0:0:0:
144,352,19593,6,0,L|16:352,1,115,2|2,1:2|0:2,0:0:0:0:
204,292,20028,2,0,L|276:292,3,57.5,0|2|2|2,1:2|0:2|0:2|0:2,0:0:0:0:
72,252,20463,6,0,L|72:124,1,115,2|2,1:2|0:2,0:0:0:0:
244,136,20898,2,0,L|324:136,1,57.5,0|2,1:2|0:2,0:0:0:0:
244,136,21115,2,0,L|168:136,1,57.5,2|2,0:2|0:2,0:0:0:0:
364,84,21332,5,2,1:2:0:0:
192,32,21550,2,0,L|276:32,1,57.5,2|2,0:2|0:2,0:0:0:0:
420,32,21767,1,2,1:2:0:0:
128,248,21985,2,0,L|216:248,1,57.5,2|2,1:2|0:2,0:0:0:0:
368,184,22202,6,0,L|244:184,1,115,2|2,1:2|0:2,0:0:0:0:
428,132,22637,1,0,1:2:0:0:
484,132,22746,1,2,0:2:0:0:
484,132,22854,1,2,0:2:0:0:
428,132,22963,1,2,0:2:0:0:
248,248,23072,6,0,L|384:248,1,115,2|2,1:2|0:2,0:0:0:0:
192,192,23506,2,0,L|192:120,1,57.5,0|2,1:2|0:2,0:0:0:0:
252,136,23724,2,0,L|332:136,1,57.5,2|2,0:2|0:2,0:0:0:0:
124,88,23941,6,0,L|0:88,1,115,2|2,1:2|0:2,0:0:0:0:
180,324,24376,2,0,L|180:228,1,57.5,0|2,1:2|0:2,0:0:0:0:
120,256,24593,2,0,L|120:180,1,57.5,2|2,0:2|0:2,0:0:0:0:
312,192,24811,5,2,1:2:0:0:
144,128,25028,2,0,L|224:128,1,57.5,2|2,0:2|0:2,0:0:0:0:
384,76,25246,1,2,1:2:0:0:
96,48,25463,2,0,L|168:48,1,57.5,2|2,1:2|0:2,0:0:0:0:
344,312,25680,6,0,L|344:180,1,115,2|2,1:2|0:2,0:0:0:0:
172,192,26115,2,0,L|88:192,3,57.5,0|2|2|2,1:2|0:2|0:2|0:2,0:0:0:0:
304,144,26550,6,0,L|432:144,1,115,2|2,1:2|0:2,0:0:0:0:
240,96,26985,2,0,L|240:0,1,57.5,0|2,1:2|0:2,0:0:0:0:
304,40,27202,2,0,L|304:112,1,57.5,2|2,0:2|0:2,0:0:0:0:
132,280,27419,6,0,L|276:280,1,115,2|2,1:2|0:2,0:0:0:0:
72,200,27854,1,0,1:2:0:0:
72,144,27963,1,2,0:2:0:0:
128,144,28072,1,2,0:2:0:0:
184,144,28180,1,2,0:2:0:0:
356,320,28289,5,6,1:2:0:0:
432,320,28434,1,6,1:2:0:0:
356,324,28579,1,6,1:2:0:0:
128,256,28724,1,6,1:2:0:0:
204,256,28869,1,6,1:2:0:0:
280,256,29014,1,6,1:2:0:0:
44,200,29159,6,0,L|44:72,1,115,4|2,1:1|0:2,0:0:0:0:
216,88,29593,2,0,L|68:88,1,115,2|2,1:2|0:2,0:0:0:0:
272,84,30028,2,0,L|272:212,1,115,2|0,1:2|0:2,0:0:0:0:
100,200,30463,1,2,1:2:0:0:
272,199,30680,1,2,0:2:0:0:
100,200,30898,6,0,L|352:200,2,230,2|2|2,1:2|1:2|1:2,0:0:0:0:
284,200,31985,2,0,L|284:76,1,115,2|2,0:2|1:2,0:0:0:0:
4,68,32419,1,2,1:2:0:0:
284,300,32637,6,0,L|148:300,1,115,2|2,1:2|0:2,0:0:0:0:
340,304,33072,2,0,L|340:164,1,115,2|2,1:2|0:2,0:0:0:0:
168,180,33506,2,0,L|416:180,1,230,2|2,1:2|1:2,0:0:0:0:
216,180,34159,1,2,0:2:0:0:
492,188,34376,6,0,L|492:48,1,115,2|2,1:2|0:2,0:0:0:0:
320,68,34811,2,0,L|468:68,1,115,2|2,1:2|0:2,0:0:0:0:
124,132,35246,1,2,1:2:0:0:
427,68,35463,1,2,1:2:0:0:
124,132,35680,2,0,L|124:252,1,115,2|2,1:2|0:2,0:0:0:0:
404,264,36115,6,0,L|272:264,2,115,4|2|2,1:1|0:2|1:2,0:0:0:0:
232,264,36767,1,2,0:2:0:0:
404,264,36985,2,0,L|136:264,1,230,2|2,1:2|1:2,0:0:0:0:
348,264,37637,1,2,0:2:0:0:
174,264,37854,6,0,L|440:264,2,230,2|2|2,1:2|1:2|1:2,0:0:0:0:
336,264,38941,2,0,L|204:264,1,115,2|2,0:2|1:2,0:0:0:0:
504,268,39376,1,2,1:2:0:0:
44,140,39593,6,0,L|192:140,1,115,2|2,1:2|0:2,0:0:0:0:
332,140,40028,1,2,1:2:0:0:
159,140,40246,1,2,0:2:0:0:
332,140,40463,2,0,L|332:272,1,115,2|0,1:2|0:2,0:0:0:0:
160,256,40898,1,2,1:2:0:0:
332,255,41115,1,2,0:2:0:0:
56,264,41332,6,0,L|56:124,1,115,2|0,1:2|0:2,0:0:0:0:
228,148,41767,2,0,L|348:148,1,115,2|0,1:2|0:2,0:0:0:0:
52,68,42202,1,6,1:2:0:0:
136,68,42347,1,4,1:2:0:0:
52,68,42492,1,4,1:2:0:0:
288,204,42637,1,6,1:2:0:0:
204,204,42782,1,4,1:2:0:0:
120,204,42927,1,4,1:2:0:0:
348,132,43072,6,0,L|500:132,2,115,4|2|2,1:1|0:2|1:2,0:0:0:0:
176,136,43724,1,2,0:2:0:0:
348,132,43941,2,0,L|348:16,1,115,2|0,1:2|0:2,0:0:0:0:
176,8,44376,1,2,1:2:0:0:
348,4,44593,1,2,0:2:0:0:
48,88,44811,6,0,L|324:88,2,230,2|2|2,1:2|1:2|1:2,0:0:0:0:
164,84,45898,1,2,0:2:0:0:
440,92,46115,1,2,1:2:0:0:
164,84,46333,1,2,1:2:0:0:
440,207,46550,6,0,L|440:75,1,115,2|2,1:2|0:2,0:0:0:0:
268,92,46985,2,0,L|424:92,1,115,2|2,1:2|0:2,0:0:0:0:
208,240,47419,2,0,P|140:200|224:104,1,230,2|2,1:2|1:2,0:0:0:0:
384,104,48072,1,2,0:2:0:0:
79,79,48289,6,0,L|212:80,1,115,2|2,1:2|0:2,0:0:0:0:
20,76,48724,2,0,L|20:200,1,115,2|2,1:2|0:2,0:0:0:0:
295,203,49159,1,2,1:2:0:0:
15,201,49376,1,2,1:2:0:0:
295,203,49593,2,0,L|172:204,1,115,2|2,1:2|0:2,0:0:0:0:
456,120,50028,5,4,1:1:0:0:
282,119,50246,1,2,0:2:0:0:
110,119,50463,1,2,1:2:0:0:
282,119,50680,1,2,0:2:0:0:
110,119,50898,2,0,L|370:119,1,230,2|2,1:2|1:2,0:0:0:0:
166,119,51550,1,2,0:2:0:0:
448,136,51767,6,0,L|192:136,2,230,2|2|2,1:2|1:2|1:2,0:0:0:0:
332,136,52854,1,2,0:2:0:0:
48,136,53072,1,2,1:2:0:0:
332,136,53289,1,2,1:2:0:0:
45,136,53506,6,0,L|169:136,2,115,2|2|2,1:2|0:2|1:2,0:0:0:0:
208,140,54159,1,2,0:2:0:0:
368,140,54376,2,0,L|368:8,1,115,2|0,1:2|0:2,0:0:0:0:
208,12,54811,1,2,1:2:0:0:
368,140,55028,1,2,0:2:0:0:
48,336,55246,6,0,P|16:272|112:236,1,172.5,6|0,1:2|0:0,0:0:0:0:
300,200,55680,2,0,L|80:200,1,172.5,6|0,1:2|0:0,0:0:0:0:
300,144,56115,2,0,L|496:144,1,172.5,4|0,1:2|0:0,0:0:0:0:
288,144,56550,2,0,P|232:108|312:68,1,172.5,4|0,1:2|0:0,0:0:0:0:
500,308,56985,5,4,1:1:0:0:
328,308,57202,1,2,0:2:0:0:
156,304,57419,1,2,1:2:0:0:
328,308,57637,1,2,0:2:0:0:
20,308,57854,6,0,L|20:180,1,115,2|0,1:2|0:2,0:0:0:0:
192,184,58289,1,2,1:2:0:0:
20,180,58506,1,2,0:2:0:0:
296,252,58724,6,0,L|152:252,1,115,2|0,1:2|0:2,0:0:0:0:
352,252,59159,1,2,1:2:0:0:
181,252,59376,1,0,0:2:0:0:
460,184,59593,6,0,L|460:56,1,115,2|2,1:2|0:2,0:0:0:0:
180,68,60028,1,2,1:2:0:0:
460,69,60246,1,2,1:2:0:0:
172,368,60463,6,0,L|172:224,1,115,2|2,1:2|0:2,0:0:0:0:
344,244,60898,2,0,L|344:120,1,115,2|2,1:2|0:2,0:0:0:0:
68,112,61332,6,0,L|344:112,1,230,2|2,1:2|1:2,0:0:0:0:
124,112,61985,1,2,0:2:0:0:
424,104,62202,6,0,L|424:236,1,115,2|2,1:2|0:2,0:0:0:0:
252,220,62637,1,2,1:2:0:0:
424,219,62854,1,2,0:2:0:0:
104,232,63072,5,2,1:2:0:0:
372,184,63289,1,2,1:2:0:0:
312,184,63398,1,0,0:0:0:0:
140,176,63506,1,2,1:2:0:0:
420,136,63724,1,2,0:2:0:0:
360,136,63833,1,0,0:0:0:0:
168,84,63941,6,0,L|304:84,1,115,4|2,1:1|0:2,0:0:0:0:
168,84,64376,1,2,1:2:0:0:
340,84,64593,1,2,0:2:0:0:
16,188,64811,6,0,L|16:60,1,115,2|0,1:2|0:2,0:0:0:0:
188,64,65246,1,2,1:2:0:0:
16,61,65463,1,2,0:2:0:0:
292,328,65680,5,2,1:2:0:0:
120,328,65898,1,0,0:2:0:0:
292,328,66115,1,2,1:2:0:0:
464,328,66332,1,0,0:2:0:0:
184,240,66550,6,0,L|184:112,1,115,2|2,1:2|0:2,0:0:0:0:
472,124,66985,1,2,1:2:0:0:
184,125,67202,1,2,1:2:0:0:
496,192,67419,5,2,1:2:0:0:
324,196,67637,1,2,0:2:0:0:
496,192,67854,2,0,L|496:48,1,115,2|2,1:2|0:2,0:0:0:0:
208,68,68289,6,0,L|456:68,1,230,2|2,1:2|1:2,0:0:0:0:
316,72,68941,1,2,0:2:0:0:
36,232,69159,5,2,1:2:0:0:
208,232,69376,1,0,0:2:0:0:
36,232,69593,2,0,L|40:100,1,115,2|0,1:2|0:2,0:0:0:0:
388,100,70028,5,6,1:2:0:0:
472,104,70173,1,4,1:2:0:0:
388,100,70318,1,4,1:2:0:0:
184,168,70463,1,6,1:2:0:0:
268,168,70608,1,4,1:2:0:0:
348,168,70753,1,4,1:2:0:0:
120,316,70898,6,0,L|120:184,1,126.500003860474,4|2,1:1|0:2,0:0:0:0:
404,228,71333,1,6,1:2:0:0:
120,316,71550,1,2,0:2:0:0:
404,228,71767,6,0,L|404:80,1,126.500003860474,6|0,1:2|0:2,0:0:0:0:
228,96,72202,1,6,1:2:0:0:
404,101,72420,1,2,0:2:0:0:
64,208,72637,5,6,1:2:0:0:
240,208,72854,1,0,0:2:0:0:
416,208,73072,1,6,1:2:0:0:
112,136,73289,1,0,0:2:0:0:
424,204,73506,6,0,L|424:64,1,126.500003860474,6|2,1:2|0:2,0:0:0:0:
144,64,73941,1,6,1:2:0:0:
424,204,74159,1,2,1:2:0:0:
120,64,74376,6,0,L|288:64,1,126.500003860474,6|2,1:2|0:2,0:0:0:0:
68,64,74811,2,0,L|68:200,1,126.500003860474,6|2,1:2|0:2,0:0:0:0:
356,268,75246,6,0,L|212:268,1,126.500003860474,6|0,1:2|0:2,0:0:0:0:
408,268,75680,1,6,1:2:0:0:
228,276,75898,1,2,0:2:0:0:
508,232,76115,6,0,L|508:92,1,126.500003860474,6|2,1:2|0:2,0:0:0:0:
332,100,76550,1,6,1:2:0:0:
508,105,76767,1,2,0:2:0:0:
144,88,76985,5,6,1:2:0:0:
428,88,77202,2,0,L|356:88,1,63.2500019302369,2|0,1:2|0:0,0:0:0:0:
144,88,77420,1,6,1:2:0:0:
424,48,77637,2,0,L|352:48,1,63.2500019302369,2|0,0:2|0:0,0:0:0:0:
144,208,77854,5,4,1:2:0:0:
424,208,78072,1,2,0:2:0:0:
144,208,78289,2,0,L|144:60,1,126.500003860474,6|2,1:2|0:2,0:0:0:0:
428,212,78724,6,0,L|428:80,1,126.500003860474,6|0,1:2|0:2,0:0:0:0:
252,88,79159,1,6,1:2:0:0:
428,85,79376,1,2,0:2:0:0:
88,214,79593,6,0,L|88:74,1,126.500003860474,6|0,1:2|0:2,0:0:0:0:
368,84,80028,1,6,1:2:0:0:
88,88,80246,1,0,0:2:0:0:
368,84,80463,6,0,L|504:84,1,126.500003860474,6|2,1:2|0:2,0:0:0:0:
216,88,80898,1,6,1:2:0:0:
494,84,81115,1,2,1:2:0:0:
216,88,81333,5,6,1:2:0:0:
392,88,81550,1,2,0:2:0:0:
216,84,81767,1,6,1:2:0:0:
40,84,81985,1,2,0:2:0:0:
328,336,82202,6,0,L|472:336,1,126.500003860474,6|0,1:2|0:2,0:0:0:0:
276,336,82637,1,6,1:2:0:0:
454,336,82854,1,2,0:2:0:0:
144,276,83072,6,0,L|144:128,1,126.500003860474,6|0,1:2|0:2,0:0:0:0:
320,164,83506,2,0,L|320:32,1,126.500003860474,6|0,1:2|0:2,0:0:0:0:
40,208,83941,5,4,1:2:0:0:
132,208,84086,1,4,1:2:0:0:
224,208,84231,1,4,1:2:0:0:
16,120,84376,1,4,1:2:0:0:
108,120,84521,1,4,1:2:0:0:
16,120,84666,1,4,1:2:0:0:
264,368,84811,6,0,L|264:244,1,115,4|0,1:1|0:0,0:0:0:0:
144,248,85246,2,0,L|144:92,1,115,0|0,0:0|0:0,0:0:0:0:
292,136,85680,2,0,L|24:136,1,230,0|0,0:0|0:0,0:0:0:0:
176,136,86332,1,0,0:0:0:0:
464,260,86550,6,0,L|464:140,1,115,2|0,0:2|0:0,0:0:0:0:
349,260,86985,2,0,L|473:260,1,115,0|0,0:0|0:0,0:0:0:0:
316,264,87419,2,0,P|244:212|324:128,1,230,0|0,0:0|0:0,0:0:0:0:
432,132,88072,1,0,0:0:0:0:
152,244,88289,6,0,L|276:244,1,115,2|0,0:2|0:0,0:0:0:0:
152,244,88724,2,0,L|24:244,1,115,0|0,0:0|0:0,0:0:0:0:
188,244,89159,2,0,P|260:204|176:116,1,230,0|0,0:0|0:0,0:0:0:0:
76,116,89811,1,0,0:0:0:0:
356,356,90028,6,0,L|356:232,1,115,0|0,0:0|0:0,0:0:0:0:
236,244,90463,2,0,L|364:244,1,115,0|0,0:0|0:0,0:0:0:0:
200,240,90898,2,0,L|440:240,1,230,0|0,0:0|0:0,0:0:0:0:
430,240,91550,1,0,0:0:0:0:
140,168,91767,6,0,L|272:168,1,115,2|0,0:2|0:0,0:0:0:0:
376,164,92202,2,0,L|376:48,1,115,0|0,0:0|0:0,0:0:0:0:
228,56,92637,2,0,P|152:112|244:184,1,230,0|0,0:0|0:0,0:0:0:0:
340,192,93289,1,0,0:0:0:0:
48,288,93506,6,0,L|184:288,1,115,2|0,0:2|0:0,0:0:0:0:
277,287,93941,2,0,L|128:288,1,115,0|0,0:0|0:0,0:0:0:0:
312,288,94376,2,0,P|376:252|292:160,1,230,0|0,0:0|0:0,0:0:0:0:
184,160,95028,1,0,0:0:0:0:
460,92,95246,6,0,L|312:92,1,115,2|0,0:2|0:0,0:0:0:0:
230,92,95680,2,0,L|374:92,1,115,0|0,0:0|0:0,0:0:0:0:
192,332,96115,2,0,P|128:312|212:224,1,230,0|0,0:0|0:0,0:0:0:0:
336,220,96767,1,0,0:0:0:0:
48,124,96985,6,0,L|176:124,1,115,0|0,0:0|0:0,0:0:0:0:
48,124,97419,2,0,L|48:8,1,115,0|0,0:0|0:0,0:0:0:0:
196,8,97854,2,0,L|452:8,1,230,0|0,0:0|0:0,0:0:0:0:
308,8,98506,1,0,0:0:0:0:
28,316,98724,6,0,L|28:180,1,115,2|2,0:2|0:2,0:0:0:0:
176,200,99159,2,0,L|316:200,2,115,2|2|2,0:2|0:2|0:2,0:0:0:0:
28,196,99811,1,0,0:0:0:0:
176,200,100028,2,0,L|56:200,1,115,2|2,0:2|0:2,0:0:0:0:
344,340,100463,6,0,L|344:216,1,115,2|2,0:2|0:2,0:0:0:0:
196,208,100898,2,0,L|324:208,1,115,2|2,0:2|0:2,0:0:0:0:
160,208,101332,2,0,L|88:208,2,57.5,2|0|0,0:2|0:0|0:0,0:0:0:0:
308,212,101767,2,0,L|164:212,1,115,2|2,0:2|0:2,0:0:0:0:
484,116,102202,6,0,L|344:116,1,115,2|2,0:2|0:2,0:0:0:0:
220,116,102637,2,0,L|220:264,1,115,2|2,0:2|0:2,0:0:0:0:
328,232,103072,1,2,0:2:0:0:
180,228,103289,2,0,L|64:228,2,115,0|2|2,0:0|0:2|0:2,0:0:0:0:
464,232,103941,6,0,L|464:104,1,115,2|2,0:2|0:2,0:0:0:0:
316,92,104376,2,0,L|440:92,1,115,2|2,0:2|0:2,0:0:0:0:
280,92,104811,1,2,0:2:0:0:
428,96,105028,1,0,0:0:0:0:
280,92,105246,2,0,L|144:92,1,115,2|2,0:2|0:2,0:0:0:0:
456,216,105680,6,0,L|332:216,1,115,2|2,0:2|0:2,0:0:0:0:
192,216,106115,1,2,0:2:0:0:
340,212,106332,2,0,L|208:212,1,115,2|2,0:2|0:2,0:0:0:0:
376,212,106767,1,0,0:0:0:0:
225,212,106985,2,0,L|377:212,1,115,2|2,0:2|0:2,0:0:0:0:
44,128,107419,6,0,L|208:128,1,115,2|2,0:2|0:2,0:0:0:0:
308,128,107854,2,0,L|168:128,1,115,2|2,0:2|0:2,0:0:0:0:
344,132,108289,2,0,L|416:132,2,57.5,2|0|0,0:2|0:0|0:0,0:0:0:0:
196,128,108724,1,2,0:2:0:0:
344,132,108941,1,2,0:2:0:0:
36,200,109159,6,0,L|172:200,1,115,2|2,0:2|0:2,0:0:0:0:
300,204,109593,1,2,0:2:0:0:
152,200,109811,1,2,0:2:0:0:
300,204,110028,2,0,L|300:56,1,115,2|0,0:2|0:0,0:0:0:0:
152,84,110463,2,0,L|8:84,1,115,2|2,0:2|0:2,0:0:0:0:
312,308,110898,6,0,L|312:184,1,115,2|2,0:2|0:2,0:0:0:0:
164,192,111332,2,0,L|28:192,1,115,2|2,0:2|0:2,0:0:0:0:
324,352,111767,6,0,L|112:352,1,172.5,4|0,1:2|0:0,0:0:0:0:
364,304,112202,6,0,P|420:256|340:208,1,172.5,4|0,1:2|0:0,0:0:0:0:
160,200,112637,5,4,1:1:0:0:
324,292,112854,1,2,0:2:0:0:
208,292,113072,1,0,1:2:0:0:
208,236,113180,1,2,0:2:0:0:
264,236,113289,1,2,0:2:0:0:
208,236,113398,1,2,0:2:0:0:
368,160,113506,5,2,1:2:0:0:
204,160,113724,1,2,0:2:0:0:
320,160,113941,1,0,1:2:0:0:
264,160,114050,5,2,0:2:0:0:
320,160,114159,1,2,0:2:0:0:
376,160,114267,1,2,0:2:0:0:
212,332,114376,5,2,1:2:0:0:
376,272,114593,1,2,0:2:0:0:
260,272,114811,1,0,1:2:0:0:
260,216,114919,1,2,0:2:0:0:
316,216,115028,1,2,0:2:0:0:
316,160,115137,1,2,0:2:0:0:
136,176,115246,5,2,1:2:0:0:
308,116,115463,2,0,L|212:116,1,57.5,2|2,0:2|0:2,0:0:0:0:
88,120,115680,1,2,1:2:0:0:
365,116,115898,2,0,L|269:116,1,57.5,2|2,1:2|0:2,0:0:0:0:
136,348,116115,5,2,1:2:0:0:
296,268,116332,1,2,0:2:0:0:
180,268,116550,1,0,1:2:0:0:
124,268,116659,1,2,0:2:0:0:
180,268,116767,1,2,0:2:0:0:
236,268,116876,1,2,0:2:0:0:
56,196,116985,5,2,1:2:0:0:
220,164,117202,1,2,0:2:0:0:
104,160,117419,1,0,1:2:0:0:
160,160,117528,1,2,0:2:0:0:
104,160,117637,1,2,0:2:0:0:
48,160,117746,1,2,0:2:0:0:
232,100,117854,5,2,1:2:0:0:
68,96,118072,1,2,0:2:0:0:
184,96,118289,1,0,1:2:0:0:
184,40,118398,1,2,0:2:0:0:
128,40,118506,1,2,0:2:0:0:
72,40,118615,1,2,0:2:0:0:
240,260,118724,5,2,1:2:0:0:
64,224,118941,2,0,L|136:224,1,57.5,2|2,0:2|0:2,0:0:0:0:
316,172,119159,1,2,1:2:0:0:
6,224,119376,2,0,L|86:224,1,57.5,2|2,1:2|0:2,0:0:0:0:
320,256,119593,5,2,1:2:0:0:
152,200,119811,1,2,0:2:0:0:
268,200,120028,1,0,1:2:0:0:
268,144,120137,1,2,0:2:0:0:
212,144,120246,1,2,0:2:0:0:
268,144,120354,1,2,0:2:0:0:
108,96,120463,5,2,1:2:0:0:
272,96,120680,1,2,0:2:0:0:
156,92,120898,1,0,1:2:0:0:
212,92,121006,1,2,0:2:0:0:
156,92,121115,1,2,0:2:0:0:
156,36,121224,1,2,0:2:0:0:
332,272,121332,5,2,1:2:0:0:
168,236,121550,1,2,0:2:0:0:
284,236,121767,1,0,1:2:0:0:
340,236,121876,1,2,0:2:0:0:
284,236,121985,1,2,0:2:0:0:
228,236,122093,1,2,0:2:0:0:
404,176,122202,5,2,1:2:0:0:
228,104,122420,2,0,L|320:104,1,57.5,2|2,0:2|0:2,0:0:0:0:
460,104,122637,1,2,1:2:0:0:
170,104,122854,2,0,L|238:104,1,57.5,2|2,1:2|0:2,0:0:0:0:
408,276,123072,5,2,1:2:0:0:
240,248,123289,1,2,0:2:0:0:
356,248,123506,1,0,1:2:0:0:
356,192,123615,1,2,0:2:0:0:
300,192,123724,1,2,0:2:0:0:
300,136,123832,1,2,0:2:0:0:
468,72,123941,5,2,1:2:0:0:
304,76,124159,1,2,0:2:0:0:
420,76,124376,1,0,1:2:0:0:
364,76,124485,1,2,0:2:0:0:
420,76,124593,1,2,0:2:0:0:
420,132,124702,1,2,0:2:0:0:
244,312,124811,5,2,1:2:0:0:
408,264,125028,1,2,0:2:0:0:
292,264,125246,1,0,1:2:0:0:
292,208,125354,1,2,0:2:0:0:
348,212,125463,1,2,0:2:0:0:
404,216,125572,1,2,0:2:0:0:
192,176,125680,5,6,1:2:0:0:
284,176,125825,1,6,1:2:0:0:
192,124,125970,1,6,1:2:0:0:
404,88,126115,1,6,1:2:0:0:
312,88,126260,1,6,1:2:0:0:
404,88,126405,1,6,1:2:0:0:
185,211,126550,5,4,1:1:0:0:
357,211,126767,1,2,0:2:0:0:
185,211,126984,2,0,L|53:211,1,115,2|2,1:2|0:2,0:0:0:0:
353,318,127419,2,0,L|353:186,1,115,2|0,1:2|0:2,0:0:0:0:
181,207,127854,1,2,1:2:0:0:
353,203,128071,1,2,0:2:0:0:
77,123,128289,6,0,L|76:251,1,115,2|0,1:2|0:2,0:0:0:0:
248,239,128723,2,0,L|120:239,1,115,2|0,1:2|0:2,0:0:0:0:
412,211,129158,1,2,1:2:0:0:
240,215,129376,2,0,L|320:215,1,57.5,2|0,0:2|0:0,0:0:0:0:
500,147,129593,1,2,1:2:0:0:
168,95,129810,2,0,L|276:95,1,57.5,2|0,1:2|0:0,0:0:0:0:
428,259,130028,5,2,1:2:0:0:
256,263,130245,1,2,0:2:0:0:
428,259,130463,2,0,L|428:99,1,115,2|2,1:2|0:2,0:0:0:0:
152,127,130897,2,0,L|7:127,1,115,2|0,1:2|0:2,0:0:0:0:
211,131,131332,1,2,1:2:0:0:
37,127,131550,1,2,0:2:0:0:
340,323,131767,6,0,L|340:167,1,115,2|2,1:2|0:2,0:0:0:0:
168,211,132202,2,0,L|16:211,1,115,2|2,1:2|0:2,0:0:0:0:
384,103,132636,1,2,1:2:0:0:
108,99,132854,1,2,1:2:0:0:
384,103,133071,2,0,L|500:103,1,115,2|2,1:2|0:2,0:0:0:0:
224,263,133506,6,0,L|352:263,1,115,4|2,1:1|0:2,0:0:0:0:
168,263,133941,1,2,1:2:0:0:
340,259,134158,1,2,0:2:0:0:
60,259,134376,2,0,L|60:107,1,115,2|0,1:2|0:2,0:0:0:0:
232,143,134810,1,2,1:2:0:0:
60,139,135028,1,2,0:2:0:0:
348,355,135245,6,0,L|348:227,1,115,2|0,1:2|0:2,0:0:0:0:
168,239,135680,2,0,L|168:95,1,115,2|0,1:2|0:2,0:0:0:0:
444,99,136115,1,2,1:2:0:0:
272,95,136332,2,0,L|340:95,1,57.5,2|0,0:2|0:0,0:0:0:0:
508,39,136550,1,2,1:2:0:0:
204,47,136767,2,0,L|292:47,1,57.5,2|0,1:2|0:0,0:0:0:0:
460,47,136984,5,2,1:2:0:0:
288,47,137202,1,2,0:2:0:0:
116,43,137419,1,2,1:2:0:0:
288,39,137636,1,2,0:2:0:0:
12,235,137854,2,0,L|12:95,1,115,2|0,1:2|0:2,0:0:0:0:
184,115,138289,1,2,1:2:0:0:
12,119,138506,1,2,0:2:0:0:
308,283,138723,6,0,L|432:283,1,115,2|0,1:2|0:2,0:0:0:0:
144,223,139158,2,0,L|-16:223,1,115,2|0,1:2|0:2,0:0:0:0:
312,135,139593,1,6,1:2:0:0:
228,135,139738,1,4,1:2:0:0:
144,135,139883,1,4,1:2:0:0:
384,71,140028,1,6,1:2:0:0:
300,71,140173,1,4,1:2:0:0:
384,71,140318,1,4,1:2:0:0:
168,231,140463,5,4,1:1:0:0:
340,231,140680,2,0,L|340:95,1,115,2|2,0:2|1:2,0:0:0:0:
168,123,141115,1,2,0:2:0:0:
448,123,141332,2,0,L|288:123,1,115,2|0,1:2|0:2,0:0:0:0:
160,123,141767,1,2,1:2:0:0:
332,123,141984,1,2,0:2:0:0:
52,327,142202,6,0,L|52:195,1,115,2|0,1:2|0:2,0:0:0:0:
224,207,142636,2,0,L|68:207,1,115,2|0,1:2|0:2,0:0:0:0:
400,139,143071,1,2,1:2:0:0:
228,139,143289,2,0,L|312:139,1,57.5,2|0,0:2|0:0,0:0:0:0:
456,99,143506,1,2,1:2:0:0:
156,63,143723,2,0,L|248:63,1,57.5,2|0,1:2|0:0,0:0:0:0:
460,43,143941,5,2,1:2:0:0:
288,43,144158,1,2,0:2:0:0:
116,43,144376,1,2,1:2:0:0:
288,43,144593,1,2,0:2:0:0:
8,251,144810,2,0,L|144:251,1,115,2|0,1:2|0:2,0:0:0:0:
296,251,145245,1,2,1:2:0:0:
124,247,145463,1,2,0:2:0:0:
424,211,145680,6,0,L|280:211,1,115,2|2,1:2|0:2,0:0:0:0:
480,211,146115,1,2,1:2:0:0:
308,211,146332,1,2,0:2:0:0:
24,139,146550,1,2,1:2:0:0:
308,155,146767,1,2,1:2:0:0:
24,139,146984,2,0,L|24:255,1,115,2|2,1:2|0:2,0:0:0:0:
312,247,147419,5,4,1:1:0:0:
140,247,147636,1,2,0:2:0:0:
312,243,147854,1,2,1:2:0:0:
484,247,148071,1,2,0:2:0:0:
200,211,148289,2,0,L|200:75,1,115,2|0,1:2|0:2,0:0:0:0:
372,103,148723,1,2,1:2:0:0:
200,107,148941,1,2,0:2:0:0:
488,39,149158,6,0,L|488:163,1,115,2|0,1:2|0:2,0:0:0:0:
316,171,149593,2,0,L|444:171,1,115,2|0,1:2|0:2,0:0:0:0:
136,283,150028,1,2,1:2:0:0:
308,283,150245,2,0,L|216:283,1,57.5,2|0,0:2|0:0,0:0:0:0:
56,223,150463,1,2,1:2:0:0:
352,191,150680,2,0,L|252:191,1,57.5,2|0,1:2|0:0,0:0:0:0:
96,131,150897,5,2,1:2:0:0:
268,131,151115,1,2,0:2:0:0:
96,131,151332,2,0,L|96:255,1,115,2|2,1:2|0:2,0:0:0:0:
416,239,151767,2,0,L|272:239,1,115,2|0,1:2|0:2,0:0:0:0:
128,235,152202,1,2,1:2:0:0:
300,235,152419,1,2,0:2:0:0:
20,211,152636,6,0,P|20:135|128:103,1,172.5,6|0,1:2|0:0,0:0:0:0:
308,359,153071,2,0,L|84:359,1,172.5,6|0,1:2|0:0,0:0:0:0:
348,303,153506,2,0,P|412:271|328:239,1,172.5,4|0,1:2|0:0,0:0:0:0:
140,215,153941,2,0,P|80:191|160:155,1,172.5,4|0,1:2|0:0,0:0:0:0:
328,135,154376,5,4,1:1:0:0:
156,131,154593,1,2,0:2:0:0:
328,135,154810,1,2,1:2:0:0:
500,135,155028,1,2,0:2:0:0:
216,279,155245,6,0,L|56:279,1,115,2|0,1:2|0:2,0:0:0:0:
272,279,155680,1,2,1:2:0:0:
100,279,155897,1,2,0:2:0:0:
472,191,156115,5,2,1:2:0:0:
300,187,156332,1,0,0:2:0:0:
472,191,156550,2,0,L|472:59,1,115,2|0,1:2|0:2,0:0:0:0:
188,75,156984,6,0,L|344:75,1,115,2|2,1:2|0:2,0:0:0:0:
24,79,157419,1,2,1:2:0:0:
304,75,157636,1,2,1:2:0:0:
24,79,157854,6,0,L|24:231,1,115,2|2,1:2|0:2,0:0:0:0:
196,199,158289,2,0,L|196:59,1,115,2|2,1:2|0:2,0:0:0:0:
476,79,158723,6,0,L|352:79,1,115,2|0,1:2|0:2,0:0:0:0:
188,75,159158,1,2,1:2:0:0:
360,75,159376,1,2,0:2:0:0:
48,279,159593,6,0,L|180:279,1,115,2|2,1:2|0:2,0:0:0:0:
336,283,160028,2,2,L|336:159,1,115,2|2,1:2|0:2,0:2:0:0:
48,135,160463,5,2,1:2:0:0:
324,135,160680,2,0,L|240:135,1,57.5,2|0,1:2|0:0,0:0:0:0:
48,87,160897,1,2,1:2:0:0:
324,79,161115,2,0,L|244:79,1,57.5,2|0,0:2|0:0,0:0:0:0:
36,151,161332,5,4,1:1:0:0:
208,151,161550,1,2,0:2:0:0:
380,155,161767,1,2,1:2:0:0:
208,151,161984,1,2,0:2:0:0:
488,79,162202,6,0,L|488:227,1,115,2|0,1:2|0:2,0:0:0:0:
316,183,162636,1,2,1:2:0:0:
488,183,162854,1,2,0:2:0:0:
208,267,163071,5,2,1:2:0:0:
380,267,163289,1,0,0:2:0:0:
208,267,163506,2,0,L|336:267,1,115,2|0,1:2|0:2,0:0:0:0:
40,175,163941,6,0,L|40:51,1,115,2|2,1:2|0:2,0:0:0:0:
320,63,164376,1,2,1:2:0:0:
40,171,164593,1,2,1:2:0:0:
320,127,164810,5,2,1:2:0:0:
148,127,165028,1,2,0:2:0:0:
320,127,165245,2,0,L|196:127,1,115,2|2,1:2|0:2,0:0:0:0:
492,215,165680,6,0,L|492:87,1,115,2|0,1:2|0:2,0:0:0:0:
320,103,166115,1,2,1:2:0:0:
492,107,166332,1,2,0:2:0:0:
176,247,166550,5,2,1:2:0:0:
348,251,166767,2,0,L|216:251,1,115,0|2,0:2|1:2,0:0:0:0:
404,251,167202,1,0,0:2:0:0:
104,167,167419,5,6,1:2:0:0:
188,167,167564,1,4,1:2:0:0:
104,167,167709,1,4,1:2:0:0:
340,87,167854,1,6,1:2:0:0:
256,87,167999,1,4,1:2:0:0:
172,87,168144,1,4,1:2:0:0:
400,207,168289,5,4,1:1:0:0:
224,203,168506,1,2,0:2:0:0:
500,131,168723,1,6,1:2:0:0:
224,203,168941,1,2,0:2:0:0:
500,131,169158,6,0,L|336:131,1,126.500003860474,6|0,1:2|0:2,0:0:0:0:
196,131,169593,1,6,1:2:0:0:
368,131,169810,1,2,0:2:0:0:
36,243,170028,5,6,1:2:0:0:
212,243,170245,1,0,0:2:0:0:
36,243,170463,1,6,1:2:0:0:
356,175,170680,1,0,0:2:0:0:
36,243,170897,6,0,L|36:95,1,126.500003860474,6|2,1:2|0:2,0:0:0:0:
328,115,171332,1,6,1:2:0:0:
36,239,171550,1,2,1:2:0:0:
328,71,171767,6,0,L|188:71,1,126.500003860474,6|2,1:2|0:2,0:0:0:0:
380,71,172202,1,6,1:2:0:0:
204,71,172419,1,2,0:2:0:0:
496,191,172636,6,0,L|496:51,1,126.500003860474,6|0,1:2|0:2,0:0:0:0:
320,63,173071,1,6,1:2:0:0:
496,191,173289,1,2,0:2:0:0:
200,199,173506,5,6,1:2:0:0:
376,199,173723,1,2,0:2:0:0:
200,199,173941,1,6,1:2:0:0:
24,199,174158,1,2,0:2:0:0:
324,119,174376,5,6,1:2:0:0:
40,59,174593,2,0,L|112:59,1,63.2500019302369,2|0,1:2|0:0,0:0:0:0:
324,119,174810,1,6,1:2:0:0:
40,59,175027,2,0,L|112:59,1,63.2500019302369,2|0,0:2|0:0,0:0:0:0:
320,67,175245,5,0,1:1:0:0:
40,127,175463,1,2,0:2:0:0:
320,67,175680,1,6,1:2:0:0:
144,67,175897,1,2,0:2:0:0:
452,291,176115,6,0,L|452:155,1,126.500003860474,6|0,1:2|0:2,0:0:0:0:
276,163,176550,1,6,1:2:0:0:
452,159,176767,1,2,0:2:0:0:
140,91,176984,5,6,1:2:0:0:
316,91,177202,1,0,0:2:0:0:
32,43,177419,1,6,1:2:0:0:
316,91,177636,1,0,0:2:0:0:
32,43,177854,6,0,L|200:43,1,126.500003860474,6|2,1:2|0:2,0:0:0:0:
436,95,178289,1,6,1:2:0:0:
158,43,178506,1,2,1:2:0:0:
480,95,178723,5,6,1:2:0:0:
304,95,178941,1,2,0:2:0:0:
128,91,179158,1,6,1:2:0:0:
304,95,179376,1,2,0:2:0:0:
16,243,179593,6,0,L|16:95,1,126.500003860474,6|0,1:2|0:2,0:0:0:0:
192,111,180028,1,6,1:2:0:0:
16,111,180245,1,2,0:2:0:0:
324,347,180463,6,0,L|324:207,1,126.500003860474,2|0,1:2|0:2,0:0:0:0:
148,219,180897,2,0,L|148:83,1,126.500003860474,6|0,1:2|0:2,0:0:0:0:
476,215,181332,6,0,L|256:215,1,189.750005790711,4|0,1:2|0:0,0:0:0:0:
96,139,181767,2,0,L|328:139,1,189.750005790711,4|0,1:2|0:0,0:0:0:0:
56,268,182203,6,0,L|56:128,1,115,4|2,1:1|0:2,0:0:0:0:
204,156,182637,1,2,0:2:0:0:
56,156,182855,1,2,0:2:0:0:
204,156,183072,2,0,P|276:108|176:36,1,230,2|2,0:2|0:2,0:0:0:0:
80,32,183724,1,2,0:2:0:0:
376,360,183942,6,0,L|236:360,1,115,2|2,0:2|0:2,0:0:0:0:
412,360,184376,1,2,0:2:0:0:
264,360,184594,1,2,0:2:0:0:
116,360,184811,2,0,L|372:360,1,230,2|2,0:2|0:2,0:0:0:0:
346,360,185463,1,2,0:2:0:0:
60,220,185681,6,0,L|196:220,1,115,2|2,0:2|0:2,0:0:0:0:
284,220,186116,2,0,L|164:220,1,115,2|2,0:2|0:2,0:0:0:0:
320,220,186550,2,0,P|384:180|296:88,1,230,2|2,0:2|0:2,0:0:0:0:
192,88,187203,1,2,0:2:0:0:
472,256,187420,6,0,L|336:256,1,115,2|2,0:2|0:2,0:0:0:0:
208,256,187855,2,0,L|364:256,1,115,2|2,0:2|0:2,0:0:0:0:
172,260,188289,2,0,P|104:232|188:140,1,230,2|2,0:2|0:2,0:0:0:0:
324,136,188942,1,2,0:2:0:0:
40,84,189159,6,0,L|208:84,1,115,2|2,0:2|0:2,0:0:0:0:
304,80,189594,1,2,0:2:0:0:
156,80,189811,1,2,0:2:0:0:
304,80,190029,2,0,L|56:80,1,230,2|2,0:2|0:2,0:0:0:0:
74,80,190681,1,2,0:2:0:0:
352,268,190898,6,0,L|192:268,1,115,2|2,0:2|0:2,0:0:0:0:
388,268,191333,1,2,0:2:0:0:
240,268,191550,1,2,0:2:0:0:
388,268,191768,2,0,L|144:268,1,230,2|2,0:2|0:2,0:0:0:0:
308,268,192420,1,2,0:2:0:0:
24,192,192637,6,0,L|24:76,1,115,2|2,0:2|0:2,0:0:0:0:
172,76,193072,2,0,L|32:76,1,115,2|2,0:2|0:2,0:0:0:0:
208,76,193507,2,0,P|276:128|196:228,1,230,2|2,0:2|0:2,0:0:0:0:
96,224,194159,1,2,0:2:0:0:
400,216,194376,6,0,L|260:216,1,115,2|2,0:2|0:2,0:0:0:0:
436,208,194811,2,0,L|436:80,1,115,2|2,0:2|0:2,0:0:0:0:
288,92,195246,6,0,L|200:92,2,76.6666666666667,2|0|0,0:2|0:0|0:0,0:0:0:0:
388,96,195681,2,0,L|472:96,2,76.6666666666667,2|0|0,0:2|0:0|0:0,0:0:0:0:
172,348,196116,6,0,L|172:224,1,115,6|0,1:1|0:0,0:0:0:0:
287,233,196550,2,0,L|147:233,1,115,0|0,0:0|0:0,0:0:0:0:
320,232,196985,1,0,0:0:0:0:
88,232,197420,2,0,L|88:104,1,115,0|0,0:0|0:0,0:0:0:0:
236,116,197855,6,0,L|112:116,1,115,2|0,0:2|0:0,0:0:0:0:
236,116,198289,2,0,L|368:116,1,115,0|0,0:0|0:0,0:0:0:0:
200,116,198724,1,0,0:0:0:0:
428,240,199159,2,0,L|428:116,1,115,0|0,0:0|0:0,0:0:0:0:
280,128,199594,6,0,L|152:128,1,115,2|0,0:2|0:0,0:0:0:0:
280,128,200029,2,0,L|280:248,1,115,0|0,0:0|0:0,0:0:0:0:
132,240,200463,1,0,0:0:0:0:
356,240,200898,2,0,L|212:240,1,115,0|0,0:0|0:0,0:0:0:0:
92,240,201333,6,0,L|92:104,1,115,0|0,0:0|0:0,0:0:0:0:
208,132,201768,2,0,L|84:132,1,115,0|0,0:0|0:0,0:0:0:0:
244,132,202203,1,0,0:0:0:0:
16,76,202637,2,0,L|148:76,1,115,0|0,0:0|0:0,0:0:0:0:
280,72,203072,6,0,L|140:72,1,115,2|0,0:2|0:0,0:0:0:0:
280,72,203507,2,0,L|424:72,1,115,0|0,0:0|0:0,0:0:0:0:
244,72,203942,1,0,0:0:0:0:
472,224,204376,2,0,L|472:104,1,115,0|0,0:0|0:0,0:0:0:0:
324,100,204811,6,0,L|168:100,1,115,2|0,0:2|0:0,0:0:0:0:
94,100,205246,2,0,L|234:100,1,115,0|0,0:0|0:0,0:0:0:0:
60,100,205681,1,0,0:0:0:0:
288,100,206116,1,0,0:0:0:0:
140,100,206333,1,0,0:0:0:0:
288,100,206550,6,0,L|288:232,1,115,2|0,0:2|0:0,0:0:0:0:
168,212,206985,1,0,0:0:0:0:
316,212,207203,1,0,0:0:0:0:
168,212,207420,2,0,P|104:160|192:64,1,230,0|0,0:0|0:0,0:0:0:0:
328,64,208072,1,0,0:0:0:0:
180,60,208289,6,0,L|348:60,1,115,0|0,0:0|0:0,0:0:0:0:
144,60,208724,1,0,0:0:0:0:
292,60,208942,1,0,0:0:0:0:
144,60,209159,2,0,P|48:88|164:280,1,402.5,0|0,0:0|0:0,0:0:0:0:
400,288,210029,5,4,1:1:0:0:
256,192,210246,12,0,216985,0:0:0:0:
