osu file format v14

[General]
AudioFilename: audio.mp3
AudioLeadIn: 0
PreviewTime: 55797
Countdown: 0
SampleSet: Soft
StackLeniency: 0.4
Mode: 0
LetterboxInBreaks: 0
WidescreenStoryboard: 0

[Editor]
Bookmarks: 674,30131
DistanceSpacing: 0.8
BeatDivisor: 8
GridSize: 32
TimelineZoom: 3.899998

[Metadata]
Title:Bad Apple!! feat. nomico
TitleUnicode:Bad Apple!! feat. nomico
Artist:Masayoshi Minoshima
ArtistUnicode:Masayoshi Minoshima
Creator:Cheri
Version:Phantasm!!
Source:東方幻想郷 ~ Lotus Land Story
Tags:Video Game Japanese elly lovelight alstroemeria records 東方Project Bashe Yukiya Hailie DJ Lucky ylvy Undeadcapulet Touhou Zun
BeatmapID:2247622
BeatmapSetID:838156

[Difficulty]
HPDrainRate:6
CircleSize:4.5
OverallDifficulty:8
ApproachRate:9
SliderMultiplier:1.9
SliderTickRate:1

[Events]
//Background and Video events
0,0,"bg.jpg",0,0
//Break Periods
2,43630,53630
//Storyboard Layer 0 (Background)
//Storyboard Layer 1 (Fail)
//Storyboard Layer 2 (Pass)
//Storyboard Layer 3 (Foreground)
//Storyboard Layer 4 (Overlay)
//Storyboard Sound Samples

[TimingPoints]
152,434.782608695652,4,2,1,50,1,0
152,-100,4,2,1,50,0,0
14065,-100,4,2,1,70,0,0
27978,-90.9090909090909,4,2,1,70,0,0
69717,-83.3333333333333,4,2,1,65,0,0
82325,-76.9230769230769,4,2,1,65,0,0
82760,-71.4285714285714,4,2,1,65,0,0
83195,-62.5,4,2,1,65,0,0
83630,-71.4285714285714,4,2,1,80,0,1
84065,-71.4285714285714,4,2,1,80,0,0
87108,-83.3333333333333,4,2,1,80,0,0
88847,-100,4,2,1,80,0,0
90586,-71.4285714285714,4,2,1,80,0,0
94065,-83.3333333333333,4,2,1,80,0,0
95804,-100,4,2,1,80,0,0
97543,-62.5,4,2,1,90,0,0
111456,-100,4,2,1,60,0,0
112325,-1000,4,2,1,60,0,0
125369,-333.333333333333,4,2,1,60,0,0
126238,-1000,4,2,1,60,0,0
127543,-333.333333333333,4,2,1,60,0,0
127978,-1000,4,2,1,60,0,0
129282,-333.333333333333,4,2,1,60,0,0
129717,-1000,4,2,1,60,0,0
131021,-250,4,2,1,60,0,0
131456,-1000,4,2,1,60,0,0
132760,-333.333333333333,4,2,1,60,0,0
133195,-1000,4,2,1,60,0,0
134499,-333.333333333333,4,2,1,60,0,0
134934,-1000,4,2,1,60,0,0
136238,-333.333333333333,4,2,1,60,0,0
136673,-1000,4,2,1,60,0,0
138412,-200,4,2,1,70,0,0
139282,-83.3333333333333,4,2,1,70,0,0
153195,-66.6666666666667,4,2,1,70,0,0
167108,-83.3333333333333,4,2,1,65,0,1
167543,-83.3333333333333,4,2,1,65,0,0
193195,-76.9230769230769,4,2,1,65,0,0
193630,-71.4285714285714,4,2,1,65,0,0
194065,-66.6666666666667,4,2,1,65,0,0
194499,-62.5,4,2,1,65,0,0
194934,-71.4285714285714,4,2,1,80,0,1
195369,-71.4285714285714,4,2,1,80,0,0
198412,-83.3333333333333,4,2,1,80,0,0
200151,-100,4,2,1,80,0,0
201891,-71.4285714285714,4,2,1,80,0,0
205369,-83.3333333333333,4,2,1,80,0,0
207108,-100,4,2,1,80,0,0
208847,-62.5,4,2,1,90,0,0
222760,-333.333333333333,4,2,1,60,0,0
223630,-1000,4,2,1,60,0,0
224934,-333.333333333333,4,2,1,60,0,0
225369,-1000,4,2,1,60,0,0
226673,-333.333333333333,4,2,1,60,0,0
227108,-1000,4,2,1,60,0,0
228412,-250,4,2,1,60,0,0
228847,-1000,4,2,1,60,0,0
230151,-333.333333333333,4,2,1,60,0,0
230586,-1000,4,2,1,60,0,0
231891,-333.333333333333,4,2,1,60,0,0
232325,-1000,4,2,1,60,0,0
233630,-333.333333333333,4,2,1,60,0,0
234065,-1000,4,2,1,60,0,0
236673,-250,4,2,1,65,0,0
237543,-1000,4,2,1,65,0,0
238412,-250,4,2,1,65,0,0
239282,-1000,4,2,1,65,0,0
240151,-250,4,2,1,65,0,0
241021,-1000,4,2,1,65,0,0
241891,-250,4,2,1,65,0,0
242760,-500,4,2,1,65,0,0
243630,-250,4,2,1,65,0,0
244499,-1000,4,2,1,65,0,0
245369,-250,4,2,1,65,0,0
246238,-1000,4,2,1,65,0,0
247978,-1000,4,2,1,65,0,0
250586,-64.5161290322581,4,2,1,80,0,1
263630,-64.5161290322581,4,2,1,80,0,0
264499,-57.1428571428571,4,2,1,100,0,1
278412,-285.714285714286,4,2,1,65,0,0
279282,-285.714285714286,4,2,1,55,0,0
279717,-285.714285714286,4,2,1,65,0,0
286238,-285.714285714286,4,2,1,55,0,0
286673,-285.714285714286,4,2,1,65,0,0
291456,-285.714285714286,4,2,1,40,0,0
292325,-285.714285714286,4,2,1,60,0,0

[Colours]
Combo1 : 106,106,106
Combo2 : 223,223,223

[HitObjects]
264,35,152,5,2,3:2:0:0:
264,35,586,1,2,3:2:0:0:
264,35,1021,1,2,3:2:0:0:
65,43,1456,1,2,3:2:0:0:
65,43,1565,1,0,3:2:0:0:
65,43,1673,1,2,3:2:0:0:
65,43,1782,1,0,3:2:0:0:
67,77,1891,5,2,3:2:0:0:
67,77,2325,1,0,3:2:0:0:
67,77,2760,1,0,3:2:0:0:
65,250,3195,1,0,3:2:0:0:
67,159,3412,1,0,3:2:0:0:
243,157,3630,5,2,3:2:0:0:
243,157,4065,1,2,3:2:0:0:
243,157,4499,1,2,3:2:0:0:
76,166,4934,1,2,3:2:0:0:
76,166,5043,1,0,3:2:0:0:
76,166,5151,1,2,3:2:0:0:
76,166,5260,1,0,3:2:0:0:
73,132,5369,5,2,3:2:0:0:
73,132,5804,1,2,3:2:0:0:
73,132,6238,1,2,3:2:0:0:
244,130,6673,1,2,3:2:0:0:
153,129,6891,1,0,3:2:0:0:
154,295,7108,5,2,3:2:0:0:
154,295,7543,1,2,3:2:0:0:
154,295,7978,1,2,3:2:0:0:
161,139,8412,1,2,3:2:0:0:
161,139,8521,1,0,3:2:0:0:
161,139,8629,1,2,3:2:0:0:
161,139,8738,1,0,3:2:0:0:
197,138,8847,5,2,3:2:0:0:
197,138,9282,1,2,3:2:0:0:
197,138,9717,1,2,3:2:0:0:
366,136,10151,1,2,3:2:0:0:
280,137,10369,1,0,3:2:0:0:
281,302,10586,5,2,3:2:0:0:
281,302,11021,1,2,3:2:0:0:
281,302,11456,1,2,3:2:0:0:
290,147,11891,1,2,3:2:0:0:
290,147,11999,1,0,3:2:0:0:
290,147,12108,1,2,3:2:0:0:
290,147,12217,1,0,3:2:0:0:
292,183,12325,5,2,3:2:0:0:
256,192,12434,12,8,13630,3:2:0:0:
256,192,14065,6,0,P|156:190|101:188,1,142.5,4|0,3:2|0:0,0:0:0:0:
58,152,14499,1,2,3:2:0:0:
58,152,14608,2,0,L|80:252,1,95,2|0,0:0|0:0,0:0:0:0:
15,346,14934,2,0,P|66:333|178:304,1,142.5,0|0,3:2|0:0,0:0:0:0:
184,338,15369,1,2,3:2:0:0:
184,257,15477,1,0,0:0:0:0:
184,278,15586,1,2,0:0:0:0:
183,303,15695,1,0,0:0:0:0:
185,228,15804,6,0,P|242:219|350:203,1,142.5,2|0,3:2|0:0,0:0:0:0:
371,141,16238,1,0,3:0:0:0:
371,141,16347,2,0,B|356:227|345:273,1,95,2|0,0:0|0:0,0:0:0:0:
396,336,16673,2,0,P|401:268|408:182,1,142.5,2|0,3:2|0:0,0:0:0:0:
441,97,17108,1,2,3:2:0:0:
418,111,17217,1,0,0:0:0:0:
343,124,17325,1,2,0:0:0:0:
330,142,17434,1,0,0:0:0:0:
241,166,17543,6,0,P|179:173|64:185,1,142.5,2|0,3:2|0:0,0:0:0:0:
45,137,17978,1,0,3:0:0:0:
45,137,18086,2,0,P|59:188|73:258,1,95,2|0,0:0|0:0,0:0:0:0:
44,336,18412,2,0,P|114:267|159:216,1,142.5,2|0,3:2|0:0,0:0:0:0:
165,189,18847,1,2,3:2:0:0:
242,209,18957,1,0,0:0:0:0:
220,205,19065,1,2,0:0:0:0:
198,201,19174,1,0,0:0:0:0:
256,228,19282,6,0,P|327:222|410:216,1,142.5,2|0,3:2|0:0,0:0:0:0:
444,165,19717,1,0,3:2:0:0:
444,165,19825,2,0,P|435:213|424:300,1,95,2|0,0:0|0:0,0:0:0:0:
468,370,20151,2,0,P|427:351|395:334,1,47.5,2|0,3:2|0:0,0:0:0:0:
331,319,20369,1,2,0:0:0:0:
323,328,20478,1,0,0:0:0:0:
248,301,20586,1,2,3:2:0:0:
231,324,20695,1,0,0:0:0:0:
159,353,20804,1,2,0:0:0:0:
147,339,20913,1,0,0:0:0:0:
96,288,21021,6,0,P|66:196|49:138,1,142.5,2|0,3:2|0:0,0:0:0:0:
0,106,21456,1,0,3:0:0:0:
0,106,21565,2,0,P|38:98|100:85,1,95,2|0,0:0|0:0,0:0:0:0:
170,0,21891,2,0,P|154:75|137:147,1,142.5,2|0,3:2|0:0,0:0:0:0:
163,164,22325,1,2,3:2:0:0:
192,233,22435,1,0,0:0:0:0:
184,215,22543,1,2,0:0:0:0:
176,195,22652,1,0,0:0:0:0:
128,285,22760,6,0,P|166:277|283:259,1,142.5,2|0,3:2|0:0,0:0:0:0:
311,196,23195,1,0,3:0:0:0:
311,196,23304,2,0,P|314:258|317:333,1,95,2|0,0:0|0:0,0:0:0:0:
396,352,23630,2,0,P|337:333|240:343,1,142.5,2|0,3:2|0:0,0:0:0:0:
182,343,24065,1,2,3:2:0:0:
155,323,24173,1,0,0:0:0:0:
83,316,24282,1,2,0:0:0:0:
63,288,24390,1,0,0:0:0:0:
3,246,24499,6,0,P|15:188|38:82,1,142.5,2|0,3:2|0:0,0:0:0:0:
0,24,24934,1,0,3:0:0:0:
0,24,25043,2,0,P|42:54|117:82,1,95,2|0,0:0|0:0,0:0:0:0:
196,19,25369,2,0,P|159:100|130:167,1,142.5,2|0,3:2|0:0,0:0:0:0:
150,175,25804,1,0,3:2:0:0:
210,209,25912,1,0,0:0:0:0:
193,200,26021,1,2,0:0:0:0:
174,189,26129,1,0,0:0:0:0:
250,308,26238,6,0,P|240:237|256:168,1,142.5,2|0,3:2|0:0,0:0:0:0:
277,63,26673,1,0,3:0:0:0:
277,63,26782,2,0,P|301:135|311:186,1,95,2|0,0:0|0:0,0:0:0:0:
294,304,27108,5,10,3:2:0:0:
332,185,27253,1,8,3:2:0:0:
227,127,27398,1,8,3:2:0:0:
319,275,27543,5,8,3:2:0:0:
359,173,27688,1,8,3:2:0:0:
263,121,27833,1,8,3:2:0:0:
181,241,27978,6,0,P|96:237|50:232,1,104.500003189087,4|0,3:2|0:0,0:0:0:0:
12,291,28304,2,0,P|25:215|34:203,1,52.2500015945435,2|0,0:0|3:2,0:0:0:0:
85,146,28521,2,0,P|84:201|82:214,1,52.2500015945435,2|0,0:0|0:0,0:0:0:0:
112,107,28738,1,2,0:0:0:0:
107,222,28847,2,0,P|186:222|274:217,1,156.750004783631,2|0,3:2|0:0,0:0:0:0:
268,188,29283,1,2,3:2:0:0:
345,259,29391,1,0,0:0:0:0:
322,239,29500,1,2,0:0:0:0:
294,217,29609,1,0,0:0:0:0:
382,286,29717,6,0,P|426:213|456:181,1,104.500003189087,2|0,3:2|0:0,0:0:0:0:
462,110,30043,2,0,P|488:118|521:132,1,52.2500015945435,2|0,0:0|3:0,0:0:0:0:
392,158,30260,2,0,P|349:143|324:131,1,52.2500015945435,2|0,0:0|0:0,0:0:0:0:
453,80,30478,1,0,0:0:0:0:
313,165,30586,2,0,P|255:162|181:168,1,104.500003189087,2|0,3:2|0:0,0:0:0:0:
208,211,30912,1,2,0:0:0:0:
144,141,31021,1,2,3:2:0:0:
128,183,31130,1,0,0:0:0:0:
76,241,31238,1,2,0:0:0:0:
87,296,31347,1,0,0:0:0:0:
81,377,31456,6,0,P|66:322|49:263,1,104.500003189087,2|0,3:2|0:0,0:0:0:0:
3,217,31782,2,0,P|50:228|77:230,1,52.2500015945435,2|0,0:0|3:2,0:0:0:0:
143,165,31999,2,0,P|103:160|70:157,1,52.2500015945435,2|0,0:0|0:0,0:0:0:0:
144,141,32217,1,0,0:0:0:0:
222,226,32325,2,0,P|283:247|377:278,1,156.750004783631,2|0,3:2|0:0,0:0:0:0:
421,282,32760,1,2,3:2:0:0:
453,160,32870,1,0,0:0:0:0:
441,203,32978,1,2,0:0:0:0:
432,242,33087,1,0,0:0:0:0:
463,123,33195,6,0,P|402:97|335:54,1,104.500003189087,2|0,3:2|0:0,0:0:0:0:
289,40,33521,2,0,P|244:44|212:55,1,52.2500015945435,2|2,0:0|3:2,0:0:0:0:
158,137,33738,2,0,P|173:106|181:72,1,52.2500015945435,0|2,0:0|0:0,0:0:0:0:
138,14,33956,1,0,0:0:0:0:
129,198,34065,1,0,3:2:0:0:
0,53,34282,1,2,0:0:0:0:
30,32,34390,1,0,0:0:0:0:
80,74,34499,1,2,3:2:0:0:
104,43,34608,1,0,0:0:0:0:
176,19,34716,1,2,0:0:0:0:
207,27,34825,1,0,0:0:0:0:
261,87,34934,6,0,P|193:114|118:132,1,104.500003189087,2|0,3:2|0:0,0:0:0:0:
63,120,35260,2,0,P|95:95|122:88,1,52.2500015945435,2|0,0:0|3:2,0:0:0:0:
95,193,35478,2,0,P|67:219|41:227,1,52.2500015945435,2|0,0:0|0:0,0:0:0:0:
146,182,35695,1,0,0:0:0:0:
11,215,35804,2,0,P|7:294|0:373,1,156.750004783631,2|0,3:2|0:0,0:0:0:0:
35,362,36238,1,2,3:2:0:0:
145,358,36347,1,0,0:0:0:0:
109,358,36456,1,2,0:0:0:0:
70,360,36565,1,0,0:0:0:0:
191,356,36673,6,0,P|261:342|313:343,1,104.500003189087,0|0,3:2|0:0,0:0:0:0:
408,319,36999,2,0,P|416:282|418:253,1,52.2500015945435,2|0,0:0|3:2,0:0:0:0:
375,156,37217,2,0,P|356:193|354:225,1,52.2500015945435,2|0,0:0|0:0,0:0:0:0:
384,87,37434,1,0,0:0:0:0:
334,192,37543,1,0,3:2:0:0:
140,55,37760,1,2,0:0:0:0:
166,77,37869,1,0,0:0:0:0:
210,21,37978,1,2,3:2:0:0:
235,33,38086,1,0,0:0:0:0:
304,19,38195,1,2,0:0:0:0:
321,51,38303,1,0,0:0:0:0:
392,28,38412,6,0,P|354:82|329:125,1,104.500003189087,2|0,3:2|0:0,0:0:0:0:
350,258,38738,2,0,P|350:216|350:199,1,52.2500015945435,2|0,0:0|3:0,0:0:0:0:
260,117,38956,2,0,P|283:151|300:183,1,52.2500015945435,2|0,0:0|0:0,0:0:0:0:
252,75,39173,1,0,0:0:0:0:
232,216,39282,2,0,P|166:222|76:229,1,156.750004783631,2|0,3:2|0:0,0:0:0:0:
43,273,39717,1,2,3:2:0:0:
54,153,39825,1,0,0:0:0:0:
43,192,39933,1,2,0:0:0:0:
39,232,40042,1,0,0:0:0:0:
71,110,40151,2,0,P|140:113|211:126,1,104.500003189087,2|0,3:2|0:0,0:0:0:0:
290,115,40478,2,0,P|296:62|292:43,1,52.2500015945435,0|0,0:0|3:0,0:0:0:0:
184,155,40695,2,0,P|179:189|181:222,1,52.2500015945435,2|0,0:0|0:0,0:0:0:0:
307,138,40912,1,0,0:0:0:0:
319,298,41021,5,8,3:2:0:0:
201,283,41166,1,8,3:2:0:0:
273,183,41311,1,8,3:2:0:0:
354,323,41456,5,8,3:2:0:0:
161,300,41601,1,8,3:2:0:0:
277,150,41746,1,8,3:2:0:0:
257,362,41891,5,8,3:2:0:0:
64,257,54499,5,2,3:2:0:0:
453,292,54934,5,8,3:2:0:0:
356,311,55079,1,8,3:2:0:0:
255,329,55224,1,8,3:2:0:0:
159,186,55369,5,8,3:2:0:0:
266,186,55514,1,8,3:2:0:0:
377,183,55659,1,8,3:2:0:0:
491,127,55804,6,0,P|426:67|390:36,1,104.500003189087,2|0,3:2|0:0,0:0:0:0:
314,73,56238,2,0,P|352:107|395:146,1,104.500003189087,2|0,3:2|0:0,0:0:0:0:
430,283,56673,2,0,P|391:246|329:198,1,104.500003189087,2|0,3:2|0:0,0:0:0:0:
406,174,57108,5,2,3:2:0:0:
430,283,57325,1,2,0:0:0:0:
276,333,57543,6,0,P|196:332|111:343,1,156.750004783631,2|0,3:2|0:0,0:0:0:0:
26,345,57978,2,0,P|82:328|141:285,1,104.500003189087,2|0,3:2|0:0,0:0:0:0:
29,373,58412,5,2,3:2:0:0:
51,273,58630,1,2,0:0:0:0:
2,174,58847,1,2,3:2:0:0:
18,298,59065,1,2,3:2:0:0:
60,123,59282,6,0,P|127:117|180:110,1,104.500003189087,2|0,3:2|0:0,0:0:0:0:
284,56,59717,2,0,P|214:77|172:86,1,104.500003189087,2|0,3:2|0:0,0:0:0:0:
367,32,60151,1,2,3:2:0:0:
281,252,60586,5,2,3:2:0:0:
257,159,60804,1,2,0:0:0:0:
298,296,61021,5,2,3:2:0:0:
281,252,61238,1,0,0:0:0:0:
326,353,61456,1,2,3:2:0:0:
336,306,61673,1,0,0:0:0:0:
391,333,61891,1,2,3:2:0:0:
372,286,62108,1,0,3:0:0:0:
443,259,62325,1,2,3:2:0:0:
402,257,62543,1,0,0:0:0:0:
487,186,62760,6,0,P|449:111|435:72,1,104.500003189087,6|0,3:2|0:0,0:0:0:0:
320,22,63195,2,0,P|316:78|309:130,1,104.500003189087,2|0,3:2|0:0,0:0:0:0:
201,215,63630,2,0,P|213:153|221:123,1,52.2500015945435,2|0,3:2|0:0,0:0:0:0:
210,163,64065,5,2,3:2:0:0:
217,313,64282,1,2,0:0:0:0:
351,262,64499,2,0,P|408:275|511:250,1,156.750004783631,2|0,3:2|0:0,0:0:0:0:
482,190,64934,2,0,P|487:255|494:327,1,104.500003189087,2|0,3:2|0:0,0:0:0:0:
440,352,65369,5,2,3:2:0:0:
442,273,65586,1,2,0:0:0:0:
344,297,65804,1,2,3:2:0:0:
369,264,66021,1,2,3:2:0:0:
275,258,66238,6,0,P|213:277|142:288,1,104.500003189087,2|0,3:2|0:0,0:0:0:0:
72,328,66673,1,2,3:2:0:0:
123,229,66891,1,0,0:0:0:0:
274,282,67108,2,0,P|337:300|414:315,1,104.500003189087,2|0,3:2|0:0,0:0:0:0:
445,362,67543,5,2,3:2:0:0:
357,275,67760,1,0,0:0:0:0:
238,123,67978,6,0,L|248:288,1,156.750004783631,2|0,3:2|0:0,0:0:0:0:
271,106,68412,6,0,P|237:189|204:275,1,156.750004783631,2|0,3:2|0:0,0:0:0:0:
308,81,68847,5,10,0:0:0:0:
254,133,68992,1,10,0:0:0:0:
196,185,69137,1,10,0:0:0:0:
348,101,69282,5,10,0:0:0:0:
242,116,69427,1,10,0:0:0:0:
146,132,69572,1,10,0:0:0:0:
45,193,69717,6,0,P|153:214|177:224,1,113.999996520996,0|0,3:2|0:0,0:0:0:0:
258,261,70151,1,2,3:2:0:0:
171,199,70369,1,0,0:0:0:0:
295,334,70586,2,0,P|286:276|275:213,1,113.999996520996,2|0,3:2|0:0,0:0:0:0:
342,41,71021,5,2,3:2:0:0:
303,133,71238,1,2,0:0:0:0:
365,242,71456,6,0,P|321:117|301:63,1,170.999994781494,2|0,3:2|0:0,0:0:0:0:
306,207,71891,2,0,P|311:132|319:22,1,170.999994781494,2|0,3:2|0:0,0:0:0:0:
281,196,72325,5,2,3:2:0:0:
290,282,72543,1,2,0:0:0:0:
273,121,72760,5,2,3:2:0:0:
281,328,72978,1,2,3:2:0:0:
251,98,73195,6,0,P|154:101|108:99,1,113.999996520996,2|0,3:2|0:0,0:0:0:0:
291,83,73630,1,2,3:2:0:0:
93,133,73847,1,0,0:0:0:0:
333,48,74065,2,0,P|313:118|296:182,1,113.999996520996,2|0,3:2|0:0,0:0:0:0:
400,29,74499,5,2,3:2:0:0:
339,71,74717,1,0,0:0:0:0:
306,216,74934,5,2,3:2:0:0:
304,139,75151,1,0,0:0:0:0:
310,296,75369,5,2,3:2:0:0:
252,221,75586,1,0,0:0:0:0:
386,365,75804,5,2,3:2:0:0:
296,318,76021,1,0,3:2:0:0:
236,177,76238,5,2,3:2:0:0:
275,344,76456,1,0,0:0:0:0:
210,133,76673,6,0,P|217:70|225:-7,1,113.999996520996,4|0,3:2|0:0,0:0:0:0:
236,177,77108,1,2,3:2:0:0:
188,60,77325,1,0,0:0:0:0:
247,212,77543,2,0,P|232:293|223:350,1,113.999996520996,2|0,3:2|0:0,0:0:0:0:
355,171,77978,5,2,3:2:0:0:
214,198,78195,1,0,0:0:0:0:
366,127,78412,6,0,P|427:154|535:207,1,170.999994781494,2|0,3:2|0:0,0:0:0:0:
308,117,78847,2,0,P|364:122|477:136,1,170.999994781494,2|0,3:2|0:0,0:0:0:0:
278,89,79282,5,2,3:2:0:0:
356,161,79499,1,0,0:0:0:0:
203,69,79717,5,2,3:2:0:0:
425,191,79934,1,0,3:0:0:0:
183,146,80151,6,0,P|94:153|32:152,1,113.999996520996,2|0,3:2|0:0,0:0:0:0:
296,221,80586,2,0,P|384:243|439:253,1,113.999996520996,2|0,3:2|0:0,0:0:0:0:
161,147,81021,2,0,P|137:242|103:344,1,170.999994781494,2|0,3:2|0:0,0:0:0:0:
185,130,81456,5,2,3:2:0:0:
374,103,81673,1,2,0:0:0:0:
163,333,81891,6,0,P|155:217|150:131,1,170.999994781494,4|0,3:2|0:0,0:0:0:0:
352,40,82325,6,0,P|306:120|261:201,1,185.249991519928,4|0,3:2|0:0,0:0:0:0:
48,360,82760,6,0,P|126:293|231:258,1,199.499993911743,4|0,3:2|0:0,0:0:0:0:
434,117,83195,6,0,P|319:138|177:102,1,228,4|0,3:2|0:0,0:0:0:0:
207,361,83630,6,0,P|213:299|221:196,1,132.999995941162,4|0,3:2|0:0,0:0:0:0:
343,38,84065,1,2,3:2:0:0:
242,197,84282,1,2,0:0:0:0:
400,14,84499,2,0,P|284:79|194:126,1,199.499993911743,2|0,3:2|0:0,0:0:0:0:
425,34,84934,5,2,3:2:0:0:
259,180,85151,1,2,0:0:0:0:
460,88,85369,6,0,P|376:76|299:67,1,132.999995941162,2|0,3:2|0:0,0:0:0:0:
274,76,85695,1,0,0:0:0:0:
338,117,85804,1,2,3:2:0:0:
331,193,85912,1,0,0:0:0:0:
266,223,86021,1,2,0:0:0:0:
59,120,86238,2,0,P|140:200|190:244,1,132.999995941162,2|2,3:2|0:0,0:0:0:0:
337,346,86673,5,2,3:2:0:0:
267,313,86782,1,0,0:0:0:0:
152,324,86891,1,2,0:0:0:0:
374,312,87108,6,0,P|450:347|498:373,1,113.999996520996,2|2,3:2|0:0,0:0:0:0:
361,254,87543,2,0,P|274:263|236:268,1,113.999996520996,2|2,3:2|0:0,0:0:0:0:
197,291,87869,1,0,0:0:0:0:
107,258,87978,2,0,P|236:251|301:248,1,170.999994781494,2|0,3:2|0:0,0:0:0:0:
361,254,88412,5,2,3:2:0:0:
253,211,88630,1,2,0:0:0:0:
310,224,88847,6,0,P|310:300|309:359,1,95,2|2,3:2|0:0,0:0:0:0:
339,246,89282,2,0,P|309:185|286:135,1,95,2|2,3:2|0:0,0:0:0:0:
318,68,89717,2,0,P|283:165|258:232,1,142.5,2|0,3:2|0:0,0:0:0:0:
233,323,90151,5,2,3:2:0:0:
243,112,90369,1,2,0:0:0:0:
98,357,90586,6,0,P|164:240|182:209,1,132.999995941162,2|2,3:2|0:0,0:0:0:0:
94,99,91021,1,2,3:2:0:0:
183,281,91238,1,2,0:0:0:0:
61,59,91456,2,0,P|131:82|281:73,1,199.499993911743,2|0,3:2|0:0,0:0:0:0:
44,96,91891,5,2,3:2:0:0:
279,54,92108,1,2,0:0:0:0:
469,155,92325,6,0,P|397:149|313:142,1,132.999995941162,2|2,3:2|0:0,0:0:0:0:
281,141,92651,1,0,0:0:0:0:
320,197,92760,1,2,3:2:0:0:
325,268,92869,1,0,0:0:0:0:
294,335,92978,1,2,0:0:0:0:
234,106,93195,6,0,P|314:131|442:153,1,199.499993911743,2|0,3:2|0:0,0:0:0:0:
209,99,93630,5,2,3:2:0:0:
134,125,93738,1,0,0:0:0:0:
96,241,93847,1,2,0:0:0:0:
234,69,94065,6,0,P|306:67|361:61,1,113.999996520996,2|2,3:2|0:0,0:0:0:0:
206,159,94499,2,0,P|120:166|66:167,1,113.999996520996,2|2,3:2|0:0,0:0:0:0:
34,142,94825,1,0,0:0:0:0:
71,208,94934,2,0,P|140:238|231:274,1,170.999994781494,2|0,3:2|0:0,0:0:0:0:
289,341,95369,5,2,3:2:0:0:
239,243,95586,1,0,0:0:0:0:
310,163,95804,6,0,P|306:226|304:291,1,95,2|2,3:2|0:0,0:0:0:0:
362,183,96238,2,0,P|311:149|269:119,1,95,2|0,3:2|0:0,0:0:0:0:
445,192,96673,5,10,3:2:0:0:
318,84,96818,1,8,3:2:0:0:
163,190,96963,1,8,3:2:0:0:
470,190,97108,5,10,3:2:0:0:
318,122,97253,1,8,3:2:0:0:
198,282,97398,1,8,3:2:0:0:
469,126,97543,6,0,P|388:126|282:118,1,152,4|2,3:2|0:0,0:0:0:0:
121,16,97978,2,0,P|125:103|141:185,1,152,2|2,3:1|0:0,0:0:0:0:
321,352,98412,2,0,P|320:220|261:140,1,228,2|0,3:1|0:0,0:0:0:0:
418,312,98847,6,0,P|342:325|288:329,1,76,2|0,3:2|0:0,0:0:0:0:
157,168,99065,2,0,P|208:183|255:195,1,76,2|0,0:0|0:0,0:0:0:0:
379,23,99282,6,0,P|346:90|357:164,1,152,2|2,3:1|0:0,0:0:0:0:
179,340,99717,1,2,3:1:0:0:
329,170,99934,1,2,0:0:0:0:
475,22,100151,2,0,B|443:87|390:85|390:85|420:152|339:207,1,228,2|0,3:1|0:0,0:0:0:0:
461,308,100586,5,2,3:1:0:0:
409,231,100695,1,0,0:0:0:0:
343,97,100804,2,0,L|359:196,1,76,2|0,0:0|0:0,0:0:0:0:
193,290,101021,6,0,B|227:252|251:243|251:243|250:212|268:157,1,152,2|2,3:1|0:0,0:0:0:0:
105,284,101456,2,0,B|176:255|176:255|244:300,1,152,2|2,3:1|0:0,0:0:0:0:
9,165,101891,2,0,B|28:212|59:216|59:216|63:296|63:296|93:304|123:361,1,228,2|0,3:1|0:0,0:0:0:0:
11,145,102325,5,2,3:1:0:0:
215,234,102543,2,0,P|199:270|197:342,1,76,2|0,0:0|0:0,0:0:0:0:
199,139,102760,6,0,P|107:124|41:113,1,152,2|2,3:1|0:0,0:0:0:0:
272,62,103195,2,0,P|347:77|459:101,1,152,2|2,3:1|0:0,0:0:0:0:
188,178,103630,2,0,P|186:124|190:69,1,76,2|0,3:1|0:0,0:0:0:0:
350,224,103847,2,0,P|349:268|337:345,1,76,2|0,0:0|0:0,0:0:0:0:
328,160,104065,6,0,L|341:259,1,76,2|0,3:1|0:0,0:0:0:0:
201,347,104282,2,0,L|203:255,1,76,2|0,0:0|0:0,0:0:0:0:
64,99,104499,6,0,P|88:177|81:273,1,152,4|2,3:2|0:0,0:0:0:0:
315,111,104934,2,0,P|221:122|152:114,1,152,2|2,3:1|0:0,0:0:0:0:
475,228,105369,2,0,B|337:114|337:114|335:50,1,228,2|0,3:1|0:0,0:0:0:0:
440,309,105804,6,0,L|432:209,1,76,2|0,3:1|0:0,0:0:0:0:
375,42,106021,2,0,L|365:139,1,76,2|0,0:0|0:0,0:0:0:0:
342,347,106238,6,0,P|393:317|488:297,1,152,2|2,3:1|0:0,0:0:0:0:
206,300,106673,2,0,P|145:346|75:374,1,152,2|2,3:1|0:0,0:0:0:0:
207,94,107108,2,0,B|239:145|309:132|309:132|262:181|306:270,1,228,2|0,3:1|0:0,0:0:0:0:
170,57,107543,6,0,P|187:129|178:181,1,76,2|0,3:1|0:0,0:0:0:0:
433,16,107760,2,0,P|376:65|362:98,1,76,2|0,0:0|0:0,0:0:0:0:
306,346,107977,6,0,P|288:257|292:177,1,152,2|2,3:1|0:0,0:0:0:0:
464,5,108412,2,0,P|380:94|353:167,1,152,2|2,3:1|0:0,0:0:0:0:
76,237,108847,2,0,B|145:208|216:306|323:219,1,228,2|0,3:1|0:0,0:0:0:0:
48,302,109282,6,0,L|55:211,1,76,2|0,3:1|0:0,0:0:0:0:
178,369,109499,1,2,0:0:0:0:
193,70,109717,5,2,3:1:0:0:
296,237,109934,1,2,0:0:0:0:
53,226,110151,6,0,P|47:260|54:321,1,76,2|0,3:1|0:0,0:0:0:0:
180,116,110369,2,0,P|183:79|174:30,1,76,2|0,0:0|0:0,0:0:0:0:
260,96,110586,5,8,3:2:0:0:
48,101,110731,1,8,3:2:0:0:
160,264,110876,1,8,3:2:0:0:
274,84,111021,5,10,3:2:0:0:
28,90,111166,1,8,3:2:0:0:
160,293,111311,1,8,3:2:0:0:
297,62,111456,5,2,3:2:0:0:
321,127,111673,1,0,0:0:0:0:
345,200,111891,1,2,0:0:0:0:
353,223,112108,1,0,0:0:0:0:
361,253,112325,2,0,L|361:268,1,14.25,2|0,3:2|0:0,0:0:0:0:
368,289,112760,5,2,0:0:0:0:
379,311,112978,1,0,0:0:0:0:
342,348,113195,5,2,3:2:0:0:
305,297,113412,1,0,0:0:0:0:
261,229,113630,1,2,0:0:0:0:
220,164,113847,1,0,0:0:0:0:
209,137,114065,2,0,L|210:121,1,14.25,2|0,3:2|0:0,0:0:0:0:
216,102,114499,5,2,0:0:0:0:
219,89,114717,1,0,0:0:0:0:
260,88,114934,5,2,3:2:0:0:
333,86,115151,1,0,0:0:0:0:
405,86,115369,1,0,0:0:0:0:
451,85,115586,1,0,0:0:0:0:
481,88,115804,2,0,L|482:102,1,14.25,2|0,3:2|0:0,0:0:0:0:
483,111,116238,5,2,0:0:0:0:
486,118,116456,1,0,0:0:0:0:
477,151,116673,5,2,3:2:0:0:
431,153,116891,1,0,0:0:0:0:
390,155,117108,2,0,L|380:160,1,9.5,2|0,0:0|0:0,0:0:0:0:
332,162,117543,2,0,L|317:162,1,14.25,2|0,3:2|0:0,0:0:0:0:
277,151,117978,5,2,0:0:0:0:
257,184,118195,1,0,0:0:0:0:
270,247,118412,5,2,3:2:0:0:
205,200,118630,1,0,0:0:0:0:
146,148,118847,1,0,0:0:0:0:
118,122,119065,1,0,0:0:0:0:
90,94,119282,2,0,L|91:79,1,14.25,2|0,0:0|0:0,0:0:0:0:
83,64,119717,5,2,0:0:0:0:
64,64,119934,1,0,0:0:0:0:
40,133,120151,5,2,3:2:0:0:
85,178,120369,1,0,0:0:0:0:
142,224,120586,1,2,0:0:0:0:
203,269,120804,1,0,0:0:0:0:
224,285,121021,2,0,L|226:301,1,14.25,2|0,3:2|0:0,0:0:0:0:
226,315,121456,5,2,0:0:0:0:
232,327,121673,1,0,0:0:0:0:
239,360,121891,5,2,3:2:0:0:
316,361,122108,1,0,0:0:0:0:
395,357,122325,1,2,0:0:0:0:
441,355,122543,1,0,0:0:0:0:
470,347,122760,2,0,L|462:331,1,14.25,2|0,3:2|0:0,0:0:0:0:
450,308,123195,5,2,0:0:0:0:
452,290,123412,1,0,0:0:0:0:
430,254,123630,5,2,3:2:0:0:
381,253,123847,1,0,0:0:0:0:
336,255,124065,2,0,L|331:247,1,9.5,2|0,0:0|0:0,0:0:0:0:
288,242,124499,2,0,L|289:238,1,4.75,2|0,3:2|0:0,0:0:0:0:
249,248,124717,2,0,L|246:255,1,4.75,2|0,0:0|0:0,0:0:0:0:
215,260,124934,5,2,0:0:0:0:
172,252,125151,1,0,0:0:0:0:
129,276,125369,5,2,3:2:0:0:
77,216,125586,1,0,0:0:0:0:
38,152,125804,2,0,P|32:179|31:193,1,28.4999991302491,2|0,0:0|0:0,0:0:0:0:
65,115,126238,2,0,L|63:129,1,14.25,2|0,3:2|0:0,0:0:0:0:
85,92,126673,5,2,0:0:0:0:
161,92,126891,1,0,0:0:0:0:
203,60,127108,5,2,3:2:0:0:
273,90,127325,1,0,0:0:0:0:
333,154,127543,2,0,P|339:177|340:193,1,28.4999991302491,2|0,0:0|0:0,0:0:0:0:
367,98,127978,2,0,L|363:112,1,14.25,2|0,3:2|0:0,0:0:0:0:
396,83,128412,5,2,0:0:0:0:
465,58,128630,1,0,0:0:0:0:
415,120,128847,5,2,3:2:0:0:
356,170,129065,1,0,0:0:0:0:
320,229,129282,2,0,P|315:251|313:263,1,28.4999991302491,2|2,3:2|0:0,0:0:0:0:
283,191,129717,2,0,L|286:207,1,14.25,2|0,3:2|0:0,0:0:0:0:
275,162,130151,5,2,0:0:0:0:
261,185,130369,1,0,0:0:0:0:
239,254,130586,5,2,3:2:0:0:
213,189,130804,1,0,0:0:0:0:
177,122,131021,2,0,P|178:100|186:73,1,38,2|0,0:0|0:0,0:0:0:0:
134,146,131456,2,0,L|135:151,1,4.75,2|0,3:2|0:0,0:0:0:0:
118,185,131673,2,0,L|120:192,1,4.75,2|0,0:0|0:0,0:0:0:0:
114,224,131891,5,2,0:0:0:0:
51,256,132108,1,0,0:0:0:0:
141,266,132325,5,2,3:2:0:0:
214,253,132543,1,0,0:0:0:0:
283,289,132760,2,0,P|288:309|288:326,1,28.4999991302491
297,246,133195,2,0,L|297:263,1,14.25,2|0,3:2|0:0,0:0:0:0:
311,210,133630,5,2,0:0:0:0:
264,144,133847,1,0,0:0:0:0:
266,51,134065,5,2,3:2:0:0:
188,40,134282,1,0,0:0:0:0:
108,77,134499,2,0,P|95:93|89:102,1,28.4999991302491,2|0,0:0|0:0,0:0:0:0:
124,37,134934,2,0,L|123:52,1,14.25,2|0,3:2|0:0,0:0:0:0:
159,5,135369,5,2,0:0:0:0:
153,96,135586,1,0,0:0:0:0:
276,201,135804,5,2,3:2:0:0:
189,138,136021,1,0,0:0:0:0:
85,144,136238,2,0,P|117:150|136:150,1,42.7499986953736,2|0,0:0|0:0,0:0:0:0:
40,133,136673,2,0,L|35:147,1,14.25,2|0,3:2|0:0,0:0:0:0:
20,101,137108,1,2,0:0:0:0:
46,238,137325,1,0,0:0:0:0:
103,317,137543,5,2,3:2:0:0:
86,299,137978,1,2,3:2:0:0:
256,49,138412,6,0,L|240:131,1,71.25,4|0,3:2|0:0,0:0:0:0:
256,297,138847,2,0,L|234:211,1,71.25,4|0,3:2|0:0,0:0:0:0:
322,372,139282,6,0,P|297:295|262:187,1,170.999994781494,4|0,3:2|0:0,0:0:0:0:
320,289,139717,1,2,3:2:0:0:
300,126,139825,2,0,L|295:202,1,56.9999982604981,0|2,0:0|0:0,0:0:0:0:
325,87,140043,1,0,0:0:0:0:
158,238,140151,6,0,P|230:234|365:231,1,170.999994781494,2|0,3:2|0:0,0:0:0:0:
168,213,140586,1,2,3:2:0:0:
126,237,140695,1,0,0:0:0:0:
61,203,140804,1,2,0:0:0:0:
45,258,140912,1,0,0:0:0:0:
14,358,141021,6,0,P|27:258|1:158,1,170.999994781494,2|0,3:2|0:0,0:0:0:0:
60,278,141456,1,2,3:2:0:0:
34,122,141565,2,0,P|27:160|21:219,1,56.9999982604981,0|2,0:0|0:0,0:0:0:0:
16,79,141782,1,0,0:0:0:0:
203,47,141891,2,0,P|130:47|64:54,1,113.999996520996,2|2,3:2|0:0,0:0:0:0:
207,84,142217,5,0,0:0:0:0:
346,122,142325,2,0,P|399:158|414:179,1,56.9999982604981,2|0,3:2|0:0,0:0:0:0:
167,152,142543,1,2,0:0:0:0:
127,86,142651,1,0,0:0:0:0:
183,229,142760,6,0,P|205:138|287:101,1,170.999994781494,2|0,3:2|0:0,0:0:0:0:
167,152,143195,1,2,3:2:0:0:
298,61,143304,2,0,P|300:114|299:154,1,56.9999982604981,0|2,0:0|0:0,0:0:0:0:
322,20,143521,1,0,0:0:0:0:
302,245,143630,6,0,B|281:181|286:135|286:135|228:111,1,170.999994781494,2|0,3:2|0:0,0:0:0:0:
72,90,144065,1,2,3:2:0:0:
116,61,144173,1,0,0:0:0:0:
172,111,144282,1,2,0:0:0:0:
247,97,144391,1,0,0:0:0:0:
377,95,144499,6,0,L|200:145,1,170.999994781494,2|0,3:2|0:0,0:0:0:0:
326,71,144934,1,2,3:2:0:0:
390,186,145043,2,0,P|384:121|388:88,1,56.9999982604981,0|2,0:0|0:0,0:0:0:0:
406,236,145260,1,0,0:0:0:0:
356,346,145369,5,2,3:2:0:0:
227,242,145586,1,2,0:0:0:0:
158,278,145695,1,0,0:0:0:0:
163,200,145804,1,2,3:2:0:0:
30,348,146021,1,2,0:0:0:0:
51,277,146130,1,0,0:0:0:0:
23,169,146238,6,0,B|42:212|28:259|28:259|67:339,1,170.999994781494,2|0,3:2|0:0,0:0:0:0:
8,203,146673,1,2,3:2:0:0:
87,102,146782,2,0,P|84:155|88:191,1,56.9999982604981,0|2,0:0|0:0,0:0:0:0:
57,78,146999,1,0,0:0:0:0:
284,94,147108,2,0,P|205:121|112:92,1,170.999994781494,2|0,3:2|0:0,0:0:0:0:
310,100,147543,1,2,3:2:0:0:
268,135,147651,1,0,0:0:0:0:
306,208,147760,1,2,0:0:0:0:
323,274,147869,1,0,0:0:0:0:
190,359,147978,6,0,B|228:347|272:351|272:351|300:318|352:302,1,170.999994781494,0|0,3:2|0:0,0:0:0:0:
278,362,148412,1,0,3:2:0:0:
381,263,148521,2,0,P|390:296|394:335,1,56.9999982604981,0|2,0:0|0:0,0:0:0:0:
405,224,148738,1,0,0:0:0:0:
456,80,148847,2,0,B|426:131|426:131|434:192,1,113.999996520996,2|2,3:2|0:0,0:0:0:0:
496,45,149173,1,0,0:0:0:0:
292,68,149282,2,0,P|318:66|382:51,1,56.9999982604981,2|0,3:2|0:0,0:0:0:0:
147,129,149499,1,2,0:0:0:0:
185,49,149608,1,0,0:0:0:0:
136,234,149717,6,0,B|126:146|126:146|78:130|59:84,1,170.999994781494,2|0,3:2|0:0,0:0:0:0:
147,129,150151,1,2,3:2:0:0:
85,238,150260,2,0,P|82:282|81:320,1,56.9999982604981,0|2,0:0|0:0,0:0:0:0:
48,204,150478,1,0,0:0:0:0:
70,372,150586,2,0,P|126:345|229:290,1,170.999994781494,2|0,3:2|0:0,0:0:0:0:
407,307,151021,1,2,3:2:0:0:
374,265,151130,1,0,0:0:0:0:
389,180,151238,1,2,0:0:0:0:
383,122,151347,1,0,0:0:0:0:
438,18,151456,6,0,P|365:77|381:149,1,170.999994781494,2|0,3:2|0:0,0:0:0:0:
357,49,151891,1,2,3:2:0:0:
311,124,151999,1,0,0:0:0:0:
225,80,152108,1,2,0:0:0:0:
241,175,152217,1,0,0:0:0:0:
355,314,152325,5,8,3:2:0:0:
239,293,152470,1,8,3:2:0:0:
220,174,152615,1,8,3:2:0:0:
358,347,152760,5,8,3:2:0:0:
213,318,152905,1,8,3:2:0:0:
195,145,153050,1,8,3:2:0:0:
151,359,153195,6,0,P|257:308|358:281,1,213.750008153916,4|0,3:2|0:0,0:0:0:0:
416,141,153630,2,0,P|409:219|411:273,1,71.2500027179719,2|0,3:2|0:0,0:0:0:0:
379,67,153847,1,2,0:0:0:0:
351,148,153956,1,0,0:0:0:0:
428,39,154065,2,0,P|371:88|303:141,1,142.500005435944,2|2,3:2|0:0,0:0:0:0:
221,262,154391,1,0,0:0:0:0:
123,206,154499,2,0,P|158:204|234:193,1,71.2500027179719,2|0,3:2|0:0,0:0:0:0:
11,218,154717,1,2,0:0:0:0:
90,166,154825,1,0,0:0:0:0:
155,363,154934,6,0,B|175:309|176:260|176:260|213:212|219:152,1,213.750008153916,2|0,3:2|0:0,0:0:0:0:
183,21,155369,2,0,P|198:63|217:103,1,71.2500027179719,2|0,3:2|0:0,0:0:0:0:
70,30,155586,1,0,0:0:0:0:
159,51,155695,1,0,0:0:0:0:
246,224,155804,2,0,P|236:135|228:51,1,142.500005435944,2|2,3:2|0:0,0:0:0:0:
279,253,156130,1,0,0:0:0:0:
259,48,156238,6,0,L|259:126,1,71.2500027179719,2|0,3:2|0:0,0:0:0:0:
309,286,156456,1,2,0:0:0:0:
233,209,156565,1,0,0:0:0:0:
367,300,156673,6,0,B|301:296|261:282|261:282|206:298|146:308,1,213.750008153916,2|0,3:2|0:0,0:0:0:0:
65,364,157108,2,0,P|90:340|142:288,1,71.2500027179719,2|0,3:2|0:0,0:0:0:0:
90,283,157325,1,2,0:0:0:0:
33,384,157434,1,0,0:0:0:0:
59,161,157543,2,0,P|56:248|51:328,1,142.500005435944,2|2,3:2|0:0,0:0:0:0:
213,367,157869,1,0,0:0:0:0:
296,299,157978,2,0,P|256:308|227:315,1,71.2500027179719,2|0,3:2|0:0,0:0:0:0:
420,343,158195,1,2,0:0:0:0:
315,273,158304,1,0,0:0:0:0:
468,122,158412,6,0,B|414:129|386:153|386:153|313:43|294:66,1,213.750008153916,2|0,3:2|0:0,0:0:0:0:
158,123,158847,2,0,P|205:108|238:96,1,71.2500027179719,2|0,3:2|0:0,0:0:0:0:
96,177,159065,1,2,0:0:0:0:
166,84,159173,1,0,0:0:0:0:
51,226,159282,6,0,P|50:283|53:342,1,71.2500027179719,2|0,3:2|0:0,0:0:0:0:
10,126,159499,1,2,0:0:0:0:
72,221,159608,1,0,0:0:0:0:
135,350,159717,2,0,P|70:319|34:305,1,71.2500027179719,2|0,3:2|0:0,0:0:0:0:
205,384,159934,1,2,0:0:0:0:
131,295,160043,1,0,0:0:0:0:
356,355,160151,6,0,B|282:376|282:376|163:252,1,213.750008153916,6|0,3:2|0:0,0:0:0:0:
176,151,160586,2,0,P|178:194|181:229,1,71.2500027179719,2|0,3:2|0:0,0:0:0:0:
188,83,160804,1,2,0:0:0:0:
167,203,160912,1,0,0:0:0:0:
241,42,161021,2,0,B|209:82|154:90|109:133,1,142.500005435944,2|2,3:2|0:0,0:0:0:0:
292,96,161347,1,0,0:0:0:0:
399,106,161456,2,0,P|358:109|324:115,1,71.2500027179719,2|0,3:2|0:0,0:0:0:0:
505,129,161673,1,2,0:0:0:0:
376,78,161782,1,0,0:0:0:0:
479,298,161891,6,0,B|463:245|457:189|457:189|414:141|390:89,1,213.750008153916,2|0,3:2|0:0,0:0:0:0:
432,0,162325,2,0,P|426:42|421:92,1,71.2500027179719,2|0,3:2|0:0,0:0:0:0:
441,232,162543,1,2,0:0:0:0:
398,105,162651,1,0,0:0:0:0:
494,293,162760,2,0,B|445:275|445:275|402:198|366:198,1,142.500005435944,2|2,3:2|0:0,0:0:0:0:
234,284,163086,5,0,0:0:0:0:
233,184,163195,2,0,P|273:196|330:203,1,71.2500027179719,2|0,3:2|0:0,0:0:0:0:
130,211,163412,1,2,0:0:0:0:
186,350,163521,1,0,0:0:0:0:
161,98,163630,6,0,B|107:130|86:177|86:177|52:168|-18:201,1,213.750008153916,2|0,3:2|0:0,0:0:0:0:
126,81,164065,2,0,L|226:129,1,71.2500027179719,2|0,3:2|0:0,0:0:0:0:
72,92,164282,1,2,0:0:0:0:
223,94,164391,1,0,0:0:0:0:
384,2,164499,2,0,B|318:37|318:37|271:108,1,142.500005435944,2|2,3:2|0:0,0:0:0:0:
387,209,164825,1,0,0:0:0:0:
258,119,164934,2,0,P|212:112|155:104,1,71.2500027179719,2|0,3:2|0:0,0:0:0:0:
48,95,165151,1,2,0:0:0:0:
223,94,165260,1,0,0:0:0:0:
1,116,165369,6,0,P|68:148|228:229,1,213.750008153916,2|0,3:2|0:0,0:0:0:0:
254,299,165804,2,0,P|218:234|202:206,1,71.2500027179719,2|0,0:0|0:0,0:0:0:0:
261,339,166021,1,2,3:2:0:0:
232,188,166130,1,0,0:0:0:0:
403,119,166238,5,8,3:2:0:0:
233,161,166383,1,8,3:2:0:0:
355,284,166528,1,8,3:2:0:0:
412,97,166673,5,8,3:2:0:0:
211,150,166818,1,8,3:2:0:0:
359,306,166963,1,8,3:2:0:0:
153,141,167108,6,0,P|209:141|266:143,1,113.999996520996,2|2,3:2|0:0,0:0:0:0:
1,106,167543,1,2,3:2:0:0:
75,191,167760,1,0,0:0:0:0:
16,354,167978,2,0,B|19:313|44:272|44:272|33:226|50:175,1,170.999994781494,2|0,3:2|0:0,0:0:0:0:
68,377,168412,5,2,3:2:0:0:
18,215,168630,1,0,0:0:0:0:
17,31,168847,2,0,L|28:115,1,56.9999982604981,2|0,3:2|0:0,0:0:0:0:
318,47,169282,2,0,P|222:57|107:69,1,170.999994781494,2|0,3:2|0:0,0:0:0:0:
337,74,169717,1,2,0:0:0:0:
122,52,169934,1,0,0:0:0:0:
375,142,170151,6,0,P|368:112|350:64,1,56.9999982604981,2|0,3:2|0:0,0:0:0:0:
414,198,170369,2,0,P|414:167|417:134,1,56.9999982604981,2|0,0:0|0:0,0:0:0:0:
487,370,170586,6,0,P|437:291|438:219,1,113.999996520996,2|0,3:2|0:0,0:0:0:0:
229,127,171021,1,2,3:2:0:0:
244,83,171130,1,0,0:0:0:0:
224,29,171238,2,0,L|224:95,1,56.9999982604981,2|0,0:0|0:0,0:0:0:0:
214,267,171456,6,0,B|162:211|185:187|177:130|129:104,1,170.999994781494,2|0,3:2|0:0,0:0:0:0:
221,291,171891,5,2,3:2:0:0:
126,89,172108,1,2,0:0:0:0:
320,70,172325,5,2,3:2:0:0:
199,123,172543,1,0,0:0:0:0:
368,81,172760,5,2,3:2:0:0:
182,92,172978,1,0,0:0:0:0:
401,51,173195,5,2,3:2:0:0:
189,208,173412,1,2,0:0:0:0:
320,77,173630,6,0,P|320:49|323:15,1,56.9999982604981,2|0,3:2|0:0,0:0:0:0:
243,196,173847,2,0,P|247:227|253:290,1,56.9999982604981,2|0,0:0|0:0,0:0:0:0:
45,251,174065,6,0,B|75:257|103:270|103:270|162:271,1,113.999996520996,2|2,3:2|0:0,0:0:0:0:
353,361,174499,1,0,3:2:0:0:
79,284,174717,1,0,0:0:0:0:
24,109,174934,2,0,P|35:141|40:184,1,56.9999982604981,2|0,3:2|0:0,0:0:0:0:
312,20,175369,6,0,P|286:59|271:79,1,56.9999982604981,0|0,3:2|0:0,0:0:0:0:
411,58,175586,2,0,P|359:63|317:67,1,56.9999982604981,2|0,0:0|0:0,0:0:0:0:
507,127,175804,6,0,P|431:106|318:89,1,170.999994781494,2|0,3:2|0:0,0:0:0:0:
512,9,176238,2,0,P|426:98|366:163,1,170.999994781494,2|0,3:2|0:0,0:0:0:0:
293,328,176673,1,2,3:2:0:0:
334,195,176891,1,0,0:0:0:0:
122,358,177108,6,0,P|146:332|172:301,1,56.9999982604981,2|0,3:2|0:0,0:0:0:0:
161,145,177325,2,0,P|159:173|156:213,1,56.9999982604981,2|0,0:0|0:0,0:0:0:0:
28,301,177543,6,0,P|114:297|172:294,1,113.999996520996,2|2,3:2|0:0,0:0:0:0:
387,330,177978,1,2,3:2:0:0:
176,240,178195,1,0,0:0:0:0:
187,28,178412,2,0,P|167:89|174:149,1,113.999996520996,2|0,3:2|0:0,0:0:0:0:
409,36,178847,5,2,3:2:0:0:
234,47,179065,1,0,0:0:0:0:
274,253,179282,6,0,P|256:194|219:79,1,170.999994781494,2|0,3:2|0:0,0:0:0:0:
257,295,179717,6,0,P|257:197|258:120,1,170.999994781494,2|0,3:2|0:0,0:0:0:0:
295,337,180151,5,8,3:2:0:0:
239,252,180296,1,8,3:2:0:0:
186,170,180441,1,8,3:2:0:0:
387,294,180586,5,8,3:2:0:0:
270,261,180731,1,8,3:2:0:0:
159,227,180876,1,8,3:2:0:0:
354,44,181021,6,0,P|291:91|254:120,1,113.999996520996,2|0,3:2|0:0,0:0:0:0:
51,157,181456,1,2,3:2:0:0:
296,277,181673,1,0,0:0:0:0:
26,145,181891,2,0,P|10:78|-6:14,1,113.999996520996,2|0,3:2|0:0,0:0:0:0:
94,278,182325,6,0,L|78:351,1,56.9999982604981,2|0,3:2|0:0,0:0:0:0:
160,285,182543,2,0,L|100:333,1,56.9999982604981,2|0,0:0|0:0,0:0:0:0:
226,231,182760,6,0,P|276:273|379:350,1,170.999994781494,2|0,3:2|0:0,0:0:0:0:
239,163,183195,2,0,P|258:255|278:340,1,170.999994781494,2|0,3:2|0:0,0:0:0:0:
172,127,183630,2,0,P|191:84|189:-5,1,113.999996520996,2|0,3:2|0:0,0:0:0:0:
110,239,184065,6,0,L|86:315,1,56.9999982604981,2|0,3:2|0:0,0:0:0:0:
93,193,184282,2,0,L|68:132,1,56.9999982604981,2|0,0:0|0:0,0:0:0:0:
65,352,184499,6,0,B|92:298|92:298|176:278,1,113.999996520996,2|0,3:2|0:0,0:0:0:0:
342,221,184934,1,2,3:2:0:0:
221,344,185151,1,0,0:0:0:0:
138,131,185369,2,0,P|134:67|132:4,1,113.999996520996,2|0,3:2|0:0,0:0:0:0:
198,167,185804,6,0,P|193:193|182:242,1,56.9999982604981,2|0,3:2|0:0,0:0:0:0:
226,242,186021,2,0,P|196:273|165:308,1,56.9999982604981,2|0,0:0|0:0,0:0:0:0:
307,192,186238,5,2,3:2:0:0:
128,323,186456,1,0,0:0:0:0:
338,222,186673,5,2,3:2:0:0:
127,188,186891,1,0,0:0:0:0:
368,248,187108,6,0,L|376:324,1,56.9999982604981,2|0,3:2|0:0,0:0:0:0:
415,174,187325,2,0,L|418:110,1,56.9999982604981,2|0,3:2|0:0,0:0:0:0:
253,51,187543,6,0,P|281:57|315:66,1,56.9999982604981,2|0,3:2|0:0,0:0:0:0:
136,101,187760,2,0,P|168:81|194:62,1,56.9999982604981,2|0,0:0|0:0,0:0:0:0:
73,153,187978,6,0,B|45:223|53:213|23:290,1,113.999996520996,4|0,3:2|0:0,0:0:0:0:
146,68,188412,1,2,3:2:0:0:
338,160,188630,1,0,0:0:0:0:
485,5,188847,2,0,B|465:37|447:54|447:54|439:82|415:124,1,113.999996520996,2|0,3:2|0:0,0:0:0:0:
445,341,189282,6,0,L|424:267,1,56.9999982604981,2|0,3:2|0:0,0:0:0:0:
460,372,189499,2,0,L|472:313,1,56.9999982604981,2|0,0:0|0:0,0:0:0:0:
265,353,189717,6,0,L|362:337,1,56.9999982604981,2|0,3:2|0:0,0:0:0:0:
41,289,190151,2,0,B|86:292|110:285|162:289,1,113.999996520996,2|0,3:2|0:0,0:0:0:0:
0,158,190586,1,2,3:2:0:0:
124,253,190804,1,0,0:0:0:0:
12,64,191021,6,0,L|8:173,1,56.9999982604981,2|0,3:2|0:0,0:0:0:0:
96,275,191238,2,0,L|81:187,1,56.9999982604981,2|0,0:0|0:0,0:0:0:0:
173,355,191456,6,0,P|146:304|111:217,1,113.999996520996,2|0,3:2|0:0,0:0:0:0:
271,371,191891,1,2,3:2:0:0:
112,322,192108,1,0,0:0:0:0:
386,367,192325,2,0,B|313:363|313:363|281:262,1,170.999994781494,2|0,3:2|0:0,0:0:0:0:
423,384,192760,5,2,3:2:0:0:
258,274,192978,1,0,0:0:0:0:
53,151,193195,6,0,B|134:175|134:175|189:157|262:155,1,185.249991519928,4|0,3:2|0:0,0:0:0:0:
392,347,193630,6,0,B|411:294|391:246|391:246|421:216|414:152,1,199.499993911743,4|0,3:2|0:0,0:0:0:0:
92,113,194065,6,0,B|179:163|179:163|166:278,1,213.750008153916,4|0,3:2|0:0,0:0:0:0:
487,66,194499,6,0,P|415:105|470:37,1,228,4|0,3:2|0:0,0:0:0:0:
171,51,194934,6,0,P|253:71|309:82,1,132.999995941162,4|0,3:2|0:0,0:0:0:0:
432,168,195369,1,2,3:2:0:0:
171,74,195586,2,0,L|190:148,1,66.4999979705811
165,298,195804,2,0,B|181:232|181:232|173:152,1,132.999995941162,2|0,3:2|0:0,0:0:0:0:
388,356,196238,6,0,L|370:290,1,66.4999979705811,2|0,3:2|0:0,0:0:0:0:
407,384,196456,2,0,L|425:312,1,66.4999979705811,2|0,0:0|0:0,0:0:0:0:
224,371,196673,6,0,P|139:380|66:387,1,132.999995941162,2|0,3:2|0:0,0:0:0:0:
351,287,197108,1,2,3:2:0:0:
301,306,197217,1,0,0:0:0:0:
251,322,197325,1,2,0:0:0:0:
204,335,197434,1,0,0:0:0:0:
399,293,197543,2,0,P|446:325|539:378,1,132.999995941162,2|0,3:2|0:0,0:0:0:0:
286,195,197978,6,0,L|308:277,1,66.4999979705811,2|0,3:2|0:0,0:0:0:0:
277,142,198195,2,0,L|259:232,1,66.4999979705811,2|0,0:0|0:0,0:0:0:0:
324,48,198412,6,0,P|283:115|251:164,1,113.999996520996,2|0,3:2|0:0,0:0:0:0:
252,268,198847,2,0,P|251:183|253:134,1,113.999996520996,2|0,3:2|0:0,0:0:0:0:
198,100,199173,1,0,0:0:0:0:
97,76,199282,2,0,P|151:83|288:100,1,170.999994781494,2|0,3:2|0:0,0:0:0:0:
69,102,199717,5,2,3:2:0:0:
197,50,199934,1,0,0:0:0:0:
141,140,200151,6,0,P|151:59|155:31,1,95,2|0,3:2|0:0,0:0:0:0:
106,153,200586,1,2,3:2:0:0:
172,260,200804,1,0,0:0:0:0:
378,292,201021,2,0,L|392:237,1,47.5,0|0,3:2|0:0,0:0:0:0:
360,329,201238,2,0,L|351:269,1,47.5,2|0,0:0|0:0,0:0:0:0:
440,113,201456,5,2,3:2:0:0:
369,364,201673,1,0,0:0:0:0:
485,168,201891,6,0,B|466:137|441:113|441:113|456:52,1,132.999995941162,2|0,3:2|0:0,0:0:0:0:
244,112,202325,1,2,3:2:0:0:
135,301,202543,2,0,B|141:265|141:265|135:230,1,66.4999979705811,2|0,0:0|0:0,0:0:0:0:
101,72,202760,2,0,B|107:132|112:144|96:243,1,132.999995941162,2|0,3:2|0:0,0:0:0:0:
319,30,203195,6,0,P|292:60|270:82,1,66.4999979705811,2|0,3:2|0:0,0:0:0:0:
384,54,203412,2,0,P|347:60|299:69,1,66.4999979705811,2|0,0:0|0:0,0:0:0:0:
511,131,203630,6,0,B|446:106|446:106|374:112,1,132.999995941162,2|0,3:2|0:0,0:0:0:0:
187,85,204065,1,2,3:2:0:0:
229,107,204173,1,0,0:0:0:0:
272,125,204282,1,2,0:0:0:0:
313,141,204391,1,0,0:0:0:0:
128,52,204499,2,0,P|167:112|239:216,1,132.999995941162,2|0,3:2|0:0,0:0:0:0:
411,313,204934,6,0,L|396:238,1,66.4999979705811,2|0,3:2|0:0,0:0:0:0:
440,361,205151,2,0,L|454:282,1,66.4999979705811
479,383,205369,6,0,P|402:352|364:336,1,113.999996520996,2|0,3:2|0:0,0:0:0:0:
189,330,205804,2,0,P|247:325|335:314,1,113.999996520996,2|0,3:2|0:0,0:0:0:0:
415,305,206130,1,0,0:0:0:0:
293,294,206238,2,0,B|221:278|205:324|115:303,1,170.999994781494,2|0,3:2|0:0,0:0:0:0:
292,263,206673,5,2,3:2:0:0:
247,363,206891,1,0,0:0:0:0:
275,189,207108,6,0,P|271:237|267:316,1,95,2|0,3:2|0:0,0:0:0:0:
217,153,207543,2,0,P|241:199|277:261,1,95,2|0,3:2|0:0,0:0:0:0:
169,76,207978,5,8,3:2:0:0:
164,260,208123,1,8,3:2:0:0:
323,273,208267,1,8,3:2:0:0:
100,110,208412,5,8,3:2:0:0:
149,283,208557,1,8,3:2:0:0:
319,238,208702,1,8,3:2:0:0:
66,85,208847,6,0,B|71:129|93:163|93:163|89:195|89:254,1,152,4|0,3:2|0:0,0:0:0:0:
311,42,209282,2,0,B|268:62|244:77|244:77|206:77|153:89,1,152,2|0,3:1|0:0,0:0:0:0:
401,156,209717,2,0,B|290:111|290:111|237:125|176:116,1,228,2|0,3:1|0:0,0:0:0:0:
360,251,210151,6,0,L|372:176,1,76,2|0,3:1|0:0,0:0:0:0:
302,20,210369,2,0,L|329:119,1,76,2|0,0:0|0:0,0:0:0:0:
417,308,210586,6,0,B|374:242|374:242|386:146,1,152,2|0,3:1|0:0,0:0:0:0:
191,194,211021,1,2,3:1:0:0:
94,345,211238,2,0,P|111:309|122:237,1,76
264,133,211456,2,0,B|209:163|146:119|104:113|104:113|32:170,1,228,2|0,3:1|0:0,0:0:0:0:
275,126,211891,5,2,3:1:0:0:
337,207,211999,1,0,0:0:0:0:
215,39,212108,2,0,L|220:146,1,76,2|0,0:0|0:0,0:0:0:0:
149,268,212325,6,0,B|186:258|221:232|221:232|248:256|332:297,1,152,2|0,3:1|0:0,0:0:0:0:
443,350,212760,2,0,B|392:289|392:289|418:219,1,152,2|0,3:1|0:0,0:0:0:0:
327,32,213195,2,0,B|375:46|375:90|375:90|422:111|422:111|477:105|483:187,1,228,2|0,3:1|0:0,0:0:0:0:
304,9,213630,5,2,3:1:0:0:
115,56,213847,2,0,L|198:-3,1,76,2|0,0:0|0:0,0:0:0:0:
43,109,214065,6,0,B|50:186|50:186|33:222|28:267,1,152,2|0,3:1|0:0,0:0:0:0:
238,349,214499,2,0,B|175:311|175:311|139:325|89:318,1,152,2|0,3:1|0:0,0:0:0:0:
328,208,214934,2,0,L|310:303,1,76,2|0,3:1|0:0,0:0:0:0:
183,187,215151,2,0,P|182:143|178:77,1,76,2|0,3:2|0:0,0:0:0:0:
293,301,215369,2,0,P|297:251|302:203,1,76,2|0,3:1|0:0,0:0:0:0:
206,70,215586,2,0,L|201:158,1,76,2|0,0:0|0:0,0:0:0:0:
66,337,215804,6,0,P|128:315|249:273,1,152,4|0,3:2|0:0,0:0:0:0:
446,180,216238,2,0,P|366:190|286:195,1,152,2|0,3:1|0:0,0:0:0:0:
11,98,216673,2,0,B|102:156|102:156|285:174,1,228,2|0,3:1|0:0,0:0:0:0:
24,225,217108,6,0,L|10:142,1,76,2|0,3:1|0:0,0:0:0:0:
128,22,217325,2,0,L|118:119,1,76,2|0,0:0|0:0,0:0:0:0:
35,255,217543,6,0,B|77:248|105:230|105:230|126:248|187:248,1,152,2|0,3:1|0:0,0:0:0:0:
418,249,217977,2,0,B|381:276|368:314|368:314|324:306|286:324,1,152,2|0,3:1|0:0,0:0:0:0:
512,69,218412,2,0,B|478:90|417:124|417:124|422:169|413:245,1,228,2|0,3:1|0:0,0:0:0:0:
279,29,218847,6,0,P|296:87|306:131,1,76,2|0,3:1|0:0,0:0:0:0:
76,42,219064,2,0,P|108:67|133:91,1,76,2|0,0:0|0:0,0:0:0:0:
244,327,219282,6,0,P|235:240|229:162,1,152,2|0,3:1|0:0,0:0:0:0:
452,22,219716,2,0,B|414:49|379:60|379:60|378:97|339:182,1,152,2|0,3:1|0:0,0:0:0:0:
75,271,220151,2,0,B|112:245|112:245|144:242|182:248|182:248|215:340|322:253,1,228,2|0,3:1|0:0,0:0:0:0:
50,272,220586,6,0,L|45:348,1,76,2|0,3:1|0:0,0:0:0:0:
163,196,220803,1,2,0:0:0:0:
193,70,221021,5,2,3:1:0:0:
296,245,221238,1,2,0:0:0:0:
186,120,221456,6,0,L|103:118,1,76,2|0,3:1|0:0,0:0:0:0:
344,218,221673,2,0,L|419:212,1,76,0|0,3:2|0:0,0:0:0:0:
260,96,221890,5,6,3:2:0:0:
274,84,222325,5,2,3:1:0:0:
92,306,222760,5,2,3:2:0:0:
165,297,222977,1,0,0:0:0:0:
243,326,223195,2,0,P|264:342|272:350,1,28.4999991302491,2|0,0:0|0:0,0:0:0:0:
319,308,223630,2,0,L|317:329,1,14.2499995651245,2|0,3:2|0:0,0:0:0:0:
356,384,224064,5,2,0:0:0:0:
328,288,224282,1,0,0:0:0:0:
410,240,224499,5,2,3:2:0:0:
382,160,224716,1,0,0:0:0:0:
449,106,224934,2,0,P|455:129|456:145,1,28.4999991302491,2|0,0:0|0:0,0:0:0:0:
429,74,225369,2,0,L|425:88,1,14.25,2|0,3:2|0:0,0:0:0:0:
406,40,225803,5,2,0:0:0:0:
359,93,226021,1,0,0:0:0:0:
328,180,226238,5,2,3:2:0:0:
286,124,226456,1,0,0:0:0:0:
208,126,226673,2,0,P|191:130|171:130,1,28.4999991302491,2|0,0:0|0:0,0:0:0:0:
92,106,227108,2,0,L|95:122,1,14.25,2|0,3:2|0:0,0:0:0:0:
72,144,227542,5,2,0:0:0:0:
67,159,227760,1,0,0:0:0:0:
50,237,227977,5,2,3:2:0:0:
136,225,228195,1,0,0:0:0:0:
199,166,228412,2,0,P|205:137|209:117,1,38,2|0,0:0|0:0,0:0:0:0:
238,221,228847,2,0,L|239:226,1,4.75,2|0,3:2|0:0,0:0:0:0:
294,254,229064,2,0,L|294:258,1,4.75
349,304,229282,5,2,0:0:0:0:
262,203,229499,1,0,0:0:0:0:
342,168,229716,5,2,3:2:0:0:
254,127,229934,1,0,0:0:0:0:
159,121,230151,2,0,P|141:125|121:126,1,28.4999991302491,2|0,0:0|0:0,0:0:0:0:
60,174,230586,2,0,L|61:160,1,14.25,2|0,3:2|0:0,0:0:0:0:
71,210,231021,5,2,0:0:0:0:
43,125,231238,1,0,0:0:0:0:
149,98,231456,5,2,3:2:0:0:
231,103,231673,1,0,0:0:0:0:
303,69,231891,2,0,L|335:75,1,28.4999991302491,2|0,0:0|0:0,0:0:0:0:
251,48,232325,2,0,L|237:52,1,14.25,2|0,3:2|0:0,0:0:0:0:
279,27,232760,5,2,0:0:0:0:
319,137,232977,1,0,0:0:0:0:
407,206,233195,5,2,3:2:0:0:
314,166,233412,1,0,0:0:0:0:
224,209,233630,2,0,P|202:207|187:203,1,28.4999991302491,2|0,0:0|0:0,0:0:0:0:
246,242,234065,2,0,L|246:258,1,14.25,2|0,3:2|0:0,0:0:0:0:
224,209,234499,5,2,0:0:0:0:
283,319,234716,1,0,0:0:0:0:
103,317,234934,5,2,3:2:0:0:
100,325,235151,1,0,0:0:0:0:
98,332,235369,1,2,0:0:0:0:
96,338,235586,1,0,0:0:0:0:
111,289,235804,5,2,0:0:0:0:
45,47,236238,5,0,0:0:0:0:
41,62,236456,1,0,0:0:0:0:
161,173,236673,6,0,P|125:173|111:175,1,38,2|0,3:2|0:0,0:0:0:0:
259,119,237108,2,0,P|242:119|218:115,1,38,2|0,0:2|0:0,0:0:0:0:
314,108,237543,2,0,L|319:114,1,4.75,2|0,3:2|0:0,0:0:0:0:
387,159,237760,2,0,L|387:154,1,4.75
302,136,237978,5,2,0:0:0:0:
451,204,238195,1,0,3:2:0:0:
310,210,238412,6,0,P|275:214|257:219,1,38,2|0,3:2|0:0,0:0:0:0:
157,287,238847,2,0,P|183:275|196:263,1,38,2|0,0:2|0:0,0:0:0:0:
129,321,239282,2,0,L|130:316,1,4.75,2|0,3:2|0:0,0:0:0:0:
48,313,239499,2,0,L|51:309,1,4.75
171,348,239717,5,0,0:0:0:0:
276,297,239934,1,0,0:0:0:0:
408,315,240151,6,0,P|381:314|358:310,1,38,2|0,3:2|0:0,0:0:0:0:
490,227,240586,2,0,P|480:251|475:264,1,38,2|0,0:0|0:0,0:0:0:0:
489,148,241021,2,0,L|486:141,1,4.75,2|0,3:2|0:0,0:0:0:0:
432,80,241238,2,0,L|434:85,1,4.75
390,66,241456,5,0,0:0:0:0:
298,82,241673,1,0,3:2:0:0:
188,62,241891,6,0,P|210:54|229:43,1,38,2|0,3:2|0:0,0:0:0:0:
129,72,242325,2,0,P|113:87|90:97,1,38,2|0,0:0|0:0,0:0:0:0:
26,129,242760,6,0,L|27:135,7,4.75,2|0|0|0|2|0|0|0,3:2|0:0|0:0|0:0|0:0|0:0|0:0|0:0,0:0:0:0:
73,215,243195,2,0,L|75:220,7,4.75,2|0|0|0|2|0|0|0,3:2|0:0|0:0|0:0|0:0|0:0|0:0|0:0,0:0:0:0:
163,275,243630,6,0,P|138:284|121:291,1,38,2|0,3:2|0:0,0:0:0:0:
285,279,244065,2,0,P|267:283|247:290,1,38,2|0,0:0|0:0,0:0:0:0:
367,290,244499,2,0,L|368:295,1,4.75,2|0,3:2|0:0,0:0:0:0:
444,328,244717,2,0,L|444:333,1,4.75
335,313,244934,5,2,0:0:0:0:
476,368,245151,1,0,3:2:0:0:
482,236,245369,6,0,P|481:213|479:195,1,38,2|0,3:2|0:0,0:0:0:0:
446,100,245804,2,0,P|434:122|426:138,1,38
359,65,246238,6,0,L|359:70,1,4.75,2|0,3:2|0:0,0:0:0:0:
284,41,246456,2,0,L|286:47,1,4.75
143,80,246673,5,2,0:0:0:0:
271,28,246891,1,0,3:2:0:0:
253,245,247108,5,2,3:2:0:0:
195,304,247325,1,2,0:0:0:0:
247,204,247543,5,2,0:0:0:0:
214,348,247760,1,2,0:0:0:0:
203,168,247978,6,0,L|204:175,1,4.75,2|0,3:2|0:0,0:0:0:0:
234,377,248195,2,0,L|233:369,1,4.75
158,168,248412,5,2,0:0:0:0:
272,364,248630,1,2,3:2:0:0:
280,367,248738,1,0,3:0:0:0:
344,373,248847,5,0,3:2:0:0:
138,308,249065,1,2,0:0:0:0:
409,249,249282,2,0,L|401:249,1,4.75,2|0,3:2|0:0,0:0:0:0:
162,203,249499,2,0,L|168:205,1,4.75
375,173,249717,5,4,3:2:0:0:
362,163,250151,1,2,3:2:0:0:
32,64,250586,6,0,P|113:74|223:83,1,147.250001123428,4|2,3:2|0:0,0:0:0:0:
23,95,250912,1,0,0:0:0:0:
163,232,251021,2,0,P|91:172|26:117,1,147.250001123428,2|2,3:2|0:0,0:0:0:0:
166,335,251456,2,0,B|181:273|185:220|185:220|232:186|270:107,1,220.875001685143,2|0,3:2|0:0,0:0:0:0:
408,34,251891,5,2,3:2:0:0:
337,99,251999,1,0,3:2:0:0:
334,254,252108,1,2,3:2:0:0:
309,138,252217,1,0,3:2:0:0:
417,308,252325,6,0,P|346:287|233:252,1,147.250001123428,2|2,3:2|0:0,0:0:0:0:
81,191,252760,2,0,P|97:225|116:297,1,73.6250005617142,2|0,3:2|0:0,0:0:0:0:
146,86,252978,2,0,P|133:118|113:168,1,73.6250005617142,2|0,0:0|0:0,0:0:0:0:
67,347,253195,2,0,B|111:307|140:267|140:267|191:262|267:247,1,220.875001685143,2|0,3:2|0:0,0:0:0:0:
418,286,253630,6,0,L|408:211,1,73.6250005617142,2|0,3:2|0:0,0:0:0:0:
435,374,253847,2,0,L|461:305,1,73.6250005617142,2|0,3:2|0:0,0:0:0:0:
391,106,254065,6,0,P|381:210|372:286,1,147.250001123428,2|2,3:2|0:0,0:0:0:0:
170,80,254499,2,0,P|250:115|338:154,1,147.250001123428,2|2,3:2|0:0,0:0:0:0:
251,158,254825,1,0,0:0:0:0:
94,216,254934,2,0,P|194:198|303:174,1,147.250001123428,2|2,3:2|0:0,0:0:0:0:
414,281,255369,5,2,3:2:0:0:
324,247,255478,1,0,3:2:0:0:
181,287,255586,1,2,3:2:0:0:
270,250,255695,1,0,3:2:0:0:
56,348,255804,6,0,P|139:326|225:323,1,147.250001123428,2|2,3:2|0:0,0:0:0:0:
376,358,256238,1,2,3:2:0:0:
167,308,256456,1,2,0:0:0:0:
39,153,256673,2,0,P|46:203|59:254,1,73.6250005617142,2|0,3:2|0:0,0:0:0:0:
95,58,256891,1,2,0:0:0:0:
57,144,256999,1,0,0:0:0:0:
222,44,257108,6,0,L|138:57,1,73.6250005617142,2|0,3:2|0:0,0:0:0:0:
327,99,257325,2,0,P|296:75|258:39,1,73.6250005617142,2|0,3:2|0:0,0:0:0:0:
430,219,257543,6,0,P|398:158|358:67,1,147.250001123428,2|2,3:2|0:0,0:0:0:0:
449,254,257869,1,0,0:0:0:0:
292,160,257978,2,0,P|370:201|451:246,1,147.250001123428,2|2,3:2|0:0,0:0:0:0:
101,233,258412,2,0,B|156:216|233:166|233:166|336:159,1,220.875001685143,2|0,3:2|0:0,0:0:0:0:
150,137,258847,5,2,3:2:0:0:
84,249,258956,1,0,3:2:0:0:
198,355,259065,1,2,3:2:0:0:
95,288,259173,1,0,3:2:0:0:
283,314,259282,6,0,P|201:357|136:390,1,147.250001123428,2|2,3:2|0:0,0:0:0:0:
366,217,259717,2,0,P|362:256|356:297,1,73.6250005617142,2|0,3:2|0:0,0:0:0:0:
435,129,259934,2,0,P|421:168|407:210,1,73.6250005617142,2|0,0:0|0:0,0:0:0:0:
285,70,260151,2,0,B|342:74|394:94|394:94|440:65|521:56,1,220.875001685143,2|0,3:2|0:0,0:0:0:0:
176,64,260586,6,0,P|201:102|225:136,1,73.6250005617142,2|0,3:2|0:0,0:0:0:0:
162,13,260804,2,0,P|155:53|149:96,1,73.6250005617142,2|0,3:2|0:0,0:0:0:0:
98,237,261021,6,0,B|110:158|110:158|91:91,1,147.250001123428,2|2,3:2|0:0,0:0:0:0:
241,296,261456,2,0,P|163:277|94:262,1,147.250001123428,2|2,3:2|0:0,0:0:0:0:
245,268,261782,1,0,0:0:0:0:
378,193,261891,2,0,P|306:222|242:247,1,147.250001123428,2|2,3:2|0:0,0:0:0:0:
470,174,262325,5,2,3:2:0:0:
355,143,262434,1,0,3:2:0:0:
220,231,262542,1,2,3:2:0:0:
305,154,262651,1,0,3:2:0:0:
152,306,262760,6,0,P|148:216|146:144,1,147.250001123428,2|2,3:2|0:0,0:0:0:0:
281,35,263195,2,0,P|214:116|170:162,1,147.250001123428,2|2,3:2|0:0,0:0:0:0:
253,213,263630,5,8,3:2:0:0:
229,200,263775,1,8,3:2:0:0:
258,188,263920,1,8,3:2:0:0:
276,213,264065,5,8,3:2:0:0:
261,241,264209,1,8,3:2:0:0:
233,231,264354,1,8,3:2:0:0:
443,383,264499,6,0,P|383:322|303:246,1,166.250001585484,4|0,3:2|0:0,0:0:0:0:
187,20,264934,2,0,P|195:84|208:184,1,166.250001585484,2|2,3:1|0:0,0:0:0:0:
479,203,265369,2,0,B|333:169|333:169|273:113|276:66,1,249.375002378225,2|0,3:1|0:0,0:0:0:0:
457,272,265804,5,2,3:1:0:0:
450,119,265912,1,0,3:2:0:0:
314,46,266021,1,2,3:2:0:0:
308,177,266130,1,0,3:2:0:0:
161,348,266238,6,0,B|166:306|209:276|209:276|194:242|191:147,1,166.250001585484,2|2,3:1|0:0,0:0:0:0:
365,28,266673,2,0,B|385:69|385:69|362:124,1,83.1250007927418,2|0,3:1|0:0,0:0:0:0:
414,243,266891,2,0,B|397:206|397:206|406:156,1,83.1250007927418,2|0,0:0|0:0,0:0:0:0:
484,327,267108,2,0,B|399:300|399:300|333:345|215:348,1,249.375002378225,2|0,3:1|0:0,0:0:0:0:
86,264,267543,6,0,P|72:304|55:345,1,83.1250007927418,2|0,3:1|0:0,0:0:0:0:
31,173,267760,2,0,P|37:204|52:265,1,83.1250007927418,2|0,3:2|0:0,0:0:0:0:
178,74,267978,6,0,P|118:136|20:146,1,166.250001585484,2|2,3:1|0:0,0:0:0:0:
331,102,268412,2,0,P|240:90|141:72,1,166.250001585484,2|2,3:1|0:0,0:0:0:0:
349,76,268738,1,0,0:0:0:0:
467,227,268847,2,0,B|402:177|402:177|414:97|414:97|343:22,1,249.375002378225,2|0,3:1|0:0,0:0:0:0:
453,267,269282,5,2,3:1:0:0:
341,204,269391,1,0,3:2:0:0:
195,275,269499,1,2,3:2:0:0:
331,344,269608,1,0,3:2:0:0:
133,160,269717,6,0,P|113:218|119:340,1,166.250001585484,2|2,3:1|0:0,0:0:0:0:
269,118,270151,2,0,P|172:124|64:143,1,166.250001585484,2|2,3:1|0:0,0:0:0:0:
406,118,270586,1,2,3:1:0:0:
85,35,270804,1,2,0:0:0:0:
159,95,270913,1,0,0:0:0:0:
40,140,271021,6,0,P|40:104|37:45,1,83.1250007927418,2|0,3:1|0:0,0:0:0:0:
143,203,271238,2,0,P|136:278|136:317,1,83.1250007927418,2|0,3:2|0:0,0:0:0:0:
424,358,271456,6,0,P|338:341|277:256,1,166.250001585484,2|2,3:1|0:0,0:0:0:0:
390,23,271891,2,0,P|340:75|316:208,1,166.250001585484,2|2,3:1|3:2,0:0:0:0:
80,289,272325,2,0,B|41:222|98:135|98:135|49:37,1,249.375002378225,2|0,3:1|0:0,0:0:0:0:
293,227,272760,5,2,3:1:0:0:
168,201,272869,1,0,3:2:0:0:
135,16,272978,1,2,3:2:0:0:
243,85,273086,1,0,3:2:0:0:
290,306,273195,6,0,B|245:248|245:248|252:194|240:141,1,166.250001585484,2|2,3:1|0:0,0:0:0:0:
492,0,273630,2,0,P|475:56|464:78,1,83.1250007927418,2|0,3:1|0:0,0:0:0:0:
435,219,273847,2,0,P|426:176|421:124,1,83.1250007927418,2|0,0:0|0:0,0:0:0:0:
374,358,274065,2,0,P|394:291|404:82,1,249.375002378225,2|0,3:1|0:0,0:0:0:0:
135,16,274499,6,0,P|151:39|190:97,1,83.1250007927418,2|0,3:1|0:0,0:0:0:0:
176,343,274717,2,0,P|181:288|181:207,1,83.1250007927418,2|0,3:2|0:0,0:0:0:0:
421,137,274934,6,0,B|375:145|336:144|336:144|297:159|250:166,1,166.250001585484,2|2,3:1|0:0,0:0:0:0:
56,323,275369,2,0,P|66:287|78:212,1,83.1250007927418,2|0,3:1|0:0,0:0:0:0:
93,26,275586,2,0,P|99:70|104:135,1,83.1250007927418,2|0,0:2|0:0,0:0:0:0:
336,277,275804,2,0,P|228:266|171:146,1,249.375002378225,2|0,3:1|0:0,0:0:0:0:
380,302,276238,5,0,3:1:0:0:
240,310,276347,1,2,3:2:0:0:
180,177,276456,1,0,3:2:0:0:
327,167,276565,1,2,3:2:0:0:
222,351,276673,5,2,3:1:0:0:
164,118,276891,1,2,0:0:0:0:
380,264,277108,6,0,P|381:314|379:369,1,83.1250007927418,2|0,3:1|0:0,0:0:0:0:
136,183,277325,2,0,P|137:149|139:81,1,83.1250007927418,2|0,3:2|0:0,0:0:0:0:
253,246,277543,5,4,3:2:0:0:
269,265,277978,5,2,3:1:0:0:
127,173,278412,6,0,P|104:160|92:153,1,33.2499989852906,2|0,3:2|0:0,0:0:0:0:
201,150,278847,2,0,P|208:169|216:183,1,33.2499989852906,10|0,0:0|0:0,0:0:0:0:
278,235,279282,2,8,L|272:264,3,16.6249994926453,10|8|8|8,3:2|0:0|0:0|0:0,0:0:0:0:
277,296,279717,5,2,0:0:0:0:
340,206,279934,1,0,0:0:0:0:
423,125,280151,6,0,P|412:140|408:163,1,33.2499989852906,2|0,3:2|0:0,0:0:0:0:
433,251,280586,2,0,P|408:230|402:227,1,33.2499989852906,10|0,0:0|0:0,0:0:0:0:
309,178,281021,1,0,3:2:0:0:
277,176,281130,1,8,3:2:0:0:
251,182,281238,1,0,3:2:0:0:
141,224,281456,5,2,0:0:0:0:
225,158,281673,1,0,0:0:0:0:
106,259,281891,6,0,P|84:262|61:263,1,33.2499989852906,2|0,3:2|0:0,0:0:0:0:
151,322,282325,2,0,P|177:325|193:331,1,33.2499989852906,10|0,0:0|0:0,0:0:0:0:
271,295,282760,1,0,3:0:0:0:
270,300,282869,1,0,3:0:0:0:
284,318,282978,2,0,L|300:324,1,16.6249994926453,10|8,3:2|0:0,0:0:0:0:
335,359,283195,5,2,0:0:0:0:
349,268,283412,1,8,0:0:0:0:
403,189,283630,6,0,B|394:148|395:153,1,33.2499989852906,2|0,3:2|0:0,0:0:0:0:
317,120,284065,2,0,L|297:78,1,33.2499989852906,10|0,0:0|0:0,0:0:0:0:
232,42,284499,2,8,L|212:31,2,16.6249994926453,10|8|8,3:2|0:0|0:0,0:0:0:0:
150,67,284934,6,0,L|133:69,3,16.6249994926453,2|0|0|0,0:0|0:0|0:0|0:0,0:0:0:0:
56,97,285369,6,0,P|61:112|61:133,1,33.2499989852906,2|0,3:2|0:0,0:0:0:0:
119,222,285804,2,0,P|111:207|105:191,1,33.2499989852906,10|0,0:0|0:0,0:0:0:0:
197,140,286238,2,8,L|191:169,3,16.6249994926453,10|8|8|8,3:2|0:0|0:0|0:0,0:0:0:0:
208,187,286674,5,2,0:0:0:0:
289,159,286891,1,0,0:0:0:0:
345,238,287108,6,0,P|349:222|359:209,1,33.2499989852906,2|0,3:2|0:0,0:0:0:0:
397,306,287543,2,0,P|372:285|366:282,1,33.2499989852906,10|0,0:0|0:0,0:0:0:0:
383,348,287978,1,2,3:2:0:0:
413,348,288086,1,8,3:2:0:0:
445,350,288195,1,0,3:2:0:0:
344,354,288413,5,2,0:0:0:0:
280,280,288630,1,0,0:0:0:0:
174,310,288848,6,0,P|152:313|129:314,1,33.2499989852906,2|0,3:2|0:0,0:0:0:0:
203,241,289282,2,0,P|223:237|248:235,1,33.2499989852906,10|0,0:0|0:0,0:0:0:0:
156,165,289717,1,2,3:2:0:0:
165,173,289826,1,0,3:2:0:0:
143,188,289935,2,0,L|126:189,1,16.6249994926453,10|8,3:2|0:0,0:0:0:0:
92,200,290152,5,2,0:0:0:0:
118,93,290369,1,0,0:0:0:0:
212,164,290587,6,0,B|203:205|204:200,1,33.2499989852906,2|0,3:2|0:0,0:0:0:0:
199,305,291022,2,0,L|179:263,1,33.2499989852906,10|0,0:0|0:0,0:0:0:0:
204,124,291456,6,8,L|193:125,5,11.0833329950969,8|8|8|10|8|8,3:2|0:0|0:0|0:0|0:0|0:0,0:0:0:0:
206,299,291891,6,8,L|194:305,5,11.0833329950969,10|8|8|10|8|8,3:2|0:0|0:0|0:0|0:0|0:0,0:0:0:0:
299,355,292325,5,2,3:2:0:0:
333,288,292543,1,0,0:0:0:0:
334,217,292760,1,2,0:0:0:0:
303,148,292978,1,0,0:0:0:0:
236,107,293195,1,2,0:0:0:0:
319,58,293630,5,0,0:0:0:0:
303,148,293847,1,0,0:0:0:0:
365,254,294065,5,2,3:2:0:0:
298,215,294282,1,0,0:0:0:0:
224,205,294499,1,2,0:0:0:0:
151,215,294717,1,0,0:0:0:0:
90,254,294934,1,2,0:0:0:0:
132,317,295369,5,0,0:0:0:0:
126,240,295587,1,0,0:0:0:0:
162,344,295804,5,2,3:2:0:0:
218,304,296021,1,0,0:0:0:0:
275,260,296238,1,2,0:0:0:0:
332,214,296456,1,0,0:0:0:0:
389,168,296673,1,2,0:0:0:0:
432,125,297108,5,0,0:0:0:0:
418,184,297325,1,0,0:0:0:0:
405,84,297543,5,2,3:2:0:0:
373,86,297760,1,0,0:0:0:0:
343,94,297978,1,2,0:0:0:0:
315,110,298195,1,0,0:0:0:0:
296,133,298412,1,2,0:0:0:0:
265,222,298847,5,0,0:0:0:0:
241,129,299065,1,0,0:0:0:0:
276,274,299282,5,2,3:2:0:0:
215,221,299499,1,0,0:0:0:0:
142,209,299717,1,2,0:0:0:0:
67,223,299934,1,0,0:0:0:0:
15,274,300151,1,2,0:0:0:0:
34,158,300586,5,0,0:0:0:0:
54,250,300804,1,0,0:0:0:0:
76,115,301021,5,2,3:2:0:0:
145,156,301238,1,0,0:0:0:0:
222,162,301456,1,2,0:0:0:0:
278,235,301673,1,0,0:0:0:0:
366,210,301891,1,2,0:0:0:0:
437,273,302325,5,0,0:0:0:0:
376,184,302543,1,0,0:0:0:0:
306,232,302760,5,2,3:2:0:0:
220,228,302978,1,0,0:0:0:0:
240,153,303195,1,2,0:0:0:0:
173,242,303412,1,0,0:0:0:0:
120,167,303630,1,2,0:0:0:0:
177,278,304065,5,0,0:0:0:0:
181,228,304282,1,0,0:0:0:0:
292,259,304499,5,2,3:2:0:0:
236,313,304717,1,0,0:0:0:0:
362,284,304934,1,2,0:0:0:0:
302,184,305151,1,0,0:0:0:0:
367,96,305369,1,2,0:0:0:0:
261,56,305586,1,2,0:0:0:0:
261,56,305695,1,0,0:0:0:0:
261,56,305804,1,2,0:0:0:0:
261,56,305912,1,0,0:0:0:0:
261,56,306021,1,2,0:0:0:0:
261,56,306130,1,0,0:0:0:0:
233,80,306238,5,6,3:2:0:0:
256,192,306347,12,0,313195,0:0:0:0:
