osu file format v14

[General]
AudioFilename: audio.mp3
AudioLeadIn: 0
PreviewTime: 55797
Countdown: 0
SampleSet: Soft
StackLeniency: 0.4
Mode: 0
LetterboxInBreaks: 0
WidescreenStoryboard: 1

[Editor]
Bookmarks: 2305,16218,30131,44044,57957,71870,85783,99696,113609,127522,141435,155348,169261,183174,197087,211000,224913,238826,252739,266652,280565,294478
DistanceSpacing: 1.2
BeatDivisor: 4
GridSize: 32
TimelineZoom: 1

[Metadata]
Title:Bad Apple!! feat. nomico
TitleUnicode:Bad Apple!! feat. nomico
Artist:Masayoshi Minoshima
ArtistUnicode:Masayoshi Minoshima
Creator:Cheri
Version:Extra!!
Source:東方幻想郷 ~ Lotus Land Story
Tags:Video Game Japanese elly lovelight alstroemeria records 東方Project Bashe Yukiya Hailie DJ Lucky ylvy Undeadcapulet Touhou Zun
BeatmapID:1754721
BeatmapSetID:838156

[Difficulty]
HPDrainRate:5.5
CircleSize:4
OverallDifficulty:8
ApproachRate:9
SliderMultiplier:1.8
SliderTickRate:1

[Events]
//Background and Video events
0,0,"Collab BG.jpg",0,0
//Break Periods
2,43630,53630
//Storyboard Layer 0 (Background)
//Storyboard Layer 1 (Fail)
//Storyboard Layer 2 (Pass)
//Storyboard Layer 3 (Foreground)
//Storyboard Layer 4 (Overlay)
//Storyboard Sound Samples

[TimingPoints]
152,434.782608695652,4,2,1,50,1,0
152,-114.942528735632,4,2,1,50,0,0
27978,-90.9090909090909,4,2,1,50,0,0
55804,-100,4,2,1,50,0,0
69717,-90.9090909090909,4,2,1,65,0,0
81891,-151.515151515152,4,2,1,65,0,0
83630,-76.9230769230769,4,2,1,80,0,0
97543,-66.6666666666667,4,2,1,80,0,0
111456,-250,4,2,1,60,0,0
112325,-1000,4,2,1,60,0,0
113195,-250,4,2,1,60,0,0
114065,-1000,4,2,1,60,0,0
114934,-250,4,2,1,60,0,0
115804,-1000,4,2,1,60,0,0
116673,-250,4,2,1,60,0,0
117108,-166.666666666667,4,2,1,60,0,0
117543,-1000,4,2,1,60,0,0
118412,-250,4,2,1,60,0,0
119282,-1000,4,2,1,60,0,0
120151,-250,4,2,1,60,0,0
121021,-1000,4,2,1,60,0,0
121891,-250,4,2,1,60,0,0
122760,-1000,4,2,1,60,0,0
123630,-250,4,2,1,60,0,0
124065,-166.666666666667,4,2,1,60,0,0
124499,-1000,4,2,1,60,0,0
125369,-149.253731343284,4,2,1,60,0,0
126238,-1000,4,2,1,60,0,0
127108,-149.253731343284,4,2,1,60,0,0
128086,-1000,4,2,1,60,0,0
128847,-149.253731343284,4,2,1,60,0,0
129717,-1000,4,2,1,60,0,0
130586,-149.253731343284,4,2,1,60,0,0
131021,-114.942528735632,4,2,1,60,0,0
131456,-1000,4,2,1,60,0,0
132325,-149.253731343284,4,2,1,60,0,0
133195,-1000,4,2,1,60,0,0
134065,-149.253731343284,4,2,1,60,0,0
135043,-1000,4,2,1,60,0,0
135804,-149.253731343284,4,2,1,60,0,0
136673,-1000,4,2,1,60,0,0
137108,-100,4,2,1,60,0,0
138412,-75.187969924812,4,2,1,70,0,0
139282,-83.3333333333333,4,2,1,70,0,0
153195,-66.6666666666667,4,2,1,70,0,0
167108,-100,4,2,1,65,0,0
181021,-90.9090909090909,4,2,1,65,0,0
194934,-76.9230769230769,4,2,1,80,0,0
208847,-66.6666666666667,4,2,1,80,0,0
222760,-250,4,2,1,60,0,0
223630,-1000,4,2,1,60,0,0
224499,-250,4,2,1,60,0,0
225369,-1000,4,2,1,60,0,0
226238,-250,4,2,1,60,0,0
227108,-1000,4,2,1,60,0,0
227978,-250,4,2,1,60,0,0
228412,-166.666666666667,4,2,1,60,0,0
228847,-1000,4,2,1,60,0,0
229717,-250,4,2,1,60,0,0
230586,-1000,4,2,1,60,0,0
231456,-250,4,2,1,60,0,0
232325,-1000,4,2,1,60,0,0
233195,-250,4,2,1,60,0,0
234065,-1000,4,2,1,60,0,0
234934,-250,4,2,1,60,0,0
235369,-166.666666666667,4,2,1,60,0,0
235804,-1000,4,2,1,60,0,0
236673,-114.942528735632,4,2,1,65,0,0
237108,-149.253731343284,4,2,1,65,0,0
237543,-1000,4,2,1,65,0,0
238412,-149.253731343284,4,2,1,65,0,0
239282,-1000,4,2,1,65,0,0
240151,-149.253731343284,4,2,1,65,0,0
241021,-1000,4,2,1,65,0,0
241891,-149.253731343284,4,2,1,65,0,0
243630,-100,4,2,1,65,0,0
244065,-149.253731343284,4,2,1,65,0,0
244499,-1000,4,2,1,65,0,0
245369,-100,4,2,1,65,0,0
245804,-149.253731343284,4,2,1,65,0,0
246347,-1000,4,2,1,65,0,0
247108,-100,4,2,1,65,0,0
250586,-71.4285714285714,4,2,1,80,0,0
264499,-60.2409638554217,4,2,1,80,0,0
278412,-250,4,2,1,65,0,0
279282,-250,4,2,1,55,0,0
279717,-250,4,2,1,65,0,0
286238,-250,4,2,1,55,0,0
286673,-250,4,2,1,65,0,0
291456,-250,4,2,1,40,0,0
292325,-250,4,2,1,60,0,0

[Colours]
Combo1 : 219,219,219
Combo2 : 244,104,104

[HitObjects]
384,320,152,6,0,L|465:318,1,78.3000006571198,2|0,3:2|0:0,0:0:0:0:
334,245,586,2,0,L|239:242,1,78.3000006571198,2|0,3:2|0:0,0:0:0:0:
401,176,1021,2,0,L|487:178,1,78.3000006571198,2|0,3:2|0:0,0:0:0:0:
333,103,1456,2,0,L|261:94,1,39.1500003285599,2|0,3:2|3:2,0:0:0:0:
275,56,1673,2,0,L|221:44,1,39.1500003285599,2|0,3:2|3:2,0:0:0:0:
361,81,1891,6,0,L|451:74,1,78.3000006571198,2|0,3:2|0:0,0:0:0:0:
303,147,2325,2,0,L|219:146,1,78.3000006571198,0|0,3:2|0:0,0:0:0:0:
354,217,2760,2,0,L|452:223,1,78.3000006571198,0|0,3:2|0:0,0:0:0:0:
282,304,3195,1,0,3:2:0:0:
378,345,3412,1,0,3:2:0:0:
179,364,3630,6,0,L|186:266,1,78.3000006571198,2|0,3:2|0:0,0:0:0:0:
108,172,4065,2,0,L|99:270,1,78.3000006571198,2|0,3:2|0:0,0:0:0:0:
25,358,4499,2,0,L|17:280,1,78.3000006571198,2|0,3:2|0:0,0:0:0:0:
35,120,4934,2,0,L|18:167,1,39.1500003285599,2|0,3:2|3:2,0:0:0:0:
45,45,5151,2,0,L|32:85,1,39.1500003285599,2|0,3:2|3:2,0:0:0:0:
80,226,5369,6,0,L|61:140,1,78.3000006571198,2|0,3:2|0:0,0:0:0:0:
139,41,5804,2,0,L|147:126,1,78.3000006571198,2|0,3:2|0:0,0:0:0:0:
224,227,6238,2,0,L|234:133,1,78.3000006571198,2|0,3:2|0:0,0:0:0:0:
289,14,6673,1,2,3:2:0:0:
309,98,6891,1,0,3:2:0:0:
312,12,7108,5,2,3:2:0:0:
337,103,7325,2,0,L|327:185,1,78.3000006571198,0|2,0:0|3:2,0:0:0:0:
430,33,7760,2,0,L|411:130,1,78.3000006571198,0|2,0:0|3:2,0:0:0:0:
485,160,8195,2,0,L|469:245,1,78.3000006571198,0|2,0:0|3:2,0:0:0:0:
459,342,8521,2,0,L|469:386,2,39.1500003285599,0|2|0,3:2|3:2|3:2,0:0:0:0:
493,354,8847,5,2,3:2:0:0:
491,247,9065,2,0,L|481:163,1,78.3000006571198,0|2,0:0|3:2,0:0:0:0:
409,375,9499,2,0,L|392:287,1,78.3000006571198,0|2,0:0|3:2,0:0:0:0:
297,266,9934,2,0,L|286:156,1,78.3000006571198,0|2,0:0|3:2,0:0:0:0:
231,367,10369,1,0,3:2:0:0:
189,143,10586,5,2,3:2:0:0:
173,242,10804,2,0,L|88:241,1,78.3000006571198,0|2,0:0|3:2,0:0:0:0:
220,344,11238,2,0,L|127:343,1,78.3000006571198,0|2,0:0|3:2,0:0:0:0:
131,199,11673,2,0,L|44:199,1,78.3000006571198,0|2,0:0|3:2,0:0:0:0:
51,62,11999,2,0,L|20:31,2,39.1500003285599,0|2|0,3:2|3:2|3:2,0:0:0:0:
32,62,12325,5,2,3:2:0:0:
22,171,12543,2,0,L|117:177,1,78.3000006571198,0|2,0:0|3:2,0:0:0:0:
60,40,12978,2,0,L|139:46,1,78.3000006571198,0|2,0:0|3:2,0:0:0:0:
18,262,13412,1,0,0:0:0:0:
333,337,13630,1,8,3:2:0:0:
333,337,14065,6,0,P|391:333|470:327,1,117.45000098568,4|0,3:2|0:0,0:0:0:0:
386,302,14499,1,0,3:2:0:0:
345,292,14608,2,0,L|295:293,2,39.1500003285599,2|0|0,0:0|0:0|0:0,0:0:0:0:
272,268,14934,2,0,P|197:295|146:316,1,117.45000098568,0|0,3:2|0:0,0:0:0:0:
122,348,15369,1,2,3:2:0:0:
105,317,15478,1,0,0:0:0:0:
110,279,15586,1,2,0:0:0:0:
103,239,15695,1,0,0:0:0:0:
78,203,15804,6,0,P|103:156|115:94,1,117.45000098568,2|0,3:2|0:0,0:0:0:0:
91,56,16238,1,0,3:0:0:0:
91,56,16347,2,0,P|111:73|147:92,2,39.1500003285599,2|0|0,0:0|0:0|0:0,0:0:0:0:
178,74,16673,1,2,3:2:0:0:
248,146,16891,1,0,0:0:0:0:
245,176,16999,1,0,0:0:0:0:
231,207,17108,2,0,P|220:257|224:278,1,39.1500003285599,2|0,3:2|0:0,0:0:0:0:
325,203,17325,2,0,P|334:170|325:144,1,39.1500003285599,2|0,0:0|0:0,0:0:0:0:
416,290,17543,6,0,P|357:287|295:293,1,117.45000098568,2|0,3:2|0:0,0:0:0:0:
239,352,17978,1,0,3:0:0:0:
239,352,18086,2,0,P|249:311|254:291,2,39.1500003285599,2|0|0,0:0|0:0|0:0,0:0:0:0:
219,237,18412,2,0,P|192:294|158:354,1,117.45000098568,2|0,3:2|0:0,0:0:0:0:
131,349,18847,1,2,3:2:0:0:
109,320,18956,1,0,0:0:0:0:
76,304,19065,1,2,0:0:0:0:
50,279,19173,1,0,0:0:0:0:
39,180,19282,6,0,P|39:242|42:326,1,117.45000098568,2|0,3:2|0:0,0:0:0:0:
86,219,19717,1,2,3:2:0:0:
86,219,19825,2,0,L|95:161,2,39.1500003285599,2|0|0,0:0|0:0|0:0,0:0:0:0:
120,140,20151,5,2,3:2:0:0:
239,105,20369,1,2,0:0:0:0:
204,105,20478,1,0,0:0:0:0:
295,89,20586,1,2,3:2:0:0:
371,117,20804,1,2,0:0:0:0:
401,135,20912,1,0,0:0:0:0:
454,86,21021,6,0,P|440:159|428:213,1,117.45000098568,2|0,3:2|0:0,0:0:0:0:
459,280,21456,1,0,3:0:0:0:
459,280,21565,2,0,L|451:232,2,39.1500003285599,2|0|0,0:0|0:0|0:0,0:0:0:0:
370,343,21891,2,0,P|316:334|231:343,1,117.45000098568,2|0,3:2|0:0,0:0:0:0:
210,343,22325,1,2,3:2:0:0:
178,314,22434,1,0,0:0:0:0:
141,311,22543,1,2,0:0:0:0:
113,275,22651,1,0,0:0:0:0:
128,193,22760,6,0,P|118:238|85:336,1,117.45000098568,2|0,3:2|0:0,0:0:0:0:
103,161,23195,1,2,3:2:0:0:
103,161,23304,2,0,L|110:211,2,39.1500003285599,2|0|0,0:0|0:0|0:0,0:0:0:0:
176,242,23630,2,0,P|246:247|276:249,1,78.3000006571198,2|0,3:2|0:0,0:0:0:0:
325,267,23956,5,0,0:0:0:0:
367,280,24065,1,2,3:2:0:0:
310,137,24282,1,2,0:0:0:0:
252,154,24390,1,0,0:0:0:0:
394,93,24499,6,0,P|374:160|383:217,1,117.45000098568,2|0,3:2|0:0,0:0:0:0:
435,100,24934,1,0,3:2:0:0:
435,100,25043,2,0,L|428:47,2,39.1500003285599,2|0|0,0:0|0:0|0:0,0:0:0:0:
457,218,25369,2,0,B|444:273|444:273|454:349,1,117.45000098568,2|0,3:2|0:0,0:0:0:0:
411,339,25803,1,0,3:2:0:0:
368,328,25912,1,0,0:0:0:0:
329,349,26020,1,2,0:0:0:0:
286,354,26130,1,0,0:0:0:0:
244,274,26238,6,0,P|204:328|161:388,1,117.45000098568,2|0,3:2|0:0,0:0:0:0:
211,253,26673,1,0,3:0:0:0:
211,253,26782,2,0,L|205:198,2,39.1500003285599,2|0|0,0:0|0:0|0:0,0:0:0:0:
223,107,27108,5,10,3:2:0:0:
169,178,27253,1,8,3:2:0:0:
116,245,27398,1,8,3:2:0:0:
287,84,27543,5,8,3:2:0:0:
202,87,27688,1,8,3:2:0:0:
100,88,27833,1,8,3:2:0:0:
354,74,27978,6,0,L|234:29,1,99.0000030212403,4|0,3:2|0:0,0:0:0:0:
417,28,28304,2,0,P|452:45|472:56,1,49.5000015106202,2|0,0:0|3:2,0:0:0:0:
350,111,28521,1,2,0:0:0:0:
308,140,28630,1,0,0:0:0:0:
265,138,28738,1,2,0:0:0:0:
225,99,28847,6,0,P|164:89|120:97,1,99.0000030212403,2|0,3:2|0:0,0:0:0:0:
45,72,29173,2,0,P|17:95|6:108,1,49.5000015106202,0|2,0:0|3:2,0:0:0:0:
28,226,29391,1,0,0:0:0:0:
44,246,29499,1,2,0:0:0:0:
15,275,29608,1,0,0:0:0:0:
27,287,29717,6,0,P|20:342|5:405,1,99.0000030212403,2|0,3:2|0:0,0:0:0:0:
119,195,30043,2,0,P|117:129|116:117,1,49.5000015106202,2|0,0:0|3:0,0:0:0:0:
143,295,30260,1,2,0:0:0:0:
163,329,30369,1,0,0:0:0:0:
184,365,30478,1,0,0:0:0:0:
238,289,30586,6,0,P|214:226|184:166,1,99.0000030212403,2|0,3:2|0:0,0:0:0:0:
260,34,30912,1,2,0:0:0:0:
275,168,31021,2,0,P|310:118|334:57,1,99.0000030212403,2|2,3:2|0:0,0:0:0:0:
307,355,31347,1,0,0:0:0:0:
385,364,31456,6,0,P|443:366|499:372,1,99.0000030212403,2|0,3:2|0:0,0:0:0:0:
300,326,31782,2,0,P|239:321|225:321,1,49.5000015106202,2|0,0:0|3:2,0:0:0:0:
372,221,31999,1,2,0:0:0:0:
416,199,32108,1,0,0:0:0:0:
440,157,32217,1,0,0:0:0:0:
429,107,32325,6,0,P|372:119|315:143,1,99.0000030212403,2|0,3:2|0:0,0:0:0:0:
339,249,32651,2,0,P|328:291|330:321,1,49.5000015106202,0|2,0:0|3:2,0:0:0:0:
429,346,32869,1,0,0:0:0:0:
448,328,32978,1,2,0:0:0:0:
438,311,33086,1,0,0:0:0:0:
449,298,33195,6,0,P|476:234|500:180,1,99.0000030212403,2|0,3:2|0:0,0:0:0:0:
349,307,33521,2,0,P|310:361|299:371,1,49.5000015106202,2|2,0:0|3:2,0:0:0:0:
104,315,33738,1,0,0:0:0:0:
77,280,33847,1,2,0:0:0:0:
57,240,33956,1,0,0:0:0:0:
120,292,34065,6,0,P|160:348|201:386,1,99.0000030212403,0|2,3:2|0:0,0:0:0:0:
103,80,34391,1,0,0:0:0:0:
95,162,34499,2,0,P|99:192|106:215,1,49.5000015106202,2|0,3:2|0:0,0:0:0:0:
93,17,34717,2,0,P|79:50|77:72,1,49.5000015106202,2|0,0:0|0:0,0:0:0:0:
219,249,34934,6,0,P|170:281|131:330,1,99.0000030212403,2|0,3:2|0:0,0:0:0:0:
198,133,35260,2,0,P|245:137|262:139,1,49.5000015106202,2|0,0:0|3:2,0:0:0:0:
122,200,35478,1,2,0:0:0:0:
96,158,35586,1,0,0:0:0:0:
94,114,35695,1,0,0:0:0:0:
105,59,35804,6,0,P|66:99|49:142,1,99.0000030212403,2|0,3:2|0:0,0:0:0:0:
154,226,36130,2,0,P|171:267|188:283,1,49.5000015106202,0|2,0:0|3:2,0:0:0:0:
199,70,36347,1,0,0:0:0:0:
230,47,36456,1,2,0:0:0:0:
251,60,36565,1,0,0:0:0:0:
261,50,36673,6,0,P|336:41|383:40,1,99.0000030212403,0|0,3:2|0:0,0:0:0:0:
132,28,36999,2,0,P|93:17|71:15,1,49.5000015106202,2|0,0:0|3:2,0:0:0:0:
260,215,37217,1,2,0:0:0:0:
296,196,37325,1,0,0:0:0:0:
316,166,37434,1,0,0:0:0:0:
273,96,37543,6,0,P|207:147|170:186,1,99.0000030212403,0|2,3:2|0:0,0:0:0:0:
207,364,37869,1,0,0:0:0:0:
144,228,37978,2,0,P|129:301|134:343,1,99.0000030212403,2|2,3:2|0:0,0:0:0:0:
116,21,38304,1,0,0:0:0:0:
51,86,38412,6,0,P|64:150|68:204,1,99.0000030212403,2|0,3:2|0:0,0:0:0:0:
133,43,38738,2,0,P|180:18|208:6,1,49.5000015106202,2|0,0:0|3:0,0:0:0:0:
171,184,38956,1,2,0:0:0:0:
146,215,39065,1,0,0:0:0:0:
143,257,39173,1,0,0:0:0:0:
166,294,39282,6,0,P|115:288|64:268,1,99.0000030212403,2|0,3:2|0:0,0:0:0:0:
110,131,39608,2,0,P|131:90|155:66,1,49.5000015106202,0|2,0:0|3:2,0:0:0:0:
234,240,39825,1,0,0:0:0:0:
268,249,39934,1,2,0:0:0:0:
265,274,40043,1,0,0:0:0:0:
286,279,40151,6,0,P|322:316|357:364,1,99.0000030212403,2|0,3:2|0:0,0:0:0:0:
289,174,40478,2,0,P|270:116|254:93,1,49.5000015106202,0|0,0:0|3:0,0:0:0:0:
402,237,40695,1,2,0:0:0:0:
439,264,40804,1,0,0:0:0:0:
483,271,40912,1,0,0:0:0:0:
504,233,41021,5,8,3:2:0:0:
496,154,41166,1,8,3:2:0:0:
488,75,41311,1,8,3:2:0:0:
306,182,41456,5,8,3:2:0:0:
286,103,41601,1,8,3:2:0:0:
270,26,41746,1,8,3:2:0:0:
193,85,41891,5,8,3:2:0:0:
247,120,54499,5,2,3:2:0:0:
247,120,54934,5,8,3:2:0:0:
257,195,55079,1,8,3:2:0:0:
267,272,55224,1,8,3:2:0:0:
285,155,55369,5,8,3:2:0:0:
274,234,55514,1,8,3:2:0:0:
263,314,55659,1,8,3:2:0:0:
228,184,55804,6,0,P|236:131|244:60,1,90,2|0,3:2|0:0,0:0:0:0:
161,185,56238,2,0,P|154:230|146:274,1,90,2|0,3:2|0:0,0:0:0:0:
376,335,56673,2,0,P|319:311|216:263,1,135,2|0,3:2|0:0,0:0:0:0:
291,242,57108,6,0,P|301:299|304:312,1,45,2|0,3:2|0:0,0:0:0:0:
376,335,57325,1,2,0:0:0:0:
220,208,57543,5,2,3:2:0:0:
3,13,57978,2,0,P|21:77|37:161,1,135,2|0,3:2|0:0,0:0:0:0:
31,272,58412,2,0,P|64:158|66:151,1,90,2|2,3:2|0:0,0:0:0:0:
181,74,58847,5,2,3:2:0:0:
34,144,59065,1,2,3:2:0:0:
200,115,59282,6,0,P|275:115|326:114,1,90,2|0,3:2|0:0,0:0:0:0:
426,171,59717,1,2,3:2:0:0:
265,73,59934,1,0,0:0:0:0:
205,264,60151,2,0,P|215:331|223:376,1,90,2|0,3:2|0:0,0:0:0:0:
133,237,60586,5,2,3:2:0:0:
299,302,60804,1,2,0:0:0:0:
177,83,61021,5,2,3:2:0:0:
188,160,61238,1,0,0:0:0:0:
69,173,61456,5,2,3:2:0:0:
267,159,61673,1,0,0:0:0:0:
175,302,61891,5,2,3:2:0:0:
87,178,62108,2,0,L|88:111,1,45,0|0,3:0|0:0,0:0:0:0:
225,265,62325,2,0,P|227:307|232:345,1,45,2|0,3:2|0:0,0:0:0:0:
330,180,62543,1,0,0:0:0:0:
449,157,62760,6,0,P|382:163|327:149,1,90,6|0,3:2|0:0,0:0:0:0:
202,167,63195,2,0,P|225:139|279:117,1,90,2|0,3:2|0:0,0:0:0:0:
112,249,63630,2,0,P|112:208|107:180,1,45,2|0,3:2|0:0,0:0:0:0:
264,355,64065,5,2,3:2:0:0:
111,204,64282,1,2,0:0:0:0:
73,103,64499,6,0,P|76:187|75:264,1,135,2|0,3:2|0:0,0:0:0:0:
161,326,64934,2,0,B|123:268|123:268|105:176,1,135,2|0,3:2|0:0,0:0:0:0:
196,345,65369,5,2,3:2:0:0:
172,227,65586,1,2,0:0:0:0:
308,275,65804,5,2,3:2:0:0:
110,203,66021,1,2,3:2:0:0:
224,77,66238,2,0,P|231:148|231:193,1,90,2|0,3:2|0:0,0:0:0:0:
282,312,66673,1,2,3:2:0:0:
206,198,66891,1,0,0:0:0:0:
348,41,67108,1,2,3:2:0:0:
277,355,67543,5,2,3:2:0:0:
183,208,67760,1,0,0:0:0:0:
145,213,67978,5,2,3:2:0:0:
108,216,68412,5,2,3:2:0:0:
465,195,68847,5,10,0:0:0:0:
374,185,68992,1,10,0:0:0:0:
280,170,69137,1,10,0:0:0:0:
512,304,69282,5,10,0:0:0:0:
441,225,69427,1,10,0:0:0:0:
370,157,69572,1,10,0:0:0:0:
435,343,69717,6,0,P|439:245|449:200,1,99.0000030212403,0|0,3:2|0:0,0:0:0:0:
310,31,70151,2,0,P|318:109|325:164,1,99.0000030212403,2|0,3:2|0:0,0:0:0:0:
103,275,70586,2,0,P|174:252|291:233,1,148.50000453186,2|0,3:2|0:0,0:0:0:0:
241,141,71021,5,2,3:2:0:0:
36,196,71238,2,0,P|-2:197|-14:194,1,49.5000015106202,2|0,0:0|0:0,0:0:0:0:
112,12,71456,6,0,L|122:111,1,99.0000030212403,2|0,3:2|0:0,0:0:0:0:
105,382,71891,2,0,L|119:284,1,99.0000030212403,2|0,3:2|0:0,0:0:0:0:
297,251,72325,1,2,3:2:0:0:
211,280,72543,1,2,0:0:0:0:
292,219,72760,6,0,L|302:151,1,49.5000015106202,2|0,3:2|0:0,0:0:0:0:
360,92,72978,2,0,L|371:43,1,49.5000015106202,2|0,3:2|0:0,0:0:0:0:
268,10,73195,5,2,3:2:0:0:
374,211,73412,1,0,0:0:0:0:
356,58,73630,5,2,3:2:0:0:
336,141,73847,1,0,0:0:0:0:
457,31,74065,6,0,L|316:22,1,99.0000030212403,2|0,3:2|0:0,0:0:0:0:
475,338,74499,1,2,3:2:0:0:
279,352,74717,1,0,0:0:0:0:
403,374,74934,5,2,3:2:0:0:
426,247,75151,1,0,0:0:0:0:
336,76,75369,5,2,3:2:0:0:
346,174,75586,1,0,0:0:0:0:
217,313,75804,6,0,L|233:257,1,49.5000015106202,2|0,3:2|0:0,0:0:0:0:
133,363,76021,2,0,L|149:306,1,49.5000015106202,0|0,3:2|0:0,0:0:0:0:
52,121,76238,6,0,L|56:192,1,49.5000015106202,2|0,3:2|0:0,0:0:0:0:
119,19,76456,1,0,0:0:0:0:
105,47,76565,1,0,0:0:0:0:
24,32,76673,6,0,P|72:47|138:75,1,99.0000030212403,4|0,3:2|0:0,0:0:0:0:
452,43,77108,2,0,P|376:67|341:82,1,99.0000030212403,2|0,3:2|0:0,0:0:0:0:
174,333,77543,2,0,P|214:194|216:156,1,148.50000453186,2|0,3:2|0:0,0:0:0:0:
293,9,77978,5,2,3:2:0:0:
292,135,78195,2,0,P|289:164|289:208,1,49.5000015106202,0|0,0:0|0:0,0:0:0:0:
401,204,78412,6,0,L|270:183,1,99.0000030212403,2|0,3:2|0:0,0:0:0:0:
12,351,78847,2,0,L|141:342,1,99.0000030212403,2|0,3:2|0:0,0:0:0:0:
294,269,79282,1,2,3:2:0:0:
330,367,79499,1,0,0:0:0:0:
234,231,79717,6,0,L|295:253,1,49.5000015106202,2|0,3:2|0:0,0:0:0:0:
214,123,79934,2,0,L|277:143,1,49.5000015106202,0|0,3:0|0:0,0:0:0:0:
376,19,80151,5,2,3:2:0:0:
354,264,80369,1,0,0:0:0:0:
465,68,80586,5,2,3:2:0:0:
347,31,80804,1,0,0:0:0:0:
406,200,81021,2,0,L|254:307,1,148.50000453186,2|0,3:2|0:0,0:0:0:0:
279,382,81456,1,2,3:2:0:0:
291,304,81673,1,2,0:0:0:0:
24,324,81891,5,4,3:2:0:0:
37,239,81999,2,0,L|30:165,1,59.3999998187256,0|0,0:0|0:0,0:0:0:0:
181,326,82325,5,4,3:2:0:0:
166,246,82434,2,0,L|172:174,1,59.3999998187256,0|0,0:0|0:0,0:0:0:0:
294,326,82760,5,4,3:2:0:0:
336,256,82869,2,0,L|326:182,1,59.3999998187256,0|0,0:0|0:0,0:0:0:0:
481,335,83195,5,4,3:2:0:0:
446,264,83304,2,0,L|452:201,1,59.3999998187256,0|0,0:0|0:0,0:0:0:0:
267,107,83630,6,0,P|334:104|412:104,1,116.999994644165,4|0,3:2|0:0,0:0:0:0:
144,82,84065,2,0,P|189:72|289:54,1,116.999994644165,2|2,3:2|0:0,0:0:0:0:
46,247,84499,2,0,P|79:177|134:55,1,175.499991966248,2|0,3:2|0:0,0:0:0:0:
57,294,84934,5,2,3:2:0:0:
95,67,85151,1,2,0:0:0:0:
62,345,85369,6,0,P|85:273|159:222,1,116.999994644165,2|0,3:2|0:0,0:0:0:0:
255,118,85804,1,2,3:2:0:0:
180,182,85912,1,0,0:0:0:0:
320,57,86021,2,0,L|304:-14,1,58.4999973220826,2|0,0:0|0:0,0:0:0:0:
438,152,86238,6,0,B|372:140|343:99|343:99|302:143|249:138,1,175.499991966248,2|0,3:2|0:0,0:0:0:0:
444,203,86673,5,2,3:2:0:0:
406,74,86891,1,2,0:0:0:0:
451,314,87108,6,0,P|392:276|336:237,1,116.999994644165,2|2,3:2|0:0,0:0:0:0:
164,255,87543,2,0,P|235:243|306:228,1,116.999994644165,2|2,3:2|0:0,0:0:0:0:
68,312,87978,1,2,3:2:0:0:
39,59,88412,6,0,P|41:111|37:173,1,58.4999973220826,2|0,3:2|0:0,0:0:0:0:
120,20,88630,1,2,0:0:0:0:
4,176,88847,6,0,P|78:172|138:186,1,116.999994644165,2|2,3:2|0:0,0:0:0:0:
392,100,89282,2,0,P|299:99|260:62,1,116.999994644165,2|2,3:2|0:0,0:0:0:0:
115,229,89717,5,2,3:2:0:0:
294,65,89934,1,0,0:0:0:0:
224,292,90151,5,2,3:2:0:0:
199,101,90369,2,0,L|200:171,1,58.4999973220826,2|0,0:0|0:0,0:0:0:0:
168,368,90586,6,0,P|195:305|228:227,1,116.999994644165,2|2,3:2|0:0,0:0:0:0:
438,320,91021,2,0,P|360:284|311:261,1,116.999994644165,2|2,3:2|0:0,0:0:0:0:
512,87,91456,2,0,P|511:141|434:291,1,175.499991966248,2|0,3:2|0:0,0:0:0:0:
486,49,91891,5,2,3:2:0:0:
487,314,92108,1,2,0:0:0:0:
322,138,92325,6,0,P|391:140|472:140,1,116.999994644165,2|2,3:2|0:0,0:0:0:0:
202,186,92760,1,2,3:2:0:0:
178,267,92869,1,0,0:0:0:0:
231,41,92978,2,0,L|231:120,1,58.4999973220826,2|0,0:0|0:0,0:0:0:0:
143,346,93195,2,0,B|143:295|173:264|173:264|149:235|141:138,1,175.499991966248,2|0,3:2|0:0,0:0:0:0:
165,360,93630,6,0,L|173:291,1,58.4999973220826,2|0,3:2|0:0,0:0:0:0:
175,384,93847,2,0,L|205:329,1,58.4999973220826,2|0,0:0|0:0,0:0:0:0:
286,239,94065,6,0,P|340:275|401:323,1,116.999994644165,2|2,3:2|0:0,0:0:0:0:
252,174,94499,2,0,P|168:195|103:208,1,116.999994644165,2|2,3:2|0:0,0:0:0:0:
394,134,94934,1,2,3:2:0:0:
106,303,95369,6,0,P|104:244|104:226,1,58.4999973220826,2|0,3:2|0:0,0:0:0:0:
156,360,95586,1,0,0:0:0:0:
25,56,95804,6,0,P|15:132|10:194,1,116.999994644165,2|2,3:2|0:0,0:0:0:0:
108,42,96238,2,0,L|71:106,1,58.4999973220826,2|0,3:2|0:0,0:0:0:0:
82,291,96456,2,0,L|61:211,1,58.4999973220826,0|0,0:0|0:0,0:0:0:0:
216,74,96673,5,10,3:2:0:0:
406,130,96818,1,8,3:2:0:0:
266,271,96963,1,8,3:2:0:0:
253,60,97108,5,10,3:2:0:0:
42,105,97253,1,8,3:2:0:0:
177,260,97398,1,8,3:2:0:0:
223,355,97543,6,0,L|225:269,1,67.5000025749208,4|0,3:2|0:0,0:0:0:0:
230,25,97760,1,2,0:0:0:0:
331,369,97978,6,0,L|305:250,1,67.5000025749208,2|0,3:1|0:0,0:0:0:0:
237,43,98195,1,2,0:0:0:0:
458,333,98412,6,0,L|395:250,1,67.5000025749208,2|0,3:1|0:0,0:0:0:0:
235,64,98630,1,0,0:0:0:0:
496,207,98847,6,0,L|395:194,1,67.5000025749208,2|0,3:2|0:0,0:0:0:0:
242,245,99065,1,2,0:0:0:0:
21,115,99282,6,0,L|96:129,1,67.5000025749208,2|0,3:1|0:0,0:0:0:0:
397,204,99499,1,2,0:0:0:0:
0,214,99717,6,0,L|73:206,1,67.5000025749208,2|0,3:1|0:0,0:0:0:0:
376,194,99934,1,2,0:0:0:0:
20,325,100151,6,0,L|98:301,1,67.5000025749208,2|0,3:1|0:0,0:0:0:0:
345,202,100369,1,0,0:0:0:0:
125,384,100586,6,0,L|186:319,1,67.5000025749208,2|0,3:1|0:0,0:0:0:0:
227,87,100804,2,0,L|155:24,1,67.5000025749208,2|0,0:0|0:0,0:0:0:0:
275,8,101021,6,0,L|263:81,1,67.5000025749208,2|0,3:1|0:0,0:0:0:0:
274,187,101238,1,2,0:0:0:0:
380,4,101456,6,0,L|384:101,1,67.5000025749208,2|0,3:1|0:0,0:0:0:0:
359,222,101673,1,2,0:0:0:0:
240,30,101891,6,0,L|240:99,1,67.5000025749208,2|0,3:1|0:0,0:0:0:0:
284,291,102108,1,0,0:0:0:0:
425,40,102325,6,0,L|416:124,1,67.5000025749208,2|0,3:1|0:0,0:0:0:0:
341,354,102543,1,2,0:0:0:0:
489,377,102760,6,0,L|471:285,1,67.5000025749208,2|0,3:1|0:0,0:0:0:0:
509,140,102978,1,2,0:0:0:0:
314,371,103195,6,0,L|332:276,1,67.5000025749208,2|0,3:1|0:0,0:0:0:0:
329,20,103412,1,2,0:0:0:0:
185,17,103630,6,0,L|172:112,1,67.5000025749208,2|0,3:1|0:0,0:0:0:0:
188,167,103847,2,0,L|208:271,1,67.5000025749208,2|0,0:0|0:0,0:0:0:0:
97,22,104065,6,0,L|49:109,1,67.5000025749208,2|0,3:1|0:0,0:0:0:0:
62,327,104282,2,0,L|118:417,1,67.5000025749208,2|0,0:0|0:0,0:0:0:0:
483,360,104499,6,0,L|389:345,1,67.5000025749208,4|0,3:2|0:0,0:0:0:0:
121,346,104717,1,2,0:0:0:0:
499,249,104934,6,0,L|425:257,1,67.5000025749208,2|0,3:1|0:0,0:0:0:0:
149,336,105151,1,2,0:0:0:0:
484,130,105369,6,0,L|404:156,1,67.5000025749208,2|0,3:1|0:0,0:0:0:0:
166,308,105586,1,0,0:0:0:0:
431,38,105804,6,0,L|366:80,1,67.5000025749208,2|0,3:1|0:0,0:0:0:0:
227,207,106021,1,2,0:0:0:0:
27,351,106238,6,0,L|56:259,1,67.5000025749208,2|0,3:1|0:0,0:0:0:0:
124,14,106456,1,2,0:0:0:0:
142,382,106673,6,0,L|142:296,1,67.5000025749208,2|0,3:1|0:0,0:0:0:0:
142,44,106891,1,2,0:0:0:0:
256,362,107108,6,0,L|226:271,1,67.5000025749208,2|0,3:1|0:0,0:0:0:0:
122,69,107325,1,0,0:0:0:0:
426,323,107543,6,0,L|338:259,1,67.5000025749208,2|0,3:1|0:0,0:0:0:0:
481,14,107760,2,0,L|386:38,1,67.5000025749208,2|0,0:0|0:0,0:0:0:0:
508,366,107978,6,0,L|417:365,1,67.5000025749208,2|0,3:1|0:0,0:0:0:0:
110,329,108195,1,2,0:0:0:0:
48,215,108412,6,0,L|159:252,1,67.5000025749208,2|0,3:1|0:0,0:0:0:0:
343,304,108630,1,2,0:0:0:0:
475,168,108847,6,0,L|378:188,1,67.5000025749208,2|0,3:1|0:0,0:0:0:0:
242,258,109065,1,0,0:0:0:0:
27,84,109282,6,0,L|119:121,1,67.5000025749208,2|0,3:1|0:0,0:0:0:0:
268,135,109499,1,2,0:0:0:0:
375,0,109717,6,0,L|371:76,1,67.5000025749208,2|0,3:1|0:0,0:0:0:0:
418,249,109934,1,2,0:0:0:0:
484,1,110151,6,0,L|460:96,1,67.5000025749208,2|0,3:1|0:0,0:0:0:0:
417,280,110369,1,2,0:0:0:0:
351,11,110586,5,8,3:2:0:0:
476,161,110731,1,8,3:2:0:0:
402,321,110876,1,8,3:2:0:0:
308,33,111021,5,10,3:2:0:0:
268,232,111166,1,8,3:2:0:0:
400,363,111311,1,8,3:2:0:0:
353,226,111456,6,0,P|388:223|396:220,1,36,2|0,3:2|0:0,0:0:0:0:
443,171,111891,2,0,P|422:173|407:179,1,36,2|0,0:0|0:0,0:0:0:0:
309,246,112325,2,0,L|306:262,1,13.5,2|0,3:2|0:0,0:0:0:0:
323,343,112760,5,2,0:0:0:0:
274,209,112978,1,0,0:0:0:0:
171,247,113195,6,0,P|143:249|136:248,1,36,2|0,3:2|0:0,0:0:0:0:
50,175,113630,2,0,P|70:177|88:183,1,36,2|0,0:0|0:0,0:0:0:0:
5,118,114065,2,0,P|5:107|6:102,1,13.5,2|0,3:2|0:0,0:0:0:0:
50,175,114499,5,2,0:0:0:0:
8,57,114717,1,0,0:0:0:0:
114,111,114934,6,0,P|153:112|166:112,1,36,2|0,3:2|0:0,0:0:0:0:
222,137,115369,2,0,P|207:114|195:100,1,36,0|0,0:0|0:0,0:0:0:0:
276,151,115804,2,0,L|284:164,1,13.5,2|0,3:2|0:0,0:0:0:0:
349,147,116238,5,2,0:0:0:0:
274,118,116456,1,0,0:0:0:0:
211,65,116673,6,0,L|209:22,1,36,2|0,3:2|0:0,0:0:0:0:
176,65,117108,2,0,L|185:129,1,53.9999983520508,2|0,0:0|0:0,0:0:0:0:
159,175,117543,2,0,L|156:170,1,4.5,2|0,3:2|0:0,0:0:0:0:
87,122,117760,2,0,L|85:126,1,4.5,0|0,0:0|0:0,0:0:0:0:
23,165,117978,5,2,0:0:0:0:
168,99,118195,1,0,0:0:0:0:
280,157,118412,6,0,P|303:165|317:165,1,36,2|0,3:2|0:0,0:0:0:0:
420,111,118847,2,0,P|392:109|375:108,1,36,0|0,0:0|0:0,0:0:0:0:
490,179,119282,2,0,L|488:164,1,13.5,2|0,0:0|0:0,0:0:0:0:
444,77,119717,5,2,0:0:0:0:
510,200,119934,1,0,0:0:0:0:
379,183,120151,6,0,P|352:201|346:212,1,36,2|0,3:2|0:0,0:0:0:0:
323,318,120586,2,0,P|328:290|328:276,1,36,2|0,0:0|0:0,0:0:0:0:
225,350,121021,2,0,L|234:341,1,13.5,2|0,3:2|0:0,0:0:0:0:
163,384,121456,5,2,0:0:0:0:
231,297,121673,1,0,0:0:0:0:
129,309,121891,6,0,P|119:304|98:288,1,36,2|0,3:2|0:0,0:0:0:0:
59,202,122325,2,0,P|69:224|79:245,1,36,2|0,0:0|0:0,0:0:0:0:
37,163,122760,2,0,L|36:150,1,13.5,2|0,3:2|0:0,0:0:0:0:
58,72,123195,5,2,0:0:0:0:
86,155,123412,1,0,0:0:0:0:
200,81,123630,2,0,P|171:96|152:103,1,36,2|0,3:2|0:0,0:0:0:0:
325,86,124065,2,0,P|290:79|260:71,1,53.9999983520508,2|0,0:0|0:0,0:0:0:0:
396,118,124499,2,0,L|393:111,1,4.5,2|0,3:2|0:0,0:0:0:0:
463,161,124717,2,0,L|465:164,1,4.5,2|0,0:0|0:0,0:0:0:0:
366,76,124934,5,2,0:0:0:0:
488,189,125151,1,0,0:0:0:0:
327,42,125369,6,0,L|260:48,1,60.2999971476747,2|0,3:2|0:0,0:0:0:0:
184,86,125695,1,0,0:0:0:0:
162,69,125804,2,0,P|200:52|257:42,1,90.4499957215121,2|0,0:0|0:0,0:0:0:0:
81,40,126238,2,0,L|74:39,1,4.5,2|0,3:2|0:0,0:0:0:0:
169,38,126456,2,0,L|176:37,1,4.5,0|0,0:0|0:0,0:0:0:0:
36,41,126673,5,2,0:0:0:0:
17,83,126782,1,0,0:0:0:0:
15,120,126891,1,0,0:0:0:0:
49,22,127108,6,0,L|60:104,1,60.2999971476747,2|0,3:2|0:0,0:0:0:0:
149,225,127543,2,0,P|120:186|94:141,1,90.4499957215121,2|0,0:0|0:0,0:0:0:0:
124,256,127978,1,2,3:2:0:0:
91,335,128086,2,0,L|92:346,1,9,0|0,0:0|0:0,0:0:0:0:
219,374,128412,5,2,0:0:0:0:
80,380,128630,1,0,0:0:0:0:
56,372,128738,1,0,0:0:0:0:
189,382,128847,6,0,P|179:344|171:307,1,60.2999971476747,2|0,3:2|0:0,0:0:0:0:
244,237,129173,1,0,0:0:0:0:
233,249,129282,2,0,P|269:242|324:220,1,90.4499957215121,2|0,3:2|0:0,0:0:0:0:
376,125,129717,2,0,L|377:118,1,4.5,2|0,3:2|0:0,0:0:0:0:
381,269,129934,2,0,L|380:275,1,4.5,0|0,0:0|0:0,0:0:0:0:
415,104,130151,5,2,0:0:0:0:
424,75,130260,1,0,0:0:0:0:
441,51,130369,1,0,0:0:0:0:
472,39,130478,1,0,0:0:0:0:
429,113,130586,6,0,L|365:116,1,60.2999971476747,2|0,3:2|0:0,0:0:0:0:
175,167,131021,2,0,P|188:160|231:149,2,39.1500003285599,2|0|0,0:0|0:0|0:0,0:0:0:0:
333,203,131347,1,0,0:0:0:0:
271,250,131456,2,0,L|256:249,1,13.5,2|0,3:2|0:0,0:0:0:0:
186,281,131891,5,2,0:0:0:0:
280,272,132108,1,0,0:0:0:0:
205,311,132325,6,0,L|119:328,1,60.2999971476747,2|0,3:2|0:0,0:0:0:0:
303,311,132651,1,0,0:0:0:0:
355,300,132760,2,0,P|329:286|256:257,1,90.4499957215121,0|0,0:0|0:0,0:0:0:0:
425,350,133195,2,0,L|431:351,1,4.5,2|0,3:2|0:0,0:0:0:0:
390,270,133412,2,0,L|387:263,1,4.5,0|0,0:0|0:0,0:0:0:0:
456,223,133630,5,2,0:0:0:0:
465,192,133738,1,0,0:0:0:0:
464,159,133847,1,0,0:0:0:0:
487,304,134065,6,0,L|483:235,1,60.2999971476747,2|0,3:2|0:0,0:0:0:0:
483,76,134499,2,0,P|470:110|446:166,1,90.4499957215121,2|0,0:0|0:0,0:0:0:0:
395,52,134934,1,2,3:2:0:0:
324,20,135043,2,0,L|314:18,1,9,0|0,0:0|0:0,0:0:0:0:
412,33,135369,5,2,0:0:0:0:
258,131,135586,1,0,0:0:0:0:
300,280,135804,6,0,L|278:363,1,60.2999971476747,2|0,3:2|0:0,0:0:0:0:
362,229,136130,1,0,0:0:0:0:
346,153,136238,2,0,P|342:108|344:63,1,90.4499957215121,2|0,0:0|0:0,0:0:0:0:
294,216,136673,2,0,L|292:222,1,4.5,2|0,3:2|0:0,0:0:0:0:
320,63,136891,2,0,L|318:58,1,4.5,0|0,0:0|0:0,0:0:0:0:
279,157,137108,6,0,L|282:205,1,45,2|0,0:0|0:0,0:0:0:0:
347,88,137325,2,0,L|363:-1,1,90,0|2,0:0|3:2,0:0:0:0:
240,214,138412,6,0,P|277:337|287:397,1,179.549992602768,4|0,3:2|0:0,0:0:0:0:
359,155,138847,2,0,P|402:92|464:-4,1,179.549992602768,4|0,3:2|0:0,0:0:0:0:
266,103,139282,6,0,P|181:102|117:102,1,107.999996704102,4|0,3:2|0:0,0:0:0:0:
58,138,139608,2,0,P|91:156|121:172,1,53.9999983520508,0|2,0:0|3:2,0:0:0:0:
201,221,139825,1,0,0:0:0:0:
241,242,139934,1,2,0:0:0:0:
268,275,140043,1,0,0:0:0:0:
335,321,140151,2,0,P|283:317|201:311,1,107.999996704102,2|0,3:2|0:0,0:0:0:0:
134,317,140478,1,0,0:0:0:0:
129,280,140586,1,2,3:2:0:0:
66,205,140695,1,0,0:0:0:0:
53,169,140804,2,0,P|55:143|63:107,1,53.9999983520508,2|0,0:0|0:0,0:0:0:0:
121,14,141021,6,0,P|144:67|149:165,1,107.999996704102,2|0,3:2|0:0,0:0:0:0:
201,190,141347,2,0,P|226:189|268:187,1,53.9999983520508,0|2,0:0|3:2,0:0:0:0:
364,225,141565,1,0,0:0:0:0:
379,262,141673,1,2,0:0:0:0:
387,298,141782,1,0,0:0:0:0:
371,378,141891,2,0,P|431:324|478:285,1,107.999996704102,2|2,3:2|0:0,0:0:0:0:
466,204,142217,5,0,0:0:0:0:
449,163,142325,1,2,3:2:0:0:
372,156,142434,1,0,0:0:0:0:
318,89,142543,1,2,0:0:0:0:
274,72,142651,1,0,0:0:0:0:
309,11,142760,6,0,B|271:32|257:51|257:51|238:50|180:74,1,107.999996704102,2|0,3:2|0:0,0:0:0:0:
115,102,143086,2,0,P|105:140|91:182,1,53.9999983520508,0|2,0:0|3:2,0:0:0:0:
34,268,143304,1,0,0:0:0:0:
73,282,143413,1,2,0:0:0:0:
100,316,143522,1,0,0:0:0:0:
52,373,143630,2,0,B|111:357|156:365|199:339,1,107.999996704102,2|0,3:2|0:0,0:0:0:0:
251,338,143956,1,0,0:0:0:0:
288,356,144065,1,2,3:2:0:0:
391,328,144173,1,0,0:0:0:0:
416,305,144282,2,0,P|417:272|413:232,1,53.9999983520508,2|0,0:0|0:0,0:0:0:0:
454,141,144499,6,0,B|404:112|404:112|371:69|341:52,1,107.999996704102,2|0,3:2|0:0,0:0:0:0:
258,12,144825,2,0,P|258:67|262:106,1,53.9999983520508,0|2,0:0|3:2,0:0:0:0:
228,159,145043,1,0,0:0:0:0:
221,190,145151,1,2,0:0:0:0:
213,217,145260,1,0,0:0:0:0:
171,288,145369,6,0,P|161:249|150:212,1,53.9999983520508,2|0,3:2|0:0,0:0:0:0:
61,156,145586,1,2,0:0:0:0:
56,180,145695,1,0,0:0:0:0:
35,217,145804,2,0,P|31:234|26:277,1,53.9999983520508,2|0,3:2|0:0,0:0:0:0:
117,334,146021,1,2,0:0:0:0:
165,325,146130,1,0,0:0:0:0:
238,357,146238,6,0,P|302:361|376:354,1,107.999996704102,2|0,3:2|0:0,0:0:0:0:
468,328,146565,2,0,P|416:310|404:302,1,53.9999983520508,0|2,0:0|3:2,0:0:0:0:
334,230,146782,1,0,0:0:0:0:
335,195,146891,1,2,0:0:0:0:
329,163,146999,1,0,0:0:0:0:
377,96,147108,2,0,B|333:132|333:132|259:155,1,107.999996704102,2|0,3:2|0:0,0:0:0:0:
188,142,147434,1,0,0:0:0:0:
160,173,147543,1,2,3:2:0:0:
77,219,147651,1,0,0:0:0:0:
57,252,147760,2,0,P|56:283|53:310,1,53.9999983520508,2|0,0:0|0:0,0:0:0:0:
153,251,147978,6,0,B|205:221|205:221|249:223|296:216,1,107.999996704102,2|0,3:2|0:0,0:0:0:0:
360,258,148304,2,0,P|397:268|441:294,1,53.9999983520508,0|0,0:0|3:2,0:0:0:0:
481,345,148521,1,0,0:0:0:0:
474,311,148630,1,2,0:0:0:0:
474,268,148738,1,0,0:0:0:0:
439,176,148847,2,0,B|434:126|434:126|428:84|426:52,1,107.999996704102,2|2,3:2|0:0,0:0:0:0:
326,42,149173,1,0,0:0:0:0:
286,32,149282,1,2,3:2:0:0:
194,72,149391,1,0,0:0:0:0:
166,96,149499,2,0,P|149:124|133:163,1,53.9999983520508,2|0,0:0|0:0,0:0:0:0:
196,236,149717,6,0,P|154:189|97:137,1,107.999996704102,2|0,3:2|0:0,0:0:0:0:
29,85,150043,2,0,P|31:126|36:166,1,53.9999983520508,0|2,0:0|3:2,0:0:0:0:
46,255,150260,1,0,0:0:0:0:
74,278,150369,1,2,0:0:0:0:
99,315,150478,1,0,0:0:0:0:
205,373,150586,2,0,B|188:312|188:312|201:263|200:246,1,107.999996704102,2|0,3:2|0:0,0:0:0:0:
266,209,150912,1,0,0:0:0:0:
286,174,151021,1,2,3:2:0:0:
379,159,151130,1,0,0:0:0:0:
400,133,151238,2,0,P|409:102|413:80,1,53.9999983520508,2|0,0:0|0:0,0:0:0:0:
359,17,151456,6,0,B|407:67|408:67|478:79,1,107.999996704102,2|0,3:2|0:0,0:0:0:0:
475,180,151782,2,0,P|481:222|482:269,1,53.9999983520508,0|2,0:0|3:2,0:0:0:0:
459,326,151999,1,0,0:0:0:0:
433,305,152108,1,2,0:0:0:0:
413,273,152217,1,0,0:0:0:0:
277,267,152325,5,8,3:2:0:0:
369,193,152470,1,8,3:2:0:0:
461,118,152615,1,8,3:2:0:0:
413,273,152760,5,8,3:2:0:0:
293,142,152905,1,8,3:2:0:0:
452,83,153050,1,8,3:2:0:0:
405,183,153195,6,0,P|405:118|408:14,1,135.000005149842,4|0,3:2|0:0,0:0:0:0:
466,273,153521,2,0,L|476:385,1,67.5000025749208,0|2,0:0|3:2,0:0:0:0:
369,193,153738,5,0,0:0:0:0:
291,60,153847,1,2,0:0:0:0:
306,10,153956,1,0,0:0:0:0:
233,192,154065,6,0,P|245:277|238:364,1,135.000005149842,2|2,3:2|0:0,0:0:0:0:
177,116,154391,2,0,P|188:73|185:47,1,67.5000025749208,0|2,0:0|3:2,0:0:0:0:
88,198,154608,5,0,0:0:0:0:
100,339,154717,1,2,0:0:0:0:
68,375,154825,1,0,0:0:0:0:
0,194,154934,6,0,P|28:114|46:47,1,135.000005149842,2|0,3:2|0:0,0:0:0:0:
65,249,155260,2,0,P|40:283|22:310,1,67.5000025749208,0|2,0:0|3:2,0:0:0:0:
115,124,155478,5,0,0:0:0:0:
215,37,155586,1,0,0:0:0:0:
257,22,155695,1,0,0:0:0:0:
115,19,155804,6,0,P|36:64|-42:118,1,135.000005149842,2|2,3:2|0:0,0:0:0:0:
265,63,156130,1,0,0:0:0:0:
348,5,156238,6,0,P|297:93|271:182,1,135.000005149842,2|2,3:2|0:0,0:0:0:0:
385,210,156565,1,0,0:0:0:0:
269,372,156673,6,0,P|244:278|219:200,1,135.000005149842,2|0,3:2|0:0,0:0:0:0:
285,87,156999,2,0,P|283:168|294:215,1,67.5000025749208,0|2,0:0|3:2,0:0:0:0:
374,338,157217,5,0,0:0:0:0:
393,294,157325,1,2,0:0:0:0:
403,168,157434,1,0,0:0:0:0:
359,62,157543,6,0,P|364:163|370:214,1,135.000005149842,2|2,3:2|0:0,0:0:0:0:
453,373,157869,2,0,P|453:303|453:275,1,67.5000025749208,0|2,0:0|3:2,0:0:0:0:
333,41,158086,5,0,0:0:0:0:
314,74,158195,1,2,0:0:0:0:
250,216,158304,1,0,0:0:0:0:
281,299,158412,6,0,P|266:211|242:130,1,135.000005149842,2|0,3:2|0:0,0:0:0:0:
179,0,158738,2,0,P|171:41|158:78,1,67.5000025749208,0|2,0:0|3:2,0:0:0:0:
134,326,158956,5,0,0:0:0:0:
121,287,159064,1,2,0:0:0:0:
55,169,159173,1,0,0:0:0:0:
96,87,159282,6,0,P|89:190|76:278,1,135.000005149842,2|2,3:2|0:0,0:0:0:0:
220,0,159608,1,0,0:0:0:0:
111,72,159717,6,0,L|101:175,1,67.5000025749208,2|0,3:2|0:0,0:0:0:0:
86,84,159934,2,0,L|99:157,1,67.5000025749208,2|0,0:0|0:0,0:0:0:0:
220,289,160151,6,0,P|136:293|51:302,1,135.000005149842,6|0,3:2|0:0,0:0:0:0:
322,311,160478,2,0,P|374:306|403:306,1,67.5000025749208,0|2,0:0|3:2,0:0:0:0:
225,252,160695,5,0,0:0:0:0:
78,185,160804,1,2,0:0:0:0:
41,193,160912,1,0,0:0:0:0:
256,155,161021,6,0,P|363:166|416:159,1,135.000005149842,2|2,3:2|0:0,0:0:0:0:
167,121,161347,2,0,P|100:97|90:96,1,67.5000025749208,0|2,0:0|3:2,0:0:0:0:
263,73,161565,5,0,0:0:0:0:
426,51,161673,1,2,0:0:0:0:
462,67,161782,1,0,0:0:0:0:
251,40,161891,6,0,P|161:56|83:54,1,135.000005149842,2|0,3:2|0:0,0:0:0:0:
330,119,162217,2,0,P|384:135|425:139,1,67.5000025749208,0|2,0:0|3:2,0:0:0:0:
237,143,162435,5,0,0:0:0:0:
113,214,162543,1,2,0:0:0:0:
77,252,162652,1,0,0:0:0:0:
74,126,162760,6,0,P|140:37|163:-5,1,135.000005149842,2|2,3:2|0:0,0:0:0:0:
162,235,163086,1,0,0:0:0:0:
96,317,163195,6,0,P|110:205|110:131,1,135.000005149842,2|2,3:2|0:0,0:0:0:0:
306,28,163521,1,0,0:0:0:0:
492,169,163630,6,0,P|369:138|326:134,1,135.000005149842,2|0,3:2|0:0,0:0:0:0:
151,186,163956,2,0,P|206:172|228:168,1,67.5000025749208,0|2,0:0|3:2,0:0:0:0:
445,253,164173,5,0,0:0:0:0:
406,270,164282,1,2,0:0:0:0:
250,278,164391,1,0,0:0:0:0:
139,328,164499,6,0,P|239:318|333:332,1,135.000005149842,2|2,3:2|0:0,0:0:0:0:
475,339,164825,2,0,P|419:308|385:299,1,67.5000025749208,0|2,0:0|3:2,0:0:0:0:
180,220,165043,5,0,0:0:0:0:
218,202,165151,1,2,0:0:0:0:
345,171,165260,1,0,0:0:0:0:
436,81,165369,6,0,P|353:121|274:141,1,135.000005149842,2|0,3:2|0:0,0:0:0:0:
95,139,165695,2,0,P|142:109|166:86,1,67.5000025749208,0|2,0:0|0:0,0:0:0:0:
331,0,165912,5,0,0:0:0:0:
310,29,166021,1,2,3:2:0:0:
204,89,166130,1,0,0:0:0:0:
114,114,166238,5,8,3:2:0:0:
71,228,166383,1,8,3:2:0:0:
58,348,166528,1,8,3:2:0:0:
109,280,166673,5,8,3:2:0:0:
117,156,166818,1,8,3:2:0:0:
91,33,166963,1,8,3:2:0:0:
314,69,167108,6,0,P|253:77|189:86,1,90,2|2,3:2|0:0,0:0:0:0:
27,147,167543,2,0,P|98:153|152:160,1,90,2|0,3:2|0:0,0:0:0:0:
352,89,167978,2,0,P|403:56|480:7,1,135,2|0,3:2|0:0,0:0:0:0:
363,122,168412,5,2,3:2:0:0:
140,50,168630,2,0,L|84:25,1,45,0|0,0:0|0:0,0:0:0:0:
205,114,168847,6,0,P|197:192|190:273,1,135,2|0,3:2|0:0,0:0:0:0:
208,363,169282,2,0,P|196:316|169:220,1,135,2|0,3:2|0:0,0:0:0:0:
248,349,169717,5,2,0:0:0:0:
351,361,169934,1,0,0:0:0:0:
96,225,170151,5,2,3:2:0:0:
205,114,170369,1,2,0:0:0:0:
436,63,170586,6,0,L|341:93,1,90,2|0,3:2|0:0,0:0:0:0:
211,213,171021,1,2,3:2:0:0:
255,51,171238,1,2,0:0:0:0:
197,295,171456,2,0,P|186:225|173:133,1,135,2|0,3:2|0:0,0:0:0:0:
217,340,171891,5,2,3:2:0:0:
157,188,172108,1,2,0:0:0:0:
38,86,172325,5,2,3:2:0:0:
72,236,172543,1,0,0:0:0:0:
218,73,172760,5,2,3:2:0:0:
64,113,172978,1,2,0:0:0:0:
390,108,173195,5,8,3:2:0:0:
232,50,173412,1,8,3:2:0:0:
338,289,173630,6,0,L|338:215,1,45,2|0,3:2|0:0,0:0:0:0:
433,87,173847,2,0,L|447:26,1,45,2|0,0:0|0:0,0:0:0:0:
429,272,174065,6,0,P|373:302|341:320,1,90,2|2,3:2|0:0,0:0:0:0:
136,300,174499,2,0,P|206:296|249:293,1,90,0|0,3:2|0:0,0:0:0:0:
12,145,174934,2,0,L|50:215,1,45,2|0,3:2|0:0,0:0:0:0:
208,41,175369,6,0,P|161:67|138:80,1,45,0|0,3:2|0:0,0:0:0:0:
327,36,175586,2,0,P|276:45|254:45,1,45,2|0,0:0|0:0,0:0:0:0:
132,86,175804,6,0,P|177:112|253:158,1,135,2|0,3:2|0:0,0:0:0:0:
400,201,176238,2,0,P|300:193|237:189,1,135,2|0,3:2|0:0,0:0:0:0:
491,258,176673,5,2,3:2:0:0:
342,147,176891,1,0,0:0:0:0:
154,265,177108,6,0,L|219:250,1,45,2|0,3:2|0:0,0:0:0:0:
87,343,177325,2,0,L|35:317,1,45,2|0,0:0|0:0,0:0:0:0:
274,293,177543,5,2,3:2:0:0:
34,250,177760,1,2,0:0:0:0:
206,63,177978,2,0,L|169:150,1,90,2|0,3:2|0:0,0:0:0:0:
71,369,178412,2,0,L|76:262,1,90,2|0,3:2|0:0,0:0:0:0:
279,76,178847,5,2,3:2:0:0:
96,216,179065,1,0,0:0:0:0:
326,109,179282,6,0,L|161:134,1,135,2|0,3:2|0:0,0:0:0:0:
364,253,179717,6,0,L|268:136,1,135,2|0,3:2|0:0,0:0:0:0:
368,319,180151,5,8,3:2:0:0:
381,194,180296,1,8,3:2:0:0:
394,81,180441,1,8,3:2:0:0:
319,306,180586,5,8,3:2:0:0:
411,206,180731,1,8,3:2:0:0:
494,125,180876,1,8,3:2:0:0:
302,259,181021,6,0,P|371:255|440:249,1,99.0000030212403,2|0,3:2|0:0,0:0:0:0:
149,128,181456,2,0,P|65:111|28:107,1,99.0000030212403,2|0,3:2|0:0,0:0:0:0:
178,376,181891,2,0,P|189:309|199:225,1,148.50000453186,2|0,3:2|0:0,0:0:0:0:
207,379,182325,5,2,3:2:0:0:
384,381,182543,2,0,P|375:338|370:312,1,49.5000015106202,2|0,0:0|0:0,0:0:0:0:
295,290,182760,6,0,P|346:268|436:239,1,148.50000453186,2|0,3:2|0:0,0:0:0:0:
277,193,183195,2,0,P|245:270|209:340,1,148.50000453186,2|0,3:2|0:0,0:0:0:0:
372,180,183630,5,2,3:2:0:0:
376,95,183847,1,0,0:0:0:0:
222,204,184065,6,0,L|159:237,1,49.5000015106202,2|0,3:2|0:0,0:0:0:0:
131,290,184282,2,0,L|64:330,1,49.5000015106202,2|0,0:0|0:0,0:0:0:0:
171,384,184499,5,2,3:2:0:0:
127,169,184717,1,0,0:0:0:0:
110,328,184934,5,2,3:2:0:0:
144,254,185151,1,0,0:0:0:0:
0,362,185369,6,0,L|98:359,1,99.0000030212403,2|0,3:2|0:0,0:0:0:0:
27,29,185804,1,2,3:2:0:0:
173,44,186021,1,2,0:0:0:0:
51,272,186238,5,2,3:2:0:0:
26,358,186456,1,0,0:0:0:0:
207,154,186673,5,2,3:2:0:0:
188,69,186891,1,0,0:0:0:0:
325,252,187108,6,0,L|341:188,1,49.5000015106202,2|0,3:2|0:0,0:0:0:0:
265,352,187325,2,0,L|276:303,1,49.5000015106202,2|0,3:2|0:0,0:0:0:0:
472,127,187543,6,0,L|482:177,1,49.5000015106202,2|0,3:2|0:0,0:0:0:0:
427,7,187760,1,2,0:0:0:0:
410,49,187869,1,0,0:0:0:0:
509,93,187978,6,0,P|412:91|378:81,1,99.0000030212403,4|0,3:2|0:0,0:0:0:0:
102,20,188412,2,0,P|163:34|234:45,1,99.0000030212403,2|0,3:2|0:0,0:0:0:0:
164,296,188847,2,0,P|208:236|250:175,1,148.50000453186,2|0,3:2|0:0,0:0:0:0:
186,375,189282,5,2,3:2:0:0:
319,269,189499,2,0,P|294:274|270:277,1,49.5000015106202,2|0,0:0|0:0,0:0:0:0:
337,157,189717,6,0,L|362:267,1,99.0000030212403,2|0,3:2|0:0,0:0:0:0:
163,368,190151,2,0,L|138:251,1,99.0000030212403,2|0,3:2|0:0,0:0:0:0:
56,0,190586,5,2,3:2:0:0:
50,256,190804,1,0,0:0:0:0:
246,158,191021,6,0,L|235:99,1,49.5000015106202,2|0,3:2|0:0,0:0:0:0:
315,96,191238,2,0,L|302:31,1,49.5000015106202,2|0,0:0|0:0,0:0:0:0:
235,16,191456,5,2,3:2:0:0:
289,235,191673,1,0,0:0:0:0:
282,86,191891,5,2,3:2:0:0:
257,161,192108,1,0,0:0:0:0:
334,321,192325,6,0,P|344:197|350:153,1,148.50000453186,2|0,3:2|0:0,0:0:0:0:
422,18,192760,1,2,3:2:0:0:
463,92,192978,1,0,0:0:0:0:
425,176,193195,5,4,3:2:0:0:
343,213,193630,1,4,3:2:0:0:
257,177,194065,1,4,3:2:0:0:
219,91,194499,1,4,3:2:0:0:
18,348,194934,6,0,P|49:274|69:208,1,116.999994644165,4|0,3:2|0:0,0:0:0:0:
196,23,195369,2,0,P|161:89|143:137,1,116.999994644165,2|0,3:2|0:0,0:0:0:0:
446,37,195804,2,0,B|346:67|382:15|251:55,1,175.499991966248,2|0,3:2|0:0,0:0:0:0:
484,68,196238,5,2,3:2:0:0:
234,34,196456,1,2,0:0:0:0:
408,178,196673,6,0,L|381:58,1,116.999994644165,2|0,3:2|0:0,0:0:0:0:
368,319,197108,1,2,3:2:0:0:
461,285,197217,1,0,0:0:0:0:
272,323,197325,2,0,L|274:410,1,58.4999973220826,2|0,0:0|0:0,0:0:0:0:
164,202,197543,2,0,B|180:127|133:100|159:18,1,175.499991966248,2|0,3:2|0:0,0:0:0:0:
162,280,197978,6,0,L|144:199,1,58.4999973220826,2|0,3:2|0:0,0:0:0:0:
94,43,198195,2,0,L|149:99,1,58.4999973220826,2|0,0:0|0:0,0:0:0:0:
294,129,198412,6,0,P|209:125|143:120,1,116.999994644165,2|0,3:2|0:0,0:0:0:0:
343,209,198847,2,0,P|401:207|476:208,1,116.999994644165,2|0,3:2|0:0,0:0:0:0:
204,73,199282,1,2,3:2:0:0:
91,300,199717,6,0,L|63:232,1,58.4999973220826,2|0,3:2|0:0,0:0:0:0:
104,366,199934,2,0,L|130:283,1,58.4999973220826,0|0,0:0|0:0,0:0:0:0:
221,217,200151,6,0,P|219:275|216:336,1,116.999994644165,2|0,3:2|0:0,0:0:0:0:
298,171,200586,2,0,P|283:71|280:2,1,116.999994644165,2|0,3:2|0:0,0:0:0:0:
344,223,201021,6,0,L|309:160,1,58.4999973220826,0|0,3:2|0:0,0:0:0:0:
224,35,201238,2,0,L|264:91,1,58.4999973220826,2|0,0:0|0:0,0:0:0:0:
334,266,201456,5,2,3:2:0:0:
267,30,201673,1,0,0:0:0:0:
474,188,201891,6,0,P|392:203|336:208,1,116.999994644165,2|0,3:2|0:0,0:0:0:0:
156,346,202325,2,0,P|200:330|278:313,1,116.999994644165,2|2,3:2|0:0,0:0:0:0:
20,185,202760,2,0,B|59:239|59:239|50:288|28:363,1,175.499991966248,2|0,3:2|0:0,0:0:0:0:
49,148,203195,5,2,3:2:0:0:
53,377,203412,1,2,0:0:0:0:
204,131,203630,6,0,P|165:140|69:156,1,116.999994644165,2|0,3:2|0:0,0:0:0:0:
366,129,204065,1,2,3:2:0:0:
296,100,204173,1,0,0:0:0:0:
446,181,204282,2,0,P|440:154|442:107,1,58.4999973220826,2|0,0:0|0:0,0:0:0:0:
274,352,204499,2,0,B|299:310|340:296|340:296|345:245|376:212,1,175.499991966248,2|0,3:2|0:0,0:0:0:0:
245,364,204934,6,0,L|264:294,1,58.4999973220826,2|0,3:2|0:0,0:0:0:0:
216,384,205151,2,0,L|206:319,1,58.4999973220826,0|0,0:0|0:0,0:0:0:0:
85,232,205369,6,0,P|136:232|205:234,1,116.999994644165,2|0,3:2|0:0,0:0:0:0:
409,143,205804,2,0,P|322:146|279:145,1,116.999994644165,2|0,3:2|0:0,0:0:0:0:
512,283,206238,1,2,3:2:0:0:
274,89,206673,6,0,L|294:152,1,58.4999973220826,2|0,3:2|0:0,0:0:0:0:
291,300,206891,2,0,L|306:222,1,58.4999973220826,0|0,0:0|0:0,0:0:0:0:
96,171,207108,6,0,P|183:182|245:193,1,116.999994644165,2|0,3:2|0:0,0:0:0:0:
47,328,207543,2,0,L|72:256,1,58.4999973220826,2|0,3:2|0:0,0:0:0:0:
36,81,207760,2,0,L|73:153,1,58.4999973220826,0|0,0:0|0:0,0:0:0:0:
297,142,207978,5,8,3:2:0:0:
96,171,208123,1,8,3:2:0:0:
222,321,208267,1,8,3:2:0:0:
419,169,208412,5,8,3:2:0:0:
280,40,208557,1,8,3:2:0:0:
201,209,208702,1,8,3:2:0:0:
331,364,208847,6,0,L|351:280,1,67.5000025749208,4|0,3:2|0:0,0:0:0:0:
409,43,209064,1,0,0:0:0:0:
223,349,209282,6,0,L|278:240,1,67.5000025749208,2|0,3:1|0:0,0:0:0:0:
398,59,209499,1,0,0:0:0:0:
109,281,209716,6,0,L|191:217,1,67.5000025749208,2|0,3:1|0:0,0:0:0:0:
394,79,209934,1,0,0:0:0:0:
0,204,210151,6,0,L|95:193,1,67.5000025749208,2|0,3:1|0:0,0:0:0:0:
245,190,210369,1,2,0:0:0:0:
476,313,210586,6,0,L|401:257,1,67.5000025749208,2|0,3:1|0:0,0:0:0:0:
215,41,210804,1,0,0:0:0:0:
371,384,211021,6,0,L|330:312,1,67.5000025749208,2|0,3:1|0:0,0:0:0:0:
237,62,211238,1,0,0:0:0:0:
245,377,211456,6,0,L|229:261,1,67.5000025749208,2|0,3:1|0:0,0:0:0:0:
236,94,211673,1,0,0:0:0:0:
64,329,211891,6,0,L|143:256,1,67.5000025749208,2|0,3:1|0:0,0:0:0:0:
429,163,212108,2,0,L|508:212,1,67.5000025749208,2|0,0:0|0:0,0:0:0:0:
401,45,212325,6,0,L|365:111,1,67.5000025749208,2|0,3:1|0:0,0:0:0:0:
353,188,212543,1,0,0:0:0:0:
274,14,212760,6,0,L|252:87,1,67.5000025749208,2|0,3:1|0:0,0:0:0:0:
256,210,212978,1,0,0:0:0:0:
133,33,213195,6,0,L|142:113,1,67.5000025749208,2|0,3:1|0:0,0:0:0:0:
162,185,213412,1,0,0:0:0:0:
32,134,213630,6,0,L|81:210,1,67.5000025749208,2|0,3:1|0:0,0:0:0:0:
281,360,213847,1,2,0:0:0:0:
201,327,214065,6,0,L|121:290,1,67.5000025749208,2|0,3:1|0:0,0:0:0:0:
14,156,214282,1,0,0:0:0:0:
225,298,214499,6,0,L|190:223,1,67.5000025749208,2|0,3:1|0:0,0:0:0:0:
102,42,214717,1,0,0:0:0:0:
251,256,214934,6,0,L|251:176,1,67.5000025749208,2|0,3:1|0:0,0:0:0:0:
247,96,215151,2,0,L|291:21,1,67.5000025749208,2|0,3:2|0:0,0:0:0:0:
420,350,215369,6,0,L|358:276,1,67.5000025749208,2|0,3:1|0:0,0:0:0:0:
416,74,215586,2,0,L|485:22,1,67.5000025749208,2|0,0:0|0:0,0:0:0:0:
346,27,215804,6,0,L|240:10,1,67.5000025749208,4|0,3:2|0:0,0:0:0:0:
7,12,216021,1,0,0:0:0:0:
322,147,216238,6,0,L|236:111,1,67.5000025749208,2|0,3:1|0:0,0:0:0:0:
26,43,216456,1,0,0:0:0:0:
245,261,216673,6,0,L|185:199,1,67.5000025749208,2|0,3:1|0:0,0:0:0:0:
24,86,216891,1,0,0:0:0:0:
111,342,217108,6,0,L|170:376,1,67.5000025749208,2|0,3:1|0:0,0:0:0:0:
410,359,217325,1,2,0:0:0:0:
512,254,217543,6,0,L|406:271,1,67.5000025749208,2|0,3:1|0:0,0:0:0:0:
173,269,217760,1,0,0:0:0:0:
488,134,217977,6,0,L|402:170,1,67.5000025749208,2|0,3:1|0:0,0:0:0:0:
192,238,218195,1,0,0:0:0:0:
411,20,218412,6,0,L|351:82,1,67.5000025749208,2|0,3:1|0:0,0:0:0:0:
190,195,218630,1,0,0:0:0:0:
264,0,218847,6,0,L|231:100,1,67.5000025749208,2|0,3:1|0:0,0:0:0:0:
0,7,219065,2,0,L|28:72,1,67.5000025749208,2|0,0:0|0:0,0:0:0:0:
408,41,219282,6,0,L|355:108,1,67.5000025749208,2|0,3:1|0:0,0:0:0:0:
214,292,219499,1,0,0:0:0:0:
317,340,219717,6,0,L|294:245,1,67.5000025749208,2|0,3:1|0:0,0:0:0:0:
252,41,219934,1,0,0:0:0:0:
397,91,220151,6,0,L|326:134,1,67.5000025749208,2|0,3:1|0:0,0:0:0:0:
174,267,220369,1,0,0:0:0:0:
350,296,220586,6,0,L|313:225,1,67.5000025749208,2|0,3:1|0:0,0:0:0:0:
203,73,220804,1,2,0:0:0:0:
407,140,221021,6,0,L|336:139,1,67.5000025749208,2|0,3:1|0:0,0:0:0:0:
246,239,221238,1,2,0:0:0:0:
385,264,221456,6,0,L|313:215,1,67.5000025749208,2|0,3:1|0:0,0:0:0:0:
246,127,221673,1,0,3:2:0:0:
414,186,221891,5,6,3:2:0:0:
193,188,222325,5,2,3:1:0:0:
133,277,222760,6,0,P|133:251|127:231,1,36,2|0,3:2|0:0,0:0:0:0:
111,115,223195,2,0,P|91:121|77:130,1,36,2|0,0:0|0:0,0:0:0:0:
205,102,223630,2,0,L|203:88,1,13.5,2|0,3:2|0:0,0:0:0:0:
229,178,224064,5,2,0:0:0:0:
270,31,224282,1,0,0:0:0:0:
338,110,224499,6,0,P|310:112|303:111,1,36,2|0,3:2|0:0,0:0:0:0:
420,52,224934,2,0,P|440:54|458:60,1,36,2|0,0:0|0:0,0:0:0:0:
481,168,225369,2,0,L|482:153,1,13.5,2|0,3:2|0:0,0:0:0:0:
512,244,225803,5,2,0:0:0:0:
398,93,226021,1,0,0:0:0:0:
342,196,226238,6,0,P|381:197|394:197,1,36,2|0,3:2|0:0,0:0:0:0:
320,134,226673,2,0,P|305:111|293:97,1,36,2|0,0:0|0:0,0:0:0:0:
275,204,227108,2,0,L|276:218,1,13.5,2|0,3:2|0:0,0:0:0:0:
284,253,227542,5,2,0:0:0:0:
219,182,227760,1,0,0:0:0:0:
150,205,227978,6,0,L|157:250,1,36,2|0,3:2|0:0,0:0:0:0:
69,324,228412,2,0,P|74:292|82:266,1,53.9999983520508,2|0,0:0|0:0,0:0:0:0:
136,150,228847,2,0,L|137:155,1,4.5,2|0,3:2|0:0,0:0:0:0:
228,113,229064,2,0,L|230:108,1,4.5,0|0,0:0|0:0,0:0:0:0:
349,88,229282,5,2,0:0:0:0:
188,34,229499,1,0,0:0:0:0:
237,151,229717,6,0,P|219:149|199:143,1,36,2|0,3:2|0:0,0:0:0:0:
90,112,230151,2,0,P|78:135|65:147,1,36,2|0,0:0|0:0,0:0:0:0:
14,258,230586,2,0,L|12:243,1,13.5,2|0,3:2|0:0,0:0:0:0:
45,342,231021,5,2,0:0:0:0:
91,171,231238,1,0,0:0:0:0:
215,237,231456,6,0,P|227:224|243:216,1,36,2|0,3:2|0:0,0:0:0:0:
361,124,231890,2,0,P|359:141|355:159,1,36,2|0,0:0|0:0,0:0:0:0:
395,268,232325,2,0,L|391:256,1,13.5,2|0,3:2|0:0,0:0:0:0:
410,306,232760,5,2,0:0:0:0:
439,161,232977,1,0,0:0:0:0:
496,72,233195,6,0,P|486:67|465:51,1,36,2|0,3:2|0:0,0:0:0:0:
351,0,233629,2,0,P|361:22|365:45,1,36,2|0,0:0|0:0,0:0:0:0:
315,112,234065,2,0,L|314:99,1,13.5,2|0,3:2|0:0,0:0:0:0:
367,165,234499,5,2,0:0:0:0:
287,55,234716,1,0,0:0:0:0:
101,84,234934,5,2,3:2:0:0:
97,95,235151,1,0,0:0:0:0:
94,103,235369,1,2,0:0:0:0:
90,111,235586,1,0,0:0:0:0:
86,119,235804,1,2,0:0:0:0:
120,335,236238,5,0,0:0:0:0:
67,207,236456,1,0,0:0:0:0:
123,358,236673,6,0,B|134:374|148:381|148:381|164:353|161:323|138:276,1,117.45000098568,2|0,3:2|0:0,0:0:0:0:
88,161,237108,2,0,P|74:106|72:58,1,90.4499957215121,2|0,0:2|0:0,0:0:0:0:
94,246,237543,2,0,L|93:252,1,4.5,2|0,3:2|0:0,0:0:0:0:
118,163,237760,2,0,L|120:157,1,4.5
64,271,237978,5,2,0:0:0:0:
77,307,238086,1,0,0:0:0:0:
62,348,238195,1,0,3:2:0:0:
34,253,238412,6,0,P|71:262|99:276,1,60.2999971476747,2|0,3:2|0:0,0:0:0:0:
177,284,238738,1,0,0:0:0:0:
225,220,238847,2,0,P|196:239|129:254,1,90.4499957215121,2|0,0:2|0:0,0:0:0:0:
303,201,239282,1,2,3:2:0:0:
360,145,239391,2,0,L|363:135,1,9,0|0,0:0|0:0,0:0:0:0:
426,257,239717,5,2,0:0:0:0:
432,269,239825,1,2,0:0:0:0:
504,94,240043,1,0,0:0:0:0:
448,20,240151,6,0,P|447:69|452:90,1,60.2999971476747,2|0,3:2|0:0,0:0:0:0:
349,233,240586,2,0,P|374:205|416:162,1,90.4499957215121,2|0,0:0|0:0,0:0:0:0:
306,304,241021,2,0,L|304:311,1,4.5,2|0,3:2|0:0,0:0:0:0:
339,182,241238,2,0,L|339:175,1,4.5
328,323,241456,5,2,3:2:0:0:
296,336,241565,1,0,0:0:0:0:
261,328,241673,1,0,3:2:0:0:
252,237,241891,6,0,P|206:244|174:241,1,60.2999971476747,2|0,3:2|0:0,0:0:0:0:
150,178,242217,1,0,0:0:0:0:
74,206,242325,2,0,P|117:197|172:162,1,90.4499957215121,2|0,0:0|0:0,0:0:0:0:
44,135,242760,6,0,L|2:22,1,120.599994295349,2|2,3:2|3:2,0:0:0:0:
12,16,243630,6,0,B|34:92|35:128|68:152,1,135,2|0,3:2|0:0,0:0:0:0:
128,316,244065,2,0,L|117:216,1,90.4499957215121,2|0,0:0|0:0,0:0:0:0:
185,88,244499,2,0,L|183:94,1,4.5,2|0,3:2|0:0,0:0:0:0:
197,205,244717,2,0,L|195:199,1,4.5,2|0,0:0|0:0,0:0:0:0:
243,74,244934,5,2,0:0:0:0:
237,40,245043,1,0,0:0:0:0:
217,4,245151,1,0,3:2:0:0:
257,211,245369,6,0,P|248:267|221:380,1,135,2|0,3:2|0:0,0:0:0:0:
324,100,245804,2,0,P|335:63|358:13,1,90.4499957215121,2|0,0:0|0:0,0:0:0:0:
358,174,246238,1,2,3:2:0:0:
358,254,246347,2,0,L|355:263,1,9,0|0,0:0|0:0,0:0:0:0:
430,198,246673,5,2,0:0:0:0:
445,188,246782,1,0,0:0:0:0:
469,178,246891,1,0,3:2:0:0:
251,288,247108,6,0,P|176:286|97:274,1,135,2|0,3:2|0:0,0:0:0:0:
25,116,247543,1,2,0:0:0:0:
53,26,247760,1,2,0:0:0:0:
225,296,247978,6,0,P|163:293|111:280,1,90,2|0,3:2|0:0,0:0:0:0:
14,93,248412,1,2,0:0:0:0:
81,15,248630,1,2,3:2:0:0:
168,45,248738,1,0,3:0:0:0:
214,287,248847,6,0,P|151:268|72:239,1,135,0|0,3:2|0:0,0:0:0:0:
12,56,249282,6,0,L|51:14,1,45,2|0,3:2|0:0,0:0:0:0:
139,12,249499,2,0,L|214:18,1,45,0|0,0:0|0:0,0:0:0:0:
254,364,249717,5,4,3:2:0:0:
254,364,250151,1,2,3:2:0:0:
380,26,250586,6,0,P|411:100|454:146,1,125.999996154785,4|2,3:2|0:0,0:0:0:0:
342,374,251021,2,0,P|341:324|325:237,1,125.999996154785,2|2,3:2|0:0,0:0:0:0:
130,166,251456,2,0,B|216:122|235:201|311:143,1,188.999994232178,2|0,3:2|0:0,0:0:0:0:
449,54,251890,5,2,3:2:0:0:
490,144,251999,1,0,3:2:0:0:
411,202,252108,1,2,3:2:0:0:
332,122,252217,1,0,3:2:0:0:
202,241,252325,6,0,P|163:301|148:359,1,125.999996154785,2|2,3:2|0:0,0:0:0:0:
195,142,252760,1,2,3:2:0:0:
79,132,252869,1,0,0:0:0:0:
275,102,252977,2,0,L|297:37,1,62.9999980773926,2|0,0:0|0:0,0:0:0:0:
478,124,253195,2,0,B|514:206|406:237|362:177,1,188.999994232178,2|0,3:2|0:0,0:0:0:0:
251,222,253630,6,0,L|231:133,1,62.9999980773926,2|0,3:2|0:0,0:0:0:0:
298,360,253847,2,0,L|331:286,1,62.9999980773926,2|0,3:2|0:0,0:0:0:0:
197,308,254064,6,0,P|124:284|42:262,1,125.999996154785,2|2,3:2|0:0,0:0:0:0:
250,189,254499,1,2,3:2:0:0:
420,251,254717,1,2,0:0:0:0:
476,46,254934,2,0,P|476:109|366:103,1,188.999994232178,2|0,3:2|0:0,0:0:0:0:
233,66,255369,5,2,3:2:0:0:
134,87,255478,1,0,3:2:0:0:
99,171,255586,1,2,3:2:0:0:
0,179,255695,1,0,3:2:0:0:
88,304,255803,6,0,P|154:229|209:242,1,125.999996154785,2|2,3:2|0:0,0:0:0:0:
263,20,256238,2,0,P|279:131|276:200,1,125.999996154785,2|2,3:2|0:0,0:0:0:0:
345,355,256673,6,0,P|325:323|310:292,1,62.9999980773926,2|0,3:2|0:0,0:0:0:0:
389,146,256890,2,0,L|386:221,1,62.9999980773926,2|0,0:0|0:0,0:0:0:0:
468,314,257108,5,2,3:2:0:0:
386,114,257325,1,2,3:2:0:0:
218,174,257543,6,0,P|136:189|79:208,1,125.999996154785,2|2,3:2|0:0,0:0:0:0:
266,69,257977,2,0,P|310:53|398:56,1,125.999996154785,2|2,3:2|0:0,0:0:0:0:
505,232,258412,2,0,B|458:240|423:268|423:268|395:251|327:243,1,188.999994232178,2|0,3:2|0:0,0:0:0:0:
204,352,258847,5,2,3:2:0:0:
160,254,258956,1,0,3:2:0:0:
219,168,259065,1,2,3:2:0:0:
331,179,259173,1,0,3:2:0:0:
145,135,259282,6,0,P|111:157|15:173,1,125.999996154785,2|2,3:2|0:0,0:0:0:0:
252,43,259717,1,2,3:2:0:0:
303,128,259825,1,0,0:0:0:0:
167,62,259934,2,0,P|161:35|152:-8,1,62.9999980773926,2|0,0:0|0:0,0:0:0:0:
398,51,260151,2,0,B|442:84|428:126|425:136|423:142|412:197|483:238,1,188.999994232178,2|0,3:2|0:0,0:0:0:0:
421,367,260586,6,0,L|440:290,1,62.9999980773926,2|0,3:2|0:0,0:0:0:0:
319,135,260803,2,0,L|333:209,1,62.9999980773926,2|0,3:2|0:0,0:0:0:0:
148,275,261021,6,0,P|199:275|295:280,1,125.999996154785,2|2,3:2|0:0,0:0:0:0:
123,216,261456,1,2,3:2:0:0:
26,353,261673,1,2,0:0:0:0:
38,153,261891,2,0,B|14:140|1:105|15:69|61:37|167:46,1,188.999994232178,2|0,3:2|0:0,0:0:0:0:
357,31,262325,5,2,3:2:0:0:
262,76,262434,1,0,3:2:0:0:
234,186,262543,1,2,3:2:0:0:
128,267,262651,1,0,3:2:0:0:
297,258,262760,6,0,P|384:269|454:278,1,125.999996154785,2|2,3:2|0:0,0:0:0:0:
455,75,263195,2,0,P|471:110|480:147,1,62.9999980773926,2|0,3:2|0:0,0:0:0:0:
430,355,263412,2,0,P|419:327|412:277,1,62.9999980773926,2|0,0:0|0:0,0:0:0:0:
334,190,263630,5,8,3:2:0:0:
286,175,263775,1,8,3:2:0:0:
244,191,263919,1,8,3:2:0:0:
175,124,264064,5,8,3:2:0:0:
205,94,264209,1,8,3:2:0:0:
215,54,264354,1,8,3:2:0:0:
335,44,264499,6,0,L|258:128,1,74.70000108284,4|0,3:2|0:0,0:0:0:0:
52,339,264717,1,0,0:0:0:0:
422,135,264934,6,0,L|309:174,1,74.70000108284,2|0,3:1|0:0,0:0:0:0:
75,313,265151,1,2,0:0:0:0:
440,266,265369,6,0,L|356:266,1,74.70000108284,2|0,3:1|0:0,0:0:0:0:
82,272,265586,1,0,0:0:0:0:
385,375,265804,5,2,3:1:0:0:
300,319,265912,1,0,3:2:0:0:
287,210,266021,1,2,3:2:0:0:
213,138,266130,1,0,3:2:0:0:
228,27,266238,6,0,L|197:118,1,74.70000108284,2|0,3:1|0:0,0:0:0:0:
120,362,266456,1,2,0:0:0:0:
347,88,266673,6,0,L|281:162,1,74.70000108284,2|0,3:1|0:0,0:0:0:0:
128,329,266891,1,2,0:0:0:0:
407,226,267108,6,0,L|332:234,1,74.70000108284,2|0,3:1|0:0,0:0:0:0:
118,287,267325,1,0,0:0:0:0:
389,369,267543,6,0,L|297:344,1,74.70000108284,2|0,3:1|0:0,0:0:0:0:
131,253,267760,2,0,L|11:271,1,74.70000108284,2|0,3:2|0:0,0:0:0:0:
36,356,267978,6,0,L|57:214,1,74.70000108284,2|0,3:1|0:0,0:0:0:0:
37,63,268195,1,2,0:0:0:0:
93,314,268412,6,0,L|73:214,1,74.70000108284,2|0,3:1|0:0,0:0:0:0:
68,40,268630,1,2,0:0:0:0:
41,251,268847,6,0,L|57:157,1,74.70000108284,2|0,3:1|0:0,0:0:0:0:
40,34,269065,1,0,0:0:0:0:
83,218,269282,5,2,3:1:0:0:
74,121,269391,1,0,3:2:0:0:
144,45,269499,1,2,3:2:0:0:
241,26,269608,1,0,3:2:0:0:
354,52,269717,6,0,L|340:147,1,74.70000108284,2|0,3:1|0:0,0:0:0:0:
366,359,269934,1,2,0:0:0:0:
435,37,270151,6,0,L|446:155,1,74.70000108284,2|0,3:1|0:0,0:0:0:0:
379,325,270369,1,2,0:0:0:0:
346,37,270586,6,0,L|304:134,1,74.70000108284,2|0,3:1|0:0,0:0:0:0:
328,191,270804,2,0,L|346:271,1,74.70000108284,2|0,0:0|0:0,0:0:0:0:
446,10,271021,6,0,L|482:104,1,74.70000108284,2|0,3:1|0:0,0:0:0:0:
409,311,271238,2,0,L|350:367,1,74.70000108284,2|0,3:2|0:0,0:0:0:0:
44,108,271456,6,0,L|163:126,1,74.70000108284,2|0,3:1|0:0,0:0:0:0:
473,120,271673,1,2,0:0:0:0:
52,229,271891,6,0,L|157:210,1,74.70000108284,2|0,3:1|0:0,0:0:0:0:
463,96,272108,1,2,3:2:0:0:
111,352,272325,6,0,L|177:307,1,74.70000108284,2|0,3:1|0:0,0:0:0:0:
470,74,272543,1,0,0:0:0:0:
239,383,272760,5,2,3:1:0:0:
292,299,272869,1,0,3:2:0:0:
269,193,272978,1,2,3:2:0:0:
327,114,273086,1,0,3:2:0:0:
265,26,273195,6,0,L|292:126,1,74.70000108284,2|0,3:1|0:0,0:0:0:0:
359,363,273412,1,2,0:0:0:0:
162,69,273630,6,0,L|227:154,1,74.70000108284,2|0,3:1|0:0,0:0:0:0:
389,340,273847,1,2,0:0:0:0:
77,169,274065,6,0,L|177:214,1,74.70000108284,2|0,3:1|0:0,0:0:0:0:
418,314,274282,1,0,0:0:0:0:
51,353,274499,6,0,L|136:351,1,74.70000108284,2|0,3:1|0:0,0:0:0:0:
108,23,274717,2,0,L|179:94,1,74.70000108284,2|0,3:2|0:0,0:0:0:0:
411,12,274934,6,0,L|385:128,1,74.70000108284,2|0,3:1|0:0,0:0:0:0:
496,279,275151,1,2,0:0:0:0:
425,384,275369,6,0,L|401:271,1,74.70000108284,2|0,3:1|0:0,0:0:0:0:
466,127,275586,1,2,0:2:0:0:
342,23,275804,6,0,L|346:115,1,74.70000108284,2|0,3:1|0:0,0:0:0:0:
386,276,276021,1,0,0:0:0:0:
301,329,276238,5,0,3:1:0:0:
270,123,276347,1,2,3:2:0:0:
322,194,276456,1,0,3:2:0:0:
265,254,276565,1,2,3:2:0:0:
141,164,276673,6,0,L|237:140,1,74.70000108284,2|0,3:1|0:0,0:0:0:0:
345,223,276891,1,2,0:0:0:0:
400,146,277108,6,0,L|326:135,1,74.70000108284,2|0,3:1|0:0,0:0:0:0:
163,243,277325,1,2,3:2:0:0:
34,196,277543,5,4,3:2:0:0:
497,206,277978,1,2,3:1:0:0:
259,342,278412,6,0,P|236:329|215:316,1,36,2|0,3:2|0:0,0:0:0:0:
223,202,278847,2,0,P|236:224|248:243,1,36,10|0,0:0|0:0,0:0:0:0:
343,194,279282,2,0,L|334:218,3,18,10|8|8|8,3:2|0:0|0:0|0:0,0:0:0:0:
309,247,279717,5,2,0:0:0:0:
259,351,279934,1,0,0:0:0:0:
361,322,280151,6,0,P|380:322|406:317,1,36,2|0,3:2|0:0,0:0:0:0:
508,267,280586,2,0,P|483:246|474:240,1,36,10|0,0:0|0:0,0:0:0:0:
393,154,281021,1,0,3:2:0:0:
352,158,281130,1,8,3:2:0:0:
319,177,281238,2,0,L|286:188,1,18,0|0,3:2|0:0,0:0:0:0:
269,214,281456,5,2,0:0:0:0:
214,116,281673,1,0,0:0:0:0:
135,181,281891,6,0,P|113:184|86:188,1,36,2|0,3:2|0:0,0:0:0:0:
150,263,282325,2,0,P|176:266|200:270,1,36,10|0,0:0|0:0,0:0:0:0:
310,310,282760,1,0,3:0:0:0:
301,317,282869,1,0,3:0:0:0:
277,330,282978,2,0,L|245:335,1,18,10|8,3:2|0:0,0:0:0:0:
239,362,283195,5,2,0:0:0:0:
293,244,283412,1,8,0:0:0:0:
410,153,283630,6,0,B|400:198|402:189,1,36,2|0,3:2|0:0,0:0:0:0:
395,293,284065,2,0,L|383:337,1,36,10|0,0:0|0:0,0:0:0:0:
293,244,284499,2,0,L|260:236,2,18,10|8|8,3:2|0:0|0:0,0:0:0:0:
204,310,284934,5,2,0:0:0:0:
188,313,285043,1,0,0:0:0:0:
135,323,285151,1,0,0:0:0:0:
121,324,285260,1,0,0:0:0:0:
75,302,285369,6,0,P|71:278|72:252,1,36,2|0,3:2|0:0,0:0:0:0:
133,176,285804,2,0,P|125:161|107:140,1,36,10|0,0:0|0:0,0:0:0:0:
184,46,286239,2,0,L|171:22,3,18,10|8|8|8,3:2|0:0|0:0|0:0,0:0:0:0:
136,43,286674,5,2,0:0:0:0:
281,20,286891,1,0,0:0:0:0:
281,128,287108,6,0,P|285:112|301:95,1,36,2|0,3:2|0:0,0:0:0:0:
371,188,287543,2,0,P|362:149|360:141,1,36,10|0,0:0|0:0,0:0:0:0:
413,62,287978,1,2,3:2:0:0:
441,70,288086,1,8,3:2:0:0:
464,84,288195,2,0,L|488:82,1,18,0|0,3:2|0:0,0:0:0:0:
512,105,288413,5,2,0:0:0:0:
512,230,288630,1,0,0:0:0:0:
398,204,288848,6,0,P|376:207|349:210,1,36,2|0,3:2|0:0,0:0:0:0:
303,280,289282,2,0,P|323:276|351:274,1,36,10|0,0:0|0:0,0:0:0:0:
410,338,289717,1,2,3:2:0:0:
393,344,289826,1,0,3:2:0:0:
371,359,289935,2,0,L|337:361,1,18,10|8,3:2|0:0,0:0:0:0:
320,380,290152,5,2,0:0:0:0:
338,274,290369,1,0,0:0:0:0:
240,231,290587,6,0,B|231:279|232:267,1,36,2|0,3:2|0:0,0:0:0:0:
203,371,291022,2,0,L|191:326,1,36,10|0,0:0|0:0,0:0:0:0:
154,234,291456,6,0,L|139:260,2,24,8|8|8,3:2|0:0|0:0,0:0:0:0:
78,317,291891,5,10,3:2:0:0:
45,279,292036,1,8,0:0:0:0:
29,231,292180,1,8,0:0:0:0:
115,236,292325,6,0,B|140:227|140:227|168:237|169:293|151:329|151:329|220:306|220:348|273:335,1,252,2|0,3:2|0:0,0:0:0:0:
241,358,294065,2,0,B|271:359|348:346|383:320|403:283|403:283|368:274|324:283,1,252,2|0,3:2|0:0,0:0:0:0:
311,315,295804,2,0,B|297:295|293:275|296:244|333:229|372:238|372:238|400:209|385:153|350:128|289:154|283:153|278:153|236:158|149:132|136:48|203:15|238:56,1,504,2|0,3:2|0:0,0:0:0:0:
249,371,299282,6,0,B|275:321|262:254|262:241|266:228|237:204|249:123,1,252,2|0,3:2|0:0,0:0:0:0:
213,158,301021,2,0,B|198:125|210:80|232:64|232:64|271:75|298:124|291:164|281:190,1,252,2|0,3:2|0:0,0:0:0:0:
296,108,302760,2,0,B|309:88|305:36|231:53|176:115|255:123|285:154|297:198|189:240|186:243|183:247|135:284|163:373|163:373|209:376|228:363|255:332|241:326|241:326|249:322|249:322|242:315|242:315|248:317|248:317|245:308|245:308|252:302|252:302|250:297|250:297|256:284|235:281,1,576,2|6,3:2|3:2,0:0:0:0:
256,192,306347,12,0,313195,0:0:0:0:
