osu file format v14

[General]
AudioFilename: audio.mp3
AudioLeadIn: 0
PreviewTime: 80996
Countdown: 0
SampleSet: Soft
StackLeniency: 0.2
Mode: 0
LetterboxInBreaks: 0
WidescreenStoryboard: 0

[Editor]
Bookmarks: 371,36371,60371,108371,168371,216371,252371,264371
DistanceSpacing: 0.7
BeatDivisor: 4
GridSize: 16
TimelineZoom: 2.700004

[Metadata]
Title:Bad Apple!! feat. nomico (Camellia's "Bad Psy!!" Remix)
TitleUnicode:Bad Apple!! feat. nomico (Camellia's "Bad Psy!!" Remix)
Artist:Masayoshi Minoshima
ArtistUnicode:Masayoshi Minoshima
Creator:fusionnqn
Version:Desolation
Source:東方幻想郷 ~ Lotus Land Story
Tags:japanese electronic touhou gensokyo cametek かめりあ -jordan- jory tech psystyle future bass psytrance prog elly stage 3 theme fusion Comiket 93 C93 10th Anniversary PHASE2 Alstromeria Records ZUN 2017 project エリ 簑島正佳 のみこ
BeatmapID:2610417
BeatmapSetID:1256111

[Difficulty]
HPDrainRate:5
CircleSize:4
OverallDifficulty:8.6
ApproachRate:9.4
SliderMultiplier:2.1
SliderTickRate:1

[Events]
//Background and Video events
0,0,"bg.jpg",0,0
//Break Periods
//Storyboard Layer 0 (Background)
//Storyboard Layer 1 (Fail)
//Storyboard Layer 2 (Pass)
//Storyboard Layer 3 (Foreground)
//Storyboard Layer 4 (Overlay)
//Storyboard Sound Samples

[TimingPoints]
246,375,4,2,2,60,1,0
433,-100,4,2,2,40,0,0
996,-250,4,2,2,40,0,0
2402,-250,4,2,2,5,0,0
2496,-250,4,2,2,40,0,0
3152,-250,4,2,2,5,0,0
3246,-250,4,2,2,40,0,0
4652,-250,4,2,2,5,0,0
4746,-250,4,2,2,40,0,0
5402,-250,4,2,2,5,0,0
5496,-250,4,2,2,40,0,0
5777,-250,4,2,2,5,0,0
5871,-250,4,2,2,40,0,0
8402,-250,4,2,2,5,0,0
8496,-250,4,2,2,40,0,0
8777,-250,4,2,2,5,0,0
8871,-250,4,2,2,40,0,0
9902,-250,4,2,2,5,0,0
9996,-250,4,2,2,40,0,0
10652,-250,4,2,2,5,0,0
10746,-250,4,2,2,40,0,0
11402,-250,4,2,2,5,0,0
11496,-250,4,2,2,40,0,0
12152,-250,4,2,2,5,0,0
12246,-166.666666666667,4,2,2,40,0,0
24246,-166.666666666667,4,2,1,40,0,0
25558,-100,4,2,1,40,0,0
31746,-100,4,2,1,50,0,0
32027,-100,4,2,1,5,0,0
32121,-100,4,2,1,50,0,0
33246,-83.3333333333333,4,2,1,60,0,0
33621,-62.5,4,2,1,70,0,0
33996,-50,4,2,1,80,0,0
35777,-62.5,4,2,1,80,0,0
36246,-50,4,2,1,80,0,1
36527,-50,4,2,1,5,0,1
36621,-133.333333333333,4,2,1,80,0,1
37277,-43.4782608695652,4,2,1,80,0,1
37464,-43.4782608695652,4,2,1,5,0,1
37558,-50,4,2,1,80,0,1
38308,-100,4,2,1,80,0,1
38496,-55.5555555555556,4,2,1,80,0,1
38871,-66.6666666666667,4,2,1,80,0,1
39246,-48.780487804878,4,2,1,80,0,1
39621,-55.5555555555556,4,2,1,80,0,1
39902,-55.5555555555556,4,2,1,5,0,1
39996,-55.5555555555556,4,2,1,80,0,1
40277,-50,4,2,1,80,0,1
40464,-50,4,2,1,5,0,1
40558,-50,4,2,1,80,0,1
41496,-60.6060606060606,4,2,1,80,0,1
41871,-95.2380952380952,4,2,1,80,0,1
42058,-45.4545454545455,4,2,1,80,0,1
42246,-66.6666666666667,4,2,1,80,0,1
42621,-48.780487804878,4,2,1,80,0,1
42808,-48.780487804878,4,2,1,60,0,1
42996,-66.6666666666667,4,2,1,80,0,1
43183,-90.9090909090909,4,2,1,60,0,1
43308,-133.333333333333,4,2,1,5,0,1
43371,-57.1428571428571,4,2,1,80,0,1
43558,-57.1428571428571,4,2,1,5,0,1
43652,-57.1428571428571,4,2,1,80,0,1
43839,-57.1428571428571,4,2,1,5,0,1
43933,-57.1428571428571,4,2,1,80,0,1
44496,-45.4545454545455,4,2,1,80,0,1
44871,-66.6666666666667,4,2,1,80,0,1
45527,-66.6666666666667,4,2,1,5,0,1
45621,-55.5555555555556,4,2,1,80,0,1
45902,-55.5555555555556,4,2,1,5,0,1
45996,-66.6666666666667,4,2,1,80,0,1
46371,-50,4,2,1,80,0,1
46746,-66.6666666666667,4,2,1,80,0,1
47589,-66.6666666666667,4,2,1,5,0,1
47683,-66.6666666666667,4,2,1,80,0,1
47964,-66.6666666666667,4,2,1,70,0,1
48058,-66.6666666666667,4,2,1,60,0,1
48152,-66.6666666666667,4,2,1,50,0,1
48246,-50,4,2,1,80,0,1
48527,-50,4,2,1,5,0,1
48621,-117.647058823529,4,2,1,80,0,1
49277,-43.4782608695652,4,2,1,80,0,1
49464,-43.4782608695652,4,2,1,5,0,1
49558,-50,4,2,1,80,0,1
50308,-100,4,2,1,80,0,1
50496,-62.5,4,2,1,80,0,1
50871,-66.6666666666667,4,2,1,80,0,1
51246,-57.1428571428571,4,2,1,80,0,1
51902,-57.1428571428571,4,2,1,5,0,1
51996,-57.1428571428571,4,2,1,80,0,1
52464,-57.1428571428571,4,2,1,5,0,1
52558,-57.1428571428571,4,2,1,80,0,1
53496,-62.5,4,2,1,80,0,1
53871,-100,4,2,1,80,0,1
54058,-45.4545454545455,4,2,1,80,0,1
54246,-66.6666666666667,4,2,1,80,0,1
54621,-45.4545454545455,4,2,1,80,0,1
54808,-45.4545454545455,4,2,1,60,0,1
54996,-66.6666666666667,4,2,1,80,0,1
55183,-90.9090909090909,4,2,1,60,0,1
55308,-133.333333333333,4,2,1,5,0,1
55371,-57.1428571428571,4,2,1,80,0,1
55558,-57.1428571428571,4,2,1,5,0,1
55652,-57.1428571428571,4,2,1,80,0,1
55839,-57.1428571428571,4,2,1,5,0,1
55933,-57.1428571428571,4,2,1,80,0,1
56871,-80,4,2,1,80,0,1
59121,-57.1428571428571,4,2,1,80,0,1
59871,-57.1428571428571,4,2,1,70,0,1
60246,-125,4,2,2,80,0,0
60339,-125,4,2,1,40,0,0
71496,-50,4,2,1,40,0,0
72152,-50,4,2,1,5,0,0
72246,-71.4285714285714,4,2,1,60,0,0
79746,-71.4285714285714,4,2,1,70,0,0
80871,-55.5555555555556,4,2,1,70,0,0
81246,-55.5555555555556,4,2,1,80,0,0
82746,-71.4285714285714,4,2,1,80,0,0
84246,-500,4,2,1,80,0,0
84527,-500,4,2,1,5,0,0
84621,-500,4,2,1,80,0,0
85371,-83.3333333333333,4,2,1,80,0,0
87152,-83.3333333333333,4,2,1,5,0,0
87246,-45.4545454545455,4,2,1,80,0,0
87527,-45.4545454545455,4,2,1,5,0,0
87621,-45.4545454545455,4,2,1,80,0,0
89027,-45.4545454545455,4,2,1,5,0,0
89121,-45.4545454545455,4,2,1,80,0,0
89402,-45.4545454545455,4,2,1,5,0,0
89496,-100,4,2,1,80,0,0
89777,-100,4,2,1,5,0,0
89871,-55.5555555555556,4,2,1,80,0,0
90152,-55.5555555555556,4,2,1,5,0,0
90246,-55.5555555555556,4,2,1,80,0,0
90621,-55.5555555555556,4,2,1,60,0,0
92871,-66.6666666666667,4,2,1,60,0,0
93152,-66.6666666666667,4,2,1,5,0,0
93246,-45.4545454545455,4,2,1,60,0,0
93527,-45.4545454545455,4,2,1,5,0,0
93621,-45.4545454545455,4,2,1,60,0,0
95496,-100,4,2,1,60,0,0
96246,-500,4,2,1,80,0,0
96527,-500,4,2,1,5,0,0
96621,-83.3333333333333,4,2,1,80,0,0
96808,-50,4,2,1,80,0,0
97371,-83.3333333333333,4,2,1,80,0,0
98871,-66.6666666666667,4,2,1,80,0,0
99152,-66.6666666666667,4,2,1,5,0,0
99246,-45.4545454545455,4,2,1,80,0,0
99527,-45.4545454545455,4,2,1,5,0,0
99621,-45.4545454545455,4,2,1,80,0,0
100746,-55.5555555555556,4,2,1,80,0,0
100933,-55.5555555555556,4,2,1,5,0,0
101027,-55.5555555555556,4,2,1,80,0,0
101121,-50,4,2,1,80,0,0
101308,-50,4,2,1,5,0,0
101402,-50,4,2,1,80,0,0
101496,-45.4545454545455,4,2,1,80,0,0
101683,-58.8235294117647,4,2,1,80,0,0
102152,-58.8235294117647,4,2,1,5,0,0
102246,-58.8235294117647,4,2,1,60,0,0
104871,-50,4,2,1,80,0,0
105152,-50,4,2,1,5,0,0
105246,-50,4,2,1,60,0,0
105996,-50,4,2,1,70,0,0
106746,-50,4,2,1,80,0,0
106933,-50,4,2,1,85,0,0
107214,-50,4,2,1,90,0,0
107496,-50,4,2,1,95,0,0
107777,-50,4,2,1,100,0,0
107871,-71.4285714285714,4,2,1,100,0,0
108152,-71.4285714285714,4,2,1,5,0,0
108246,-50,4,2,1,80,0,0
108527,-50,4,2,1,5,0,0
108621,-50,4,2,1,60,0,0
119777,-50,4,2,1,5,0,0
119871,-50,4,2,1,60,0,0
120246,-62.5,4,2,1,60,0,0
131496,-45.4545454545455,4,2,1,60,0,0
132246,-45.4545454545455,4,2,2,60,0,0
132621,-45.4545454545455,4,2,1,60,0,0
133558,-100,4,2,1,60,0,0
137871,-71.4285714285714,4,2,1,60,0,0
139558,-100,4,2,1,60,0,0
141621,-100,4,2,1,70,0,0
141996,-100,4,2,1,80,0,0
142746,-200,4,2,1,80,0,0
143589,-50,4,2,1,60,0,0
143777,-62.5,4,2,1,60,0,0
144714,-62.5,4,2,1,65,0,0
144808,-62.5,4,2,1,70,0,0
144902,-62.5,4,2,1,75,0,0
144996,-62.5,4,2,1,80,0,0
145277,-50,4,2,1,80,0,1
145464,-50,4,2,1,5,0,1
145558,-50,4,2,1,80,0,1
146308,-100,4,2,1,80,0,1
146496,-45.4545454545455,4,2,1,80,0,1
146871,-50,4,2,1,80,0,1
147058,-55.5555555555556,4,2,1,80,0,1
147246,-45.4545454545455,4,2,1,80,0,1
147621,-57.1428571428571,4,2,1,80,0,1
147902,-57.1428571428571,4,2,1,5,0,1
147996,-57.1428571428571,4,2,1,80,0,1
148277,-50,4,2,1,80,0,1
148464,-50,4,2,1,5,0,1
148558,-54.054054054054,4,2,1,80,0,1
149496,-55.5555555555556,4,2,1,80,0,1
149871,-100,4,2,1,80,0,1
150058,-45.4545454545455,4,2,1,80,0,1
150246,-66.6666666666667,4,2,1,80,0,1
150621,-55.5555555555556,4,2,1,80,0,1
150808,-55.5555555555556,4,2,1,60,0,1
150996,-66.6666666666667,4,2,1,80,0,1
151183,-90.9090909090909,4,2,1,60,0,1
151308,-117.647058823529,4,2,1,5,0,1
151371,-50,4,2,1,80,0,1
151558,-50,4,2,1,5,0,1
151652,-50,4,2,1,80,0,1
151839,-50,4,2,1,5,0,1
151933,-50,4,2,1,80,0,1
152496,-41.6666666666667,4,2,1,80,0,1
152871,-66.6666666666667,4,2,1,80,0,1
153527,-66.6666666666667,4,2,1,5,0,1
153621,-55.5555555555556,4,2,1,80,0,1
153902,-55.5555555555556,4,2,1,5,0,1
153996,-66.6666666666667,4,2,1,80,0,1
154371,-50,4,2,1,80,0,1
154746,-66.6666666666667,4,2,1,80,0,1
155589,-66.6666666666667,4,2,1,5,0,1
155683,-66.6666666666667,4,2,1,80,0,1
155964,-66.6666666666667,4,2,1,70,0,1
156058,-66.6666666666667,4,2,1,60,0,1
156152,-66.6666666666667,4,2,1,50,0,1
156246,-45.4545454545455,4,2,1,80,0,1
156527,-45.4545454545455,4,2,1,5,0,1
156621,-100,4,2,1,80,0,1
157277,-45.4545454545455,4,2,1,80,0,1
157464,-45.4545454545455,4,2,1,5,0,1
157558,-51.2820512820513,4,2,1,80,0,1
158308,-133.333333333333,4,2,1,80,0,1
158496,-55.5555555555556,4,2,1,80,0,1
158871,-71.4285714285714,4,2,1,80,0,1
159246,-55.5555555555556,4,2,1,80,0,1
159902,-55.5555555555556,4,2,1,5,0,1
159996,-55.5555555555556,4,2,1,80,0,1
160277,-57.1428571428571,4,2,1,80,0,1
160464,-57.1428571428571,4,2,1,5,0,1
160558,-57.1428571428571,4,2,1,80,0,1
161871,-133.333333333333,4,2,1,80,0,1
162058,-45.4545454545455,4,2,1,80,0,1
162246,-66.6666666666667,4,2,1,80,0,1
162621,-55.5555555555556,4,2,1,80,0,1
162808,-55.5555555555556,4,2,1,60,0,1
162996,-66.6666666666667,4,2,1,80,0,1
163183,-90.9090909090909,4,2,1,60,0,1
163308,-117.647058823529,4,2,1,5,0,1
163371,-48.780487804878,4,2,1,80,0,1
163558,-48.780487804878,4,2,1,5,0,1
163652,-50,4,2,1,80,0,1
163839,-50,4,2,1,5,0,1
163933,-50,4,2,1,80,0,1
164871,-66.6666666666667,4,2,1,80,0,1
165996,-66.6666666666667,4,2,1,70,0,1
166371,-66.6666666666667,4,2,1,60,0,1
166746,-62.5,4,2,1,50,0,0
168246,-100,4,2,2,80,0,0
168339,-100,4,2,1,50,0,0
174246,-83.3333333333333,4,2,1,50,0,0
178371,-71.4285714285714,4,2,1,50,0,0
179496,-50,4,2,1,50,0,0
180152,-50,4,2,1,5,0,0
180246,-55.5555555555556,4,2,1,60,0,0
186246,-62.5,4,2,1,70,0,0
187746,-62.5,4,2,1,80,0,0
188871,-50,4,2,1,80,0,0
189246,-57.1428571428571,4,2,1,80,0,0
189996,-41.6666666666667,4,2,1,80,0,0
190371,-33.3333333333333,4,2,1,80,0,0
190746,-66.6666666666667,4,2,1,80,0,0
192246,-55.5555555555556,4,2,1,80,0,1
193371,-100,4,2,1,80,0,1
193746,-55.5555555555556,4,2,1,80,0,1
194871,-100,4,2,1,80,0,1
195246,-55.5555555555556,4,2,1,80,0,1
197871,-100,4,2,1,80,0,1
198246,-55.5555555555556,4,2,1,80,0,1
199371,-100,4,2,1,80,0,1
199746,-55.5555555555556,4,2,1,80,0,1
200871,-100,4,2,1,80,0,1
201246,-45.4545454545455,4,2,1,80,0,1
203027,-55.5555555555556,4,2,1,80,0,1
204246,-55.5555555555556,4,2,2,80,0,1
204621,-55.5555555555556,4,2,1,80,0,1
205371,-100,4,2,1,80,0,1
205746,-55.5555555555556,4,2,1,80,0,1
206871,-100,4,2,1,80,0,1
207246,-55.5555555555556,4,2,1,80,0,1
208371,-100,4,2,1,80,0,1
208746,-55.5555555555556,4,2,1,80,0,1
211371,-100,4,2,1,80,0,1
211746,-55.5555555555556,4,2,1,80,0,1
212871,-100,4,2,1,80,0,1
213246,-55.5555555555556,4,2,1,80,0,1
213433,-55.5555555555556,4,2,1,5,0,1
213527,-55.5555555555556,4,2,1,80,0,1
214183,-55.5555555555556,4,2,1,5,0,1
214277,-55.5555555555556,4,2,1,80,0,1
214933,-55.5555555555556,4,2,1,5,0,1
215027,-55.5555555555556,4,2,1,80,0,1
215496,-45.4545454545455,4,2,1,80,0,1
216152,-45.4545454545455,4,2,1,5,0,1
216246,-45.4545454545455,4,2,1,70,0,0
216621,-66.6666666666667,4,2,1,70,0,0
217371,-76.9230769230769,4,2,1,70,0,0
217746,-66.6666666666667,4,2,1,70,0,0
218308,-76.9230769230769,4,2,1,70,0,0
219058,-66.6666666666667,4,2,1,70,0,0
223746,-66.6666666666667,4,2,1,80,0,0
224496,-58.8235294117647,4,2,1,80,0,0
225996,-50,4,2,1,80,0,0
226746,-66.6666666666667,4,2,1,80,0,0
228246,-500,4,2,1,90,0,0
228527,-500,4,2,1,5,0,0
228621,-500,4,2,2,90,0,0
229089,-50,4,2,2,90,0,0
229276,-50,4,2,2,5,0,0
229371,-50,4,2,2,90,0,0
230026,-50,4,2,2,5,0,0
230121,-50,4,2,2,90,0,0
230776,-50,4,2,2,5,0,0
230871,-40,4,2,2,90,0,0
231246,-83.3333333333333,4,2,2,90,0,0
232089,-50,4,2,2,90,0,0
232276,-50,4,2,2,5,0,0
232371,-50,4,2,2,90,0,0
232933,-50,4,2,2,5,0,0
233027,-50,4,2,2,90,0,0
233401,-50,4,2,2,5,0,0
233496,-50,4,2,2,90,0,0
233964,-45.4545454545455,4,2,2,90,0,0
234151,-45.4545454545455,4,2,2,5,0,0
234246,-500,4,2,2,90,0,0
234527,-500,4,2,2,5,0,0
234621,-500,4,2,2,90,0,0
235839,-66.6666666666667,4,2,2,90,0,0
236871,-40,4,2,2,90,0,0
237246,-83.3333333333333,4,2,2,90,0,0
238746,-66.6666666666667,4,2,2,90,0,0
239308,-58.8235294117647,4,2,2,90,0,0
240058,-52.6315789473684,4,2,2,90,0,0
240621,-100,4,2,2,90,0,0
240808,-40,4,2,2,90,0,0
241089,-50,4,2,2,90,0,0
241276,-50,4,2,2,5,0,0
241371,-50,4,2,2,90,0,0
241839,-45.4545454545455,4,2,2,90,0,0
242026,-45.4545454545455,4,2,2,5,0,0
242121,-45.4545454545455,4,2,2,90,0,0
242871,-40,4,2,2,90,0,0
243246,-66.6666666666667,4,2,2,90,0,0
244089,-43.4782608695652,4,2,2,90,0,0
244276,-43.4782608695652,4,2,2,5,0,0
244371,-43.4782608695652,4,2,2,90,0,0
244746,-50,4,2,2,90,0,0
244933,-50,4,2,2,5,0,0
245027,-50,4,2,2,90,0,0
245308,-50,4,2,2,5,0,0
245402,-50,4,2,2,90,0,0
245964,-45.4545454545455,4,2,2,90,0,0
246151,-45.4545454545455,4,2,2,5,0,0
246246,-133.333333333333,4,2,2,90,0,0
246621,-66.6666666666667,4,2,2,90,0,0
246808,-40,4,2,2,90,0,0
247089,-45.4545454545455,4,2,2,90,0,0
247276,-45.4545454545455,4,2,2,5,0,0
247371,-45.4545454545455,4,2,2,90,0,0
247839,-50,4,2,2,90,0,0
248026,-50,4,2,2,5,0,0
248121,-50,4,2,2,90,0,0
250746,-66.6666666666667,4,2,2,80,0,0
251027,-58.8235294117647,4,2,1,80,0,0
251308,-52.6315789473684,4,2,1,80,0,0
251589,-47.6190476190476,4,2,1,80,0,0
251871,-50,4,2,1,80,0,0
252246,-40,4,2,2,100,0,1
252433,-40,4,2,2,5,0,1
252527,-45.4545454545455,4,2,2,100,0,1
252714,-45.4545454545455,4,2,2,5,0,1
252808,-45.4545454545455,4,2,2,100,0,1
254026,-45.4545454545455,4,2,2,5,0,1
254121,-45.4545454545455,4,2,2,100,0,1
254308,-45.4545454545455,4,2,2,5,0,1
254402,-45.4545454545455,4,2,2,100,0,1
254589,-45.4545454545455,4,2,2,5,0,1
254683,-45.4545454545455,4,2,2,100,0,1
254871,-45.4545454545455,4,2,1,100,0,1
255058,-45.4545454545455,4,2,2,100,0,1
255433,-45.4545454545455,4,2,2,5,0,1
255527,-45.4545454545455,4,2,2,100,0,1
255714,-45.4545454545455,4,2,2,5,0,1
255808,-45.4545454545455,4,2,2,100,0,1
257026,-45.4545454545455,4,2,2,5,0,1
257121,-45.4545454545455,4,2,2,100,0,1
257308,-45.4545454545455,4,2,2,5,0,1
257402,-45.4545454545455,4,2,2,100,0,1
257589,-45.4545454545455,4,2,2,5,0,1
257683,-45.4545454545455,4,2,2,100,0,1
257871,-45.4545454545455,4,2,1,100,0,1
258058,-45.4545454545455,4,2,2,100,0,1
258433,-45.4545454545455,4,2,2,5,0,1
258527,-45.4545454545455,4,2,2,100,0,1
258714,-45.4545454545455,4,2,2,5,0,1
258808,-45.4545454545455,4,2,2,100,0,1
260026,-45.4545454545455,4,2,2,5,0,1
260121,-45.4545454545455,4,2,2,100,0,1
260308,-45.4545454545455,4,2,2,5,0,1
260402,-45.4545454545455,4,2,2,100,0,1
260589,-45.4545454545455,4,2,2,5,0,1
260683,-45.4545454545455,4,2,2,100,0,1
260871,-45.4545454545455,4,2,1,100,0,1
261058,-45.4545454545455,4,2,2,100,0,1
261433,-45.4545454545455,4,2,2,5,0,1
261527,-41.6666666666667,4,2,2,100,0,1
261714,-41.6666666666667,4,2,2,5,0,1
261808,-41.6666666666667,4,2,2,100,0,1
261902,-38.4615384615385,4,2,2,100,0,1
262371,-33.3333333333333,4,2,2,100,0,1
262746,-33.3333333333333,4,2,1,80,0,0
263871,-33.3333333333333,4,2,1,70,0,0
264246,-212.765957446809,4,2,2,70,0,0
266121,-212.765957446809,4,2,2,40,0,0
266496,-270.27027027027,4,2,2,40,0,0
267246,-243.90243902439,4,2,2,40,0,0
268746,-270.27027027027,4,2,2,40,0,0
272496,-294.117647058824,4,2,2,40,0,0
273246,-322.58064516129,4,2,2,40,0,0
276246,-476.190476190476,4,2,2,40,0,0
289089,-416.666666666667,4,2,2,40,0,0
290120,-416.666666666667,4,2,2,10,0,0

[Colours]
Combo1 : 121,121,121
Combo2 : 255,51,56
Combo3 : 177,177,177
Combo4 : 255,79,28

[HitObjects]
48,328,246,5,4,2:3:0:0:
47,255,433,1,0,2:0:0:0:
3,315,621,1,0,2:0:0:0:
74,289,808,1,0,2:0:0:0:
3,268,996,2,0,B|197:256|89:370|288:358,1,315,0|0,2:0|2:0,2:0:0:0:
310,353,2496,2,0,P|262:307|266:229,1,147,2|0,2:0|2:0,2:0:0:0:
342,272,3246,5,2,2:0:0:0:
396,340,3433,1,0,2:0:0:0:
428,261,3621,1,0,2:0:0:0:
342,272,3808,1,0,2:0:0:0:
481,329,3996,2,0,B|495:238|437:282|452:191,1,147,0|0,2:0|2:0,2:0:0:0:
460,172,4746,2,0,P|495:190|503:115,1,147,2|0,2:0|2:0,2:0:0:0:
427,98,5496,2,0,P|413:69|410:38,1,63,2|0,2:0|2:0,2:0:0:0:
413,15,5871,1,0,2:0:0:0:
502,43,6058,1,0,2:0:0:0:
236,17,6246,5,2,2:0:0:0:
307,38,6433,1,0,2:0:0:0:
236,63,6621,1,0,2:0:0:0:
280,4,6808,1,0,2:0:0:0:
280,77,6996,2,0,B|309:-40|87:-46|146:141|202:167,1,315,0|0,2:0|2:0,2:0:0:0:
207,176,8496,2,0,L|213:244,1,63,2|0,2:0|2:0,2:0:0:0:
215,263,8871,1,0,2:0:0:0:
290,209,9058,1,0,2:0:0:0:
129,228,9246,5,2,2:0:0:0:
54,282,9433,1,0,2:0:0:0:
59,374,9621,2,0,P|86:373|124:346,1,63,0|0,2:0|2:0,2:0:0:0:
128,347,9996,2,0,P|188:368|272:354,1,147,0|0,2:0|2:0,2:0:0:0:
335,319,10746,6,0,P|366:342|386:269,1,147,2|0,2:0|2:0,2:0:0:0:
313,246,11496,2,0,B|327:155|269:199|284:108,1,147,2|0,2:0|2:0,2:0:0:0:
358,130,12246,6,0,P|410:142|461:142,4,94.4999999999998,2|2|2|2|2,2:0|2:0|2:0|2:0|2:0,2:0:0:0:
213,0,13746,2,0,P|260:0|306:12,4,94.4999999999998,2|2|2|2|2,2:0|2:0|2:0|2:0|2:0,2:0:0:0:
358,130,15246,6,0,P|410:142|461:142,1,94.4999999999998,2|2,2:0|2:0,2:0:0:0:
339,145,15808,2,0,P|354:196|380:240,1,94.4999999999998,2|2,2:0|2:0,2:0:0:0:
316,136,16371,1,2,2:0:0:0:
208,30,16746,6,0,P|188:72|159:110,1,94.4999999999998,2|2,2:0|2:0,2:0:0:0:
86,20,17308,2,0,P|113:58|131:101,1,94.4999999999998,2|2,2:0|2:0,2:0:0:0:
18,121,17871,1,2,2:0:0:0:
177,243,18246,5,2,2:0:0:0:
72,228,18527,1,2,2:0:0:0:
177,243,18808,1,2,2:0:0:0:
72,228,19089,1,2,2:0:0:0:
177,243,19371,1,2,2:0:0:0:
0,349,19746,5,2,2:0:0:0:
105,334,20027,1,2,2:0:0:0:
0,349,20308,1,2,2:0:0:0:
105,334,20589,1,2,2:0:0:0:
0,349,20871,1,2,2:0:0:0:
293,266,21246,6,0,P|255:294|225:330,1,94.4999999999998,2|2,2:0|2:0,2:0:0:0:
324,376,21808,2,0,P|318:329|302:284,1,94.4999999999998,2|2,2:0|2:0,2:0:0:0:
213,350,22371,1,2,2:0:0:0:
465,266,22746,6,0,P|427:237|397:201,1,94.4999999999998,2|2,2:0|2:0,2:0:0:0:
496,156,23308,2,0,P|490:202|474:247,1,94.4999999999998,2|2,2:0|2:0,2:0:0:0:
385,182,23871,1,2,2:0:0:0:
258,2,24246,5,12,2:3:0:0:
508,62,24621,1,8,2:1:0:0:
450,0,24808,1,8,2:1:0:0:
433,89,24996,1,8,2:1:0:0:
433,89,25089,1,8,2:1:0:0:
433,89,25183,1,8,2:1:0:0:
508,62,25371,1,8,2:1:0:0:
450,0,25558,2,0,L|403:4,4,26.25,8|8|8|8|8,2:1|2:1|2:1|2:1|2:1,2:0:0:0:
450,0,26121,1,8,2:1:0:0:
508,62,26308,1,8,2:1:0:0:
265,9,26496,5,8,2:1:0:0:
265,9,26589,1,8,2:1:0:0:
265,9,26683,1,8,2:1:0:0:
188,12,26871,1,8,2:1:0:0:
116,25,27058,1,8,2:1:0:0:
116,25,27152,1,8,2:1:0:0:
116,25,27246,1,8,2:1:0:0:
116,25,27621,5,8,2:1:0:0:
108,107,27808,1,8,2:1:0:0:
181,160,27996,1,8,2:1:0:0:
181,160,28089,1,8,2:1:0:0:
181,160,28183,1,8,2:1:0:0:
177,240,28371,1,8,2:1:0:0:
108,107,28558,6,0,L|111:68,4,26.25,8|8|8|8|8,2:1|2:1|2:1|2:1|2:1,2:0:0:0:
181,160,28933,5,8,2:1:0:0:
181,160,29027,1,8,2:1:0:0:
181,160,29121,1,8,2:1:0:0:
101,243,29308,5,8,2:1:0:0:
101,243,29402,1,8,2:1:0:0:
101,243,29496,1,8,2:1:0:0:
101,243,29589,1,8,2:1:0:0:
101,243,29683,2,0,L|71:239,2,26.25,8|8|8,2:1|2:1|2:1,2:0:0:0:
268,257,29871,5,8,2:1:0:0:
268,257,29964,1,8,2:1:0:0:
268,257,30058,1,8,2:1:0:0:
268,257,30152,1,8,2:1:0:0:
268,257,30246,5,12,3:0:0:0:
170,360,30433,1,0,2:1:0:0:
360,270,30621,5,8,3:1:0:0:
149,374,30808,1,8,2:1:0:0:
341,183,30996,1,8,3:1:0:0:
341,183,31089,1,8,2:1:0:0:
341,183,31183,1,8,2:1:0:0:
378,374,31371,1,8,3:1:0:0:
458,286,31558,6,0,P|450:271|445:254,2,26.25,8|8|8,2:1|2:1|2:1,2:1:0:0:
464,302,31746,2,0,P|423:287|347:187,1,157.5,8|0,3:1|2:1,2:1:0:0:
343,97,32121,5,8,3:1:0:0:
480,172,32308,1,8,2:1:0:0:
266,370,32496,1,8,3:1:0:0:
266,370,32589,1,8,2:1:0:0:
266,370,32683,1,8,2:1:0:0:
222,234,32871,1,8,3:1:0:0:
471,382,33058,1,8,2:1:0:0:
128,347,33246,6,8,L|132:303,2,31.5,8|8|8,3:1|2:1|2:1,2:1:0:0:
142,362,33433,1,8,3:1:0:0:
222,234,33621,6,8,L|215:162,2,42,8|8|8,3:1|2:1|2:1,2:1:0:0:
197,259,33808,1,8,3:1:0:0:
55,106,33996,6,8,L|62:23,2,52.5,8|8|8,3:1|2:1|2:1,2:1:0:0:
102,163,34183,1,8,3:1:0:0:
197,0,34371,5,0,3:0:0:0:
222,2,34464,1,0,3:0:0:0:
263,7,34558,1,0,3:0:0:0:
313,13,34652,1,0,3:0:0:0:
395,23,34746,5,2,3:2:0:0:
395,23,35121,1,2,2:0:0:0:
395,23,35496,2,0,P|430:73|474:96,2,105,2|2|0,2:0|2:0|2:0,2:0:0:0:
312,139,35777,2,0,P|333:103|337:79,1,42,2|0,2:0|2:0,2:0:0:0:
320,156,35871,6,0,P|335:134|343:110,6,42,2|0|0|0|0|0|0,2:0|2:0|2:0|2:0|2:0|2:0|2:0,2:0:0:0:
444,218,36246,6,0,B|487:201|551:286|446:364|382:287|382:287|342:229|281:244,1,315,6|0,3:2|2:0,2:0:0:0:
229,227,36621,6,0,P|235:199|245:179,2,39.3750000000001,2|0|2,2:0|2:0|2:0,2:0:0:0:
270,303,36902,1,0,3:2:0:0:
198,337,36996,5,10,2:0:0:0:
149,334,37089,1,0,2:0:0:0:
118,314,37183,1,0,2:0:0:0:
24,338,37277,6,0,B|-5:275|67:214|65:242|128:196|95:93,1,241.5,4|0,3:2|2:0,2:0:0:0:
180,114,37558,2,0,P|154:65|105:44,1,105,6|0,3:2|2:0,2:0:0:0:
31,70,37746,1,2,2:0:0:0:
173,197,37933,6,0,P|225:186|259:131,1,105,6|0,3:2|2:0,2:0:0:0:
311,0,38121,2,0,L|321:105,1,105,6|0,3:2|2:0,2:0:0:0:
383,146,38308,2,0,L|377:212,1,52.5,0|0,2:0|2:0,2:0:0:0:
327,382,38496,6,0,B|346:367|349:341|349:341|347:368|377:396,1,94.4999999999999,10|0,2:0|2:0,2:0:0:0:
427,320,38683,1,8,2:3:0:0:
427,320,38777,1,8,2:3:0:0:
427,320,38871,6,0,P|399:275|353:267,1,78.75,10|0,2:3|2:0,2:0:0:0:
336,199,39058,2,0,P|295:250|296:283,1,78.75,10|0,2:3|2:0,2:0:0:0:
261,333,39246,6,0,P|230:340|188:329,3,71.7500000000001,2|0|0|0,2:0|2:0|2:0|2:0,2:0:0:0:
30,102,39621,6,0,B|184:116|115:-6|298:16,1,283.5,6|0,3:2|2:0,2:0:0:0:
425,62,39996,5,10,2:0:0:0:
399,79,40089,1,0,2:0:0:0:
352,81,40183,1,0,2:0:0:0:
286,14,40277,6,0,P|326:67|290:226,1,210,6|0,3:2|2:0,2:0:0:0:
225,354,40558,2,0,P|221:307|254:256,1,105,6|0,3:2|2:0,2:0:0:0:
390,232,40746,1,2,2:0:0:0:
231,180,40933,1,2,2:0:0:0:
468,186,41121,6,0,P|476:230|457:286,1,105,4|0,3:2|2:0,2:0:0:0:
294,364,41308,2,0,P|335:323|382:318,1,105,2|0,2:0|2:0,2:0:0:0:
442,366,41496,2,0,B|501:387|501:387|512:353,3,86.625,10|0|0|0,2:0|2:0|2:0|2:0,2:0:0:0:
294,364,41871,6,0,P|263:355|239:356,1,55.125,2|0,2:0|2:0,2:0:0:0:
239,356,42058,6,0,P|255:309|225:236,1,115.5,6|0,3:2|2:0,2:0:0:0:
256,169,42246,2,0,P|217:171|165:211,1,78.75,2|0,2:0|2:0,2:0:0:0:
93,263,42433,1,10,2:3:0:0:
96,308,42527,1,8,2:3:0:0:
99,352,42621,6,0,P|136:352|169:331,4,53.8125000000001,10|8|8|8|8,2:3|2:3|2:3|2:3|2:3,2:0:0:0:
102,101,42996,6,0,P|141:99|185:130,1,78.75,10|0,2:0|2:0,2:0:0:0:
256,169,43183,2,0,P|286:184|325:185,1,57.7500017623902,8|0,2:3|2:0,2:0:0:0:
230,1,43371,6,0,P|275:92|241:188,1,183.75,6|2,3:2|2:0,2:0:0:0:
124,281,43652,2,0,B|167:258|178:206|178:206|206:251|252:255,1,183.75,6|0,3:2|2:0,2:0:0:0:
406,240,43933,6,0,P|370:216|310:220,1,91.8750000000001,6|0,3:2|2:0,2:0:0:0:
273,362,44121,1,0,2:0:0:0:
273,362,44214,2,0,P|311:338|328:296,1,91.8750000000001,4|0,3:2|2:0,2:0:0:0:
322,215,44402,1,0,2:0:0:0:
255,168,44496,6,0,P|250:140|272:96,6,57.7499999999999,10|0|0|0|0|0|0,2:0|2:0|2:0|2:0|2:0|2:0|2:0,2:0:0:0:
134,347,44871,6,0,B|166:219|65:234|111:108|111:108|169:183|230:188|230:188|267:84|362:108,1,551.25,6|0,3:2|2:0,2:0:0:0:
455,106,45621,6,0,B|458:136|482:165|482:165|370:172|408:77|268:97|262:163,1,283.5,6|0,3:2|2:0,2:0:0:0:
198,69,45996,6,0,L|187:32,2,39.375,10|0|0,2:0|2:0|2:0,2:0:0:0:
221,264,46371,6,0,P|180:234|119:246,1,105,6|0,3:2|2:0,2:0:0:0:
15,152,46558,2,0,P|0:196|18:257,1,105,6|0,3:2|2:0,2:0:0:0:
140,344,46746,6,0,B|144:371|144:371|212:361|212:361|213:356|213:356|270:347|270:347,1,157.5,6|0,3:2|2:0,2:0:0:0:
504,229,47121,2,0,B|484:263|484:263|409:273|409:273|407:269|407:269|348:276|348:276|317:252|317:252|221:264|221:264|258:241|261:179,1,393.75,6|0,3:2|2:0,2:0:0:0:
257,192,47683,5,8,2:0:0:0:
119,22,47871,5,8,2:0:0:0:
117,43,47964,1,8,2:0:0:0:
56,98,48058,5,8,2:0:0:0:
60,129,48152,1,8,2:0:0:0:
99,203,48246,6,0,B|138:276|81:381|-37:342|-61:230|33:172,1,315,6|0,3:2|2:0,2:0:0:0:
60,129,48621,2,0,P|81:121|112:120,2,44.6250000000002,2|0|2,2:0|2:0|2:0,2:0:0:0:
154,62,48902,1,0,3:2:0:0:
209,128,48996,5,10,2:0:0:0:
250,133,49089,1,0,2:0:0:0:
299,118,49183,1,0,2:0:0:0:
242,48,49277,6,0,B|262:299,1,241.5,4|0,3:2|2:0,2:0:0:0:
332,325,49558,2,0,P|250:372|206:345,1,105,6|0,3:2|2:0,2:0:0:0:
182,313,49746,1,2,2:0:0:0:
336,227,49933,6,0,P|378:233|422:312,1,105,6|0,3:2|2:0,2:0:0:0:
426,383,50121,2,0,L|417:265,1,105,6|0,3:2|2:0,2:0:0:0:
500,284,50308,2,0,L|494:229,1,52.5,2|0,2:0|2:0,2:0:0:0:
503,49,50496,6,0,B|473:43|459:67|459:67|479:56|503:59,1,84,10|0,2:0|2:0,2:0:0:0:
494,138,50683,1,8,2:3:0:0:
491,148,50777,1,8,2:3:0:0:
488,157,50871,6,0,P|450:157|404:124,1,78.75,10|0,2:3|2:0,2:0:0:0:
336,165,51058,2,0,P|332:116|347:90,1,78.75,10|0,2:3|2:0,2:0:0:0:
411,0,51246,6,0,P|420:31|401:87,3,61.25,2|0|0|0,2:0|2:0|2:0|2:0,2:0:0:0:
495,334,51621,6,0,B|370:379|380:241|233:284,1,275.625,6|0,3:2|2:0,2:0:0:0:
99,356,51996,5,10,2:0:0:0:
135,355,52089,1,0,2:0:0:0:
175,325,52183,1,0,2:0:0:0:
109,277,52277,6,0,B|88:226|48:129|187:90,1,183.75,6|0,3:2|2:0,2:0:0:0:
296,155,52558,2,0,P|249:172|204:155,1,91.8750000000001,6|0,3:2|2:0,2:0:0:0:
145,30,52746,1,2,2:0:0:0:
287,76,52933,1,2,2:0:0:0:
92,188,53121,6,0,P|101:144|133:112,1,91.8750000000001,4|0,3:2|2:0,2:0:0:0:
367,106,53308,2,0,P|331:77|286:76,1,91.8750000000001,2|0,2:0|2:0,2:0:0:0:
145,30,53496,2,0,B|90:37|90:37|75:10,3,84,10|0|0|0,2:0|2:0|2:0|2:0,2:0:0:0:
210,85,53871,6,0,P|215:109|191:164,1,52.5,2|0,2:0|2:0,2:0:0:0:
208,238,54058,2,0,P|172:201|103:204,1,115.5,6|0,3:2|2:0,2:0:0:0:
40,157,54246,2,0,P|26:208|59:264,1,78.75,2|0,2:0|2:0,2:0:0:0:
44,364,54433,1,10,2:3:0:0:
96,363,54527,1,8,2:3:0:0:
144,356,54621,6,0,P|154:316|142:277,4,57.7499999999999,10|8|8|8|8,2:3|2:3|2:3|2:3|2:3,2:0:0:0:
127,160,54996,6,0,P|167:153|217:174,1,78.75,10|0,2:0|2:0,2:0:0:0:
286,191,55183,2,0,P|315:204|357:193,1,57.7500017623902,8|0,2:3|2:0,2:0:0:0:
232,360,55371,6,0,B|209:254|306:284|282:143,1,183.75,6|2,3:2|2:0,2:0:0:0:
153,91,55652,2,0,B|199:105|203:164|203:164|222:111|294:105,1,183.75,4|0,3:2|2:0,2:0:0:0:
385,57,55933,6,0,P|353:108|359:158,1,91.8750000000001,6|0,3:2|2:0,2:0:0:0:
285,190,56121,1,0,2:0:0:0:
285,190,56214,2,0,P|300:247|340:275,1,91.8750000000001,4|0,3:2|2:0,2:0:0:0:
405,307,56402,1,0,2:0:0:0:
480,271,56496,6,0,P|495:242|494:208,6,45.9375,10|0|0|0|0|0|0,2:0|2:0|2:0|2:0|2:0|2:0|2:0,2:0:0:0:
290,264,56871,6,0,B|357:272|339:209|435:225,3,131.25,6|2|2|2,3:2|2:0|2:0|2:0,2:0:0:0:
293,357,57621,6,0,P|257:358|216:340,1,65.625,2|0,2:0|2:0,2:0:0:0:
163,295,57808,2,0,P|131:280|95:286,1,65.625,2|0,2:0|2:0,2:0:0:0:
22,309,57996,2,0,P|15:340|37:391,3,65.625,2|0|0|0,2:0|2:0|2:0|2:0,2:0:0:0:
54,168,58371,6,0,P|53:199|40:230,1,65.625,2|0,2:0|2:0,2:0:0:0:
0,30,58558,2,0,P|0:61|13:92,1,65.625,2|0,2:0|2:0,2:0:0:0:
161,224,58746,6,0,P|193:223|223:210,1,65.625,2|0,2:0|2:0,2:0:0:0:
348,133,58933,2,0,P|317:120|285:119,1,65.625,2|0,2:0|2:0,2:0:0:0:
164,54,59121,6,0,P|164:84|175:112,6,45.9375,2|0|0|0|0|0|0,2:0|2:0|2:0|2:0|2:0|2:0|2:0,2:0:0:0:
242,192,59496,5,2,3:2:0:0:
285,118,59621,1,2,3:2:0:0:
250,41,59746,1,2,3:2:0:0:
103,174,59871,5,2,3:2:0:0:
128,266,59996,1,2,3:2:0:0:
221,305,60121,1,2,3:2:0:0:
313,269,60246,6,0,P|322:286|324:325,15,42,4|0|0|0|0|0|0|0|0|0|0|0|0|0|0|0,2:3|3:0|3:0|3:0|3:0|3:0|3:0|3:0|3:0|3:0|3:0|3:0|3:0|3:0|3:0|3:0,3:0:0:0:
246,309,61746,2,0,P|225:306|205:300,15,42,2|0|0|0|0|0|0|0|0|0|0|0|0|0|0|0,3:2|3:0|3:0|3:0|3:0|3:0|3:0|3:0|3:0|3:0|3:0|3:0|3:0|3:0|3:0|3:0,3:0:0:0:
243,230,63246,2,0,P|254:212|269:199,27,42,2|0|0|0|0|0|0|0|0|0|0|0|0|0|0|0|0|0|0|0|0|0|0|0|0|0|0|0,3:2|3:0|3:0|3:0|3:0|3:0|3:0|3:0|3:0|3:0|3:0|3:0|3:0|3:0|3:0|3:0|3:0|3:0|3:0|3:0|3:0|3:0|3:0|3:0|3:0|3:0|3:0|3:0,3:0:0:0:
319,351,65871,6,0,P|307:369|291:382,3,42,2|0|0|0,3:2|3:0|3:0|3:0,3:0:0:0:
364,286,66246,6,0,L|369:223,15,42,2|0|0|0|0|0|0|0|0|0|0|0|0|0|0|0,3:2|3:0|3:0|3:0|3:0|3:0|3:0|3:0|3:0|3:0|3:0|3:0|3:0|3:0|3:0|3:0,3:0:0:0:
375,169,67746,2,0,L|380:106,15,42,2|0|0|0|0|0|0|0|0|0|0|0|0|0|0|0,3:2|3:0|3:0|3:0|3:0|3:0|3:0|3:0|3:0|3:0|3:0|3:0|3:0|3:0|3:0|3:0,3:0:0:0:
301,45,69246,6,0,L|308:103,23,42,2|0|0|0|0|0|0|0|0|0|0|0|0|0|0|0|0|0|0|0|0|0|0|0,3:2|3:0|3:0|3:0|3:0|3:0|3:0|3:0|3:0|3:0|3:0|3:0|3:0|3:0|3:0|3:0|3:0|3:0|3:0|3:0|3:0|3:0|3:0|3:0,3:0:0:0:
379,128,71496,6,0,B|424:138|474:112|474:112|361:214|313:497|646:504|628:136|315:289,1,735,2|0,3:2|2:0,2:0:0:0:
266,320,72246,6,0,P|229:324|193:317,3,73.5,6|0|0|0,3:2|3:0|3:2|3:0,2:0:0:0:
138,384,72621,2,0,P|116:354|105:319,3,73.5,2|0|0|0,3:2|3:0|3:2|3:0,2:0:0:0:
19,304,72996,2,0,P|34:270|58:243,3,73.5,2|0|0|0,3:2|3:0|3:2|3:0,2:0:0:0:
28,160,73371,6,0,P|64:155|100:163,1,73.5,2|0,3:2|2:0,2:0:0:0:
193,317,73558,1,2,3:2:0:0:
230,323,73652,1,0,3:0:0:0:
266,320,73746,6,0,L|259:246,3,73.5,2|0|0|0,3:2|3:0|3:2|3:0,2:0:0:0:
177,211,74121,2,0,L|172:137,3,73.5,2|0|0|0,3:2|3:0|3:2|3:0,2:0:0:0:
88,102,74496,2,0,L|83:28,3,73.5,2|0|0|0,3:2|3:0|3:2|3:0,2:0:0:0:
177,211,74871,6,0,L|172:137,1,73.5,2|0,3:2|2:0,2:0:0:0:
254,19,75058,1,2,3:2:0:0:
284,16,75152,1,0,3:0:0:0:
309,25,75246,6,0,P|340:42|366:68,3,73.5,2|0|0|0,3:2|3:0|3:2|3:0,2:0:0:0:
431,186,75621,2,0,P|429:149|438:113,3,73.5,2|0|0|0,3:2|3:0|3:2|3:0,2:0:0:0:
510,0,75996,2,0,P|479:18|443:28,3,73.5,2|0|0|0,3:2|3:0|3:2|3:0,2:0:0:0:
309,25,76371,6,0,P|340:42|366:68,1,73.5,2|0,3:2|2:0,2:0:0:0:
431,186,76558,1,2,3:2:0:0:
440,223,76652,1,0,3:0:0:0:
442,259,76746,6,0,L|435:334,3,73.5,2|0|0|0,3:2|3:0|3:2|3:0,2:0:0:0:
333,384,77121,2,0,L|340:310,3,73.5,2|0|0|0,3:2|3:0|3:2|3:0,2:0:0:0:
442,259,77496,2,0,L|435:334,3,73.5,2|0|0|0,3:2|3:0|3:2|3:0,2:0:0:0:
333,384,77871,6,0,L|340:310,1,73.5,2|0,3:2|2:0,2:0:0:0:
224,215,78058,2,0,L|231:288,1,73.5,2|0,3:2|2:0,2:0:0:0:
51,375,78246,6,0,L|14:369,2,36.75,10|8|8,2:0|2:0|2:0,2:0:0:0:
125,384,78433,1,2,3:2:0:0:
135,368,78527,1,0,3:2:0:0:
145,353,78621,5,10,3:2:0:0:
140,314,78714,1,0,3:2:0:0:
137,275,78808,1,2,3:2:0:0:
132,236,78902,1,0,3:2:0:0:
100,205,78996,5,10,3:2:0:0:
105,166,79089,1,0,3:2:0:0:
108,127,79183,1,0,3:2:0:0:
113,88,79277,1,0,3:2:0:0:
117,44,79371,6,0,L|31:52,1,73.5,10|0,3:2|2:0,2:0:0:0:
10,143,79558,2,0,L|83:136,1,73.5,10|0,3:2|2:0,2:0:0:0:
211,36,79746,6,0,L|214:-7,2,36.75,10|8|8,2:0|2:0|2:0,2:0:0:0:
265,95,79933,1,2,3:2:0:0:
282,74,80027,1,0,3:2:0:0:
292,52,80121,5,10,3:2:0:0:
320,97,80214,1,0,3:2:0:0:
366,125,80308,1,2,3:2:0:0:
419,129,80402,1,0,3:2:0:0:
469,118,80496,5,10,3:2:0:0:
463,170,80589,1,0,3:2:0:0:
432,216,80683,1,0,3:2:0:0:
385,240,80777,1,0,3:2:0:0:
344,272,80871,6,0,P|315:313|310:379,1,94.4999999999999,10|0,3:2|2:0,2:0:0:0:
512,384,81058,2,0,P|477:354|431:344,1,94.4999999999999,10|0,3:2|2:0,2:0:0:0:
176,345,81246,6,0,P|194:359|217:366,1,47.25,10|0,2:0|2:0,2:0:0:0:
152,348,81339,2,0,P|167:367|187:380,1,47.25,8|0,2:0|2:0,2:0:0:0:
129,345,81433,2,0,P|138:366|154:384,1,47.25,10|0,2:0|2:0,2:0:0:0:
106,335,81527,2,0,P|109:359|120:380,1,47.25,8|0,2:0|2:0,2:0:0:0:
85,322,81621,2,0,P|82:345|87:368,1,47.25,10|0,2:0|2:0,2:0:0:0:
70,301,81714,2,0,P|60:323|60:347,1,47.25,8|0,2:0|2:0,2:0:0:0:
60,280,81808,2,0,P|45:298|38:321,1,47.25,10|0,2:0|2:0,2:0:0:0:
55,256,81902,2,0,P|35:271|22:291,1,47.25,8|0,2:0|2:0,2:0:0:0:
74,182,81996,6,0,P|50:179|27:184,14,47.25,10|0|8|0|8|0|8|0|8|0|8|0|8|0|8,2:0|2:0|2:0|2:0|2:0|2:0|2:0|2:0|2:0|2:0|2:0|2:0|2:0|2:0|2:0,2:0:0:0:
156,251,82746,6,0,B|240:255|201:195|293:200,4,147,6|2|2|2|2,3:0|2:0|2:0|2:0|2:0,2:0:0:0:
156,251,83871,1,8,2:0:0:0:
286,280,84058,1,8,2:0:0:0:
359,375,84246,6,0,L|392:373,1,31.5,2|0,3:2|2:0,2:0:0:0:
491,364,84621,5,2,3:2:0:0:
480,350,84714,1,0,2:0:0:0:
501,347,84808,1,0,2:0:0:0:
488,331,84902,1,0,2:0:0:0:
467,187,84996,5,2,3:2:0:0:
412,180,85089,1,0,2:0:0:0:
388,235,85183,1,0,2:0:0:0:
431,274,85277,1,0,2:0:0:0:
481,245,85371,6,0,P|490:216|477:187,3,63,2|0|0|0,3:2|2:0|2:0|2:0,2:0:0:0:
335,38,85746,5,2,3:2:0:0:
356,91,85839,1,0,2:0:0:0:
415,86,85933,1,0,2:0:0:0:
428,29,86027,1,0,2:0:0:0:
377,0,86121,6,0,P|346:6|327:45,3,63,2|0|0|0,3:2|2:0|2:0|2:0,2:0:0:0:
272,231,86496,5,2,3:2:0:0:
309,184,86589,1,0,2:0:0:0:
274,135,86683,1,0,2:0:0:0:
220,154,86777,1,0,2:0:0:0:
220,212,86871,6,0,P|275:266|383:256,1,189,2|0,3:2|2:0,2:0:0:0:
505,286,87246,6,0,B|490:238|525:198|525:198|380:200|461:313|278:297,1,346.5,2|0,3:2|2:0,2:0:0:0:
186,299,87621,5,2,3:2:0:0:
191,357,87714,1,0,2:0:0:0:
134,376,87808,1,0,2:0:0:0:
99,330,87902,1,0,2:0:0:0:
130,286,87996,5,2,3:2:0:0:
103,334,88089,1,0,2:0:0:0:
43,321,88183,1,0,2:0:0:0:
36,265,88277,1,0,2:0:0:0:
92,247,88371,5,2,3:2:0:0:
40,269,88464,1,0,2:0:0:0:
0,224,88558,1,0,2:0:0:0:
28,175,88652,1,0,2:0:0:0:
84,183,88746,6,0,B|106:132|106:132|210:122|210:122|219:130|219:130|340:119|340:119|366:70,1,346.5,2|0,3:2|2:0,2:0:0:0:
398,2,89121,2,0,B|526:-6|526:-6|467:90|467:90|454:92|454:92|395:212,1,346.5,2|0,3:2|2:0,2:0:0:0:
381,282,89496,6,0,B|488:272|488:272|513:227,1,157.5,2|0,3:2|2:0,2:0:0:0:
495,218,89871,2,0,B|479:257|479:257|392:265|392:265|378:260|378:260|365:266|365:266|284:273|284:273|234:222,1,283.5,2|0,3:2|2:0,2:0:0:0:
146,105,90246,6,0,L|141:52,6,47.25,2|0|0|0|0|0|0,3:2|2:0|2:0|2:0|2:0|2:0|2:0,2:0:0:0:
63,199,90621,5,2,3:2:0:0:
74,212,90714,1,0,2:0:0:0:
53,216,90808,1,0,2:0:0:0:
67,231,90902,1,0,2:0:0:0:
80,325,90996,5,2,3:2:0:0:
122,323,91089,1,0,2:0:0:0:
167,318,91183,1,0,2:0:0:0:
213,315,91277,1,0,2:0:0:0:
248,334,91371,5,2,3:2:0:0:
202,336,91464,1,0,2:0:0:0:
156,339,91558,1,0,2:0:0:0:
112,344,91652,1,0,2:0:0:0:
84,329,91746,5,2,3:2:0:0:
127,328,91839,1,0,2:0:0:0:
172,323,91933,1,0,2:0:0:0:
218,320,92027,1,0,2:0:0:0:
253,339,92121,5,2,3:2:0:0:
207,341,92214,1,0,2:0:0:0:
161,344,92308,1,0,2:0:0:0:
117,349,92402,1,0,2:0:0:0:
89,334,92496,5,2,3:2:0:0:
131,333,92589,1,0,2:0:0:0:
177,328,92683,1,0,2:0:0:0:
223,325,92777,1,0,2:0:0:0:
257,343,92871,6,0,B|280:372|322:370|322:370|388:364|388:364|390:351|390:351|473:343,1,236.25,2|0,3:2|2:0,2:0:0:0:
512,237,93246,6,0,B|463:242|463:242|456:233|456:233|404:238|404:238|386:100|516:156|493:24,1,346.500010574341,2|0,3:2|2:0,2:0:0:0:
414,51,93621,5,2,3:2:0:0:
371,46,93714,1,0,2:0:0:0:
326,46,93808,1,0,2:0:0:0:
282,44,93902,1,0,2:0:0:0:
250,20,93996,5,2,3:2:0:0:
295,24,94089,1,0,2:0:0:0:
340,26,94183,1,0,2:0:0:0:
384,26,94277,1,0,2:0:0:0:
418,55,94371,5,2,3:2:0:0:
376,51,94464,1,0,2:0:0:0:
331,51,94558,1,0,2:0:0:0:
286,49,94652,1,0,2:0:0:0:
254,24,94746,5,2,3:2:0:0:
11,160,94933,1,2,2:0:0:0:
261,147,95121,1,10,2:0:0:0:
4,37,95308,1,2,2:0:0:0:
145,216,95496,6,0,L|148:265,2,26.25,2|0|0,2:0|2:0|3:0,3:0:0:0:
143,189,95683,1,2,3:0:0:0:
132,16,95871,1,2,3:0:0:0:
18,273,96058,1,10,2:0:0:0:
159,329,96246,6,0,P|176:320|192:319,1,31.5,0|0,3:2|2:0,2:0:0:0:
339,288,96621,6,0,P|291:272|269:248,1,63,2|0,2:0|2:0,2:0:0:0:
351,276,96808,2,0,P|299:257|265:218,1,105,2|0,2:0|2:0,2:0:0:0:
368,157,96996,5,2,3:2:0:0:
341,110,97089,1,0,2:0:0:0:
382,66,97183,1,0,2:0:0:0:
435,91,97277,1,0,2:0:0:0:
428,148,97371,6,0,P|404:167|373:166,3,63,2|0|0|0,3:2|2:0|2:0|2:0,2:0:0:0:
192,7,97746,5,2,3:2:0:0:
219,54,97839,1,0,2:0:0:0:
178,98,97933,1,0,2:0:0:0:
125,73,98027,1,0,2:0:0:0:
132,16,98121,6,0,P|154:-3|185:-3,3,63,2|0|0|0,3:2|2:0|2:0|2:0,2:0:0:0:
368,157,98496,5,2,3:2:0:0:
341,110,98589,1,0,2:0:0:0:
382,66,98683,1,0,2:0:0:0:
435,91,98777,1,0,2:0:0:0:
428,148,98871,6,0,B|423:190|383:216|383:216|434:201|507:227|522:296,1,236.25,2|0,3:2|2:0,2:0:0:0:
434,343,99246,6,0,B|416:359|390:365|390:365|471:398|566:298|473:192|374:243,1,346.5,2|0,3:2|2:0,2:0:0:0:
246,246,99621,5,2,3:2:0:0:
295,276,99714,1,0,2:0:0:0:
277,333,99808,1,0,2:0:0:0:
219,334,99902,1,0,2:0:0:0:
200,289,99996,5,2,3:2:0:0:
223,338,100089,1,0,2:0:0:0:
178,380,100183,1,0,2:0:0:0:
128,352,100277,1,0,2:0:0:0:
145,301,100371,5,2,3:2:0:0:
132,356,100464,1,0,2:0:0:0:
72,362,100558,1,0,2:0:0:0:
48,311,100652,1,0,2:0:0:0:
95,274,100746,6,0,B|146:247|146:247|141:184|141:184|152:177|152:177|147:91,1,189,2|0,3:2|2:0,2:0:0:0:
149,98,101027,1,0,3:0:0:0:
140,7,101121,6,0,B|259:-3|193:106|316:95,1,210,2|0,3:2|2:0,2:0:0:0:
339,93,101402,1,0,3:0:0:0:
427,65,101496,6,0,P|393:17|323:1,1,115.5,2|0,3:2|2:0,2:0:0:0:
319,184,101683,2,0,P|363:182|402:161,1,89.25,2|0,2:0|2:0,2:0:0:0:
456,242,101871,6,0,B|492:217|499:179|499:179|489:368,1,267.75,2|0,2:0|2:0,2:0:0:0:
480,370,102246,1,0,2:0:0:0:
473,371,102339,1,0,2:0:0:0:
466,372,102433,1,0,2:0:0:0:
459,374,102527,1,0,2:0:0:0:
353,365,102621,5,2,3:2:0:0:
341,378,102714,1,0,2:0:0:0:
334,358,102808,1,0,2:0:0:0:
321,373,102902,1,0,2:0:0:0:
184,372,102996,5,8,3:1:0:0:
182,330,103089,1,0,2:0:0:0:
177,285,103183,1,0,2:0:0:0:
174,239,103277,1,0,2:0:0:0:
215,177,103371,5,8,3:1:0:0:
217,222,103464,1,0,2:0:0:0:
220,268,103558,1,0,2:0:0:0:
225,312,103652,1,0,2:0:0:0:
189,367,103746,5,8,3:1:0:0:
187,325,103839,1,0,2:0:0:0:
182,280,103933,1,0,2:0:0:0:
179,234,104027,1,0,2:0:0:0:
220,172,104121,5,8,3:1:0:0:
222,217,104214,1,0,2:0:0:0:
225,263,104308,1,0,2:0:0:0:
230,307,104402,1,0,2:0:0:0:
194,362,104496,5,8,3:1:0:0:
192,320,104589,1,0,2:0:0:0:
187,275,104683,1,0,2:0:0:0:
184,229,104777,1,0,2:0:0:0:
225,167,104871,6,0,B|285:158|318:107|318:107|314:227|412:284,1,315,8|0,3:1|2:0,2:0:0:0:
445,206,105246,6,0,P|401:152|402:90,1,105,0|0,3:0|2:0,2:0:0:0:
512,113,105433,1,2,2:0:0:0:
512,113,105527,2,0,P|444:123|391:91,1,105,0|0,3:0|2:0,2:0:0:0:
362,32,105714,1,2,2:0:0:0:
362,32,105808,2,0,P|312:17|262:30,1,105,0|0,3:0|2:0,2:0:0:0:
128,149,105996,6,0,L|113:19,1,105,0|0,3:0|2:0,2:0:0:0:
0,0,106183,1,2,2:0:0:0:
3,24,106277,2,0,L|18:154,1,105,0|0,3:0|2:0,2:0:0:0:
167,277,106464,1,2,2:0:0:0:
164,254,106558,2,0,L|150:123,1,105,0|0,3:0|2:0,2:0:0:0:
341,171,106746,6,0,B|312:125|312:125|235:104,1,105,0|0,3:0|2:0,2:0:0:0:
454,105,106933,5,2,2:0:0:0:
435,119,107027,2,0,B|429:172|429:172|476:235,1,105,0|0,3:0|2:0,2:0:0:0:
261,5,107214,5,2,2:0:0:0:
294,39,107308,2,0,B|347:29|347:29|395:-30,1,105,0|0,3:0|2:0,2:0:0:0:
288,249,107496,5,2,2:0:0:0:
329,188,107589,2,0,B|300:142|300:142|223:121,1,105,0|0,3:0|2:0,2:0:0:0:
512,51,107777,5,2,2:0:0:0:
454,105,107871,2,0,B|448:159|448:159|483:201|483:201|461:246|461:246|492:312,1,220.5,0|0,3:0|2:0,2:0:0:0:
389,325,108246,6,0,B|404:360|404:360|385:378|385:378|370:348|370:348|350:369|350:369|334:344|334:344|314:362|314:362|302:338|302:338|271:333|271:333|241:348|241:348|175:336,1,315,2|0,2:0|2:0,2:0:0:0:
119,327,108621,5,8,2:1:0:0:
119,327,108714,1,0,2:0:0:0:
283,253,108902,1,0,2:0:0:0:
283,253,108996,1,0,3:0:0:0:
234,384,109183,1,0,2:0:0:0:
159,138,109371,1,8,2:1:0:0:
384,188,109746,5,0,3:0:0:0:
384,188,109933,1,0,2:0:0:0:
283,253,110121,1,8,2:1:0:0:
283,253,110214,1,0,2:0:0:0:
312,91,110402,1,0,2:0:0:0:
312,91,110496,1,0,3:0:0:0:
384,188,110683,1,0,2:0:0:0:
97,164,110871,1,8,2:1:0:0:
73,376,111246,5,0,3:0:0:0:
42,296,111433,1,0,2:0:0:0:
246,265,111621,1,8,2:1:0:0:
246,265,111714,1,0,2:0:0:0:
97,168,111902,1,0,2:0:0:0:
97,168,111996,1,0,3:0:0:0:
121,307,112183,1,0,2:0:0:0:
227,53,112371,1,8,2:1:0:0:
316,305,112746,5,0,3:0:0:0:
366,230,112933,1,0,2:0:0:0:
168,149,113121,1,8,2:1:0:0:
168,149,113214,1,0,2:0:0:0:
147,300,113402,1,0,2:0:0:0:
147,300,113496,1,0,3:0:0:0:
284,226,113683,1,0,2:0:0:0:
84,210,113871,1,8,2:1:0:0:
44,205,113964,1,0,2:0:0:0:
5,200,114058,1,0,2:0:0:0:
257,136,114246,5,0,3:0:0:0:
257,136,114433,1,0,2:0:0:0:
89,119,114621,1,8,2:1:0:0:
89,119,114714,1,0,2:0:0:0:
194,0,114902,1,0,2:0:0:0:
194,0,114996,1,0,3:0:0:0:
257,136,115183,1,0,2:0:0:0:
7,45,115371,1,8,2:1:0:0:
75,249,115746,5,0,3:0:0:0:
75,249,115933,1,0,2:0:0:0:
165,110,116121,1,8,2:1:0:0:
165,110,116214,1,0,2:0:0:0:
238,267,116402,1,0,2:0:0:0:
238,267,116496,1,0,3:0:0:0:
75,249,116683,1,0,2:0:0:0:
364,179,116871,1,8,2:1:0:0:
151,280,117246,5,0,3:0:0:0:
197,348,117433,1,0,2:0:0:0:
365,180,117621,1,8,2:1:0:0:
365,180,117714,1,0,2:0:0:0:
172,205,117902,1,0,2:0:0:0:
172,205,117996,1,0,3:0:0:0:
291,327,118183,1,0,2:0:0:0:
253,68,118371,1,8,2:1:0:0:
105,293,118746,5,0,3:0:0:0:
90,217,118933,1,0,2:0:0:0:
269,193,119121,5,8,2:1:0:0:
299,189,119214,1,0,2:0:0:0:
334,185,119308,1,0,2:0:0:0:
363,182,119402,1,0,2:0:0:0:
441,172,119496,6,0,B|471:203|475:274|375:259|357:237|372:59|452:221|500:99|447:8,1,315,0|0,3:0|2:0,2:0:0:0:
351,35,119871,6,0,P|363:56|385:72,6,52.5,2|0|0|0|0|0|0,2:0|2:0|2:0|2:0|2:0|2:0|2:0,2:0:0:0:
369,296,120246,6,0,P|357:324|366:381,1,84,0|0,3:0|2:0,2:0:0:0:
480,376,120433,2,0,P|492:348|483:291,1,84,0|0,2:0|2:0,2:0:0:0:
320,192,120621,5,8,2:1:0:0:
320,192,120714,2,0,L|419:177,1,84,0|0,2:0|2:0,2:0:0:0:
503,162,120902,1,0,2:0:0:0:
503,162,120996,1,0,3:0:0:0:
417,70,121183,1,0,2:0:0:0:
255,261,121371,6,0,P|230:235|244:145,1,84,8|0,2:1|2:0,2:0:0:0:
161,83,121558,2,0,P|154:123|127:154,1,84,0|0,2:0|2:0,2:0:0:0:
5,203,121746,5,0,3:0:0:0:
41,113,121933,1,0,2:0:0:0:
94,334,122121,1,8,2:1:0:0:
94,334,122214,2,0,L|197:324,1,84,0|0,2:0|2:0,2:0:0:0:
334,315,122402,1,0,2:0:0:0:
334,315,122496,5,0,3:0:0:0:
279,191,122683,1,0,2:0:0:0:
256,384,122871,5,8,2:1:0:0:
271,183,123058,1,0,2:0:0:0:
334,315,123246,6,0,P|376:327|418:316,1,84,0|0,3:0|2:0,2:0:0:0:
512,187,123433,2,0,P|485:218|476:259,1,84,0|0,2:0|2:0,2:0:0:0:
499,345,123621,5,8,2:1:0:0:
499,345,123714,1,0,2:0:0:0:
378,238,123902,1,0,2:0:0:0:
378,238,123996,1,0,3:0:0:0:
487,111,124183,1,0,2:0:0:0:
378,238,124371,6,0,P|328:236|278:184,1,84,8|0,2:1|2:0,2:0:0:0:
202,249,124558,2,0,P|197:205|265:149,1,84,0|0,2:0|2:0,2:0:0:0:
263,9,124746,5,0,3:0:0:0:
226,165,124933,1,0,2:0:0:0:
122,95,125121,1,8,2:1:0:0:
122,95,125214,2,0,L|238:75,1,84,0|0,2:0|2:0,2:0:0:0:
332,68,125402,1,0,2:0:0:0:
332,68,125496,5,0,3:0:0:0:
267,253,125683,1,0,2:0:0:0:
416,186,125871,5,8,2:1:0:0:
205,80,126058,1,0,2:0:0:0:
274,337,126246,6,0,P|314:325|343:295,1,84,0|0,3:0|2:0,2:0:0:0:
199,197,126433,2,0,P|178:236|182:278,1,84,0|0,2:0|2:0,2:0:0:0:
357,288,126621,1,8,2:1:0:0:
364,260,126714,1,0,2:0:0:0:
250,132,126902,1,0,2:0:0:0:
225,118,126996,2,0,P|179:117|134:147,1,84,0|0,3:0|2:0,2:0:0:0:
130,283,127183,1,0,2:0:0:0:
3,184,127371,6,0,P|43:190|74:217,1,84,8|0,2:1|2:0,2:0:0:0:
45,384,127558,2,0,P|36:343|52:304,1,84,0|0,2:0|2:0,2:0:0:0:
187,214,127746,5,0,3:0:0:0:
51,305,127933,1,0,2:0:0:0:
260,258,128121,1,8,2:1:0:0:
260,258,128214,2,0,P|272:211|244:155,1,84,0|0,2:0|2:0,2:0:0:0:
142,140,128402,1,0,2:0:0:0:
142,140,128496,5,0,3:0:0:0:
218,32,128683,1,0,2:0:0:0:
187,214,128871,5,8,2:1:0:0:
225,24,129058,1,0,2:0:0:0:
313,193,129246,6,0,P|374:189|416:137,1,84,0|0,3:0|2:0,2:0:0:0:
474,82,129433,2,0,P|460:130|484:182,1,84,0|0,2:0|2:0,2:0:0:0:
502,270,129621,1,8,2:1:0:0:
502,270,129714,2,0,L|409:261,1,84,0|0,2:0|2:0,2:0:0:0:
257,258,129902,1,0,2:0:0:0:
240,240,129996,2,0,B|225:203|225:203|243:142,1,84,0|0,3:0|2:0,2:0:0:0:
336,37,130183,2,0,B|352:72|352:72|340:120,1,84,0|0,2:0|2:0,2:0:0:0:
327,314,130371,6,0,P|292:337|251:340,1,84,8|0,2:1|2:0,2:0:0:0:
178,289,130558,2,0,P|143:265|102:262,1,84,0|0,2:0|2:0,2:0:0:0:
12,334,130746,6,0,B|44:244|250:211|213:391|160:439|22:400|43:263|56:171|138:127,1,504,0|0,3:0|2:0,2:0:0:0:
317,136,131496,6,0,B|346:137|346:137|414:138|408:222|346:217|346:217|288:212|288:212|259:194|259:194|228:203|228:203|150:195,1,346.5,2|0,3:2|2:0,2:0:0:0:
108,150,131871,6,0,B|152:120|152:120|219:127,1,115.5,2|0,2:0|2:0,2:0:0:0:
39,201,132058,2,0,B|25:140|25:140|49:92,1,115.5,2|0,2:0|2:0,2:0:0:0:
122,48,132246,5,4,2:3:0:0:
177,202,132621,1,8,2:1:0:0:
305,177,132808,1,8,2:1:0:0:
228,104,132996,1,8,2:1:0:0:
228,104,133089,1,8,2:1:0:0:
228,104,133183,1,8,2:1:0:0:
110,260,133371,5,8,2:1:0:0:
159,347,133558,2,0,L|155:385,3,26.25,8|8|8|8,2:1|2:1|2:1|2:1,2:0:0:0:
160,329,133746,6,0,B|197:310|197:310|271:327,1,105,8|0,2:1|2:0,2:0:0:0:
367,363,134121,1,8,2:1:0:0:
360,183,134308,1,8,2:1:0:0:
487,271,134496,1,8,2:1:0:0:
487,271,134589,1,8,2:1:0:0:
487,271,134683,1,8,2:1:0:0:
363,271,134871,5,8,2:1:0:0:
493,363,135058,1,8,2:1:0:0:
493,363,135152,1,8,2:1:0:0:
493,363,135246,1,8,2:1:0:0:
493,363,135621,5,8,2:1:0:0:
363,271,135808,1,8,2:1:0:0:
482,190,135996,1,8,2:1:0:0:
482,190,136089,1,8,2:1:0:0:
482,190,136183,1,8,2:1:0:0:
286,218,136371,5,8,2:1:0:0:
385,163,136558,2,0,L|383:124,3,26.25,8|8|8|8,2:1|2:1|2:1|2:1,2:0:0:0:
381,119,136746,5,8,2:1:0:0:
286,49,136933,1,8,2:1:0:0:
259,45,137027,1,8,2:1:0:0:
232,41,137121,1,8,2:1:0:0:
31,106,137308,1,8,2:1:0:0:
57,100,137402,1,8,2:1:0:0:
84,95,137496,1,8,2:1:0:0:
110,90,137589,1,8,2:1:0:0:
136,86,137683,2,0,L|180:76,3,26.25,8|8|8|8,2:1|2:1|2:1|2:1,2:0:0:0:
232,41,137871,6,0,P|241:86|217:136,1,73.5,8|8,2:1|2:1,2:0:0:0:
179,181,138058,2,0,P|165:219|194:276,1,73.5,8|8,2:1|2:1,2:0:0:0:
229,377,138246,5,8,3:1:0:0:
255,294,138433,1,0,2:0:0:0:
50,291,138621,1,8,3:1:0:0:
74,370,138808,1,8,2:1:0:0:
179,181,138996,1,8,3:1:0:0:
215,178,139089,1,8,2:1:0:0:
251,176,139183,1,8,2:1:0:0:
375,288,139371,5,8,3:1:0:0:
452,244,139558,2,0,L|456:202,2,26.25,8|8|8,2:1|2:1|2:1,2:0:0:0:
414,358,139746,6,0,B|393:381|367:376|367:376|301:352,1,105,8|0,3:1|2:0,2:0:0:0:
261,114,140121,5,8,3:1:0:0:
407,4,140308,1,8,2:1:0:0:
512,148,140496,1,8,3:1:0:0:
505,187,140589,1,8,2:1:0:0:
498,223,140683,1,8,2:1:0:0:
414,358,140871,1,8,3:1:0:0:
250,194,141058,1,8,2:1:0:0:
255,150,141152,1,8,2:1:0:0:
261,114,141246,5,8,3:1:0:0:
303,271,141433,1,0,3:0:0:0:
262,105,141621,5,8,3:1:0:0:
200,319,141808,1,0,3:0:0:0:
263,96,141996,5,8,3:1:0:0:
319,384,142183,1,0,3:0:0:0:
265,87,142371,5,0,3:0:0:0:
240,84,142464,1,0,3:0:0:0:
201,82,142558,1,0,3:0:0:0:
153,78,142652,1,0,3:0:0:0:
77,73,142746,6,0,L|20:67,3,52.5,2|2|2|2,3:2|2:0|2:0|2:0,2:0:0:0:
191,162,143496,5,2,2:0:0:0:
198,170,143589,2,0,P|191:215|123:268,1,105,2|0,2:0|2:0,2:0:0:0:
34,274,143777,2,0,L|42:333,1,42,2|0,2:0|2:0,2:0:0:0:
51,281,143871,6,0,L|58:351,6,42,2|0|0|0|0|0|0,2:0|2:0|2:0|2:0|2:0|2:0|2:0,2:0:0:0:
256,322,144246,5,2,3:2:0:0:
271,313,144339,1,0,2:0:0:0:
296,311,144433,1,0,2:0:0:0:
315,318,144527,1,0,2:0:0:0:
329,329,144621,5,2,3:0:0:0:
303,278,144714,1,0,3:0:0:0:
321,219,144808,1,2,3:0:0:0:
387,191,144902,1,0,3:2:0:0:
456,234,144996,5,10,2:0:0:0:
456,254,145089,1,0,2:0:0:0:
470,243,145183,1,0,2:0:0:0:
494,336,145277,6,0,B|379:360|408:258|291:279,1,210,4|0,3:2|2:0,2:0:0:0:
252,209,145558,2,0,P|222:245|225:315,1,105,6|0,3:2|2:0,2:0:0:0:
279,356,145746,1,2,2:0:0:0:
327,173,145933,6,0,P|291:136|236:129,1,105,6|0,3:2|2:0,2:0:0:0:
83,215,146121,2,0,P|129:212|174:163,1,105,6|0,3:2|2:0,2:0:0:0:
211,49,146308,2,0,P|206:23|191:1,1,52.5,2|0,2:0|2:0,2:0:0:0:
92,128,146496,6,0,B|60:101|77:76|77:76|103:88|94:124,1,115.5,10|0,2:0|2:0,2:0:0:0:
163,160,146683,1,8,2:3:0:0:
166,166,146777,1,8,2:3:0:0:
170,172,146871,6,0,P|134:209|83:215,1,105,10|0,2:3|2:3,2:3:0:0:
18,271,147058,2,0,P|-3:227|15:167,1,94.4999999999999,10|0,2:3|2:3,2:3:0:0:
91,57,147246,6,0,B|106:81|106:81|90:132,3,76.9999999999999,2|0|0|0,2:0|2:0|2:0|2:0,2:0:0:0:
46,362,147621,6,0,B|177:394|150:252|304:289,1,275.625,6|0,3:2|2:0,2:0:0:0:
392,322,147996,5,10,2:0:0:0:
402,353,148089,1,0,2:0:0:0:
371,346,148183,1,0,2:0:0:0:
283,372,148277,6,0,B|249:261|360:284|317:142,1,210,6|0,3:2|2:0,2:0:0:0:
194,127,148558,2,0,P|197:174|227:212,1,97.1250000000001,6|0,3:2|2:0,2:0:0:0:
416,195,148746,1,2,2:0:0:0:
197,121,148933,1,2,2:0:0:0:
416,195,149121,6,0,P|436:156|426:103,1,97.1250000000001,4|0,3:2|2:0,2:0:0:0:
283,15,149308,2,0,P|307:56|352:72,1,97.1250000000001,2|0,2:0|2:0,2:0:0:0:
464,14,149496,2,0,B|434:13|417:30|417:30|419:4|441:-14,3,94.4999999999999,10|0|0|0,2:0|2:0|2:0|2:0,2:0:0:0:
416,195,149871,6,0,L|341:187,1,52.5,2|0,2:0|2:0,2:0:0:0:
227,130,150058,2,0,P|265:157|268:249,1,115.5,6|0,3:2|2:0,2:0:0:0:
353,263,150246,2,0,P|334:289|289:311,1,78.75,2|0,2:0|2:0,2:0:0:0:
187,347,150433,1,10,3:0:0:0:
133,340,150527,1,8,3:0:0:0:
83,332,150621,6,0,P|77:308|95:268,4,47.25,10|8|8|8|8,2:3|2:3|2:3|2:3|2:3,3:0:0:0:
294,310,150996,6,0,P|305:266|277:211,1,78.75,10|0,2:0|2:0,2:0:0:0:
266,161,151183,2,0,P|260:132|271:96,1,57.7500017623902,8|0,2:3|2:0,2:0:0:0:
76,142,151371,6,0,P|141:114|267:162,1,210,6|2,3:2|2:0,2:0:0:0:
399,247,151652,2,0,B|347:215|346:159|346:159|344:217|286:240,1,210,6|0,3:2|2:0,2:0:0:0:
311,90,151933,2,0,P|371:85|423:148,1,105,6|0,3:2|2:0,2:0:0:0:
474,189,152121,1,0,2:0:0:0:
474,189,152214,2,0,P|449:233|360:231,1,105,4|0,3:2|2:0,2:0:0:0:
290,238,152402,1,0,2:0:0:0:
257,160,152496,6,0,P|234:140|176:137,6,63,10|0|0|0|0|0|0,2:0|2:0|2:0|2:0|2:0|2:0|2:0,2:0:0:0:
282,375,152871,6,0,B|271:329|222:307|222:307|137:228|39:359|189:415|224:306|224:306|271:213|179:217|207:116,1,551.25,6|0,3:2|2:0,2:0:0:0:
282,96,153621,2,0,B|262:55|216:47|216:47|318:39|312:121|419:103,1,283.5,6|0,3:2|2:0,2:0:0:0:
476,89,153996,6,0,B|481:26,2,39.375,10|0|0,2:0|2:0|2:0,2:0:0:0:
411,309,154371,6,0,P|363:291|338:246,1,105,6|0,3:2|2:0,2:0:0:0:
238,147,154558,2,0,P|261:100|309:80,1,105,6|0,3:2|2:0,2:0:0:0:
447,153,154746,6,0,B|440:187|440:187|397:181|397:181|381:169|381:169|291:163,1,157.5,6|0,3:2|2:0,2:0:0:0:
30,124,155121,2,0,B|6:80|6:80|66:82|66:82|71:86|71:86|143:87|143:87|156:95|156:95|216:97|216:97|225:91|225:91|275:91|275:91|237:115|236:175,1,393.75,6|0,3:2|2:0,2:0:0:0:
237,152,155683,5,8,2:0:0:0:
121,317,155871,5,8,2:0:0:0:
120,298,155964,1,8,2:0:0:0:
169,232,156058,5,8,2:0:0:0:
168,198,156152,1,8,2:0:0:0:
97,151,156246,6,0,B|70:90|-48:72|-53:207|11:255|130:219|94:125|87:93|253:125,1,346.5,6|0,3:2|2:0,2:0:0:0:
243,101,156621,2,0,P|245:127|237:151,2,52.5,2|0|2,2:0|2:0|2:0,2:0:0:0:
168,198,156902,1,0,3:2:0:0:
253,225,156996,5,10,2:0:0:0:
290,225,157089,1,0,2:0:0:0:
331,240,157183,1,0,2:0:0:0:
407,308,157277,6,0,B|386:203|498:226|459:85,1,231,4|0,3:2|2:0,2:0:0:0:
512,40,157558,2,0,P|476:18|393:49,1,102.375,6|0,3:2|2:0,2:0:0:0:
340,62,157746,1,2,2:0:0:0:
199,153,157933,6,0,P|263:148|306:91,1,102.375,6|0,3:2|2:0,2:0:0:0:
434,206,158121,2,0,P|393:184|383:81,1,102.375,6|0,3:2|2:0,2:0:0:0:
343,22,158308,2,0,L|339:63,1,39.3750000000001,2|0,2:0|2:0,2:0:0:0:
282,241,158496,6,0,B|300:229|316:207|316:207|318:234|330:250,1,94.4999999999999,10|0,2:0|2:0,2:0:0:0:
373,325,158683,1,8,2:3:0:0:
380,334,158777,1,8,2:3:0:0:
380,334,158871,6,0,P|411:300|405:232,1,73.5,10|0,2:3|2:0,2:0:0:0:
296,341,159058,2,0,P|251:319|203:330,1,73.5,10|0,2:3|2:0,2:0:0:0:
272,178,159246,6,0,L|283:251,3,63,2|0|0|0,2:0|2:0|2:0|2:0,2:0:0:0:
471,362,159621,6,0,B|543:259|354:217|554:189|469:78,1,283.5,6|0,3:2|2:0,2:0:0:0:
409,32,159996,5,10,2:0:0:0:
401,4,160089,1,0,2:0:0:0:
429,11,160183,1,0,2:0:0:0:
478,92,160277,6,0,P|390:128|284:87,1,183.75,6|0,3:2|2:0,2:0:0:0:
164,16,160558,2,0,P|209:24|245:73,1,91.8750000000001,6|0,3:2|2:0,2:0:0:0:
222,135,160746,1,2,2:0:0:0:
317,27,160933,1,2,2:0:0:0:
142,117,161121,6,0,P|143:163|180:205,1,91.8750000000001,4|0,3:2|2:0,2:0:0:0:
318,222,161308,2,0,P|263:227|232:261,1,91.8750000000001,2|0,2:0|2:0,2:0:0:0:
169,301,161496,6,0,B|186:328|205:334|205:334|182:343|159:378,3,91.8750000000001,10|0|0|0,2:0|2:0|2:0|2:0,2:0:0:0:
302,339,161871,6,0,L|307:300,1,39.3750000000001,2|0,2:0|2:0,2:0:0:0:
387,175,162058,2,0,P|356:146|268:152,1,115.5,6|0,3:2|2:0,2:0:0:0:
230,195,162246,2,0,P|190:217|155:218,1,78.75,2|0,2:0|2:0,2:0:0:0:
27,185,162433,1,10,2:3:0:0:
1,141,162527,1,8,2:3:0:0:
0,91,162621,6,0,P|1:63|34:22,4,47.25,10|8|8|8|8,2:3|2:3|2:3|2:3|2:3,2:0:0:0:
145,26,162996,6,0,P|160:51|163:113,1,78.75,10|0,2:0|2:0,2:0:0:0:
256,144,163183,2,0,P|232:183|234:226,1,57.7500017623902,8|0,2:3|2:0,2:0:0:0:
127,318,163371,6,0,B|263:316|161:190|374:215,1,215.25,6|2,3:2|2:0,2:0:0:0:
446,181,163652,2,0,B|388:178|371:242|371:242|386:179|337:145,1,210,4|0,3:2|2:0,2:0:0:0:
256,144,163933,6,0,P|274:94|316:66,1,105,6|0,3:2|2:0,2:0:0:0:
383,3,164121,1,0,2:0:0:0:
383,3,164214,2,0,P|411:45|408:97,1,105,4|0,3:2|2:0,2:0:0:0:
371,242,164402,1,0,2:0:0:0:
371,316,164496,6,0,P|386:343|431:372,6,52.5,10|0|0|0|0|0|0,2:0|2:0|2:0|2:0|2:0|2:0|2:0,2:0:0:0:
294,63,164871,6,0,P|283:102|311:160,1,78.75,6|0,3:2|2:0,2:0:0:0:
371,167,165058,2,0,P|382:200|336:266,1,78.75,2|0,2:0|2:0,2:0:0:0:
292,338,165246,6,0,L|181:322,2,105,2|2|2,2:0|2:0|2:0,2:0:0:0:
99,291,165621,5,2,2:0:0:0:
97,208,165746,1,2,2:0:0:0:
160,152,165871,1,2,2:0:0:0:
304,194,165996,5,2,2:0:0:0:
223,229,166121,1,2,2:0:0:0:
165,157,166246,1,2,2:0:0:0:
312,53,166371,5,2,2:0:0:0:
247,127,166496,1,2,2:0:0:0:
218,36,166621,1,2,2:0:0:0:
344,125,166746,6,0,B|348:126|352:127|352:127|364:125|364:125|370:124|370:124|377:119|377:119|380:118|380:118|386:113|386:113|391:110|391:110|397:105|397:105|400:102|400:102|404:97|404:97|408:93|408:93|415:87|415:87|421:86|421:86|427:83|427:83|434:79|434:79|442:76|442:76|449:77|449:77|459:76|459:76|468:75|468:75|477:76|477:76|496:86,4,168,2|2|2|2|2,2:0|2:0|2:0|2:0|2:0,2:0:0:0:
375,192,168246,6,0,L|302:186,15,52.5,4|0|0|0|0|0|0|0|0|0|0|0|0|0|0|0,2:3|3:0|3:0|3:0|3:0|3:0|3:0|3:0|3:0|3:0|3:0|3:0|3:0|3:0|3:0|3:0,3:0:0:0:
442,236,169746,2,0,L|514:231,7,52.5,2|0|0|0|0|0|0|0,3:2|3:2|3:2|3:2|3:2|3:2|3:2|3:2,3:2:0:0:
326,284,170496,6,0,L|399:290,3,52.5,2|0|0|0,3:2|3:2|3:2|3:2,3:2:0:0:
413,362,170871,2,0,L|485:357,3,52.5,2|0|0|0,3:2|3:2|3:2|3:2,3:2:0:0:
302,375,171246,6,0,P|256:353|242:336,3,52.5,2|0|0|0,3:2|3:2|3:2|3:2,3:2:0:0:
186,384,171621,2,0,P|179:334|187:314,3,52.5,2|0|0|0,3:2|3:2|3:2|3:2,3:2:0:0:
120,288,171996,2,0,P|158:258|180:255,3,52.5,2|0|0|0,3:2|3:2|3:2|3:2,3:2:0:0:
302,375,172371,6,0,P|256:353|242:336,1,52.5,2|0,3:2|2:0,3:2:0:0:
186,384,172558,2,0,P|179:334|187:314,1,52.5,2|0,3:2|2:0,3:2:0:0:
120,288,172746,6,0,P|119:238|108:217,3,52.5,2|0|0|0,3:2|3:2|3:2|3:2,3:2:0:0:
0,240,173121,2,0,P|40:266|62:266,3,52.5,2|0|0|0,3:2|3:2|3:2|3:2,3:2:0:0:
101,161,173496,2,0,P|58:182|46:202,3,52.5,2|0|0|0,3:2|3:2|3:2|3:2,3:2:0:0:
158,104,173871,6,0,P|157:54|146:33,1,52.5,2|0,3:2|2:0,3:2:0:0:
38,56,174058,2,0,P|78:82|100:82,1,52.5,2|0,3:2|2:0,3:2:0:0:
245,127,174246,6,0,L|237:48,3,63,2|0|0|0,3:2|3:2|3:2|3:2,3:2:0:0:
329,0,174621,2,0,L|321:78,3,63,2|0|0|0,3:2|3:2|3:2|3:2,3:2:0:0:
414,127,174996,2,0,L|406:48,3,63,2|0|0|0,3:2|3:2|3:2|3:2,3:2:0:0:
245,127,175371,6,0,L|237:48,1,63,2|0,3:2|2:0,3:2:0:0:
329,0,175558,2,0,L|321:78,1,63,2|0,3:2|2:0,3:2:0:0:
271,227,175746,6,0,P|292:251|320:264,3,63,2|0|0|0,3:2|3:2|3:2|3:2,3:2:0:0:
321,351,176121,2,0,P|351:343|378:326,3,63,2|0|0|0,3:2|3:2|3:2|3:2,3:2:0:0:
454,369,176496,2,0,P|462:339|461:306,3,63,2|0|0|0,3:2|3:2|3:2|3:2,3:2:0:0:
271,227,176871,6,0,P|292:251|320:264,1,63,2|0,3:2|2:0,3:2:0:0:
321,351,177058,2,0,P|351:343|378:326,1,63,2|0,3:2|2:0,3:2:0:0:
487,226,177246,6,0,P|513:239|536:260,1,63,2|0,3:2|2:0,3:2:0:0:
462,307,177433,2,0,P|462:338|454:369,1,63,2|0,3:2|2:0,3:2:0:0:
321,265,177621,6,0,P|292:251|271:227,1,63,2|0,3:2|2:0,3:2:0:0:
378,327,177808,2,0,P|351:344|320:351,1,63,2|0,3:2|2:0,3:2:0:0:
147,356,177996,5,2,3:2:0:0:
146,332,178089,1,0,3:2:0:0:
144,309,178183,1,0,3:2:0:0:
143,285,178277,1,0,3:2:0:0:
142,263,178371,6,0,L|132:156,1,73.5,2|0,3:2|2:0,3:2:0:0:
0,10,178558,2,0,L|9:116,1,73.5,2|0,3:2|2:0,3:2:0:0:
121,273,178746,6,0,L|111:166,1,73.5,2|0,3:2|2:0,3:2:0:0:
167,44,178933,2,0,L|176:150,1,73.5,2|0,3:2|2:0,3:2:0:0:
100,284,179121,6,0,L|90:177,1,73.5,2|0,3:2|2:0,3:2:0:0:
20,94,179308,2,0,L|29:200,1,73.5,2|0,3:2|2:0,3:2:0:0:
147,356,179496,6,0,B|45:455|-124:339|41:166|204:263|140:414|315:436|430:336|430:336|380:351|326:319,1,735,2|0,3:2|2:0,2:0:0:0:
397,241,180246,6,0,P|346:177|348:147,1,94.4999999999999,2|0,3:2|2:0,3:2:0:0:
474,84,180433,2,0,P|443:159|417:172,1,94.4999999999999,2|0,3:2|2:0,3:2:0:0:
300,96,180621,6,0,P|380:84|404:100,1,94.4999999999999,2|0,3:2|2:0,3:2:0:0:
398,262,180808,2,0,P|337:184|339:149,1,94.4999999999999,2|0,3:2|2:0,3:2:0:0:
472,0,180996,5,2,3:2:0:0:
488,17,181089,1,0,3:2:0:0:
499,38,181183,1,0,3:2:0:0:
504,61,181277,1,0,3:2:0:0:
504,85,181371,6,0,P|496:130|467:166,1,94.4999999999999,2|0,3:2|2:0,3:2:0:0:
292,83,181558,2,0,P|383:69|411:88,1,94.4999999999999,2|0,3:2|2:0,3:2:0:0:
391,288,181746,6,0,L|381:397,1,94.4999999999999,2|0,3:2|2:0,3:2:0:0:
258,337,181933,2,0,L|248:227,1,94.4999999999999,2|0,3:2|2:0,3:2:0:0:
125,288,182121,2,0,L|115:397,1,94.4999999999999,2|0,3:2|2:0,3:2:0:0:
18,233,182308,1,2,3:2:0:0:
10,187,182402,1,0,3:2:0:0:
1,139,182496,5,0,3:2:0:0:
24,141,182589,1,0,3:2:0:0:
47,144,182683,1,0,3:2:0:0:
71,146,182777,1,0,3:2:0:0:
94,149,182871,6,0,L|86:51,1,94.4999999999999,2|0,3:2|2:0,3:2:0:0:
352,10,183058,2,0,L|344:108,1,94.4999999999999,2|0,3:2|2:0,3:2:0:0:
116,144,183246,6,0,L|108:46,1,94.4999999999999,2|0,3:2|2:0,3:2:0:0:
330,5,183433,2,0,L|322:103,1,94.4999999999999,2|0,3:2|2:0,3:2:0:0:
138,139,183621,6,0,L|130:41,1,94.4999999999999,2|0,3:2|2:0,3:2:0:0:
308,0,183808,2,0,L|300:98,1,94.4999999999999,2|0,3:2|2:0,3:2:0:0:
286,192,183996,5,2,3:2:0:0:
307,186,184089,1,0,3:2:0:0:
330,183,184183,1,0,3:2:0:0:
353,179,184277,1,0,3:2:0:0:
378,174,184371,6,0,P|392:227|428:260,1,94.4999999999999,2|0,3:2|2:0,3:2:0:0:
373,333,184558,2,0,P|425:346|473:332,1,94.4999999999999,2|0,3:2|2:0,3:2:0:0:
399,170,184746,6,0,P|413:223|449:256,1,94.4999999999999,2|0,3:2|2:0,3:2:0:0:
375,351,184933,2,0,P|427:364|475:350,1,94.4999999999999,2|0,3:2|2:0,3:2:0:0:
509,87,185121,6,0,P|487:128|484:175,1,94.4999999999999,2|0,3:2|2:0,3:2:0:0:
378,367,185308,2,0,P|423:379|470:371,1,94.4999999999999,2|0,3:2|2:0,3:2:0:0:
292,263,185496,5,2,3:2:0:0:
287,240,185589,1,0,3:2:0:0:
275,218,185683,1,0,3:2:0:0:
260,201,185777,1,0,3:2:0:0:
241,188,185871,6,0,P|181:165|139:168,1,94.4999999999999,2|0,3:2|2:0,3:2:0:0:
0,76,186058,2,0,P|56:47|98:46,1,94.4999999999999,2|0,3:2|2:0,3:2:0:0:
62,205,186246,6,0,L|57:163,2,42,10|8|8,2:0|2:0|2:0,2:0:0:0:
67,283,186433,1,2,3:2:0:0:
51,293,186527,1,0,3:2:0:0:
35,304,186621,5,10,3:2:0:0:
87,309,186714,1,0,3:2:0:0:
140,314,186808,1,2,3:2:0:0:
194,321,186902,1,0,3:2:0:0:
213,367,186996,5,10,3:2:0:0:
267,374,187089,1,0,3:2:0:0:
320,379,187183,1,0,3:2:0:0:
373,384,187277,1,0,3:2:0:0:
399,344,187371,6,0,L|391:258,1,84,10|0,3:2|2:0,2:0:0:0:
506,384,187558,2,0,L|497:298,1,84,10|0,3:2|2:0,2:0:0:0:
468,171,187746,6,0,L|526:175,2,42,10|8|8,2:0|2:0|2:0,2:0:0:0:
388,175,187933,1,2,3:2:0:0:
392,207,188027,1,0,3:2:0:0:
394,240,188121,5,10,3:2:0:0:
322,221,188214,1,0,3:2:0:0:
267,174,188308,1,2,3:2:0:0:
239,108,188402,1,0,3:2:0:0:
250,33,188496,5,10,3:2:0:0:
309,82,188589,1,0,3:2:0:0:
386,89,188683,1,0,3:2:0:0:
451,60,188777,1,0,3:2:0:0:
501,0,188871,6,0,P|465:46|455:121,1,105,10|0,3:2|2:0,2:0:0:0:
496,285,189058,2,0,P|467:247|409:225,1,105,10|0,3:2|2:0,2:0:0:0:
231,238,189246,6,0,B|224:226|224:211|224:211|231:225|241:236,1,45.9375,8|0,2:0|2:0,2:0:0:0:
203,259,189339,2,0,B|199:246|201:232|201:232|205:246|213:259,1,45.9375,8|0,2:0|2:0,2:0:0:0:
174,272,189433,2,0,B|172:259|176:245|176:245|179:260|184:273,1,45.9375,8|0,2:0|2:0,2:0:0:0:
140,275,189527,2,0,B|140:262|147:249|147:249|147:265|150:278,1,45.9375,8|0,2:0|2:0,2:0:0:0:
105,274,189621,2,0,B|107:261|116:251|116:251|112:265|113:280,1,45.9375,8|0,2:0|2:0,2:0:0:0:
74,260,189714,2,0,B|79:248|89:238|89:238|82:252|81:267,1,45.9375,8|0,2:0|2:0,2:0:0:0:
48,243,189808,2,0,B|55:233|67:225|67:225|58:237|54:252,1,45.9375,8|0,2:0|2:0,2:0:0:0:
26,220,189902,2,0,B|33:211|47:205|47:205|36:217|30:230,1,45.9375,8|0,2:0|2:0,2:0:0:0:
0,138,189996,6,0,B|11:170|11:170|-12:215,7,63,8|0|8|0|8|0|8|0,2:0|2:0|2:0|2:0|2:0|2:0|2:0|2:0,2:0:0:0:
140,149,190371,6,0,B|126:109|126:109|154:53,7,78.7500000000001,8|0|8|0|8|0|8|0,2:0|2:0|2:0|2:0|2:0|2:0|2:0|2:0,2:0:0:0:
64,39,190746,6,0,B|137:34|137:34|143:43|143:43|218:39,4,157.5,6|2|2|2|2,2:3|2:0|2:0|2:0|2:0,2:0:0:0:
64,39,191871,1,10,2:0:0:0:
416,66,192058,1,10,2:0:0:0:
122,238,192246,6,0,P|76:211|54:163,1,94.4999999999999,6|0,3:2|2:0,2:0:0:0:
193,328,192433,2,0,P|146:354|94:348,1,94.4999999999999,2|0,2:0|2:0,2:0:0:0:
85,25,192621,6,0,P|130:0|182:3,1,94.4999999999999,10|0,2:0|2:0,2:0:0:0:
160,117,192808,2,0,P|204:145|226:192,1,94.4999999999999,2|0,2:0|2:0,2:0:0:0:
122,238,192996,5,2,3:2:0:0:
92,225,193089,1,0,2:0:0:0:
56,175,193183,1,0,2:0:0:0:
42,101,193277,1,0,2:0:0:0:
85,25,193371,6,0,L|156:33,1,52.5,10|0,2:0|2:0,2:0:0:0:
104,7,193558,2,0,L|175:15,1,52.5,2|0,2:0|2:0,2:0:0:0:
395,21,193746,6,0,L|404:124,1,94.4999999999999,2|0,3:2|2:0,2:0:0:0:
512,186,193933,2,0,L|502:82,1,94.4999999999999,2|0,2:0|2:0,2:0:0:0:
160,117,194121,6,0,L|171:227,1,94.4999999999999,10|0,2:0|2:0,2:0:0:0:
277,282,194308,2,0,L|263:171,1,94.4999999999999,2|0,2:0|2:0,2:0:0:0:
143,108,194496,5,2,3:2:0:0:
147,141,194589,1,0,2:0:0:0:
152,204,194683,1,0,2:0:0:0:
160,278,194777,1,0,2:0:0:0:
150,360,194871,6,0,P|107:341|93:316,1,52.5,10|0,2:0|2:0,2:0:0:0:
220,334,195058,2,0,P|182:361|153:361,1,52.5,2|0,2:0|2:0,2:0:0:0:
277,282,195246,6,0,B|333:278|310:310|376:306,1,94.4999999999999,2|0,3:2|2:0,2:0:0:0:
500,382,195433,2,0,P|455:337|449:288,1,94.4999999999999,2|0,2:0|2:0,2:0:0:0:
281,266,195621,6,0,B|337:262|314:294|380:290,1,94.4999999999999,10|0,2:0|2:0,2:0:0:0:
512,377,195808,2,0,P|467:332|461:283,1,94.4999999999999,2|0,2:0|2:0,2:0:0:0:
377,192,195996,5,2,3:2:0:0:
373,159,196089,1,0,2:0:0:0:
398,103,196183,1,0,2:0:0:0:
464,67,196277,1,0,2:0:0:0:
512,149,196371,5,10,2:0:0:0:
481,161,196464,1,0,2:0:0:0:
420,151,196558,1,2,2:0:0:0:
371,94,196652,1,0,2:0:0:0:
355,17,196746,6,0,L|233:27,1,94.4999999999999,2|0,3:2|2:0,2:0:0:0:
81,43,196933,2,0,B|134:37|134:37|178:66,1,94.4999999999999,2|0,2:0|2:0,2:0:0:0:
359,0,197121,6,0,L|237:10,1,94.4999999999999,10|0,2:0|2:0,2:0:0:0:
74,26,197308,2,0,B|127:20|127:20|171:49,1,94.4999999999999,2|0,2:0|2:0,2:0:0:0:
260,112,197496,5,2,3:2:0:0:
264,145,197589,1,0,2:0:0:0:
269,208,197683,1,0,2:0:0:0:
277,282,197777,1,0,2:0:0:0:
282,360,197871,6,0,L|211:352,1,52.5,10|0,2:0|2:0,2:0:0:0:
287,382,198058,2,0,L|216:374,1,52.5,2|0,2:0|2:0,2:0:0:0:
168,252,198246,6,0,P|120:228|68:235,1,94.4999999999999,2|0,3:2|2:0,2:0:0:0:
54,330,198433,2,0,P|101:353|153:346,1,94.4999999999999,2|0,2:0|2:0,2:0:0:0:
114,39,198621,6,0,P|66:15|14:22,1,94.4999999999999,10|0,2:0|2:0,2:0:0:0:
0,117,198808,2,0,P|47:140|99:133,1,94.4999999999999,2|0,2:0|2:0,2:0:0:0:
235,44,198996,5,2,3:2:0:0:
256,19,199089,1,0,2:0:0:0:
315,0,199183,1,0,2:0:0:0:
390,10,199277,1,0,2:0:0:0:
449,74,199371,6,0,P|442:105|411:138,1,52.5,10|0,2:0|2:0,2:0:0:0:
464,89,199558,2,0,P|453:123|429:153,1,52.5,2|0,2:0|2:0,2:0:0:0:
423,325,199746,6,0,B|469:340|469:340|511:323,1,94.4999999999999,2|0,3:2|2:0,2:0:0:0:
353,225,199933,2,0,B|394:207|394:207|441:223,1,94.4999999999999,2|0,2:0|2:0,2:0:0:0:
191,358,200121,6,0,B|237:373|237:373|279:356,1,94.4999999999999,10|0,2:0|2:0,2:0:0:0:
121,258,200308,2,0,B|162:240|162:240|209:256,1,94.4999999999999,2|0,2:0|2:0,2:0:0:0:
33,371,200496,5,2,3:2:0:0:
29,338,200589,1,0,2:0:0:0:
24,275,200683,1,0,2:0:0:0:
16,201,200777,1,0,2:0:0:0:
6,116,200871,6,0,L|77:124,1,52.5,10|0,2:0|2:0,2:0:0:0:
112,51,201058,2,0,L|41:43,1,52.5,2|0,2:0|2:0,2:0:0:0:
229,248,201246,6,0,B|220:186|258:210|249:134,1,115.5,2|0,3:2|2:0,2:0:0:0:
195,40,201433,2,0,B|204:103|166:79|175:155,1,115.5,2|0,2:0|2:0,2:0:0:0:
437,208,201621,6,0,B|428:146|466:170|457:94,1,115.5,10|0,2:0|2:0,2:0:0:0:
403,0,201808,2,0,B|412:63|374:39|383:115,1,115.5,2|0,2:0|2:0,2:0:0:0:
512,287,201996,5,2,3:2:0:0:
483,304,202089,1,0,2:0:0:0:
422,311,202183,1,0,2:0:0:0:
359,272,202277,1,0,2:0:0:0:
333,197,202371,6,0,P|298:178|268:176,6,57.7499999999999,8|0|0|0|0|0|0,2:0|2:0|2:0|2:0|2:0|2:0|2:0,2:0:0:0:
274,270,202746,5,2,2:0:0:0:
222,278,202839,1,0,2:0:0:0:
180,305,202933,1,0,3:0:0:0:
150,343,203027,6,0,P|127:366|55:379,1,94.4999999999999,2|0,2:0|2:0,2:0:0:0:
1,343,203214,1,2,2:0:0:0:
0,320,203308,6,0,P|-2:287|39:227,1,94.4999999999999,0|0,3:0|2:0,2:0:0:0:
46,220,203496,2,0,P|73:181|75:135,1,94.4999999999999,0|0,3:0|2:0,2:0:0:0:
54,58,203683,1,2,2:0:0:0:
73,54,203777,5,0,3:0:0:0:
144,78,203871,1,2,2:0:0:0:
212,63,203964,1,2,2:0:0:0:
256,17,204058,1,0,3:0:0:0:
297,0,204152,1,0,2:0:0:0:
314,0,204246,5,8,3:0:0:0:
306,81,204339,1,8,3:0:0:0:
483,4,204527,1,8,3:0:0:0:
478,79,204621,6,0,L|470:182,1,94.4999999999999,10|0,2:0|2:0,2:0:0:0:
329,304,204808,2,0,L|339:200,1,94.4999999999999,2|0,2:0|2:0,2:0:0:0:
471,360,204996,5,2,3:2:0:0:
438,364,205089,1,0,2:0:0:0:
375,369,205183,1,0,2:0:0:0:
301,377,205277,1,0,2:0:0:0:
218,370,205371,6,0,P|230:325|253:306,1,52.5,10|0,2:0|2:0,2:0:0:0:
256,307,205558,2,0,P|280:295|307:296,1,52.5,2|0,2:0|2:0,2:0:0:0:
110,271,205746,6,0,P|163:261|198:222,1,94.4999999999999,2|0,3:2|2:0,2:0:0:0:
15,333,205933,2,0,P|52:373|103:384,1,94.4999999999999,2|0,2:0|2:0,2:0:0:0:
114,16,206121,6,0,P|154:47|172:97,1,94.4999999999999,10|0,2:0|2:0,2:0:0:0:
59,122,206308,2,0,P|50:174|16:213,1,94.4999999999999,2|0,2:0|2:0,2:0:0:0:
145,1,206496,5,2,3:2:0:0:
180,0,206589,1,0,2:0:0:0:
238,20,206683,1,0,2:0:0:0:
277,81,206777,1,0,2:0:0:0:
280,158,206871,6,0,L|351:150,1,52.5,10|0,2:0|2:0,2:0:0:0:
275,180,207058,2,0,L|346:172,1,52.5,2|0,2:0|2:0,2:0:0:0:
359,31,207246,6,0,L|481:21,1,94.4999999999999,2|0,3:2|2:0,2:0:0:0:
454,140,207433,2,0,B|507:136|507:136|544:99,1,94.4999999999999,2|0,2:0|2:0,2:0:0:0:
367,50,207621,6,0,L|489:40,1,94.4999999999999,10|0,2:0|2:0,2:0:0:0:
448,160,207808,2,0,B|502:156|502:156|539:119,1,94.4999999999999,2|0,2:0|2:0,2:0:0:0:
472,301,207996,5,2,3:2:0:0:
439,305,208089,1,0,2:0:0:0:
376,310,208183,1,0,2:0:0:0:
302,318,208277,1,0,2:0:0:0:
221,327,208371,6,0,L|229:398,1,52.5,10|0,2:0|2:0,2:0:0:0:
199,322,208558,2,0,L|207:393,1,52.5,2|0,2:0|2:0,2:0:0:0:
70,339,208746,6,0,B|74:283|42:306|46:240,1,94.4999999999999,2|0,3:2|2:0,2:0:0:0:
170,123,208933,2,0,P|198:179|189:228,1,94.4999999999999,2|0,2:0|2:0,2:0:0:0:
86,335,209121,6,0,B|90:279|58:302|62:236,1,94.4999999999999,10|0,2:0|2:0,2:0:0:0:
157,124,209308,2,0,P|185:180|176:229,1,94.4999999999999,2|0,2:0|2:0,2:0:0:0:
41,153,209496,5,2,3:2:0:0:
36,118,209589,1,0,2:0:0:0:
50,58,209683,1,0,2:0:0:0:
106,13,209777,1,0,2:0:0:0:
204,28,209871,5,10,2:0:0:0:
237,24,209964,1,0,2:0:0:0:
300,19,210058,1,2,2:0:0:0:
374,11,210152,1,0,2:0:0:0:
459,15,210246,6,0,B|474:61|474:61|457:103,1,94.4999999999999,2|0,3:2|2:0,2:0:0:0:
340,96,210433,2,0,B|322:55|322:55|338:8,1,94.4999999999999,2|0,2:0|2:0,2:0:0:0:
512,206,210621,6,0,B|527:252|527:252|510:294,1,94.4999999999999,10|0,2:0|2:0,2:0:0:0:
393,287,210808,2,0,B|375:246|375:246|391:199,1,94.4999999999999,2|0,2:0|2:0,2:0:0:0:
442,384,210996,5,2,3:2:0:0:
409,380,211089,1,0,2:0:0:0:
346,375,211183,1,0,2:0:0:0:
272,367,211277,1,0,2:0:0:0:
190,354,211371,6,0,L|198:283,1,52.5,10|0,2:0|2:0,2:0:0:0:
168,359,211558,2,0,L|176:288,1,52.5,2|0,2:0|2:0,2:0:0:0:
119,213,211746,6,0,P|146:259|194:281,1,94.4999999999999,2|0,3:2|2:0,2:0:0:0:
29,142,211933,2,0,P|3:189|9:241,1,94.4999999999999,2|0,2:0|2:0,2:0:0:0:
332,250,212121,6,0,P|357:205|354:153,1,94.4999999999999,10|0,2:0|2:0,2:0:0:0:
448,112,212308,2,0,P|420:68|373:46,1,94.4999999999999,2|0,2:0|2:0,2:0:0:0:
219,177,212496,5,2,3:2:0:0:
222,209,212589,1,0,2:0:0:0:
258,259,212683,1,0,2:0:0:0:
324,295,212777,1,0,2:0:0:0:
409,298,212871,6,0,L|464:293,1,52.5,10|0,2:0|2:0,2:0:0:0:
418,279,213058,2,0,L|471:274,1,52.5,2|0,2:0|2:0,2:0:0:0:
491,383,213246,6,0,B|509:182,1,189,0|0,3:0|2:0,2:0:0:0:
512,174,213527,2,0,L|414:182,2,94.4999999999999,0|0|0,3:0|2:0|2:0,2:0:0:0:
468,80,213808,5,0,3:0:0:0:
446,32,213902,1,0,3:0:0:0:
407,0,213996,2,0,P|338:-16|223:18,1,189,0|0,3:0|2:0,2:0:0:0:
208,30,214277,2,0,P|141:40|102:22,2,94.4999999999999,0|0|0,3:0|2:0|2:0,2:0:0:0:
348,122,214558,5,0,3:0:0:0:
276,127,214652,1,0,3:0:0:0:
207,133,214746,2,0,B|145:139|145:139|114:199|114:199|37:208,1,189,0|0,3:0|2:0,2:0:0:0:
30,208,215027,2,0,L|21:107,2,94.4999999999999,0|0|0,3:0|2:0|2:0,2:0:0:0:
112,325,215308,5,0,3:0:0:0:
39,297,215402,1,0,3:0:0:0:
46,373,215496,6,0,B|166:355|189:213|189:213|214:362|301:406|391:420|551:305|383:64|175:213|263:332,1,808.499999999999,2|0,3:2|2:0,2:0:0:0:
394,373,216246,5,6,3:2:0:0:
325,292,216433,1,2,3:2:0:0:
325,292,216527,1,0,3:2:0:0:
325,292,216621,2,0,P|318:249|344:198,1,78.75,2|0,3:2|2:0,3:2:0:0:
476,226,216808,2,0,P|482:268|456:319,1,78.75,2|0,3:2|2:0,3:2:0:0:
401,381,216996,1,2,3:2:0:0:
401,381,217089,1,0,3:2:0:0:
401,381,217183,2,0,L|308:369,1,78.75,0|0,3:2|2:0,3:2:0:0:
179,272,217371,6,0,L|187:205,1,68.25,2|0,3:2|2:0,3:2:0:0:
267,214,217558,2,0,L|256:292,1,68.25,2|0,3:2|2:0,3:2:0:0:
46,361,217746,6,0,L|39:281,1,78.75,2|0,3:2|2:0,3:2:0:0:
100,104,217933,2,0,L|111:225,1,78.75,2|0,3:2|2:0,3:2:0:0:
179,272,218121,1,2,3:2:0:0:
179,272,218214,1,0,3:2:0:0:
179,272,218308,2,0,L|101:261,1,68.25,2|0,3:2|2:0,3:2:0:0:
32,113,218496,1,2,3:2:0:0:
32,113,218589,1,0,3:2:0:0:
32,113,218683,2,0,L|110:102,1,68.25,0|0,3:2|2:0,3:2:0:0:
360,138,218871,5,2,3:2:0:0:
368,106,218964,1,0,3:2:0:0:
356,83,219058,2,0,L|256:69,1,78.75,2|0,3:2|2:0,3:2:0:0:
190,35,219246,5,2,3:2:0:0:
190,35,219339,2,0,P|179:72|188:110,1,78.75,2|0,3:2|2:0,3:2:0:0:
263,164,219527,2,0,P|274:201|265:239,1,78.75,2|0,3:2|2:0,3:2:0:0:
123,237,219714,1,2,3:2:0:0:
123,237,219808,2,0,P|112:200|121:162,1,78.75,2|0,3:2|2:0,3:2:0:0:
265,89,219996,5,2,3:2:0:0:
265,89,220089,2,0,P|254:126|263:164,1,78.75,2|0,3:2|2:0,3:2:0:0:
332,230,220277,2,0,P|343:267|334:305,1,78.75,2|0,3:2|2:0,3:2:0:0:
219,372,220464,1,2,3:2:0:0:
219,372,220558,2,0,P|208:335|217:297,1,78.75,2|0,3:2|2:0,3:2:0:0:
53,188,220746,5,2,3:2:0:0:
53,188,220839,2,0,L|45:267,1,78.75,2|0,3:2|2:0,3:2:0:0:
130,280,221027,2,0,L|140:202,1,78.75,2|0,3:2|2:0,3:2:0:0:
95,112,221214,1,2,3:2:0:0:
95,112,221308,2,0,P|57:101|20:111,1,78.75,2|0,3:2|2:0,3:2:0:0:
213,245,221496,5,2,3:2:0:0:
213,245,221589,2,0,P|223:202|191:143,1,78.75,2|0,3:2|2:0,3:2:0:0:
287,131,221777,2,0,P|254:100|187:99,1,78.75,2|0,3:2|2:0,3:2:0:0:
74,239,221964,1,2,3:2:0:0:
74,239,222058,2,0,P|116:226|151:168,1,78.75,2|0,3:2|2:0,3:2:0:0:
143,6,222246,6,0,L|146:46,2,39.375,8|8|8,2:0|2:0|2:0,2:0:0:0:
208,137,222433,2,0,L|289:130,1,78.75,2|0,3:2|2:0,2:0:0:0:
433,56,222621,2,0,L|354:62,1,78.75,10|0,3:2|2:0,2:0:0:0:
217,148,222808,2,0,L|297:140,1,78.7500030040742,2|0,3:2|2:0,2:0:0:0:
449,139,222996,6,0,P|466:174|465:213,1,78.75,10|0,3:2|2:0,2:0:0:0:
402,370,223183,2,0,P|426:340|464:327,1,78.75,2|0,3:2|2:0,2:0:0:0:
175,332,223371,6,0,L|253:323,1,78.75,10|0,3:2|2:0,2:0:0:0:
399,261,223558,2,0,L|321:252,1,78.75,10|0,3:2|2:0,2:0:0:0:
110,141,223746,6,0,L|114:95,2,39.375,8|8|8,2:0|2:0|2:0,2:0:0:0:
207,144,223933,2,0,L|199:222,1,78.75,2|0,3:2|2:0,2:0:0:0:
2,242,224121,2,0,L|9:164,1,78.75,10|0,3:2|2:0,2:0:0:0:
196,150,224308,2,0,L|189:228,1,78.75,2|0,3:2|2:0,2:0:0:0:
98,380,224496,6,0,P|92:336|138:283,1,89.25,10|0,3:2|2:0,2:0:0:0:
183,236,224683,2,0,P|230:238|261:266,1,89.25,2|0,3:2|2:0,2:0:0:0:
453,356,224871,6,0,L|443:268,1,89.25,10|0,3:2|2:0,2:0:0:0:
322,53,225058,2,0,L|330:143,1,89.25,10|0,3:2|2:0,2:0:0:0:
193,341,225246,5,8,2:0:0:0:
191,314,225339,1,8,2:0:0:0:
188,287,225433,1,8,2:0:0:0:
184,260,225527,1,8,2:0:0:0:
182,237,225621,5,8,2:0:0:0:
229,213,225714,1,8,2:0:0:0:
284,212,225808,1,8,2:0:0:0:
332,238,225902,1,8,2:0:0:0:
387,287,225996,6,0,P|401:266|405:240,1,52.5,8|0,2:0|2:0,2:0:0:0:
427,286,226089,2,0,P|421:261|406:240,1,52.5,8|0,2:0|2:0,2:0:0:0:
454,256,226183,2,0,P|432:242|406:238,1,52.5,8|0,2:0|2:0,2:0:0:0:
452,216,226277,2,0,P|426:222|405:237,1,52.5,8|0,2:0|2:0,2:0:0:0:
424,190,226371,2,0,P|409:212|405:238,1,52.5,8|0,2:0|2:0,2:0:0:0:
383,190,226464,2,0,P|388:216|403:237,1,52.5,8|0,2:0|2:0,2:0:0:0:
355,218,226558,2,0,P|376:233|402:237,1,52.5,8|0,2:0|2:0,2:0:0:0:
356,259,226652,2,0,P|381:254|402:239,1,52.5,8|0,2:0|2:0,2:0:0:0:
477,264,226746,6,0,B|500:172|434:198|447:114,4,157.5,4|2|2|2|2,2:3|2:0|2:0|2:0|2:0,2:0:0:0:
384,363,227871,5,8,2:0:0:0:
305,218,228058,1,8,2:0:0:0:
441,123,228246,6,0,L|443:87,1,31.5,2|0,3:2|2:0,2:0:0:0:
512,318,228621,5,2,3:2:0:0:
498,319,228714,1,0,2:0:0:0:
482,320,228808,1,0,2:0:0:0:
468,321,228902,1,0,2:0:0:0:
390,324,228996,5,2,3:2:0:0:
462,321,229089,2,0,B|469:259|469:259|465:253|465:253|471:198|471:198|479:148|439:121,1,210,2|0,2:0|2:0,2:0:0:0:
340,16,229371,5,2,3:2:0:0:
277,61,229464,1,0,3:0:0:0:
298,132,229558,1,0,3:0:0:0:
373,133,229652,1,0,3:0:0:0:
399,63,229746,5,2,3:2:0:0:
376,137,229839,2,0,B|345:175|345:175|276:166|276:166|267:159|267:159|162:148,1,210,2|0,2:0|2:0,2:0:0:0:
11,58,230121,5,2,3:2:0:0:
49,63,230214,1,0,2:0:0:0:
89,68,230308,1,0,2:0:0:0:
129,74,230402,1,0,2:0:0:0:
204,82,230496,5,2,3:2:0:0:
134,76,230589,2,0,B|125:143|125:143|121:144|121:144|114:196|114:196|104:265|179:270,1,210,2|0,2:0|2:0,2:0:0:0:
339,328,230871,6,0,B|298:320|298:320|273:328|273:328|254:308|254:308|208:300,1,131.25,2|0,3:2|2:0,2:0:0:0:
31,372,231058,2,0,B|72:369|72:369|95:379|95:379|116:361|116:361|163:357,1,131.25,0|0,3:0|2:0,2:0:0:0:
231,245,231246,6,0,B|222:279|222:279|218:279|218:279|222:282|222:282|214:318,1,63,2|0,3:2|2:0,2:0:0:0:
227,306,231433,2,0,B|235:271|235:271|239:271|239:271|235:268|235:268|243:232,1,63,0|0,2:0|2:0,2:0:0:0:
507,319,231621,5,2,3:2:0:0:
491,330,231714,1,0,2:0:0:0:
477,313,231808,1,0,2:0:0:0:
493,301,231902,1,0,2:0:0:0:
503,224,231996,5,2,3:2:0:0:
494,295,232089,2,0,B|423:288|423:288|417:290|417:290|382:285|382:285|376:287|376:287|309:283|297:211,1,210,2|0,2:0|2:0,2:0:0:0:
203,131,232371,5,2,3:2:0:0:
259,179,232464,1,0,3:0:0:0:
231,245,232558,1,0,3:0:0:0:
163,235,232652,1,0,3:0:0:0:
137,168,232746,6,0,B|149:136|149:136|183:151|183:151|136:299,1,210,2|0,3:2|2:0,2:0:0:0:
123,358,233027,1,0,2:0:0:0:
117,363,233121,1,2,3:2:0:0:
47,323,233214,6,0,B|39:290|39:290|120:277|120:277|194:268|218:335,1,210,2|0,2:0|2:0,2:0:0:0:
209,384,233496,5,2,3:2:0:0:
209,384,233589,2,0,B|273:387|240:334|322:337,1,105,2|0,2:0|2:0,2:0:0:0:
451,321,233777,1,0,2:0:0:0:
444,322,233871,1,2,3:2:0:0:
376,371,233964,6,0,B|369:305|369:305|341:259|341:259|360:213|360:213|349:132,1,231,2|0,2:0|2:0,2:0:0:0:
338,38,234246,6,0,L|341:73,1,31.5,2|0,3:2|2:0,2:0:0:0:
76,28,234621,5,2,3:2:0:0:
77,42,234714,1,0,2:0:0:0:
78,58,234808,1,0,2:0:0:0:
79,72,234902,1,0,2:0:0:0:
79,84,234996,5,2,3:2:0:0:
128,67,235089,1,0,2:0:0:0:
160,112,235183,1,0,2:0:0:0:
127,156,235277,1,0,2:0:0:0:
81,136,235371,5,2,3:2:0:0:
32,192,235464,1,0,3:0:0:0:
69,256,235558,1,0,3:0:0:0:
142,243,235652,1,0,3:0:0:0:
151,170,235746,5,2,3:2:0:0:
146,246,235839,2,0,B|146:285|146:285|142:291|142:291|142:332,2,78.75,2|0|0,2:0|2:0|2:0,2:0:0:0:
178,88,236121,5,2,3:2:0:0:
197,40,236214,1,0,2:0:0:0:
257,45,236308,1,0,2:0:0:0:
268,97,236402,1,0,2:0:0:0:
224,132,236496,5,2,3:2:0:0:
271,102,236589,1,0,2:0:0:0:
315,143,236683,1,0,2:0:0:0:
291,194,236777,1,0,2:0:0:0:
224,183,236871,6,0,B|165:190|165:190|150:208|150:208|101:213,1,131.25,2|0,3:2|2:0,2:0:0:0:
26,361,237058,2,0,B|82:350|82:350|102:361|102:361|152:351,1,131.25,0|0,3:0|2:0,2:0:0:0:
254,264,237246,6,0,B|250:299|250:299|246:299|246:299|251:302|251:302|248:338,1,63,2|0,3:2|2:0,2:0:0:0:
258,339,237433,2,0,B|261:303|261:303|265:303|265:303|260:300|260:300|263:264,1,63,0|0,2:0|2:0,2:0:0:0:
455,370,237621,5,2,3:2:0:0:
455,355,237714,1,0,2:0:0:0:
455,339,237808,1,0,2:0:0:0:
455,325,237902,1,0,2:0:0:0:
456,311,237996,5,2,3:2:0:0:
405,324,238089,1,0,2:0:0:0:
377,276,238183,1,0,2:0:0:0:
414,235,238277,1,0,2:0:0:0:
458,259,238371,5,2,3:2:0:0:
512,208,238464,1,0,3:0:0:0:
482,140,238558,1,0,3:0:0:0:
407,146,238652,1,0,3:0:0:0:
394,225,238746,6,0,B|333:215|333:215|305:233|305:233|224:223,1,157.5,2|0,3:2|2:0,2:0:0:0:
166,224,239027,2,0,B|162:194|162:194|152:176|152:176|151:145,1,78.75,2|0,2:0|2:0,2:0:0:0:
233,61,239214,1,2,2:0:0:0:
240,64,239308,2,0,B|230:105|230:105|236:118|236:118|225:165,1,89.25,2|0,2:0|2:0,2:0:0:0:
172,303,239496,5,2,2:0:0:0:
196,325,239589,2,0,B|241:319|241:319|247:324|247:324|292:317,1,89.25,2|0,2:0|2:0,2:0:0:0:
367,307,239777,2,0,B|378:262|378:262|385:259|385:259|396:214,1,89.25,2|0,2:0|2:0,2:0:0:0:
419,53,239964,1,2,2:0:0:0:
343,54,240058,2,0,B|347:98|347:98|357:110|357:110|360:161,1,99.75,2|0,2:0|2:0,2:0:0:0:
471,258,240246,5,2,3:2:0:0:
219,258,240433,1,0,3:2:0:0:
219,258,240621,6,0,P|226:229|211:183,1,52.5,2|0,2:0|2:0,2:0:0:0:
181,100,240808,2,0,B|191:166|125:142|149:244,1,131.25,2|0,2:0|2:0,2:0:0:0:
111,384,240996,5,2,3:2:0:0:
62,320,241089,2,0,B|121:307|121:307|158:326|158:326|161:324|161:324|196:343|196:343|260:330,1,210,2|0,2:0|2:0,2:0:0:0:
341,371,241371,5,2,3:2:0:0:
265,328,241464,1,0,3:0:0:0:
277,243,241558,1,0,3:0:0:0:
363,228,241652,1,0,3:0:0:0:
402,306,241746,5,2,3:2:0:0:
334,298,241839,2,0,B|307:279|307:279|305:240|305:240|297:182|297:182|303:178|303:178|301:119|301:119|329:89,1,231,2|0,2:0|2:0,2:0:0:0:
431,0,242121,5,2,3:2:0:0:
478,43,242214,1,0,2:0:0:0:
454,95,242308,1,0,2:0:0:0:
395,92,242402,1,0,2:0:0:0:
371,37,242496,5,2,3:2:0:0:
391,95,242589,1,0,2:0:0:0:
333,131,242683,1,0,2:0:0:0:
284,90,242777,1,0,2:0:0:0:
306,34,242871,6,0,B|289:-3|249:3|249:3|176:18,1,131.25,2|0,3:2|2:0,2:0:0:0:
7,88,243058,2,0,B|23:126|63:119|63:119|135:105,1,131.25,0|0,3:0|2:0,2:0:0:0:
205,86,243246,6,0,B|213:111|219:133|186:177,1,78.75,2|0,3:2|2:0,2:0:0:0:
207,168,243433,2,0,B|230:141|226:119|218:93,1,78.75,0|0,2:0|2:0,2:0:0:0:
404,259,243621,5,2,3:2:0:0:
421,247,243714,1,0,2:0:0:0:
430,264,243808,1,0,2:0:0:0:
413,275,243902,1,0,2:0:0:0:
435,172,243996,5,2,3:2:0:0:
422,242,244089,2,0,B|414:273|414:273|329:252|329:252|327:247|327:247|298:239|298:239|228:218|175:292,1,241.5,2|0,2:0|2:0,2:0:0:0:
106,357,244371,5,2,3:2:0:0:
23,345,244464,1,0,3:0:0:0:
12,266,244558,1,0,3:0:0:0:
86,221,244652,1,0,3:0:0:0:
146,281,244746,6,0,B|169:306|169:306|171:249|171:249|191:207|191:207|165:126,1,210,2|0,3:2|2:0,2:0:0:0:
74,119,245027,1,0,2:0:0:0:
21,174,245121,6,0,B|15:204|15:204|66:195|66:195|120:187|120:187|168:178|173:107,1,210,2|0,3:2|2:0,2:0:0:0:
187,63,245402,1,0,2:0:0:0:
193,67,245496,1,2,3:2:0:0:
240,127,245589,6,0,B|281:123|281:123|298:104|298:104|356:100,1,105,2|0,2:0|2:0,2:0:0:0:
481,41,245777,1,0,2:0:0:0:
486,48,245871,1,2,3:2:0:0:
410,0,245964,6,0,B|404:60|404:60|426:105|426:105|400:153|400:153|397:219,1,231,2|0,2:0|2:0,2:0:0:0:
352,340,246246,6,0,L|354:300,1,39.3750000000001,2|0,3:2|2:0,2:0:0:0:
434,307,246433,2,0,L|432:347,1,39.3750000000001,0|0,3:0|2:0,2:0:0:0:
353,273,246621,6,0,B|354:294|353:306|353:306|352:300|352:300|352:312|352:312|352:319|352:319|354:326|352:335|352:335|352:352,1,78.75,2|0,2:0|2:0,2:0:0:0:
432,346,246808,2,0,B|432:295|432:295|427:293|427:293|427:256|427:256|433:254|433:254|435:204,1,131.25,2|0,2:0|2:0,2:0:0:0:
430,63,246996,5,2,3:2:0:0:
483,121,247089,2,0,B|467:158|414:146|414:146|417:141|417:141|351:126|351:126|344:128|344:128|257:111,1,231,2|0,2:0|2:0,2:0:0:0:
159,87,247371,5,2,3:2:0:0:
107,145,247464,1,0,3:0:0:0:
144,209,247558,1,0,3:0:0:0:
217,193,247652,1,0,3:0:0:0:
227,119,247746,5,2,3:2:0:0:
220,196,247839,2,0,B|228:263|228:263|223:272|223:272|229:315|229:315|239:381|307:368,1,210,2|0,2:0|2:0,2:0:0:0:
377,355,248121,5,2,3:2:0:0:
432,343,248214,1,0,2:0:0:0:
434,277,248308,1,0,2:0:0:0:
380,254,248402,1,0,2:0:0:0:
343,302,248496,5,2,3:2:0:0:
384,258,248589,1,0,2:0:0:0:
345,202,248683,1,0,2:0:0:0:
284,220,248777,1,0,2:0:0:0:
280,283,248871,6,0,B|246:303|246:303|218:282|218:282|120:274,1,105,2|0,3:2|2:0,2:0:0:0:
21,217,249058,2,0,B|54:238|54:238|82:217|82:217|180:209,1,105,0|0,3:0|2:0,2:0:0:0:
260,30,249246,6,0,B|304:52|304:52|317:106,1,105,0|0,3:0|2:0,2:0:0:0:
440,99,249433,1,2,2:0:0:0:
442,128,249527,2,0,B|439:177|439:177|395:211,1,105,0|0,3:0|2:0,2:0:0:0:
488,303,249714,1,2,2:0:0:0:
454,323,249808,2,0,B|409:346|409:346|358:325,1,105,0|0,3:0|2:0,2:0:0:0:
203,338,249996,6,0,B|247:315|247:315|260:261,1,105,0|0,3:0|2:0,2:0:0:0:
344,140,250183,1,2,2:0:0:0:
317,106,250277,2,0,B|279:74|279:74|224:84,1,105,0|0,3:0|2:0,2:0:0:0:
100,31,250464,1,2,2:0:0:0:
73,103,250558,2,0,B|63:152|63:152|98:195,1,105,0|0,3:0|2:0,2:0:0:0:
203,338,250746,6,0,P|209:296|174:246,1,78.75,2|0,3:2|2:0,2:0:0:0:
255,211,250933,5,2,2:0:0:0:
255,211,251027,2,0,P|227:185|148:196,1,89.25,8|0,2:1|2:0,2:0:0:0:
137,111,251214,5,2,2:0:0:0:
137,111,251308,2,0,P|107:135|107:215,1,99.75,8|0,2:1|2:0,2:0:0:0:
13,189,251496,5,2,2:0:0:0:
13,189,251589,2,0,P|17:231|91:281,1,110.25,8|0,2:1|2:0,2:0:0:0:
144,295,251777,5,2,2:0:0:0:
218,265,251871,2,0,B|334:233|291:376|443:332|452:211|308:145|249:338,1,315,8|0,2:1|2:0,2:0:0:0:
213,346,252246,6,0,B|184:367|184:367|191:284|191:284|186:278|186:278|190:197|190:197|194:191|194:191|198:120,1,262.5,2|0,3:2|2:0,2:0:0:0:
45,116,252527,6,0,B|154:105|154:105|160:113|160:113|285:102,1,231,2|0,3:2|2:0,2:0:0:0:
331,14,252808,5,2,3:2:0:0:
407,6,252902,2,0,B|467:0|467:0|522:37,1,115.5,2|0,2:0|2:0,2:0:0:0:
284,124,253089,1,2,3:2:0:0:
360,116,253183,1,2,3:2:0:0:
512,225,253371,6,0,B|483:204|483:204|474:102,1,115.5,2|0,3:2|2:0,2:0:0:0:
475,107,253558,2,0,B|504:128|504:128|513:230,1,115.5,2|0,3:2|2:0,2:0:0:0:
506,323,253746,5,2,2:0:0:0:
505,345,253839,2,0,B|503:372|503:372|418:364|418:364|411:356|411:356|338:350|338:350|335:390,1,231,2|0,3:2|2:0,2:0:0:0:
327,268,254121,6,0,B|231:275|231:275|222:267|222:267|132:275|132:275|136:316,1,231,2|0,3:2|2:0,2:0:0:0:
12,336,254402,6,0,B|16:376|16:376|61:379|61:379|44:211,1,231,2|0,3:2|2:0,2:0:0:0:
23,108,254683,5,2,3:2:0:0:
139,330,254871,1,10,2:0:0:0:
0,100,255058,1,2,3:2:0:0:
144,90,255246,6,0,B|228:82|228:82|233:76|233:76|308:71|308:71|284:37|287:-3,1,231,2|0,3:2|2:0,2:0:0:0:
423,4,255527,6,0,B|450:43|443:81|443:81|454:92|454:92|388:130|395:218,1,231,2|0,3:2|2:0,2:0:0:0:
512,323,255808,5,2,3:2:0:0:
444,279,255902,2,0,P|411:225|422:170,1,115.5,2|0,2:0|2:0,2:0:0:0:
363,329,256089,1,2,3:2:0:0:
428,372,256183,1,2,3:2:0:0:
203,275,256371,6,0,B|194:336|233:306|226:384,1,115.5,2|0,3:2|2:0,2:0:0:0:
203,384,256558,2,0,B|194:323|233:353|226:275,1,115.5,2|0,3:2|2:0,2:0:0:0:
16,256,256746,5,2,2:0:0:0:
0,250,256839,2,0,P|48:314|74:194,1,231,2|0,3:2|2:0,2:0:0:0:
19,148,257121,6,0,B|143:166|97:43|255:86,1,231,2|0,3:2|2:0,2:0:0:0:
323,205,257402,6,0,P|271:266|252:145,1,231,2|0,3:2|2:0,2:0:0:0:
289,135,257683,5,2,3:2:0:0:
512,0,257871,1,10,2:0:0:0:
288,118,258058,1,2,3:2:0:0:
161,61,258246,6,0,B|163:30|190:9|190:9|115:16|115:16|109:11|109:11|20:19,1,231,2|0,3:2|2:0,2:0:0:0:
0,179,258527,6,0,B|3:245|3:245|30:274|30:274|37:273|37:273|64:305|64:305|71:400,1,231,2|0,3:2|2:0,2:0:0:0:
165,373,258808,5,2,3:2:0:0:
161,295,258902,2,0,B|154:238|154:238|198:185,1,115.5,2|0,2:0|2:0,2:0:0:0:
294,384,259089,1,2,3:2:0:0:
290,306,259183,1,2,3:2:0:0:
433,253,259371,6,0,B|444:372,1,115.5,2|0,3:2|2:0,2:0:0:0:
425,384,259558,2,0,B|414:265,1,115.5,2|0,3:2|2:0,2:0:0:0:
272,119,259746,5,2,2:0:0:0:
275,142,259839,2,0,B|277:167|277:167|368:160|368:160|375:152|375:152|451:145|451:145|447:105,1,231,2|0,3:2|2:0,2:0:0:0:
512,192,260121,6,0,B|479:194|479:194|471:105|471:105|479:96|479:96|471:0,1,231,2|0,3:2|2:0,2:0:0:0:
369,6,260402,6,0,B|278:11|278:11|250:0|250:0|227:17|227:17|94:24,1,231,2|0,3:2|2:0,2:0:0:0:
61,25,260683,5,2,3:2:0:0:
27,283,260871,1,10,2:0:0:0:
50,9,261058,1,2,3:2:0:0:
125,303,261246,6,0,B|121:334|94:355|94:355|169:347|169:347|175:352|175:352|264:344,1,231,2|0,3:2|2:0,2:0:0:0:
343,372,261527,6,0,B|377:254|231:271|256:145,1,252,2|0,3:2|2:0,2:0:0:0:
348,174,261808,5,2,3:2:0:0:
377,84,261902,2,0,P|454:61|514:76,1,136.5,2|0,2:0|2:0,2:0:0:0:
425,260,262089,1,2,3:2:0:0:
363,186,262183,1,2,3:2:0:0:
512,43,262371,6,0,B|395:51|472:-24|319:7,1,157.5,2|0,3:2|2:0,2:0:0:0:
271,58,262558,2,0,B|154:50|231:125|78:94,1,157.5,2|0,3:2|2:0,2:0:0:0:
0,12,262746,5,4,2:3:0:0:
0,12,263496,5,2,3:2:0:0:
100,181,263621,1,2,3:2:0:0:
147,0,263746,1,2,3:2:0:0:
104,203,263871,5,10,3:2:0:0:
43,108,263996,1,2,3:2:0:0:
13,209,264121,1,2,3:2:0:0:
185,312,264246,6,0,B|183:160|337:275|305:64|233:44|233:44|174:127|236:199,1,493.499999999999,4|0,2:3|2:0,2:0:0:0:
234,196,266496,2,0,P|286:213|341:190,1,116.55,2|0,2:0|2:0,2:0:0:0:
409,12,267246,6,0,B|448:40|422:92|422:92|377:175|422:234|516:220|507:149,1,301.35,2|0,2:0|2:0,2:0:0:0:
506,168,268746,2,0,P|474:110|420:107,1,116.55,2|0,2:0|2:0,2:0:0:0:
379,43,269496,2,0,P|343:100|359:152,1,116.55,2|0,2:0|2:0,2:0:0:0:
433,342,270246,6,0,B|433:262|353:253|274:243|253:325|253:325|301:291|373:333|366:216,1,427.35001043335,0|0,2:0|2:0,2:0:0:0:
399,154,272496,2,0,P|357:146|300:181,1,107.100000653687,2|0,2:0|2:0,2:0:0:0:
69,286,273246,6,0,B|62:171|138:216|164:101|125:72,1,227.849990960541,2|0,2:0|2:0,2:0:0:0:
133,81,274746,2,0,P|174:120|223:123,1,97.6500000000001,2|0,2:0|2:0,2:0:0:0:
263,191,275496,2,0,P|291:162|297:105,1,97.6499961259462,2|0,2:0|2:0,2:0:0:0:
248,31,276246,6,0,B|282:35|311:7|311:7|268:-4|231:28|231:28|209:-12|209:-12|235:49|242:94|242:94|204:90|158:58|59:69|-5:177|49:369|208:388|208:388|226:390|266:359|309:386|330:380|330:380|386:362|425:320|431:271|431:271|393:254|386:213|386:213|371:187|378:154|378:154|372:110|408:86|408:86|382:60|308:55|261:94,1,1477.35,2|0,2:0|2:0,2:0:0:0:
308,192,289089,6,0,B|315:193|315:193|329:192|329:192|340:190|340:190|353:183|353:183|358:175|358:175|366:167|366:167|372:156|372:156|383:150|383:150|388:143|388:143|400:139|400:139|412:138|412:138|429:140,1,138.6,0|0,2:0|2:0,2:0:0:0:
