osu file format v14

[General]
AudioFilename: audio.mp3
AudioLeadIn: 0
PreviewTime: 192183
Countdown: 0
SampleSet: Normal
StackLeniency: 0.2
Mode: 1
LetterboxInBreaks: 0
WidescreenStoryboard: 0

[Editor]
Bookmarks: 24230,36230,60230,84230,108230,132230,144230,168230,192230,216230,228230,252230,264230
DistanceSpacing: 1
BeatDivisor: 4
GridSize: 32
TimelineZoom: 3.1

[Metadata]
Title:Bad Apple!! feat. nomico (Camellia's "Bad Psy!!" Remix)
TitleUnicode:Bad Apple!! feat. のみこ (かめりあ's "Bad Psy!!" Remix)
Artist:Masayoshi Minoshima
ArtistUnicode:Masayoshi Minoshima
Creator:Genjuro
Version:Nifty's Oni
Source:東方幻想郷 ~ Lotus Land Story
Tags:東方project touhou gensoukyou stage 3 elly alstroemeria records 簑島正佳 psytrance nifty
BeatmapID:2209026
BeatmapSetID:1055080

[Difficulty]
HPDrainRate:5
CircleSize:2
OverallDifficulty:5.5
ApproachRate:10
SliderMultiplier:1.4
SliderTickRate:1

[Events]
//Background and Video events
0,0,"bg.jpg",0,30
//Break Periods
//Storyboard Layer 0 (Background)
//Storyboard Layer 1 (Fail)
//Storyboard Layer 2 (Pass)
//Storyboard Layer 3 (Foreground)
//Storyboard Layer 4 (Overlay)
//Storyboard Sound Samples

[TimingPoints]
230,375,4,1,0,60,1,0
230,-166.666666666667,4,1,0,60,0,0
11355,-153.846153846154,4,1,0,60,0,0
12105,-142.857142857143,4,1,0,70,0,0
24230,-142.857142857143,4,1,0,80,0,0
24605,-139.30603306568,4,1,0,80,0,0
24792,-137.595869922368,4,1,0,80,0,0
24980,-135.927186524722,4,1,0,80,0,0
25073,-135.107930970656,4,1,0,80,0,0
25167,-134.298491827937,4,1,0,80,0,0
25355,-132.708365404522,4,1,0,80,0,0
25542,-131.155453312593,4,1,0,80,0,0
25636,-130.392716784411,4,1,0,80,0,0
25730,-129.638632312429,4,1,0,80,0,0
26105,-126.707542519884,4,1,0,80,0,0
26292,-125.291145298888,4,1,0,80,0,0
26480,-123.906064334507,4,1,0,80,0,0
26573,-123.224944672,4,1,0,80,0,0
26667,-122.551272388586,4,1,0,80,0,0
26855,-121.225786664436,4,1,0,80,0,0
27042,-119.928666429208,4,1,0,80,0,0
27136,-119.290460341886,4,1,0,80,0,0
27230,-118.659010787291,4,1,0,80,0,0
27605,-116.198676497075,4,1,0,80,0,0
27792,-115.00637710361,4,1,0,80,0,0
27980,-113.838297252285,4,1,0,80,0,0
28073,-113.263110205006,4,1,0,80,0,0
28167,-112.693706394579,4,1,0,80,0,0
28355,-111.571903070793,4,1,0,80,0,0
28542,-110.47233551774,4,1,0,80,0,0
28636,-109.930578839463,4,1,0,80,0,0
28730,-109.394109783553,4,1,0,80,0,0
28917,-108.33672788414,4,1,0,80,0,0
29011,-107.815665400551,4,1,0,80,0,0
29105,-107.299591188558,4,1,0,80,0,0
29292,-106.28212377191,4,1,0,80,0,0
29386,-105.780592011661,4,1,0,80,0,0
29480,-105.283771348917,4,1,0,80,0,0
29573,-104.791595714024,4,1,0,80,0,0
29667,-104.304000267018,4,1,0,80,0,0
29761,-103.820921369149,4,1,0,80,0,0
29855,-103.342296555188,4,1,0,80,0,0
30042,-102.398165024883,4,1,0,80,0,0
30136,-101.932539007034,4,1,0,80,0,0
30230,-101.471128419831,4,1,0,80,0,0
30417,-100.560726611586,4,1,0,80,0,0
30605,-99.666515838006,4,1,0,80,0,0
30792,-98.7880679819969,4,1,0,80,0,0
30980,-97.9249698880718,4,1,0,80,0,0
31073,-97.499051821721,4,1,0,80,0,0
31167,-97.0768227144233,4,1,0,80,0,0
31355,-96.2433339460825,4,1,0,80,0,0
31542,-95.4239447304512,4,1,0,80,0,0
31636,-95.019459985405,4,1,0,80,0,0
31730,-94.6183898410127,4,1,0,80,0,0
31917,-93.8263218486788,4,1,0,80,0,0
32105,-93.0474048613547,4,1,0,80,0,0
32292,-92.2813140489995,4,1,0,80,0,0
32480,-91.5277351919565,4,1,0,80,0,0
32667,-90.7863642512349,4,1,0,80,0,0
32855,-90.0569069595077,4,1,0,80,0,0
33042,-89.3390784316703,4,1,0,80,0,0
33136,-88.9844384014124,4,1,0,80,0,0
33230,-88.6326027938769,4,1,0,90,0,0
33323,-88.2835384748489,4,1,0,90,0,0
33417,-87.9372128300393,4,1,0,90,0,0
33605,-87.2526496448381,4,1,0,90,0,0
33698,-86.9143493852548,4,1,0,90,0,0
33792,-86.5786623423511,4,1,0,90,0,0
33980,-85.9150077194634,4,1,0,90,0,0
34073,-85.5870544444929,4,1,0,90,0,0
34167,-85.261522668481,4,1,0,90,0,0
34261,-84.9384578403718,4,1,0,90,0,0
34355,-84.6178320234493,4,1,0,90,0,0
34448,-84.2996177012337,4,1,0,90,0,0
34542,-83.983787769609,4,1,0,90,0,0
34636,-83.6703155291269,4,1,0,90,0,0
34730,-83.3591746774834,4,1,0,90,0,0
35480,-90.9090909090909,4,1,0,70,0,0
35573,-93.7499707031342,4,1,0,70,0,0
35667,-96.774224765879,4,1,0,70,0,0
35761,-100,4,1,0,70,0,0
35855,-103.448240190262,4,1,0,70,0,0
35948,-107.142895408177,4,1,0,70,0,0
36042,-111.111111111111,4,1,0,70,0,0
36230,-83.3333333333333,4,1,0,100,0,0
36605,-90.9090909090909,4,1,0,100,0,0
36698,-92.9791447778263,4,1,0,100,0,0
36792,-95.1456680177351,4,1,0,100,0,0
36886,-97.4154701611544,4,1,0,100,0,0
36980,-99.7963157196163,4,1,0,100,0,0
37261,-83.1918378824017,4,1,0,100,0,0
37448,-76.8024970027826,4,1,0,100,0,0
37730,-100,4,1,0,100,0,0
37917,-76.9230769230769,4,1,0,100,0,0
38386,-90.9090909090909,4,1,0,100,0,0
38480,-92.1052873961283,4,1,0,100,0,0
38573,-93.3332960000149,4,1,0,100,0,0
38667,-94.594581811543,4,1,0,100,0,0
38761,-95.8904240945786,4,1,0,100,0,0
38948,-98.5915215235151,4,1,0,100,0,0
39042,-100,4,1,0,100,0,0
39230,-111.111111111111,4,1,0,100,0,0
39605,-90.9090909090909,4,1,0,100,0,0
39980,-100,4,1,0,100,0,0
40167,-90.9090909090909,4,1,0,100,0,0
40730,-100,4,1,0,100,0,0
41105,-90.9090909090909,4,1,0,100,0,0
41386,-100,4,1,0,100,0,0
41480,-97.6095423088561,4,1,0,100,0,0
41573,-95.3307022059524,4,1,0,100,0,0
41761,-91.0780821506086,4,1,0,100,0,0
42042,-83.4753109246644,4,1,0,100,0,0
42230,-100,4,1,0,100,0,0
42417,-90.9090909090909,4,1,0,100,0,0
42511,-93.000935589412,4,1,0,100,0,0
42605,-95.1914061198555,4,1,0,100,0,0
42698,-97.4874558016247,4,1,0,100,0,0
42792,-99.8970061866216,4,1,0,100,0,0
42886,-102.428686587681,4,1,0,100,0,0
42980,-105.092134274118,4,1,0,100,0,0
43073,-107.89767847355,4,1,0,100,0,0
43167,-110.857125120003,4,1,0,100,0,0
43355,-83.1903845225954,4,1,0,100,0,0
43730,-100,4,1,0,100,0,0
43823,-83.3333333333333,4,1,0,100,0,0
44480,-90.9090909090909,4,1,0,100,0,0
44855,-76.9230769230769,4,1,0,100,0,0
45230,-85.7142612244968,4,1,0,100,0,0
45417,-90.9090909090909,4,1,0,100,0,0
45605,-76.9230769230769,4,1,0,100,0,0
45980,-84.7457627118644,4,1,0,100,0,0
46073,-86.9565217391304,4,1,0,100,0,0
46355,-76.9230769230769,4,1,0,100,0,0
46542,-75.4863965964693,4,1,0,100,0,0
46730,-74.1023427455659,4,1,0,100,0,0
47105,-71.4812122355821,4,1,0,100,0,0
47667,-111.238541039791,4,1,0,100,0,0
48206,-83.3333333333333,4,1,0,100,0,0
48581,-90.9090909090909,4,1,0,100,0,0
48674,-92.9791447778263,4,1,0,100,0,0
48768,-95.1456680177351,4,1,0,100,0,0
48862,-97.4154701611544,4,1,0,100,0,0
48956,-99.7963157196163,4,1,0,100,0,0
49073,-103.092783505155,4,1,0,100,0,0
49237,-83.1918378824017,4,1,0,100,0,0
49424,-76.8024970027826,4,1,0,100,0,0
49706,-100,4,1,0,100,0,0
49893,-76.9230769230769,4,1,0,100,0,0
50362,-90.9090909090909,4,1,0,100,0,0
50456,-92.1052873961283,4,1,0,100,0,0
50549,-93.3332960000149,4,1,0,100,0,0
50643,-94.594581811543,4,1,0,100,0,0
50737,-95.8904240945786,4,1,0,100,0,0
50924,-98.5915215235151,4,1,0,100,0,0
51018,-100,4,1,0,100,0,0
51206,-111.111111111111,4,1,0,100,0,0
51581,-90.9090909090909,4,1,0,100,0,0
51956,-100,4,1,0,100,0,0
52143,-90.9090909090909,4,1,0,100,0,0
52706,-100,4,1,0,100,0,0
53081,-90.9090909090909,4,1,0,100,0,0
53362,-100,4,1,0,100,0,0
53456,-97.6095423088561,4,1,0,100,0,0
53549,-95.3307022059524,4,1,0,100,0,0
53667,-92.5925925925926,4,1,0,100,0,0
53737,-91.0780821506086,4,1,0,100,0,0
54018,-83.4753109246644,4,1,0,100,0,0
54206,-100,4,1,0,100,0,0
54393,-90.9090909090909,4,1,0,100,0,0
54487,-93.000935589412,4,1,0,100,0,0
54581,-95.1914061198555,4,1,0,100,0,0
54674,-97.4874558016247,4,1,0,100,0,0
54768,-99.8970061866216,4,1,0,100,0,0
54862,-102.428686587681,4,1,0,100,0,0
54956,-105.092134274118,4,1,0,100,0,0
55049,-107.89767847355,4,1,0,100,0,0
55331,-83.1903845225954,4,1,0,100,0,0
55706,-100,4,1,0,100,0,0
55799,-83.3333333333333,4,1,0,100,0,0
56456,-90.9090909090909,4,1,0,100,0,0
56831,-76.9230769230769,4,1,0,100,0,0
57206,-66.6666666666667,4,1,0,100,0,0
59480,-76.9230769230769,4,1,0,100,0,0
59605,-78.9259753277401,4,1,0,100,0,0
59730,-81.035898092496,4,1,0,100,0,0
59855,-83.2617975722525,4,1,0,100,0,0
59980,-85.6134330901056,4,1,0,100,0,0
60105,-88.1016904952372,4,1,0,100,0,0
60230,-90.7389965355851,4,1,0,100,0,0
60417,-142.437562494481,4,1,0,80,0,0
71480,-90.9090909090909,4,1,0,80,0,0
71667,-93.000935589412,4,1,0,80,0,0
71761,-94.0833785717579,4,1,0,80,0,0
71855,-95.1914061198555,4,1,0,80,0,0
72042,-97.4874558016247,4,1,0,80,0,0
72230,-99.8970061866216,4,1,0,90,0,0
72417,-99.2779514590384,4,1,0,90,0,0
72511,-98.9208722051144,4,1,0,90,0,0
72698,-98.2142681760236,4,1,0,90,0,0
72792,-97.864786096937,4,1,0,90,0,0
72980,-97.1731362921258,4,1,0,90,0,0
73073,-96.8310114870629,4,1,0,90,0,0
73167,-96.4911942136161,4,1,0,90,0,0
73261,-96.1538461538461,4,1,0,90,0,0
73355,-95.8188487173689,4,1,0,90,0,0
73542,-95.155717574024,4,1,0,90,0,0
73730,-94.5017019756526,4,1,0,90,0,0
73917,-93.8566152488843,4,1,0,90,0,0
74011,-93.5374070121253,4,1,0,90,0,0
74198,-92.9053740184547,4,1,0,90,0,0
74292,-92.5925925925926,4,1,0,90,0,0
74480,-91.9732210769512,4,1,0,90,0,0
74667,-91.3621641869453,4,1,0,90,0,0
74761,-91.059587572916,4,1,0,90,0,0
74855,-90.7590908843384,4,1,0,90,0,0
74948,-90.4604891198647,4,1,0,90,0,0
75042,-90.1639270357437,4,1,0,90,0,0
75230,-89.5765180532515,4,1,0,90,0,0
75323,-89.2857142857143,4,1,0,90,0,0
75417,-88.9967925555963,4,1,0,90,0,0
75511,-88.7096559573413,4,1,0,90,0,0
75698,-88.1410609539507,4,1,0,90,0,0
75792,-87.8594108850781,4,1,0,90,0,0
75980,-87.301552658114,4,1,0,90,0,0
76073,-87.0253095707825,4,1,0,90,0,0
76167,-86.7508091681725,4,1,0,90,0,0
76261,-86.4779602270565,4,1,0,90,0,0
76448,-85.9375268554771,4,1,0,90,0,0
76542,-85.6697619151647,4,1,0,90,0,0
76730,-85.1393518341145,4,1,0,90,0,0
76917,-84.6153976331381,4,1,0,90,0,0
77011,-84.3557958758451,4,1,0,90,0,0
77105,-84.0978528977177,4,1,0,90,0,0
77198,-83.8414825857049,4,1,0,90,0,0
77292,-83.586600733556,4,1,0,90,0,0
77480,-83.081596097159,4,1,0,90,0,0
77573,-82.8313065893133,4,1,0,90,0,0
77667,-82.5825887824766,4,1,0,90,0,0
77761,-82.3353601554492,4,1,0,90,0,0
77855,-82.0895399866358,4,1,0,90,0,0
78230,-81.1209618999178,4,1,0,100,0,0
78323,-80.8823291522561,4,1,0,100,0,0
78417,-80.6451612903226,4,1,0,100,0,0
78605,-80.1749095827457,4,1,0,100,0,0
78792,-79.710173808034,4,1,0,100,0,0
78980,-79.2507318805089,4,1,0,100,0,0
79073,-79.0229601210632,4,1,0,100,0,0
79167,-78.7965559601321,4,1,0,100,0,0
79355,-78.3475560263373,4,1,0,100,0,0
79542,-77.9037047885849,4,1,0,100,0,0
79730,-77.4647941876616,4,1,0,100,0,0
79823,-77.2472181345569,4,1,0,100,0,0
79917,-77.0308015363023,4,1,0,100,0,0
80105,-76.6016446373104,4,1,0,100,0,0
80292,-76.1773011448687,4,1,0,100,0,0
80386,-75.9668298434172,4,1,0,100,0,0
80480,-75.7575757575758,4,1,0,100,0,0
80667,-75.3424502720993,4,1,0,100,0,0
80855,-74.931905630758,4,1,0,100,0,0
80948,-74.7282507162703,4,1,0,100,0,0
81042,-74.5257553557934,4,1,0,100,0,0
81230,-74.1239842234512,4,1,0,100,0,0
81323,-73.9247460869784,4,1,0,100,0,0
81417,-73.7265217891363,4,1,0,100,0,0
81511,-73.5294117647059,4,1,0,100,0,0
81605,-73.3333528888941,4,1,0,100,0,0
81792,-72.9443019193834,4,1,0,100,0,0
81980,-72.5593571821428,4,1,0,100,0,0
82073,-72.3684305747935,4,1,0,100,0,0
82167,-72.1784540096936,4,1,0,100,0,0
82261,-71.9895240844552,4,1,0,100,0,0
82355,-71.8015806399962,4,1,0,100,0,0
82542,-71.4285714285714,4,1,0,100,0,0
84042,-76.9230769230769,4,1,0,100,0,0
84230,-83.3333333333333,4,1,0,100,0,0
84323,-76.9230769230769,4,1,0,100,0,0
95105,-76.9230769230769,4,1,0,100,0,0
95292,-78.9330150754165,4,1,0,100,0,0
95386,-79.9779260923985,4,1,0,100,0,0
95573,-82.1530001043343,4,1,0,100,0,0
95667,-83.2854442029167,4,1,0,100,0,0
95855,-85.646796039007,4,1,0,100,0,0
95948,-86.8784067195235,4,1,0,100,0,0
96042,-88.1458779020928,4,1,0,100,0,0
96230,-90.7952666611584,4,1,0,100,0,0
96511,-76.8415657544804,4,1,0,100,0,0
105230,-76.9230769230769,4,1,0,100,0,0
105417,-76.0894294281955,4,1,0,100,0,0
105511,-75.6793164644137,4,1,0,100,0,0
105698,-74.8722679109439,4,1,0,100,0,0
105792,-74.4751364756876,4,1,0,100,0,0
105980,-73.6934338413513,4,1,0,100,0,0
106167,-72.9279173172445,4,1,0,100,0,0
106261,-72.5511449296181,4,1,0,100,0,0
106448,-71.8090568454856,4,1,0,100,0,0
106542,-71.4437277050917,4,1,0,100,0,0
106730,-70.7240087499744,4,1,0,100,0,0
106917,-70.0186949915627,4,1,0,100,0,0
107011,-69.6712631121317,4,1,0,100,0,0
107198,-68.9866890183539,4,1,0,100,0,0
107292,-68.6493985969436,4,1,0,100,0,0
107480,-67.9846626601039,4,1,0,100,0,0
107573,-67.6570760506129,4,1,0,100,0,0
107761,-67.0113282650432,4,1,0,100,0,0
107855,-66.6930326455726,4,1,0,100,0,0
108230,-100,4,1,0,80,0,0
118730,-100,4,1,0,80,0,0
118917,-98.7717730027113,4,1,0,80,0,0
119105,-97.5733507664387,4,1,0,80,0,0
119198,-96.9849324208991,4,1,0,80,0,0
119292,-96.4035684744906,4,1,0,80,0,0
119386,-95.8292246553262,4,1,0,80,0,0
119480,-95.261593097726,4,1,0,80,0,0
119667,-94.1463561594312,4,1,0,80,0,0
119855,-93.0569294377221,4,1,0,80,0,0
119948,-92.5215737179517,4,1,0,80,0,0
120042,-91.9923425574055,4,1,0,80,0,0
120230,-90.9519209955233,4,1,0,80,0,0
131480,-66.6896968419761,4,1,0,100,0,0
132230,-125,4,1,0,80,0,0
132605,-121.741438229003,4,1,0,80,0,0
132792,-120.175119183674,4,1,0,80,0,0
132980,-118.648592531071,4,1,0,80,0,0
133073,-117.899780470609,4,1,0,80,0,0
133167,-117.160223635435,4,1,0,80,0,0
133355,-115.708867233332,4,1,0,80,0,0
133542,-114.293029039573,4,1,0,80,0,0
133636,-113.598024303161,4,1,0,80,0,0
133730,-112.911293500487,4,1,0,80,0,0
134105,-110.245925586205,4,1,0,80,0,0
134292,-108.959761160204,4,1,0,80,0,0
134480,-107.70337628544,4,1,0,80,0,0
134573,-107.085986834849,4,1,0,80,0,0
134667,-106.475635180402,4,1,0,80,0,0
134855,-105.275569330279,4,1,0,80,0,0
135042,-104.102145024698,4,1,0,80,0,0
135136,-103.525241524388,4,1,0,80,0,0
135230,-102.954696844747,4,1,0,80,0,0
135605,-100.733947541789,4,1,0,80,0,0
135792,-99.6591656534652,4,1,0,80,0,0
135980,-98.6070764382335,4,1,0,80,0,0
136073,-98.0892219562915,4,1,0,80,0,0
136167,-97.5768735003654,4,1,0,80,0,0
136355,-96.5680674508638,4,1,0,80,0,0
136542,-95.5799071919101,4,1,0,80,0,0
136636,-95.0932817547373,4,1,0,80,0,0
136730,-94.6116758376918,4,1,0,80,0,0
136917,-93.6629519939906,4,1,0,80,0,0
137011,-93.1956895129687,4,1,0,80,0,0
137105,-92.733066014815,4,1,0,80,0,0
137292,-91.8213780368773,4,1,0,80,0,0
137386,-91.3722652281017,4,1,0,80,0,0
137480,-90.927524398128,4,1,0,80,0,0
137573,-90.4870920163239,4,1,0,80,0,0
137667,-90.0509057770358,4,1,0,80,0,0
137761,-89.6189045702057,4,1,0,80,0,0
137855,-89.1909489025054,4,1,0,80,0,0
138042,-88.3473393315287,4,1,0,80,0,0
138136,-87.9314908168748,4,1,0,80,0,0
138230,-87.5195387370231,4,1,0,90,0,0
138417,-86.7070316801482,4,1,0,90,0,0
138605,-85.9095458391859,4,1,0,90,0,0
138792,-85.1265960172671,4,1,0,90,0,0
138980,-84.3577172126861,4,1,0,90,0,0
139073,-83.9784981453349,4,1,0,90,0,0
139167,-83.6026732790808,4,1,0,90,0,0
139355,-82.8610254880515,4,1,0,90,0,0
139542,-82.1324204588574,4,1,0,90,0,0
139636,-81.7728350641917,4,1,0,90,0,0
139730,-81.4164508452249,4,1,0,90,0,0
139917,-80.7129210893984,4,1,0,90,0,0
140105,-80.0214457474603,4,1,0,90,0,0
140292,-79.3416546860768,4,1,0,90,0,0
140480,-78.6733780303018,4,1,0,90,0,0
140573,-78.3434435547241,4,1,0,90,0,0
140667,-78.0162648308919,4,1,0,90,0,0
140855,-77.3699778180274,4,1,0,90,0,0
141042,-76.734369400789,4,1,0,90,0,0
141136,-76.4204654006343,4,1,0,90,0,0
141230,-76.1091191663312,4,1,0,90,0,0
141323,-75.8002421059733,4,1,0,90,0,0
141417,-75.4939189648274,4,1,0,90,0,0
141605,-74.8886405914405,4,1,0,90,0,0
141698,-74.589626522281,4,1,0,90,0,0
141792,-74.2929907534944,4,1,0,90,0,0
141980,-73.7066871866084,4,1,0,90,0,0
142073,-73.4170189459959,4,1,0,90,0,0
142167,-73.1296185924742,4,1,0,90,0,0
142261,-72.8444595960921,4,1,0,90,0,0
142355,-72.5615158390905,4,1,0,90,0,0
142448,-72.2807616079289,4,1,0,90,0,0
142542,-72.0021197424052,4,1,0,90,0,0
142636,-71.7256693977411,4,1,0,90,0,0
142730,-71.4513337820477,4,1,0,90,0,0
143456,-83.3333333333333,4,1,0,70,0,0
143549,-85.7118368046627,4,1,0,70,0,0
143643,-88.2378893496867,4,1,0,70,0,0
143737,-90.9090909090909,4,1,0,70,0,0
143831,-93.7470704040499,4,1,0,70,0,0
143924,-96.7773153972709,4,1,0,70,0,0
144018,-100,4,1,0,70,0,0
144206,-111.111111111111,4,1,0,70,0,0
144581,-83.3333333333333,4,1,0,100,0,0
144674,-85.0701829008932,4,1,0,100,0,0
144768,-86.8809730668983,4,1,0,100,0,0
144862,-88.7705281846427,4,1,0,100,0,0
144956,-90.7441016333938,4,1,0,100,0,0
145237,-76.8049155145929,4,1,0,100,0,0
145424,-71.3266761768901,4,1,0,100,0,0
145706,-90.9090909090909,4,1,0,100,0,0
145893,-71.4285714285714,4,1,0,100,0,0
146362,-83.3333333333333,4,1,0,100,0,0
146456,-84.3383655224762,4,1,0,100,0,0
146549,-85.3679358033123,4,1,0,100,0,0
146643,-86.4229539365655,4,1,0,100,0,0
146737,-87.4967188730423,4,1,0,100,0,0
146924,-89.7424391994974,4,1,0,100,0,0
147018,-90.9090909090909,4,1,0,100,0,0
147206,-100,4,1,0,100,0,0
147581,-83.3333333333333,4,1,0,100,0,0
147956,-90.9090909090909,4,1,0,100,0,0
148143,-83.3333333333333,4,1,0,100,0,0
148706,-90.9090909090909,4,1,0,100,0,0
149081,-83.3333333333333,4,1,0,100,0,0
149362,-90.9090909090909,4,1,0,100,0,0
149456,-88.9284126278346,4,1,0,100,0,0
149549,-87.0322019147084,4,1,0,100,0,0
149737,-83.4724540901502,4,1,0,100,0,0
150018,-77.0416024653313,4,1,0,100,0,0
150206,-90.9090909090909,4,1,0,100,0,0
150393,-83.3333333333333,4,1,0,100,0,0
150487,-85.0846592359398,4,1,0,100,0,0
150581,-86.9187309865276,4,1,0,100,0,0
150674,-88.82572392965,4,1,0,100,0,0
150768,-90.8265213442325,4,1,0,100,0,0
150862,-92.910898448388,4,1,0,100,0,0
150956,-95.1022349025202,4,1,0,100,0,0
151049,-97.3899493572263,4,1,0,100,0,0
151143,-99.7904400758407,4,1,0,100,0,0
151331,-76.7990169725827,4,1,0,100,0,0
151706,-90.9090909090909,4,1,0,100,0,0
151799,-76.9230769230769,4,1,0,100,0,0
152456,-83.3333333333333,4,1,0,100,0,0
152831,-71.4285714285714,4,1,0,100,0,0
153206,-78.945290913397,4,1,0,100,0,0
153393,-83.3333333333333,4,1,0,100,0,0
153581,-71.4285714285714,4,1,0,100,0,0
153956,-78.125,4,1,0,100,0,0
154049,-80,4,1,0,100,0,0
154331,-71.4285714285714,4,1,0,100,0,0
154518,-70.1902154839615,4,1,0,100,0,0
154706,-68.9893066574681,4,1,0,100,0,0
155081,-66.711140760507,4,1,0,100,0,0
155643,-100.1001001001,4,1,0,100,0,0
156182,-76.9230769230769,4,1,0,100,0,0
156557,-83.3333333333333,4,1,0,100,0,0
156650,-85.0701829008932,4,1,0,100,0,0
156744,-86.8809730668983,4,1,0,100,0,0
156838,-88.7705281846427,4,1,0,100,0,0
156932,-90.7441016333938,4,1,0,100,0,0
157049,-93.4579439252336,4,1,0,100,0,0
157213,-76.8049155145929,4,1,0,100,0,0
157400,-71.3266761768901,4,1,0,100,0,0
157682,-90.9090909090909,4,1,0,100,0,0
157869,-71.4285714285714,4,1,0,100,0,0
158338,-83.3333333333333,4,1,0,100,0,0
158432,-84.3383655224762,4,1,0,100,0,0
158525,-85.3679358033123,4,1,0,100,0,0
158619,-86.4229539365655,4,1,0,100,0,0
158713,-87.4967188730423,4,1,0,100,0,0
158900,-89.7424391994974,4,1,0,100,0,0
158994,-90.9090909090909,4,1,0,100,0,0
159182,-100,4,1,0,100,0,0
159557,-83.3333333333333,4,1,0,100,0,0
159932,-90.9090909090909,4,1,0,100,0,0
160119,-83.3333333333333,4,1,0,100,0,0
160682,-90.9090909090909,4,1,0,100,0,0
161057,-83.3333333333333,4,1,0,100,0,0
161338,-90.9090909090909,4,1,0,100,0,0
161432,-88.9284126278346,4,1,0,100,0,0
161525,-87.0322019147084,4,1,0,100,0,0
161643,-84.7457627118644,4,1,0,100,0,0
161713,-83.4724540901502,4,1,0,100,0,0
161994,-77.0416024653313,4,1,0,100,0,0
162182,-90.9090909090909,4,1,0,100,0,0
162369,-83.3333333333333,4,1,0,100,0,0
162463,-85.0846592359398,4,1,0,100,0,0
162557,-86.9187309865276,4,1,0,100,0,0
162650,-88.82572392965,4,1,0,100,0,0
162744,-90.8265213442325,4,1,0,100,0,0
162838,-92.910898448388,4,1,0,100,0,0
162932,-95.1022349025202,4,1,0,100,0,0
163025,-97.3899493572263,4,1,0,100,0,0
163307,-76.7990169725827,4,1,0,100,0,0
163682,-90.9090909090909,4,1,0,100,0,0
163775,-76.9230769230769,4,1,0,100,0,0
164432,-83.3333333333333,4,1,0,100,0,0
164807,-71.4285714285714,4,1,0,100,0,0
165182,-66.6666666666667,4,1,0,100,0,0
168206,-90.7389965355851,4,1,0,80,0,0
168393,-142.437562494481,4,1,0,80,0,0
179456,-90.9090909090909,4,1,0,80,0,0
179643,-93.000935589412,4,1,0,80,0,0
179737,-94.0833785717579,4,1,0,80,0,0
179831,-95.1914061198555,4,1,0,80,0,0
180018,-97.4874558016247,4,1,0,80,0,0
180206,-99.8970061866216,4,1,0,90,0,0
180393,-99.2779514590384,4,1,0,90,0,0
180487,-98.9208722051144,4,1,0,90,0,0
180674,-98.2142681760236,4,1,0,90,0,0
180768,-97.864786096937,4,1,0,90,0,0
180956,-97.1731362921258,4,1,0,90,0,0
181049,-96.8310114870629,4,1,0,90,0,0
181143,-96.4911942136161,4,1,0,90,0,0
181237,-96.1538461538461,4,1,0,90,0,0
181331,-95.8188487173689,4,1,0,90,0,0
181518,-95.155717574024,4,1,0,90,0,0
181706,-94.5017019756526,4,1,0,90,0,0
181893,-93.8566152488843,4,1,0,90,0,0
181987,-93.5374070121253,4,1,0,90,0,0
182174,-92.9053740184547,4,1,0,90,0,0
182268,-92.5925925925926,4,1,0,90,0,0
182456,-91.9732210769512,4,1,0,90,0,0
182643,-91.3621641869453,4,1,0,90,0,0
182737,-91.059587572916,4,1,0,90,0,0
182831,-90.7590908843384,4,1,0,90,0,0
182924,-90.4604891198647,4,1,0,90,0,0
183018,-90.1639270357437,4,1,0,90,0,0
183206,-89.5765180532515,4,1,0,90,0,0
183299,-89.2857142857143,4,1,0,90,0,0
183393,-88.9967925555963,4,1,0,90,0,0
183487,-88.7096559573413,4,1,0,90,0,0
183674,-88.1410609539507,4,1,0,90,0,0
183768,-87.8594108850781,4,1,0,90,0,0
183956,-87.301552658114,4,1,0,90,0,0
184049,-87.0253095707825,4,1,0,90,0,0
184143,-86.7508091681725,4,1,0,90,0,0
184237,-86.4779602270565,4,1,0,90,0,0
184424,-85.9375268554771,4,1,0,90,0,0
184518,-85.6697619151647,4,1,0,90,0,0
184706,-85.1393518341145,4,1,0,90,0,0
184893,-84.6153976331381,4,1,0,90,0,0
184987,-84.3557958758451,4,1,0,90,0,0
185081,-84.0978528977177,4,1,0,90,0,0
185174,-83.8414825857049,4,1,0,90,0,0
185268,-83.586600733556,4,1,0,90,0,0
185456,-83.081596097159,4,1,0,90,0,0
185549,-82.8313065893133,4,1,0,90,0,0
185643,-82.5825887824766,4,1,0,90,0,0
185737,-82.3353601554492,4,1,0,90,0,0
185831,-82.0895399866358,4,1,0,90,0,0
186206,-81.1209618999178,4,1,0,100,0,0
186299,-80.8823291522561,4,1,0,100,0,0
186393,-80.6451612903226,4,1,0,100,0,0
186581,-80.1749095827457,4,1,0,100,0,0
186768,-79.710173808034,4,1,0,100,0,0
186956,-79.2507318805089,4,1,0,100,0,0
187049,-79.0229601210632,4,1,0,100,0,0
187143,-78.7965559601321,4,1,0,100,0,0
187331,-78.3475560263373,4,1,0,100,0,0
187518,-77.9037047885849,4,1,0,100,0,0
187706,-77.4647941876616,4,1,0,100,0,0
187799,-77.2472181345569,4,1,0,100,0,0
187893,-77.0308015363023,4,1,0,100,0,0
188081,-76.6016446373104,4,1,0,100,0,0
188268,-76.1773011448687,4,1,0,100,0,0
188362,-75.9668298434172,4,1,0,100,0,0
188456,-75.7575757575758,4,1,0,100,0,0
188643,-75.3424502720993,4,1,0,100,0,0
188831,-74.931905630758,4,1,0,100,0,0
188924,-74.7282507162703,4,1,0,100,0,0
189018,-74.5257553557934,4,1,0,100,0,0
189206,-74.1239842234512,4,1,0,100,0,0
189299,-73.9247460869784,4,1,0,100,0,0
189393,-73.7265217891363,4,1,0,100,0,0
189487,-73.5294117647059,4,1,0,100,0,0
189581,-73.3333528888941,4,1,0,100,0,0
189768,-72.9443019193834,4,1,0,100,0,0
189956,-72.5593571821428,4,1,0,100,0,0
190049,-72.3684305747935,4,1,0,100,0,0
190143,-72.1784540096936,4,1,0,100,0,0
190237,-71.9895240844552,4,1,0,100,0,0
190331,-71.8015806399962,4,1,0,100,0,0
190518,-71.4285714285714,4,1,0,100,0,0
192018,-76.9230769230769,4,1,0,100,0,0
192230,-83.3333333333333,4,1,0,100,0,1
192299,-76.9230769230769,4,1,0,100,0,1
203761,-79.3650793650794,4,1,0,100,0,1
204042,-81.9672131147541,4,1,0,100,0,1
204230,-83.3333333333333,4,1,0,100,0,0
204605,-76.9230769230769,4,1,0,100,0,1
213230,-76.9230769230769,4,1,0,100,0,1
213323,-76.6781786172164,4,1,0,100,0,1
213511,-76.1929724173821,4,1,0,100,0,1
213698,-75.7139255323257,4,1,0,100,0,1
213792,-75.4766539387869,4,1,0,100,0,1
213886,-75.2408082066654,4,1,0,100,0,1
213980,-75.0064880612173,4,1,0,100,0,1
214073,-74.773622856801,4,1,0,100,0,1
214261,-74.3121481784235,4,1,0,100,0,1
214448,-73.8563892054456,4,1,0,100,0,1
214542,-73.6305996991454,4,1,0,100,0,1
214636,-73.4061326419454,4,1,0,100,0,1
214730,-73.1830835838634,4,1,0,100,0,1
214917,-72.7410273942709,4,1,0,100,0,1
215011,-72.5219433270022,4,1,0,100,0,1
215198,-72.0878144921017,4,1,0,100,0,1
215292,-71.8726933357483,4,1,0,100,0,1
215386,-71.6588009189525,4,1,0,100,0,1
215480,-66.6820479924036,4,1,0,100,0,1
216230,-76.9230769230769,4,1,0,100,0,0
216511,-78.0473185282773,4,1,0,100,0,0
216792,-79.2048467029795,4,1,0,100,0,0
216980,-79.9958402163088,4,1,0,100,0,0
217261,-81.2124037328469,4,1,0,100,0,0
217542,-82.4664732552981,4,1,0,100,0,0
217730,-83.3243065334589,4,1,0,100,0,0
218011,-84.6450494496379,4,1,0,100,0,0
218292,-86.0082619536433,4,1,0,100,0,0
218480,-86.9417794373997,4,1,0,100,0,0
218761,-88.3806803368011,4,1,0,100,0,0
219042,-89.8679300899398,4,1,0,100,0,0
219230,-90.887608383473,4,1,0,100,0,0
219511,-92.461263353718,4,1,0,100,0,0
219792,-94.0902833905245,4,1,0,100,0,0
219980,-95.2086259015067,4,1,0,100,0,0
220261,-96.9368911757379,4,1,0,100,0,0
220542,-98.7289633261393,4,1,0,100,0,0
220730,-99.9610152040704,4,1,0,100,0,0
221011,-101.867848877009,4,1,0,100,0,0
221292,-103.848738082059,4,1,0,100,0,0
221480,-105.212766517089,4,1,0,100,0,0
221761,-107.327229991521,4,1,0,100,0,0
222042,-109.528545329484,4,1,0,100,0,0
222230,-111.046950650735,4,1,0,100,0,0
222323,-109.813120032329,4,1,0,100,0,0
222417,-108.544987012592,4,1,0,100,0,0
222511,-107.305923823525,4,1,0,100,0,0
222605,-106.094829680665,4,1,0,100,0,0
222792,-103.752736478425,4,1,0,100,0,0
222980,-101.511918514353,4,1,0,100,0,0
223073,-100.427318239107,4,1,0,100,0,0
223167,-99.3657484277854,4,1,0,100,0,0
223355,-97.3084483194831,4,1,0,100,0,0
223542,-95.3347010685113,4,1,0,100,0,0
223730,-93.4393433830462,4,1,0,100,0,0
223823,-92.5196905031313,4,1,0,100,0,0
223917,-91.6179640839257,4,1,0,100,0,0
224011,-90.7335627077799,4,1,0,100,0,0
224105,-89.8661533511987,4,1,0,100,0,0
224292,-88.1800778277367,4,1,0,100,0,0
224480,-86.5561805873529,4,1,0,100,0,0
224573,-85.7664562243719,4,1,0,100,0,0
224667,-84.9909399657997,4,1,0,100,0,0
224855,-83.4813736359144,4,1,0,100,0,0
225042,-82.0244285153004,4,1,0,100,0,0
225230,-80.6174652901503,4,1,0,100,0,0
225323,-79.9319619140188,4,1,0,100,0,0
225417,-79.2580181374049,4,1,0,100,0,0
225511,-78.5953440118207,4,1,0,100,0,0
225605,-77.9435984532872,4,1,0,100,0,0
225698,-77.3026328503722,4,1,0,100,0,0
225792,-76.6721231660987,4,1,0,100,0,0
225980,-75.4414076763141,4,1,0,100,0,0
226073,-74.8407762485312,4,1,0,100,0,0
226167,-74.2495780767726,4,1,0,100,0,0
226261,-73.6677012067506,4,1,0,100,0,0
226355,-73.0948734910477,4,1,0,100,0,0
226448,-72.5308854643028,4,1,0,100,0,0
226542,-71.975482271719,4,1,0,100,0,0
226636,-71.4285714285714,4,1,0,100,0,0
226730,-70.9219858156028,4,1,0,100,0,0
228042,-76.9230769230769,4,1,0,100,0,0
228230,-83.3333333333333,4,1,0,100,0,0
228323,-76.9230769230769,4,1,0,100,0,0
239105,-100,4,1,0,100,0,0
239292,-95.2693980403085,4,1,0,100,0,0
239386,-93.0680150360685,4,1,0,100,0,0
239573,-88.9570497572362,4,1,0,100,0,0
239667,-87.0347773563361,4,1,0,100,0,0
239855,-83.429207397501,4,1,0,100,0,0
239948,-81.7362078322904,4,1,0,100,0,0
240042,-80.1104883855814,4,1,0,100,0,0
240230,-91.0804048706157,4,1,0,100,0,0
240605,-77.0456981149229,4,1,0,100,0,0
249230,-76.9230769230769,4,1,0,100,0,0
249417,-76.555961642401,4,1,0,100,0,0
249511,-76.3737149167794,4,1,0,100,0,0
249698,-76.0118700136213,4,1,0,100,0,0
249792,-75.8322015377254,4,1,0,100,0,0
249980,-75.4754006800334,4,1,0,100,0,0
250167,-75.1219416918513,4,1,0,100,0,0
250261,-74.9464507609313,4,1,0,100,0,0
250448,-74.5979728746851,4,1,0,100,0,0
250542,-74.4249186535639,4,1,0,100,0,0
250730,-74.0812078200123,4,1,0,100,0,0
250917,-73.7406570587507,4,1,0,100,0,0
251011,-73.5715531175578,4,1,0,100,0,0
251198,-73.2356613729489,4,1,0,100,0,0
251292,-73.0689164098903,4,1,0,100,0,0
251480,-72.7375882397867,4,1,0,100,0,0
251573,-72.5730484018689,4,1,0,100,0,0
251761,-72.2461919032248,4,1,0,100,0,0
251855,-72.083865252189,4,1,0,100,0,0
252230,-71.4418391987083,4,1,0,100,0,1
263480,-71.4285714285714,4,1,0,100,0,1
263605,-73.1523544085266,4,1,0,100,0,1
263730,-74.9613386895709,4,1,0,100,0,1
263855,-76.8621193499617,4,1,0,100,0,1
263980,-78.8618033644023,4,1,0,100,0,1
264105,-80.9682507295239,4,1,0,100,0,1
264230,-83.1903845225953,4,1,0,100,0,0

[HitObjects]
282,100,230,5,4,0:0:0:0:
324,88,2480,5,8,0:0:0:0:
324,88,3230,1,0,0:0:0:0:
330,76,4730,1,0,0:0:0:0:
330,76,5480,1,8,0:0:0:0:
330,76,6230,1,8,0:0:0:0:
332,76,8480,1,8,0:0:0:0:
327,69,8573,1,8,0:0:0:0:
332,76,9230,1,0,0:0:0:0:
332,76,9323,1,0,0:0:0:0:
332,76,9417,1,8,0:0:0:0:
329,74,10730,1,8,0:0:0:0:
329,74,11480,1,0,0:0:0:0:
329,74,12230,1,8,0:0:0:0:
336,70,12605,1,0,0:0:0:0:
335,71,12792,1,0,0:0:0:0:
335,71,12980,1,8,0:0:0:0:
336,70,13355,1,8,0:0:0:0:
328,67,13542,1,0,0:0:0:0:
328,67,13730,1,8,0:0:0:0:
328,67,14105,1,0,0:0:0:0:
328,67,14480,1,8,0:0:0:0:
328,67,14855,1,0,0:0:0:0:
328,67,15230,1,0,0:0:0:0:
331,57,15605,1,8,0:0:0:0:
330,56,15792,1,0,0:0:0:0:
331,56,15980,1,8,0:0:0:0:
331,57,16355,1,0,0:0:0:0:
331,57,16542,1,8,0:0:0:0:
330,56,16730,1,0,0:0:0:0:
331,57,17105,1,0,0:0:0:0:
331,57,17480,1,8,0:0:0:0:
317,60,17855,1,8,0:0:0:0:
322,63,18230,1,0,0:0:0:0:
317,60,18605,1,8,0:0:0:0:
325,69,18792,1,0,0:0:0:0:
315,68,18980,1,8,0:0:0:0:
325,69,19355,1,0,0:0:0:0:
325,69,19542,1,0,0:0:0:0:
325,69,19730,1,8,0:0:0:0:
310,92,20105,1,0,0:0:0:0:
312,88,20480,1,8,0:0:0:0:
310,92,20855,1,8,0:0:0:0:
312,88,21230,1,0,0:0:0:0:
310,92,21605,1,8,0:0:0:0:
310,92,21792,1,0,0:0:0:0:
312,88,21980,1,8,0:0:0:0:
310,92,22355,1,0,0:0:0:0:
321,96,22542,1,0,0:0:0:0:
310,92,22730,1,8,0:0:0:0:
318,96,23105,1,8,0:0:0:0:
321,96,23480,1,0,0:0:0:0:
318,96,23855,1,0,0:0:0:0:
321,96,24230,1,8,0:0:0:0:
318,96,24605,1,0,0:0:0:0:
318,96,24792,1,8,0:0:0:0:
321,96,24980,1,0,0:0:0:0:
321,96,25073,1,8,0:0:0:0:
321,96,25167,1,8,0:0:0:0:
318,96,25355,1,0,0:0:0:0:
318,96,25542,1,8,0:0:0:0:
309,101,25636,1,8,0:0:0:0:
308,100,25730,1,0,0:0:0:0:
303,104,26105,1,8,0:0:0:0:
305,92,26292,1,0,0:0:0:0:
304,90,26480,1,8,0:0:0:0:
304,90,26573,1,8,0:0:0:0:
304,90,26667,1,0,0:0:0:0:
303,88,26855,1,8,0:0:0:0:
303,88,27042,1,0,0:0:0:0:
299,96,27136,1,8,0:0:0:0:
299,97,27230,1,8,0:0:0:0:
299,96,27605,1,8,0:0:0:0:
299,96,27792,1,0,0:0:0:0:
299,96,27980,1,8,0:0:0:0:
294,95,28073,1,0,0:0:0:0:
299,97,28167,1,8,0:0:0:0:
299,96,28355,1,8,0:0:0:0:
299,96,28542,1,0,0:0:0:0:
291,98,28636,1,0,0:0:0:0:
289,99,28730,1,8,0:0:0:0:
289,99,28917,1,0,0:0:0:0:
289,99,29011,1,8,0:0:0:0:
294,95,29105,1,8,0:0:0:0:
289,99,29292,1,8,0:0:0:0:
289,99,29386,1,0,0:0:0:0:
307,78,29480,1,8,0:0:0:0:
303,79,29573,1,8,0:0:0:0:
300,80,29667,1,0,0:0:0:0:
300,80,29761,1,0,0:0:0:0:
296,89,29855,1,8,0:0:0:0:
296,90,30042,1,8,0:0:0:0:
294,95,30136,1,8,0:0:0:0:
296,89,30230,1,0,0:0:0:0:
289,99,30417,1,0,0:0:0:0:
290,106,30605,1,8,0:0:0:0:
289,105,30792,1,8,0:0:0:0:
289,104,30980,1,0,0:0:0:0:
299,104,31073,1,0,0:0:0:0:
289,102,31167,1,0,0:0:0:0:
299,104,31355,1,8,0:0:0:0:
299,104,31542,1,8,0:0:0:0:
299,104,31636,1,8,0:0:0:0:
299,104,31730,1,0,0:0:0:0:
299,104,31917,1,0,0:0:0:0:
299,104,32105,1,8,0:0:0:0:
299,104,32292,1,8,0:0:0:0:
299,104,32480,1,0,0:0:0:0:
299,104,32667,1,0,0:0:0:0:
299,104,32855,1,8,0:0:0:0:
299,104,33042,1,8,0:0:0:0:
299,104,33136,1,8,0:0:0:0:
299,104,33230,1,0,0:0:0:0:
299,104,33323,1,0,0:0:0:0:
299,104,33417,1,8,0:0:0:0:
299,104,33605,1,0,0:0:0:0:
299,104,33698,1,0,0:0:0:0:
299,104,33792,1,8,0:0:0:0:
299,104,33980,1,0,0:0:0:0:
299,104,34073,1,0,0:0:0:0:
299,104,34167,1,8,0:0:0:0:
299,104,34261,1,8,0:0:0:0:
299,104,34355,1,0,0:0:0:0:
299,104,34448,1,0,0:0:0:0:
299,104,34542,1,0,0:0:0:0:
299,104,34636,1,0,0:0:0:0:
299,104,34730,1,8,0:0:0:0:
299,104,35480,1,8,0:0:0:0:
299,104,35573,1,8,0:0:0:0:
299,104,35667,1,0,0:0:0:0:
299,104,35761,1,8,0:0:0:0:
299,104,35855,1,8,0:0:0:0:
299,104,35948,1,0,0:0:0:0:
321,78,36042,1,8,0:0:0:0:
313,101,36230,1,4,0:0:0:0:
323,92,36605,1,8,0:0:0:0:
323,92,36698,1,0,0:0:0:0:
324,92,36792,1,0,0:0:0:0:
323,92,36886,1,0,0:0:0:0:
306,106,36980,1,8,0:0:0:0:
312,100,37261,1,4,0:0:0:0:
313,101,37542,1,12,0:0:0:0:
322,89,37917,1,12,0:0:0:0:
322,89,38105,1,12,0:0:0:0:
323,89,38386,1,0,0:0:0:0:
323,89,38480,1,8,0:0:0:0:
322,89,38573,1,8,0:0:0:0:
322,89,38667,1,0,0:0:0:0:
322,89,38761,1,8,0:0:0:0:
322,89,38948,1,0,0:0:0:0:
322,89,39042,1,8,0:0:0:0:
323,89,39230,1,8,0:0:0:0:
323,89,39323,1,0,0:0:0:0:
323,89,39417,1,8,0:0:0:0:
322,89,39605,1,4,0:0:0:0:
316,98,39980,1,8,0:0:0:0:
328,68,40073,1,0,0:0:0:0:
325,75,40261,1,4,0:0:0:0:
319,78,40542,1,4,0:0:0:0:
321,81,40917,1,8,0:0:0:0:
321,81,41105,1,4,0:0:0:0:
350,81,41386,1,8,0:0:0:0:
340,82,41480,1,0,0:0:0:0:
334,83,41573,1,8,0:0:0:0:
334,83,41761,1,8,0:0:0:0:
340,84,42042,1,12,0:0:0:0:
344,68,42417,1,8,0:0:0:0:
344,71,42511,1,0,0:0:0:0:
344,71,42605,1,8,0:0:0:0:
344,71,42698,1,8,0:0:0:0:
344,71,42792,1,0,0:0:0:0:
333,79,42886,1,0,0:0:0:0:
333,79,42980,1,8,0:0:0:0:
332,79,43073,1,0,0:0:0:0:
333,79,43167,1,8,0:0:0:0:
335,79,43355,1,4,0:0:0:0:
335,79,43636,1,4,0:0:0:0:
333,79,43917,1,4,0:0:0:0:
312,88,44198,1,4,0:0:0:0:
335,79,44480,1,8,0:0:0:0:
333,87,44573,1,0,0:0:0:0:
333,79,44667,1,0,0:0:0:0:
333,79,44855,1,12,0:0:0:0:
336,68,45230,1,8,0:0:0:0:
336,68,45417,1,0,0:0:0:0:
336,68,45605,1,12,0:0:0:0:
342,69,45980,1,8,0:0:0:0:
342,69,46073,1,0,0:0:0:0:
342,69,46355,1,12,0:0:0:0:
342,69,46542,1,4,0:0:0:0:
342,69,46730,1,12,0:0:0:0:
342,69,47105,1,12,0:0:0:0:
342,69,47667,1,8,0:0:0:0:
342,69,47855,1,8,0:0:0:0:
342,69,47948,1,8,0:0:0:0:
342,69,48042,1,0,0:0:0:0:
342,69,48230,1,4,0:0:0:0:
342,69,48605,1,8,0:0:0:0:
342,69,48698,1,0,0:0:0:0:
342,69,48792,1,0,0:0:0:0:
342,69,48886,1,0,0:0:0:0:
342,69,48980,1,8,0:0:0:0:
342,69,49073,1,8,0:0:0:0:
349,69,49261,1,4,0:0:0:0:
349,69,49542,1,12,0:0:0:0:
333,67,49917,1,12,0:0:0:0:
333,67,50105,1,12,0:0:0:0:
332,69,50386,1,8,0:0:0:0:
349,69,50480,1,0,0:0:0:0:
340,66,50573,1,8,0:0:0:0:
333,67,50761,1,0,0:0:0:0:
333,67,50948,1,8,0:0:0:0:
333,67,51042,1,0,0:0:0:0:
332,69,51230,1,8,0:0:0:0:
332,69,51323,1,0,0:0:0:0:
332,69,51417,1,8,0:0:0:0:
342,86,51605,1,4,0:0:0:0:
345,90,51980,1,8,0:0:0:0:
345,90,52073,1,8,0:0:0:0:
345,90,52261,1,4,0:0:0:0:
342,86,52542,1,4,0:0:0:0:
303,83,52917,1,8,0:0:0:0:
316,90,53105,1,4,0:0:0:0:
332,75,53386,1,0,0:0:0:0:
331,72,53480,1,8,0:0:0:0:
329,73,53573,1,8,0:0:0:0:
340,85,53667,1,0,0:0:0:0:
340,85,53855,1,0,0:0:0:0:
341,85,54042,1,12,0:0:0:0:
343,78,54417,1,8,0:0:0:0:
342,76,54511,1,0,0:0:0:0:
342,76,54605,1,8,0:0:0:0:
345,71,54698,1,8,0:0:0:0:
342,76,54792,1,0,0:0:0:0:
342,76,54886,1,0,0:0:0:0:
342,75,54980,1,8,0:0:0:0:
344,73,55073,1,0,0:0:0:0:
364,104,55355,1,4,0:0:0:0:
364,104,55636,1,4,0:0:0:0:
364,104,55917,1,4,0:0:0:0:
364,104,56198,1,4,0:0:0:0:
352,76,56480,1,8,0:0:0:0:
372,88,56573,1,8,0:0:0:0:
371,81,56667,1,0,0:0:0:0:
379,91,56855,1,12,0:0:0:0:
256,192,57230,12,0,59292,0:0:0:0:
345,120,59480,5,0,0:0:0:0:
345,120,59605,1,8,0:0:0:0:
345,120,59730,1,8,0:0:0:0:
345,120,59855,1,0,0:0:0:0:
345,120,59980,1,0,0:0:0:0:
345,120,60105,1,8,0:0:0:0:
345,120,60230,1,4,0:0:0:0:
352,119,61730,1,8,0:0:0:0:
363,117,63230,1,0,0:0:0:0:
362,103,65855,1,0,0:0:0:0:
351,119,66230,1,0,0:0:0:0:
361,103,67730,1,8,0:0:0:0:
361,103,69230,1,0,0:0:0:0:
349,112,71480,1,0,0:0:0:0:
345,103,71667,1,8,0:0:0:0:
345,103,71761,1,8,0:0:0:0:
345,103,71855,1,0,0:0:0:0:
345,103,72042,1,0,0:0:0:0:
367,95,72230,1,12,0:0:0:0:
355,91,72417,1,0,0:0:0:0:
355,91,72511,1,8,0:0:0:0:
355,91,72698,1,8,0:0:0:0:
352,90,72792,1,0,0:0:0:0:
355,88,72980,1,8,0:0:0:0:
355,88,73073,1,8,0:0:0:0:
355,88,73167,1,0,0:0:0:0:
355,88,73261,1,0,0:0:0:0:
355,91,73355,1,8,0:0:0:0:
369,85,73542,1,0,0:0:0:0:
369,85,73730,1,8,0:0:0:0:
355,88,73917,1,0,0:0:0:0:
355,88,74011,1,8,0:0:0:0:
355,88,74198,1,8,0:0:0:0:
355,88,74292,1,0,0:0:0:0:
352,87,74480,1,8,0:0:0:0:
351,86,74667,1,0,0:0:0:0:
351,86,74761,1,0,0:0:0:0:
355,88,74855,1,8,0:0:0:0:
355,88,74948,1,8,0:0:0:0:
355,88,75042,1,0,0:0:0:0:
355,88,75230,1,8,0:0:0:0:
355,88,75323,1,0,0:0:0:0:
352,87,75417,1,0,0:0:0:0:
352,87,75511,1,8,0:0:0:0:
354,69,75698,1,0,0:0:0:0:
354,72,75792,1,0,0:0:0:0:
354,72,75980,1,8,0:0:0:0:
354,72,76073,1,8,0:0:0:0:
354,72,76167,1,0,0:0:0:0:
355,71,76261,1,8,0:0:0:0:
339,50,76448,1,8,0:0:0:0:
343,54,76542,1,0,0:0:0:0:
342,53,76730,1,8,0:0:0:0:
342,53,76917,1,0,0:0:0:0:
348,54,77011,1,0,0:0:0:0:
349,54,77105,1,8,0:0:0:0:
349,54,77198,1,0,0:0:0:0:
349,54,77292,1,0,0:0:0:0:
343,54,77480,1,8,0:0:0:0:
348,46,77573,1,8,0:0:0:0:
348,46,77667,1,0,0:0:0:0:
348,46,77761,1,8,0:0:0:0:
350,42,77855,1,0,0:0:0:0:
340,43,78230,1,0,0:0:0:0:
340,43,78323,1,0,0:0:0:0:
340,43,78417,1,8,0:0:0:0:
342,54,78605,1,0,0:0:0:0:
347,52,78792,1,0,0:0:0:0:
347,52,78980,1,8,0:0:0:0:
351,45,79073,1,0,0:0:0:0:
348,51,79167,1,8,0:0:0:0:
348,50,79355,1,0,0:0:0:0:
348,51,79542,1,0,0:0:0:0:
347,52,79730,1,8,0:0:0:0:
347,52,79823,1,8,0:0:0:0:
347,52,79917,1,0,0:0:0:0:
351,45,80105,1,8,0:0:0:0:
348,50,80292,1,0,0:0:0:0:
348,51,80386,1,0,0:0:0:0:
348,51,80480,1,8,0:0:0:0:
347,52,80667,1,0,0:0:0:0:
347,52,80855,1,8,0:0:0:0:
347,52,80948,1,0,0:0:0:0:
351,45,81042,1,8,0:0:0:0:
348,50,81230,1,8,0:0:0:0:
348,50,81323,1,8,0:0:0:0:
348,51,81417,1,0,0:0:0:0:
348,51,81511,1,0,0:0:0:0:
347,52,81605,1,8,0:0:0:0:
347,52,81792,1,0,0:0:0:0:
344,50,81980,1,8,0:0:0:0:
344,50,82073,1,8,0:0:0:0:
348,50,82167,1,8,0:0:0:0:
348,50,82261,1,8,0:0:0:0:
348,51,82355,1,0,0:0:0:0:
341,48,82542,1,0,0:0:0:0:
339,49,83855,1,8,0:0:0:0:
339,49,84042,1,8,0:0:0:0:
350,60,84230,1,0,0:0:0:0:
349,59,84605,1,0,0:0:0:0:
349,59,84698,1,8,0:0:0:0:
360,54,84792,1,8,0:0:0:0:
350,52,84980,1,0,0:0:0:0:
355,44,85167,1,8,0:0:0:0:
355,44,85261,1,0,0:0:0:0:
355,41,85448,1,8,0:0:0:0:
327,37,85542,1,8,0:0:0:0:
328,38,85636,1,0,0:0:0:0:
350,40,85730,1,0,0:0:0:0:
348,42,85917,1,8,0:0:0:0:
355,44,86011,1,8,0:0:0:0:
355,44,86198,1,0,0:0:0:0:
355,41,86292,1,8,0:0:0:0:
355,41,86386,1,8,0:0:0:0:
349,40,86480,1,0,0:0:0:0:
348,40,86667,1,8,0:0:0:0:
350,40,86761,1,8,0:0:0:0:
348,42,86855,1,0,0:0:0:0:
347,40,87230,1,8,0:0:0:0:
347,40,87323,1,0,0:0:0:0:
348,40,87417,1,0,0:0:0:0:
348,40,87605,1,0,0:0:0:0:
350,40,87792,1,8,0:0:0:0:
348,42,87886,1,0,0:0:0:0:
347,40,88073,1,8,0:0:0:0:
347,40,88167,1,8,0:0:0:0:
347,40,88261,1,0,0:0:0:0:
347,40,88355,1,0,0:0:0:0:
354,33,88542,1,8,0:0:0:0:
354,33,88636,1,0,0:0:0:0:
353,33,88730,1,8,0:0:0:0:
353,32,88917,1,8,0:0:0:0:
360,28,89105,1,0,0:0:0:0:
361,28,89198,1,8,0:0:0:0:
361,28,89292,1,0,0:0:0:0:
363,24,89480,1,0,0:0:0:0:
361,32,89855,1,0,0:0:0:0:
360,28,90042,1,8,0:0:0:0:
361,28,90230,1,0,0:0:0:0:
361,28,90323,1,8,0:0:0:0:
358,31,90417,1,8,0:0:0:0:
373,18,90605,1,0,0:0:0:0:
373,22,90698,1,8,0:0:0:0:
372,22,90792,1,8,0:0:0:0:
369,27,90886,1,8,0:0:0:0:
369,27,90980,1,0,0:0:0:0:
369,26,91167,1,8,0:0:0:0:
369,26,91261,1,8,0:0:0:0:
369,26,91355,1,0,0:0:0:0:
353,39,91542,1,8,0:0:0:0:
353,39,91636,1,0,0:0:0:0:
353,39,91730,1,0,0:0:0:0:
352,39,91823,1,0,0:0:0:0:
352,39,91917,1,8,0:0:0:0:
346,42,92105,1,0,0:0:0:0:
346,42,92292,1,8,0:0:0:0:
337,52,92386,1,8,0:0:0:0:
337,52,92480,1,0,0:0:0:0:
322,56,92573,1,0,0:0:0:0:
322,55,92667,1,8,0:0:0:0:
352,39,92855,1,8,0:0:0:0:
352,39,92948,1,8,0:0:0:0:
346,42,93042,1,0,0:0:0:0:
346,42,93230,1,0,0:0:0:0:
350,38,93417,1,8,0:0:0:0:
350,38,93605,1,0,0:0:0:0:
343,54,93698,1,8,0:0:0:0:
352,46,93792,1,8,0:0:0:0:
352,46,93886,1,0,0:0:0:0:
352,46,93980,1,0,0:0:0:0:
354,46,94167,1,8,0:0:0:0:
353,46,94261,1,8,0:0:0:0:
354,46,94355,1,0,0:0:0:0:
359,38,94542,1,8,0:0:0:0:
359,39,94636,1,0,0:0:0:0:
359,39,94730,1,8,0:0:0:0:
359,39,95105,1,8,0:0:0:0:
359,39,95292,1,0,0:0:0:0:
359,34,95386,1,8,0:0:0:0:
366,34,95573,1,0,0:0:0:0:
366,34,95667,1,0,0:0:0:0:
359,39,95855,1,8,0:0:0:0:
350,37,95948,1,0,0:0:0:0:
351,38,96042,1,8,0:0:0:0:
351,38,96230,1,0,0:0:0:0:
333,41,96605,1,0,0:0:0:0:
342,41,96792,1,8,0:0:0:0:
376,35,96886,1,0,0:0:0:0:
350,37,96980,1,8,0:0:0:0:
365,41,97073,1,8,0:0:0:0:
364,41,97167,1,0,0:0:0:0:
363,41,97261,1,8,0:0:0:0:
363,41,97448,1,0,0:0:0:0:
363,41,97542,1,8,0:0:0:0:
364,40,97730,1,0,0:0:0:0:
356,44,97823,1,0,0:0:0:0:
356,44,97917,1,0,0:0:0:0:
356,44,98011,1,8,0:0:0:0:
356,44,98198,1,8,0:0:0:0:
356,44,98292,1,0,0:0:0:0:
357,32,98480,1,8,0:0:0:0:
357,32,98573,1,0,0:0:0:0:
357,32,98667,1,0,0:0:0:0:
357,32,98761,1,0,0:0:0:0:
357,32,98855,1,8,0:0:0:0:
358,35,99230,1,0,0:0:0:0:
357,32,99417,1,8,0:0:0:0:
357,32,99605,1,0,0:0:0:0:
357,32,99698,1,8,0:0:0:0:
357,32,99792,1,8,0:0:0:0:
358,35,99980,1,0,0:0:0:0:
358,35,100073,1,0,0:0:0:0:
358,35,100167,1,8,0:0:0:0:
357,24,100261,1,0,0:0:0:0:
357,24,100448,1,8,0:0:0:0:
357,32,100542,1,0,0:0:0:0:
357,32,100636,1,0,0:0:0:0:
357,32,100730,1,8,0:0:0:0:
352,29,100917,1,8,0:0:0:0:
352,29,101011,1,8,0:0:0:0:
352,29,101105,1,0,0:0:0:0:
352,29,101292,1,0,0:0:0:0:
351,29,101386,1,0,0:0:0:0:
351,29,101480,1,8,0:0:0:0:
357,32,101667,1,0,0:0:0:0:
352,29,101855,1,8,0:0:0:0:
352,29,101948,1,0,0:0:0:0:
352,29,102042,1,8,0:0:0:0:
352,29,102230,1,0,0:0:0:0:
341,38,102605,1,8,0:0:0:0:
359,49,102698,1,8,0:0:0:0:
359,43,102792,1,0,0:0:0:0:
367,37,102886,1,0,0:0:0:0:
366,37,102980,1,8,0:0:0:0:
363,38,103167,1,0,0:0:0:0:
361,37,103261,1,8,0:0:0:0:
361,36,103355,1,8,0:0:0:0:
362,36,103542,1,0,0:0:0:0:
362,36,103636,1,8,0:0:0:0:
362,36,103730,1,0,0:0:0:0:
367,37,103823,1,0,0:0:0:0:
367,37,103917,1,8,0:0:0:0:
363,38,104011,1,0,0:0:0:0:
363,38,104105,1,8,0:0:0:0:
361,37,104292,1,0,0:0:0:0:
333,58,104480,1,8,0:0:0:0:
365,42,104573,1,0,0:0:0:0:
365,42,104667,1,0,0:0:0:0:
365,42,104761,1,0,0:0:0:0:
367,37,104855,1,8,0:0:0:0:
365,43,105230,1,0,0:0:0:0:
364,43,105417,1,8,0:0:0:0:
365,42,105511,1,0,0:0:0:0:
365,42,105698,1,8,0:0:0:0:
367,37,105792,1,0,0:0:0:0:
342,51,105980,1,0,0:0:0:0:
370,48,106167,1,8,0:0:0:0:
370,48,106261,1,0,0:0:0:0:
374,45,106448,1,8,0:0:0:0:
374,45,106542,1,0,0:0:0:0:
374,45,106730,1,0,0:0:0:0:
374,45,106917,1,8,0:0:0:0:
374,45,107011,1,0,0:0:0:0:
370,48,107198,1,8,0:0:0:0:
374,45,107292,1,0,0:0:0:0:
374,45,107480,1,8,0:0:0:0:
374,45,107573,1,0,0:0:0:0:
374,45,107761,1,8,0:0:0:0:
374,45,107855,1,8,0:0:0:0:
382,45,108605,1,0,0:0:0:0:
382,50,108698,1,0,0:0:0:0:
343,109,108886,1,0,0:0:0:0:
363,106,108980,1,0,0:0:0:0:
386,51,109167,1,0,0:0:0:0:
386,52,109355,1,8,0:0:0:0:
382,50,109730,1,0,0:0:0:0:
382,50,109917,1,0,0:0:0:0:
378,50,110105,1,8,0:0:0:0:
378,50,110198,1,0,0:0:0:0:
378,50,110386,1,0,0:0:0:0:
360,54,110480,1,0,0:0:0:0:
382,50,110667,1,0,0:0:0:0:
382,50,110855,1,8,0:0:0:0:
378,50,111230,1,0,0:0:0:0:
378,50,111417,1,8,0:0:0:0:
382,50,111605,1,8,0:0:0:0:
382,50,111698,1,0,0:0:0:0:
382,50,111886,1,8,0:0:0:0:
378,50,111980,1,0,0:0:0:0:
378,50,112167,1,8,0:0:0:0:
378,50,112355,1,8,0:0:0:0:
382,50,112730,1,0,0:0:0:0:
382,50,112917,1,8,0:0:0:0:
378,50,113105,1,8,0:0:0:0:
378,50,113198,1,8,0:0:0:0:
382,50,113386,1,8,0:0:0:0:
382,50,113480,1,0,0:0:0:0:
382,50,113667,1,8,0:0:0:0:
376,44,113855,1,0,0:0:0:0:
378,50,113948,1,8,0:0:0:0:
378,50,114042,1,0,0:0:0:0:
376,44,114230,1,0,0:0:0:0:
376,44,114417,1,0,0:0:0:0:
382,50,114605,1,8,0:0:0:0:
376,44,114698,1,0,0:0:0:0:
376,44,114886,1,0,0:0:0:0:
378,50,114980,1,0,0:0:0:0:
376,44,115167,1,0,0:0:0:0:
376,44,115355,1,8,0:0:0:0:
376,44,115730,1,0,0:0:0:0:
378,50,115917,1,0,0:0:0:0:
376,44,116105,1,8,0:0:0:0:
376,44,116198,1,0,0:0:0:0:
376,44,116386,1,0,0:0:0:0:
376,44,116480,1,0,0:0:0:0:
376,44,116667,1,0,0:0:0:0:
378,50,116855,1,8,0:0:0:0:
376,44,117230,1,0,0:0:0:0:
379,49,117417,1,8,0:0:0:0:
379,49,117605,1,8,0:0:0:0:
385,50,117698,1,0,0:0:0:0:
385,50,117886,1,8,0:0:0:0:
385,50,117980,1,0,0:0:0:0:
385,50,118167,1,8,0:0:0:0:
385,50,118355,1,8,0:0:0:0:
385,50,118730,1,8,0:0:0:0:
385,50,118917,1,0,0:0:0:0:
385,50,119105,1,8,0:0:0:0:
385,50,119198,1,8,0:0:0:0:
385,50,119292,1,0,0:0:0:0:
385,50,119386,1,8,0:0:0:0:
385,50,119480,1,8,0:0:0:0:
385,50,119667,1,0,0:0:0:0:
385,50,119855,1,8,0:0:0:0:
385,50,119948,1,8,0:0:0:0:
385,50,120042,1,8,0:0:0:0:
372,47,120230,1,0,0:0:0:0:
373,56,120417,1,0,0:0:0:0:
382,45,120605,1,8,0:0:0:0:
382,50,120698,1,0,0:0:0:0:
343,109,120886,1,0,0:0:0:0:
363,106,120980,1,0,0:0:0:0:
386,51,121167,1,0,0:0:0:0:
386,52,121355,1,8,0:0:0:0:
382,50,121730,1,0,0:0:0:0:
382,50,121917,1,0,0:0:0:0:
378,50,122105,1,8,0:0:0:0:
378,50,122198,1,0,0:0:0:0:
378,50,122386,1,0,0:0:0:0:
360,54,122480,1,0,0:0:0:0:
382,50,122667,1,0,0:0:0:0:
382,50,122855,1,8,0:0:0:0:
378,50,123042,1,8,0:0:0:0:
378,50,123230,1,0,0:0:0:0:
378,50,123417,1,8,0:0:0:0:
382,50,123605,1,8,0:0:0:0:
382,50,123698,1,0,0:0:0:0:
382,50,123886,1,8,0:0:0:0:
378,50,123980,1,0,0:0:0:0:
378,50,124167,1,8,0:0:0:0:
378,50,124355,1,8,0:0:0:0:
382,50,124730,1,0,0:0:0:0:
382,50,124917,1,8,0:0:0:0:
378,50,125105,1,8,0:0:0:0:
378,50,125198,1,8,0:0:0:0:
382,50,125386,1,8,0:0:0:0:
382,50,125480,1,0,0:0:0:0:
382,50,125667,1,8,0:0:0:0:
376,44,125855,1,0,0:0:0:0:
378,50,125948,1,8,0:0:0:0:
378,50,126042,1,0,0:0:0:0:
376,44,126230,1,0,0:0:0:0:
376,44,126417,1,0,0:0:0:0:
382,50,126605,1,8,0:0:0:0:
376,44,126698,1,0,0:0:0:0:
376,44,126886,1,0,0:0:0:0:
378,50,126980,1,0,0:0:0:0:
376,44,127167,1,0,0:0:0:0:
376,44,127355,1,8,0:0:0:0:
376,44,127730,1,0,0:0:0:0:
378,50,127917,1,0,0:0:0:0:
376,44,128105,1,8,0:0:0:0:
376,44,128198,1,0,0:0:0:0:
376,44,128386,1,0,0:0:0:0:
376,44,128480,1,0,0:0:0:0:
376,44,128667,1,0,0:0:0:0:
378,50,128855,1,8,0:0:0:0:
377,50,129042,1,8,0:0:0:0:
376,44,129230,1,0,0:0:0:0:
379,49,129417,1,8,0:0:0:0:
379,49,129605,1,8,0:0:0:0:
385,50,129698,1,0,0:0:0:0:
385,50,129886,1,8,0:0:0:0:
385,50,129980,1,0,0:0:0:0:
385,50,130167,1,8,0:0:0:0:
385,50,130355,1,8,0:0:0:0:
379,49,130542,1,0,0:0:0:0:
385,50,130730,5,0,0:0:0:0:
256,192,131480,12,0,132042,0:0:0:0:
321,96,132230,5,0,0:0:0:0:
318,96,132605,1,8,0:0:0:0:
318,96,132792,1,8,0:0:0:0:
321,96,132980,1,0,0:0:0:0:
321,96,133073,1,8,0:0:0:0:
321,96,133167,1,8,0:0:0:0:
318,96,133355,1,0,0:0:0:0:
318,96,133542,1,8,0:0:0:0:
309,101,133636,1,8,0:0:0:0:
308,100,133730,1,0,0:0:0:0:
303,104,134105,1,8,0:0:0:0:
305,92,134292,1,0,0:0:0:0:
304,90,134480,1,8,0:0:0:0:
304,90,134573,1,8,0:0:0:0:
304,90,134667,1,0,0:0:0:0:
303,88,134855,1,8,0:0:0:0:
303,88,135042,1,0,0:0:0:0:
299,96,135136,1,8,0:0:0:0:
299,97,135230,1,8,0:0:0:0:
299,96,135605,1,8,0:0:0:0:
299,96,135792,1,0,0:0:0:0:
299,96,135980,1,8,0:0:0:0:
294,95,136073,1,0,0:0:0:0:
299,97,136167,1,8,0:0:0:0:
299,96,136355,1,8,0:0:0:0:
299,96,136542,1,0,0:0:0:0:
291,98,136636,1,0,0:0:0:0:
289,99,136730,1,8,0:0:0:0:
289,99,136917,1,0,0:0:0:0:
289,99,137011,1,8,0:0:0:0:
294,95,137105,1,8,0:0:0:0:
289,99,137292,1,8,0:0:0:0:
289,99,137386,1,0,0:0:0:0:
307,78,137480,1,8,0:0:0:0:
303,79,137573,1,8,0:0:0:0:
300,80,137667,1,0,0:0:0:0:
300,80,137761,1,0,0:0:0:0:
296,89,137855,1,8,0:0:0:0:
296,90,138042,1,8,0:0:0:0:
294,95,138136,1,8,0:0:0:0:
296,89,138230,1,0,0:0:0:0:
289,99,138417,1,0,0:0:0:0:
290,106,138605,1,8,0:0:0:0:
289,105,138792,1,8,0:0:0:0:
289,104,138980,1,0,0:0:0:0:
299,104,139073,1,0,0:0:0:0:
289,102,139167,1,0,0:0:0:0:
299,104,139355,1,8,0:0:0:0:
299,104,139542,1,8,0:0:0:0:
299,104,139636,1,8,0:0:0:0:
299,104,139730,1,0,0:0:0:0:
299,104,139917,1,0,0:0:0:0:
299,104,140105,1,8,0:0:0:0:
299,104,140292,1,8,0:0:0:0:
299,104,140480,1,0,0:0:0:0:
294,94,140573,1,0,0:0:0:0:
299,104,140667,1,0,0:0:0:0:
299,104,140855,1,8,0:0:0:0:
299,104,141042,1,8,0:0:0:0:
299,104,141136,1,8,0:0:0:0:
299,104,141230,1,0,0:0:0:0:
299,104,141323,1,0,0:0:0:0:
299,104,141417,1,8,0:0:0:0:
299,104,141605,1,0,0:0:0:0:
299,104,141698,1,0,0:0:0:0:
299,104,141792,1,8,0:0:0:0:
299,104,141980,1,0,0:0:0:0:
299,104,142073,1,0,0:0:0:0:
299,104,142167,1,8,0:0:0:0:
299,104,142261,1,8,0:0:0:0:
299,104,142355,1,0,0:0:0:0:
299,104,142448,1,0,0:0:0:0:
299,104,142542,1,0,0:0:0:0:
299,104,142636,1,0,0:0:0:0:
299,104,142730,1,8,0:0:0:0:
299,104,143480,1,8,0:0:0:0:
299,104,143573,1,8,0:0:0:0:
299,104,143667,1,0,0:0:0:0:
299,104,143761,1,8,0:0:0:0:
299,104,143855,1,8,0:0:0:0:
299,104,143948,1,0,0:0:0:0:
321,78,144042,1,8,0:0:0:0:
287,102,144230,1,0,0:0:0:0:
323,92,144605,1,8,0:0:0:0:
323,92,144698,1,0,0:0:0:0:
324,92,144792,1,0,0:0:0:0:
323,92,144886,1,0,0:0:0:0:
306,106,144980,1,8,0:0:0:0:
312,100,145261,1,4,0:0:0:0:
313,101,145542,1,12,0:0:0:0:
322,89,145917,1,12,0:0:0:0:
322,89,146105,1,12,0:0:0:0:
323,89,146386,1,0,0:0:0:0:
323,89,146480,1,8,0:0:0:0:
322,89,146573,1,8,0:0:0:0:
322,89,146667,1,0,0:0:0:0:
322,89,146761,1,8,0:0:0:0:
322,89,146948,1,0,0:0:0:0:
322,89,147042,1,8,0:0:0:0:
323,89,147230,1,8,0:0:0:0:
323,89,147323,1,0,0:0:0:0:
323,89,147417,1,8,0:0:0:0:
322,89,147605,1,4,0:0:0:0:
316,98,147980,1,8,0:0:0:0:
328,68,148073,1,0,0:0:0:0:
325,75,148261,1,4,0:0:0:0:
319,78,148542,1,4,0:0:0:0:
321,81,148917,1,8,0:0:0:0:
321,81,149105,1,4,0:0:0:0:
350,81,149386,1,8,0:0:0:0:
340,82,149480,1,0,0:0:0:0:
334,83,149573,1,8,0:0:0:0:
334,83,149761,1,8,0:0:0:0:
340,84,150042,1,12,0:0:0:0:
344,68,150417,1,8,0:0:0:0:
344,71,150511,1,0,0:0:0:0:
344,71,150605,1,8,0:0:0:0:
344,71,150698,1,8,0:0:0:0:
344,71,150792,1,0,0:0:0:0:
333,79,150886,1,0,0:0:0:0:
333,79,150980,1,8,0:0:0:0:
332,79,151073,1,0,0:0:0:0:
333,79,151167,1,8,0:0:0:0:
335,79,151355,1,4,0:0:0:0:
335,79,151636,1,4,0:0:0:0:
333,79,151917,1,4,0:0:0:0:
312,88,152198,1,4,0:0:0:0:
335,79,152480,1,8,0:0:0:0:
333,87,152573,1,0,0:0:0:0:
333,79,152667,1,0,0:0:0:0:
333,79,152855,1,12,0:0:0:0:
336,68,153230,1,8,0:0:0:0:
336,68,153417,1,0,0:0:0:0:
336,68,153605,1,12,0:0:0:0:
342,69,153980,1,8,0:0:0:0:
342,69,154073,1,0,0:0:0:0:
342,69,154355,1,12,0:0:0:0:
342,69,154542,1,4,0:0:0:0:
342,69,154730,1,12,0:0:0:0:
342,69,155105,1,12,0:0:0:0:
342,69,155667,1,8,0:0:0:0:
342,69,155855,1,8,0:0:0:0:
342,69,155948,1,8,0:0:0:0:
342,69,156042,1,0,0:0:0:0:
342,69,156230,1,4,0:0:0:0:
342,69,156605,1,8,0:0:0:0:
342,69,156698,1,0,0:0:0:0:
342,69,156792,1,0,0:0:0:0:
342,69,156886,1,0,0:0:0:0:
342,69,156980,1,8,0:0:0:0:
342,69,157073,1,8,0:0:0:0:
349,69,157261,1,4,0:0:0:0:
349,69,157542,1,12,0:0:0:0:
333,67,157917,1,12,0:0:0:0:
333,67,158105,1,12,0:0:0:0:
332,69,158386,1,8,0:0:0:0:
349,69,158480,1,0,0:0:0:0:
340,66,158573,1,8,0:0:0:0:
333,67,158761,1,0,0:0:0:0:
333,67,158948,1,8,0:0:0:0:
333,67,159042,1,0,0:0:0:0:
332,69,159230,1,8,0:0:0:0:
332,69,159323,1,0,0:0:0:0:
332,69,159417,1,8,0:0:0:0:
342,86,159605,1,4,0:0:0:0:
345,90,159980,1,8,0:0:0:0:
345,90,160073,1,8,0:0:0:0:
345,90,160261,1,4,0:0:0:0:
342,86,160542,1,4,0:0:0:0:
303,83,160917,1,8,0:0:0:0:
316,90,161105,1,4,0:0:0:0:
332,75,161386,1,0,0:0:0:0:
331,72,161480,1,8,0:0:0:0:
329,73,161573,1,8,0:0:0:0:
340,85,161667,1,0,0:0:0:0:
340,85,161855,1,0,0:0:0:0:
341,85,162042,1,12,0:0:0:0:
343,78,162417,1,8,0:0:0:0:
342,76,162511,1,0,0:0:0:0:
342,76,162605,1,8,0:0:0:0:
345,71,162698,1,8,0:0:0:0:
342,76,162792,1,0,0:0:0:0:
342,76,162886,1,0,0:0:0:0:
342,75,162980,1,8,0:0:0:0:
344,73,163073,1,0,0:0:0:0:
364,104,163355,1,4,0:0:0:0:
364,104,163636,1,4,0:0:0:0:
364,104,163917,1,4,0:0:0:0:
364,104,164198,1,4,0:0:0:0:
352,76,164480,1,8,0:0:0:0:
372,88,164573,1,8,0:0:0:0:
371,81,164667,1,0,0:0:0:0:
379,91,164855,1,12,0:0:0:0:
256,192,165230,12,0,166730,0:0:0:0:
345,120,168230,5,4,0:0:0:0:
352,119,169730,1,8,0:0:0:0:
352,119,170480,1,0,0:0:0:0:
363,117,171230,1,0,0:0:0:0:
346,116,171980,1,0,0:0:0:0:
346,116,172730,1,8,0:0:0:0:
346,116,173480,1,0,0:0:0:0:
362,103,173855,1,0,0:0:0:0:
351,119,174230,1,0,0:0:0:0:
346,113,174980,1,0,0:0:0:0:
361,103,175730,1,8,0:0:0:0:
346,113,176105,1,0,0:0:0:0:
346,113,176480,1,0,0:0:0:0:
361,103,177230,1,0,0:0:0:0:
343,113,177980,1,0,0:0:0:0:
343,113,178730,1,8,0:0:0:0:
343,113,179105,1,0,0:0:0:0:
349,112,179480,1,0,0:0:0:0:
345,103,179667,1,8,0:0:0:0:
345,103,179761,1,8,0:0:0:0:
345,103,179855,1,0,0:0:0:0:
345,103,180042,1,0,0:0:0:0:
367,95,180230,1,12,0:0:0:0:
355,91,180417,1,0,0:0:0:0:
355,91,180511,1,8,0:0:0:0:
355,91,180698,1,8,0:0:0:0:
352,90,180792,1,0,0:0:0:0:
355,88,180980,1,8,0:0:0:0:
355,88,181073,1,8,0:0:0:0:
355,88,181167,1,0,0:0:0:0:
355,88,181261,1,0,0:0:0:0:
355,91,181355,1,8,0:0:0:0:
369,85,181542,1,0,0:0:0:0:
369,85,181730,1,8,0:0:0:0:
355,88,181917,1,0,0:0:0:0:
355,88,182011,1,8,0:0:0:0:
355,88,182198,1,8,0:0:0:0:
355,88,182292,1,0,0:0:0:0:
352,87,182480,1,8,0:0:0:0:
351,86,182667,1,0,0:0:0:0:
351,86,182761,1,0,0:0:0:0:
355,88,182855,1,8,0:0:0:0:
355,88,182948,1,8,0:0:0:0:
355,88,183042,1,0,0:0:0:0:
355,88,183230,1,8,0:0:0:0:
355,88,183323,1,0,0:0:0:0:
352,87,183417,1,0,0:0:0:0:
352,87,183511,1,8,0:0:0:0:
354,69,183698,1,0,0:0:0:0:
354,72,183792,1,0,0:0:0:0:
354,72,183980,1,8,0:0:0:0:
354,72,184073,1,8,0:0:0:0:
354,72,184167,1,0,0:0:0:0:
355,71,184261,1,8,0:0:0:0:
339,50,184448,1,8,0:0:0:0:
343,54,184542,1,0,0:0:0:0:
342,53,184730,1,8,0:0:0:0:
342,53,184917,1,0,0:0:0:0:
348,54,185011,1,0,0:0:0:0:
349,54,185105,1,8,0:0:0:0:
349,54,185198,1,0,0:0:0:0:
349,54,185292,1,0,0:0:0:0:
343,54,185480,1,8,0:0:0:0:
348,46,185573,1,8,0:0:0:0:
348,46,185667,1,0,0:0:0:0:
348,46,185761,1,8,0:0:0:0:
350,42,185855,1,0,0:0:0:0:
340,43,186230,1,0,0:0:0:0:
340,43,186323,1,0,0:0:0:0:
340,43,186417,1,8,0:0:0:0:
342,54,186605,1,0,0:0:0:0:
347,52,186792,1,0,0:0:0:0:
347,52,186980,1,8,0:0:0:0:
351,45,187073,1,0,0:0:0:0:
348,51,187167,1,8,0:0:0:0:
348,50,187355,1,0,0:0:0:0:
348,51,187542,1,0,0:0:0:0:
347,52,187730,1,8,0:0:0:0:
347,52,187823,1,8,0:0:0:0:
347,52,187917,1,0,0:0:0:0:
351,45,188105,1,8,0:0:0:0:
348,50,188292,1,0,0:0:0:0:
348,51,188386,1,0,0:0:0:0:
348,51,188480,1,8,0:0:0:0:
347,52,188667,1,0,0:0:0:0:
347,52,188855,1,8,0:0:0:0:
347,52,188948,1,0,0:0:0:0:
351,45,189042,1,8,0:0:0:0:
348,50,189230,1,8,0:0:0:0:
348,50,189323,1,8,0:0:0:0:
348,51,189417,1,0,0:0:0:0:
348,51,189511,1,0,0:0:0:0:
347,52,189605,1,8,0:0:0:0:
347,52,189792,1,0,0:0:0:0:
344,50,189980,1,8,0:0:0:0:
344,50,190073,1,8,0:0:0:0:
348,50,190167,1,8,0:0:0:0:
348,50,190261,1,8,0:0:0:0:
348,51,190355,1,0,0:0:0:0:
341,48,190542,1,0,0:0:0:0:
360,67,190730,1,0,0:0:0:0:
339,49,191855,1,8,0:0:0:0:
339,49,192042,1,8,0:0:0:0:
350,60,192230,1,0,0:0:0:0:
339,49,192511,1,8,0:0:0:0:
339,49,192605,1,0,0:0:0:0:
339,49,192698,1,0,0:0:0:0:
339,49,192792,1,8,0:0:0:0:
339,49,192980,1,0,0:0:0:0:
339,49,193073,1,0,0:0:0:0:
345,49,193261,1,8,0:0:0:0:
347,46,193355,1,0,0:0:0:0:
347,46,193542,1,8,0:0:0:0:
339,49,193636,1,8,0:0:0:0:
339,49,193730,1,0,0:0:0:0:
339,49,193823,1,8,0:0:0:0:
345,47,194011,1,8,0:0:0:0:
345,49,194105,1,0,0:0:0:0:
353,43,194198,1,8,0:0:0:0:
353,43,194292,1,8,0:0:0:0:
347,46,194480,1,0,0:0:0:0:
347,46,194573,1,8,0:0:0:0:
347,39,194667,1,8,0:0:0:0:
347,43,194761,1,8,0:0:0:0:
348,43,194855,1,0,0:0:0:0:
345,47,195042,1,8,0:0:0:0:
353,43,195230,1,0,0:0:0:0:
345,42,195323,1,8,0:0:0:0:
347,46,195511,1,8,0:0:0:0:
347,39,195605,1,0,0:0:0:0:
347,39,195698,1,0,0:0:0:0:
348,43,195792,1,8,0:0:0:0:
345,47,195980,1,0,0:0:0:0:
345,47,196073,1,0,0:0:0:0:
367,44,196261,1,8,0:0:0:0:
362,44,196355,1,0,0:0:0:0:
361,43,196448,1,8,0:0:0:0:
361,43,196542,1,8,0:0:0:0:
360,41,196730,1,0,0:0:0:0:
356,37,196823,1,8,0:0:0:0:
348,22,197011,1,8,0:0:0:0:
351,26,197105,1,0,0:0:0:0:
360,35,197198,1,8,0:0:0:0:
332,80,197292,1,8,0:0:0:0:
359,34,197480,1,0,0:0:0:0:
359,31,197573,1,8,0:0:0:0:
359,29,197761,1,8,0:0:0:0:
359,29,197855,1,0,0:0:0:0:
357,21,198230,1,8,0:0:0:0:
363,27,198417,1,0,0:0:0:0:
363,27,198511,1,0,0:0:0:0:
349,40,198605,1,8,0:0:0:0:
359,37,198792,1,0,0:0:0:0:
359,37,198980,1,8,0:0:0:0:
362,34,199073,1,8,0:0:0:0:
361,33,199167,1,0,0:0:0:0:
365,33,199261,1,8,0:0:0:0:
355,39,199448,1,0,0:0:0:0:
349,40,199542,1,8,0:0:0:0:
355,43,199730,1,8,0:0:0:0:
352,43,199917,1,0,0:0:0:0:
350,47,200011,1,0,0:0:0:0:
343,54,200105,1,8,0:0:0:0:
361,51,200292,1,0,0:0:0:0:
364,66,200480,1,8,0:0:0:0:
370,54,200573,1,0,0:0:0:0:
367,48,200761,1,8,0:0:0:0:
372,54,200855,1,8,0:0:0:0:
372,54,201042,1,0,0:0:0:0:
372,54,201136,1,0,0:0:0:0:
372,54,201230,1,8,0:0:0:0:
369,52,201417,1,0,0:0:0:0:
369,57,201511,1,8,0:0:0:0:
370,54,201605,1,8,0:0:0:0:
383,61,201792,1,0,0:0:0:0:
378,69,201980,1,8,0:0:0:0:
377,69,202073,1,8,0:0:0:0:
378,69,202167,1,0,0:0:0:0:
377,71,202261,1,0,0:0:0:0:
377,71,202355,1,8,0:0:0:0:
386,66,202448,1,8,0:0:0:0:
386,66,202636,1,0,0:0:0:0:
383,61,202730,1,8,0:0:0:0:
389,63,202917,1,8,0:0:0:0:
389,63,203011,1,0,0:0:0:0:
390,63,203198,1,0,0:0:0:0:
390,63,203292,1,8,0:0:0:0:
385,60,203386,1,0,0:0:0:0:
386,66,203480,1,8,0:0:0:0:
383,61,203761,1,8,0:0:0:0:
379,56,204042,1,0,0:0:0:0:
370,57,204230,1,0,0:0:0:0:
372,67,204605,1,12,0:0:0:0:
370,71,204792,1,0,0:0:0:0:
371,71,204980,1,8,0:0:0:0:
379,56,205073,1,8,0:0:0:0:
383,57,205261,1,0,0:0:0:0:
384,57,205355,1,8,0:0:0:0:
385,60,205448,1,8,0:0:0:0:
385,60,205542,1,0,0:0:0:0:
385,64,205730,1,8,0:0:0:0:
386,64,205917,1,0,0:0:0:0:
386,64,206011,1,0,0:0:0:0:
385,68,206105,1,8,0:0:0:0:
384,68,206292,1,0,0:0:0:0:
386,69,206480,1,8,0:0:0:0:
385,64,206573,1,0,0:0:0:0:
385,64,206761,1,8,0:0:0:0:
386,64,206855,1,8,0:0:0:0:
386,64,206948,1,0,0:0:0:0:
386,64,207042,1,8,0:0:0:0:
384,68,207230,1,0,0:0:0:0:
386,69,207417,1,8,0:0:0:0:
386,69,207511,1,0,0:0:0:0:
390,68,207605,1,8,0:0:0:0:
390,68,207792,1,0,0:0:0:0:
386,52,207980,1,8,0:0:0:0:
402,56,208073,1,0,0:0:0:0:
399,56,208261,1,8,0:0:0:0:
400,55,208355,1,0,0:0:0:0:
399,56,208448,1,8,0:0:0:0:
400,56,208542,1,8,0:0:0:0:
402,56,208730,1,0,0:0:0:0:
403,56,208917,1,8,0:0:0:0:
403,56,209011,1,0,0:0:0:0:
402,56,209105,1,8,0:0:0:0:
399,56,209292,1,0,0:0:0:0:
399,56,209480,1,8,0:0:0:0:
400,56,209573,1,0,0:0:0:0:
402,56,209761,1,8,0:0:0:0:
361,71,209855,1,8,0:0:0:0:
384,66,210230,1,0,0:0:0:0:
383,66,210417,1,0,0:0:0:0:
383,66,210511,1,0,0:0:0:0:
383,66,210605,1,8,0:0:0:0:
383,66,210792,1,0,0:0:0:0:
384,66,210980,1,8,0:0:0:0:
384,66,211073,1,8,0:0:0:0:
395,61,211167,1,0,0:0:0:0:
395,61,211261,1,8,0:0:0:0:
395,61,211355,1,8,0:0:0:0:
395,61,211542,1,0,0:0:0:0:
389,60,211730,1,8,0:0:0:0:
378,48,211917,1,0,0:0:0:0:
380,49,212011,1,8,0:0:0:0:
382,48,212105,1,8,0:0:0:0:
382,48,212292,1,0,0:0:0:0:
382,48,212480,1,8,0:0:0:0:
382,48,212573,1,0,0:0:0:0:
383,47,212667,1,0,0:0:0:0:
383,47,212761,1,8,0:0:0:0:
378,48,212855,1,8,0:0:0:0:
388,42,213042,1,0,0:0:0:0:
388,42,213230,1,8,0:0:0:0:
388,42,213323,1,0,0:0:0:0:
388,42,213511,1,8,0:0:0:0:
388,42,213698,1,0,0:0:0:0:
388,42,213792,1,0,0:0:0:0:
389,42,213886,1,0,0:0:0:0:
388,42,213980,1,8,0:0:0:0:
388,42,214073,1,0,0:0:0:0:
388,42,214261,1,8,0:0:0:0:
388,42,214448,1,0,0:0:0:0:
378,45,214542,1,0,0:0:0:0:
377,45,214636,1,0,0:0:0:0:
378,46,214730,1,8,0:0:0:0:
395,38,214917,1,0,0:0:0:0:
395,38,215011,1,8,0:0:0:0:
388,42,215198,1,0,0:0:0:0:
388,42,215292,1,8,0:0:0:0:
388,42,215386,1,8,0:0:0:0:
256,192,215480,12,0,216042,0:0:0:0:
339,88,216230,5,4,0:0:0:0:
369,87,216511,1,8,0:0:0:0:
370,86,216792,1,8,0:0:0:0:
369,86,216980,1,0,0:0:0:0:
357,89,217261,1,8,0:0:0:0:
357,88,217542,1,8,0:0:0:0:
357,89,217730,1,0,0:0:0:0:
358,81,218011,1,0,0:0:0:0:
358,81,218292,1,8,0:0:0:0:
357,88,218480,1,0,0:0:0:0:
357,89,218761,1,0,0:0:0:0:
358,81,219042,1,8,0:0:0:0:
362,90,219230,1,8,0:0:0:0:
363,91,219511,1,0,0:0:0:0:
357,89,219792,1,0,0:0:0:0:
371,88,219980,1,8,0:0:0:0:
370,88,220261,1,0,0:0:0:0:
370,88,220542,1,0,0:0:0:0:
370,88,220730,1,8,0:0:0:0:
371,88,221011,1,8,0:0:0:0:
370,88,221292,1,0,0:0:0:0:
370,88,221480,1,0,0:0:0:0:
370,88,221761,1,8,0:0:0:0:
371,88,222042,1,8,0:0:0:0:
371,75,222230,1,0,0:0:0:0:
371,75,222323,1,0,0:0:0:0:
378,74,222417,1,8,0:0:0:0:
413,115,222511,1,8,0:0:0:0:
370,88,222605,1,0,0:0:0:0:
366,80,222792,1,0,0:0:0:0:
371,79,222980,1,8,0:0:0:0:
373,80,223073,1,8,0:0:0:0:
371,75,223167,1,0,0:0:0:0:
371,75,223355,1,8,0:0:0:0:
374,75,223542,1,0,0:0:0:0:
374,75,223730,1,8,0:0:0:0:
371,79,223823,1,8,0:0:0:0:
371,79,223917,1,0,0:0:0:0:
371,79,224011,1,0,0:0:0:0:
371,75,224105,1,8,0:0:0:0:
381,69,224292,1,8,0:0:0:0:
382,69,224480,1,0,0:0:0:0:
382,69,224573,1,8,0:0:0:0:
382,69,224667,1,8,0:0:0:0:
395,74,224855,1,0,0:0:0:0:
394,75,225042,1,8,0:0:0:0:
394,73,225230,1,8,0:0:0:0:
382,69,225323,1,8,0:0:0:0:
393,73,225417,1,0,0:0:0:0:
382,69,225511,1,0,0:0:0:0:
392,74,225605,1,8,0:0:0:0:
395,74,225698,1,0,0:0:0:0:
395,74,225792,1,8,0:0:0:0:
399,69,225980,1,0,0:0:0:0:
399,69,226073,1,0,0:0:0:0:
394,73,226167,1,8,0:0:0:0:
394,73,226261,1,0,0:0:0:0:
399,74,226355,1,8,0:0:0:0:
399,74,226448,1,8,0:0:0:0:
399,74,226542,1,8,0:0:0:0:
399,74,226636,1,8,0:0:0:0:
397,97,226730,1,0,0:0:0:0:
403,66,227855,1,8,0:0:0:0:
403,66,228042,1,8,0:0:0:0:
403,66,228230,1,0,0:0:0:0:
349,59,228605,1,0,0:0:0:0:
349,59,228698,1,8,0:0:0:0:
360,54,228792,1,8,0:0:0:0:
350,52,228980,1,0,0:0:0:0:
355,44,229167,1,8,0:0:0:0:
355,44,229355,1,0,0:0:0:0:
326,68,229448,1,0,0:0:0:0:
327,37,229542,1,0,0:0:0:0:
328,38,229636,1,0,0:0:0:0:
350,40,229730,1,0,0:0:0:0:
348,42,229917,1,8,0:0:0:0:
328,79,230011,1,8,0:0:0:0:
352,73,230105,1,0,0:0:0:0:
355,41,230292,1,8,0:0:0:0:
348,91,230386,1,0,0:0:0:0:
349,40,230480,1,0,0:0:0:0:
348,40,230667,1,8,0:0:0:0:
350,40,230761,1,8,0:0:0:0:
348,42,230855,1,0,0:0:0:0:
365,62,231042,1,0,0:0:0:0:
347,40,231230,1,8,0:0:0:0:
347,40,231323,1,0,0:0:0:0:
348,40,231417,1,8,0:0:0:0:
348,40,231605,1,0,0:0:0:0:
350,40,231792,1,8,0:0:0:0:
348,42,231886,1,0,0:0:0:0:
347,101,231980,1,0,0:0:0:0:
347,40,232167,1,8,0:0:0:0:
347,40,232355,1,0,0:0:0:0:
354,33,232448,1,0,0:0:0:0:
354,33,232542,1,0,0:0:0:0:
356,101,232636,1,0,0:0:0:0:
353,33,232730,1,0,0:0:0:0:
353,32,232917,1,8,0:0:0:0:
360,28,233105,1,0,0:0:0:0:
361,28,233198,1,8,0:0:0:0:
361,28,233292,1,0,0:0:0:0:
363,24,233480,1,0,0:0:0:0:
361,32,233855,1,0,0:0:0:0:
360,28,234042,1,8,0:0:0:0:
361,28,234230,1,0,0:0:0:0:
361,28,234323,1,8,0:0:0:0:
358,31,234417,1,8,0:0:0:0:
373,18,234605,1,0,0:0:0:0:
373,22,234698,1,8,0:0:0:0:
372,22,234792,1,8,0:0:0:0:
369,27,234886,1,8,0:0:0:0:
369,27,234980,1,0,0:0:0:0:
369,26,235167,1,8,0:0:0:0:
369,26,235355,1,0,0:0:0:0:
367,72,235448,1,0,0:0:0:0:
367,72,235542,1,0,0:0:0:0:
353,39,235636,1,0,0:0:0:0:
353,39,235730,1,0,0:0:0:0:
352,39,235917,1,8,0:0:0:0:
346,42,236105,1,0,0:0:0:0:
346,42,236292,1,8,0:0:0:0:
337,52,236386,1,8,0:0:0:0:
337,52,236480,1,0,0:0:0:0:
322,56,236573,1,0,0:0:0:0:
322,55,236667,1,8,0:0:0:0:
352,39,236855,1,8,0:0:0:0:
352,39,236948,1,8,0:0:0:0:
346,42,237042,1,0,0:0:0:0:
346,42,237230,1,0,0:0:0:0:
350,38,237417,1,8,0:0:0:0:
350,38,237605,1,0,0:0:0:0:
343,54,237698,1,8,0:0:0:0:
352,46,237792,1,8,0:0:0:0:
352,46,237886,1,0,0:0:0:0:
352,46,237980,1,0,0:0:0:0:
354,46,238167,1,8,0:0:0:0:
353,46,238261,1,8,0:0:0:0:
354,46,238355,1,0,0:0:0:0:
359,38,238448,1,0,0:0:0:0:
359,39,238542,1,0,0:0:0:0:
297,72,238636,1,0,0:0:0:0:
359,39,238730,1,8,0:0:0:0:
359,39,239105,1,8,0:0:0:0:
359,39,239292,1,0,0:0:0:0:
359,34,239386,1,8,0:0:0:0:
366,34,239573,1,0,0:0:0:0:
366,34,239667,1,0,0:0:0:0:
359,39,239855,1,8,0:0:0:0:
350,37,239948,1,0,0:0:0:0:
351,38,240042,1,8,0:0:0:0:
351,38,240230,1,0,0:0:0:0:
374,63,240417,1,0,0:0:0:0:
333,41,240605,1,8,0:0:0:0:
368,57,240698,1,0,0:0:0:0:
342,41,240792,1,8,0:0:0:0:
376,35,240886,1,0,0:0:0:0:
350,37,240980,1,8,0:0:0:0:
365,41,241073,1,8,0:0:0:0:
364,41,241167,1,0,0:0:0:0:
367,60,241355,1,0,0:0:0:0:
363,41,241448,1,0,0:0:0:0:
364,59,241542,1,0,0:0:0:0:
368,57,241636,1,0,0:0:0:0:
364,40,241730,1,0,0:0:0:0:
268,112,241917,1,8,0:0:0:0:
292,111,242011,1,8,0:0:0:0:
292,111,242105,1,0,0:0:0:0:
356,44,242292,1,0,0:0:0:0:
357,32,242480,1,8,0:0:0:0:
357,32,242573,1,0,0:0:0:0:
357,32,242667,1,0,0:0:0:0:
357,32,242761,1,0,0:0:0:0:
357,32,242855,1,8,0:0:0:0:
367,78,243042,1,8,0:0:0:0:
358,35,243230,1,0,0:0:0:0:
357,32,243417,1,8,0:0:0:0:
357,32,243605,1,0,0:0:0:0:
357,32,243698,1,8,0:0:0:0:
357,32,243792,1,8,0:0:0:0:
358,35,243980,1,0,0:0:0:0:
358,35,244073,1,0,0:0:0:0:
358,35,244167,1,8,0:0:0:0:
375,39,244355,1,0,0:0:0:0:
357,32,244448,1,0,0:0:0:0:
357,32,244542,1,0,0:0:0:0:
357,24,244636,1,0,0:0:0:0:
357,32,244730,1,8,0:0:0:0:
352,29,244917,1,8,0:0:0:0:
352,29,245011,1,8,0:0:0:0:
352,29,245105,1,0,0:0:0:0:
352,29,245292,1,0,0:0:0:0:
351,29,245386,1,0,0:0:0:0:
351,29,245480,1,8,0:0:0:0:
357,32,245667,1,0,0:0:0:0:
352,29,245855,1,8,0:0:0:0:
352,29,245948,1,0,0:0:0:0:
352,29,246042,1,8,0:0:0:0:
352,29,246230,1,0,0:0:0:0:
372,50,246417,1,0,0:0:0:0:
366,37,246980,1,0,0:0:0:0:
363,38,247167,1,8,0:0:0:0:
372,50,247355,1,0,0:0:0:0:
371,54,247448,1,0,0:0:0:0:
362,36,247542,1,0,0:0:0:0:
371,54,247636,1,0,0:0:0:0:
362,36,247730,1,0,0:0:0:0:
367,37,247917,1,8,0:0:0:0:
363,38,248011,1,0,0:0:0:0:
363,38,248105,1,8,0:0:0:0:
361,37,248292,1,0,0:0:0:0:
333,58,248480,1,8,0:0:0:0:
365,42,248573,1,0,0:0:0:0:
365,42,248667,1,0,0:0:0:0:
365,42,248761,1,0,0:0:0:0:
367,37,248855,1,8,0:0:0:0:
390,56,249042,1,8,0:0:0:0:
365,43,249230,1,0,0:0:0:0:
364,43,249417,1,8,0:0:0:0:
365,42,249511,1,0,0:0:0:0:
365,42,249698,1,8,0:0:0:0:
367,37,249792,1,0,0:0:0:0:
342,51,249980,1,0,0:0:0:0:
370,48,250167,1,8,0:0:0:0:
370,48,250261,1,0,0:0:0:0:
374,45,250448,1,8,0:0:0:0:
374,45,250542,1,0,0:0:0:0:
374,45,250730,1,0,0:0:0:0:
374,45,250917,1,8,0:0:0:0:
374,45,251011,1,0,0:0:0:0:
370,48,251198,1,8,0:0:0:0:
374,45,251292,1,0,0:0:0:0:
374,45,251480,1,8,0:0:0:0:
374,45,251573,1,0,0:0:0:0:
374,45,251761,1,8,0:0:0:0:
374,45,251855,1,8,0:0:0:0:
384,64,252230,1,0,0:0:0:0:
382,56,252417,1,0,0:0:0:0:
374,45,252511,1,0,0:0:0:0:
394,46,252605,1,8,0:0:0:0:
379,37,252698,1,0,0:0:0:0:
369,93,252792,1,0,0:0:0:0:
384,41,252980,1,0,0:0:0:0:
437,54,253073,1,8,0:0:0:0:
399,53,253167,1,8,0:0:0:0:
395,57,253355,1,0,0:0:0:0:
400,55,253542,1,0,0:0:0:0:
399,56,253636,1,8,0:0:0:0:
396,56,253823,1,8,0:0:0:0:
399,53,254011,1,0,0:0:0:0:
399,53,254105,1,8,0:0:0:0:
399,53,254198,1,8,0:0:0:0:
403,75,254386,1,0,0:0:0:0:
428,51,254480,1,8,0:0:0:0:
417,52,254573,1,8,0:0:0:0:
371,87,254667,1,0,0:0:0:0:
417,52,254855,1,8,0:0:0:0:
417,53,255042,1,0,0:0:0:0:
417,53,255136,1,8,0:0:0:0:
418,53,255230,1,0,0:0:0:0:
418,50,255323,1,8,0:0:0:0:
414,49,255511,1,8,0:0:0:0:
417,52,255605,1,0,0:0:0:0:
412,60,255698,1,0,0:0:0:0:
412,59,255792,1,8,0:0:0:0:
420,45,255980,1,0,0:0:0:0:
417,53,256073,1,0,0:0:0:0:
417,53,256167,1,0,0:0:0:0:
418,50,256355,1,8,0:0:0:0:
420,47,256542,1,8,0:0:0:0:
420,47,256730,1,0,0:0:0:0:
416,40,256823,1,8,0:0:0:0:
420,45,257011,1,0,0:0:0:0:
423,46,257105,1,8,0:0:0:0:
418,50,257292,1,8,0:0:0:0:
425,49,257386,1,0,0:0:0:0:
420,47,257573,1,0,0:0:0:0:
420,47,257667,1,0,0:0:0:0:
420,47,257761,1,0,0:0:0:0:
423,47,257855,1,8,0:0:0:0:
425,48,258230,1,8,0:0:0:0:
429,43,258417,1,0,0:0:0:0:
426,40,258511,1,8,0:0:0:0:
426,40,258698,1,8,0:0:0:0:
428,43,258792,1,0,0:0:0:0:
440,41,258886,1,0,0:0:0:0:
441,40,258980,1,8,0:0:0:0:
439,44,259073,1,0,0:0:0:0:
439,44,259167,1,0,0:0:0:0:
439,44,259355,1,8,0:0:0:0:
439,44,259542,1,8,0:0:0:0:
439,44,259730,1,0,0:0:0:0:
439,44,259823,1,8,0:0:0:0:
441,40,260011,1,8,0:0:0:0:
439,44,260105,1,0,0:0:0:0:
439,44,260292,1,8,0:0:0:0:
421,37,260386,1,0,0:0:0:0:
439,44,260480,1,8,0:0:0:0:
439,44,260667,1,0,0:0:0:0:
421,37,260761,1,0,0:0:0:0:
434,35,260855,1,8,0:0:0:0:
441,40,261042,1,0,0:0:0:0:
443,36,261230,1,8,0:0:0:0:
443,36,261323,1,8,0:0:0:0:
443,36,261417,1,0,0:0:0:0:
442,35,261511,1,0,0:0:0:0:
442,35,261605,1,8,0:0:0:0:
442,35,261792,1,0,0:0:0:0:
441,40,261980,1,8,0:0:0:0:
441,40,262073,1,0,0:0:0:0:
443,36,262167,1,0,0:0:0:0:
443,36,262261,1,0,0:0:0:0:
443,36,262355,1,8,0:0:0:0:
443,36,262448,1,0,0:0:0:0:
442,35,262542,1,8,0:0:0:0:
442,35,262636,1,8,0:0:0:0:
442,35,262730,1,0,0:0:0:0:
391,45,263480,1,0,0:0:0:0:
391,45,263605,1,8,0:0:0:0:
391,45,263730,1,8,0:0:0:0:
391,45,263855,1,0,0:0:0:0:
391,45,263980,1,0,0:0:0:0:
391,45,264105,1,8,0:0:0:0:
391,45,264230,1,4,0:0:0:0:
