osu file format v14

[General]
AudioFilename: audio.mp3
AudioLeadIn: 0
PreviewTime: 192183
Countdown: 0
SampleSet: Normal
StackLeniency: 0.2
Mode: 1
LetterboxInBreaks: 0
WidescreenStoryboard: 0

[Editor]
Bookmarks: 24230,36230,60230,84230,108230,132230,144230,168230,192230,216230,228230,252230,264230
DistanceSpacing: 1
BeatDivisor: 4
GridSize: 32
TimelineZoom: 3.899999

[Metadata]
Title:Bad Apple!! feat. nomico (Camellia's "Bad Psy!!" Remix)
TitleUnicode:Bad Apple!! feat. のみこ (かめりあ's "Bad Psy!!" Remix)
Artist:Masayoshi Minoshima
ArtistUnicode:Masayoshi Minoshima
Creator:Genjuro
Version:Inner Oni
Source:東方幻想郷 ~ Lotus Land Story
Tags:東方project touhou gensoukyou stage 3 elly alstroemeria records 簑島正佳 psytrance nifty
BeatmapID:2204598
BeatmapSetID:1055080

[Difficulty]
HPDrainRate:5
CircleSize:2
OverallDifficulty:6.5
ApproachRate:10
SliderMultiplier:1.4
SliderTickRate:1

[Events]
//Background and Video events
0,0,"bg.jpg",0,30
//Break Periods
//Storyboard Layer 0 (Background)
//Storyboard Layer 1 (Fail)
//Storyboard Layer 2 (Pass)
//Storyboard Layer 3 (Foreground)
//Storyboard Layer 4 (Overlay)
//Storyboard Sound Samples

[TimingPoints]
230,375,4,1,0,60,1,0
230,-125,4,1,0,60,0,0
12230,-111.111111111111,4,1,0,60,0,0
24042,-100,4,1,0,80,0,0
30605,-98.7685536728074,4,1,0,90,0,0
30792,-98.1642307212813,4,1,0,90,0,0
30980,-97.5671627956895,4,1,0,90,0,0
31073,-97.271344251069,4,1,0,90,0,0
31167,-96.9773140969133,4,1,0,90,0,0
31355,-96.3945544788284,4,1,0,90,0,0
31542,-95.8188487173689,4,1,0,90,0,0
31605,-95.6284414285359,4,1,0,90,0,0
31667,-95.4387893780445,4,1,0,90,0,0
31730,-95.2498880813815,4,1,0,90,0,0
32105,-94.1319994201469,4,1,0,90,0,0
32292,-93.5829252337935,4,1,0,90,0,0
32480,-93.0401328613097,4,1,0,90,0,0
32573,-92.7710910436933,4,1,0,90,0,0
32667,-92.5036007026573,4,1,0,90,0,0
32855,-91.9732210769512,4,1,0,90,0,0
33042,-91.4489723878973,4,1,0,90,0,0
33136,-90.9090909090909,4,1,0,100,0,0
33292,-90.5678149156134,4,1,0,100,0,0
33355,-90.2290916637342,4,1,0,100,0,0
33417,-89.8928926184451,4,1,0,100,0,0
33511,-89.3932256025774,4,1,0,100,0,0
33605,-88.8991616809054,4,1,0,100,0,0
33667,-88.5727040183664,4,1,0,100,0,0
33730,-88.248713113141,4,1,0,100,0,0
33792,-87.9270838279232,4,1,0,100,0,0
33886,-87.4490499972454,4,1,0,100,0,0
33980,-86.9761102717917,4,1,0,100,0,0
34042,-86.6636738811286,4,1,0,100,0,0
34105,-86.3534741297944,4,1,0,100,0,0
34167,-86.0454870862933,4,1,0,100,0,0
34261,-85.5875672076372,4,1,0,100,0,0
34355,-85.1345679548378,4,1,0,100,0,0
34448,-84.6862670208811,4,1,0,100,0,0
34542,-84.2426626746877,4,1,0,100,0,0
34636,-83.8037517263573,4,1,0,100,0,0
34730,-83.3693210902706,4,1,0,100,0,0
34917,-86.9565217391304,4,1,0,60,0,0
35480,-90.9090909090909,4,1,0,60,0,0
35667,-85.7142612244968,4,1,0,80,0,0
35917,-84.9056443574256,4,1,0,80,0,0
35980,-84.1121416717625,4,1,0,80,0,0
36042,-83.3333333333333,4,1,0,80,0,0
36136,-76.9230769230769,4,1,0,100,0,0
36605,-90.9090909090909,4,1,0,100,0,0
37261,-83.3333333333333,4,1,0,100,0,0
37542,-76.9230769230769,4,1,0,100,0,0
37730,-78.4313725490196,4,1,0,100,0,0
37917,-80,4,1,0,100,0,0
38105,-83.3333333333333,4,1,0,100,0,0
38386,-90.9090909090909,4,1,0,100,0,0
39605,-83.3333333333333,4,1,0,100,0,0
39980,-90.9090909090909,4,1,0,100,0,0
40261,-76.9230769230769,4,1,0,100,0,0
40542,-83.3333333333333,4,1,0,100,0,0
40730,-82.207231276892,4,1,0,100,0,0
41105,-80.0438640374926,4,1,0,100,0,0
41386,-90.9090909090909,4,1,0,100,0,0
42042,-83.3333333333333,4,1,0,100,0,0
42230,-86.9565217391304,4,1,0,100,0,0
42417,-90.9090909090909,4,1,0,100,0,0
43355,-76.9230769230769,4,1,0,100,0,0
43636,-80,4,1,0,100,0,0
43730,-81.0811029948927,4,1,0,100,0,0
43917,-83.3333333333333,4,1,0,100,0,0
44198,-86.9565217391304,4,1,0,100,0,0
44480,-90.9090909090909,4,1,0,100,0,0
44855,-83.3333333333333,4,1,0,100,0,0
45230,-80,4,1,0,100,0,0
45605,-76.9230769230769,4,1,0,100,0,0
45980,-90.9090909090909,4,1,0,100,0,0
46355,-76.9230769230769,4,1,0,100,0,0
46542,-71.4285714285714,4,1,0,100,0,0
46730,-66.6666666666667,4,1,0,100,0,0
47105,-76.9230769230769,4,1,0,100,0,0
47667,-88.2353200692118,4,1,0,100,0,0
47855,-85.7142612244968,4,1,0,100,0,0
47948,-84.5070660583285,4,1,0,100,0,0
48042,-83.3333333333333,4,1,0,100,0,0
48230,-77.0201815981842,4,1,0,100,0,0
48605,-90.9090909090909,4,1,0,100,0,0
49261,-83.3333333333333,4,1,0,100,0,0
49542,-76.9230769230769,4,1,0,100,0,0
49730,-78.4313725490196,4,1,0,100,0,0
49917,-80,4,1,0,100,0,0
50105,-83.3333333333333,4,1,0,100,0,0
50386,-90.9090909090909,4,1,0,100,0,0
51605,-83.3333333333333,4,1,0,100,0,0
51980,-90.9090909090909,4,1,0,100,0,0
52261,-76.9230769230769,4,1,0,100,0,0
52542,-83.3333333333333,4,1,0,100,0,0
52730,-82.207231276892,4,1,0,100,0,0
53105,-80.0438640374926,4,1,0,100,0,0
53386,-90.9090909090909,4,1,0,100,0,0
54042,-83.3333333333333,4,1,0,100,0,0
54230,-86.9565217391304,4,1,0,100,0,0
54417,-90.9090909090909,4,1,0,100,0,0
55355,-76.9230769230769,4,1,0,100,0,0
55636,-80,4,1,0,100,0,0
55730,-81.0811029948927,4,1,0,100,0,0
55917,-83.3333333333333,4,1,0,100,0,0
56198,-86.9565217391304,4,1,0,100,0,0
56480,-90.9090909090909,4,1,0,100,0,0
56855,-76.9230769230769,4,1,0,100,0,0
57230,-83.3333333333333,4,1,0,100,0,0
58730,-90.9090909090909,4,1,0,100,0,0
59480,-100,4,1,0,100,0,0
59605,-96.8063582416093,4,1,0,100,0,0
59730,-93.8104784428211,4,1,0,100,0,0
59855,-90.9943774574169,4,1,0,100,0,0
59980,-88.3424222962139,4,1,0,100,0,0
60105,-85.8407413893152,4,1,0,100,0,0
60230,-83.4767742570985,4,1,0,100,0,0
60605,-111.238541039791,4,1,0,80,0,0
71292,-83.4049921223984,4,1,0,90,0,0
72042,-100.103206405804,4,1,0,100,0,0
78292,-99.7926309129629,4,1,0,100,0,0
78355,-99.586120084927,4,1,0,100,0,0
78417,-99.3804621986536,4,1,0,100,0,0
78511,-99.0735631113458,4,1,0,100,0,0
78605,-98.7685536728074,4,1,0,100,0,0
78698,-98.4655134385733,4,1,0,100,0,0
78792,-98.1642307212813,4,1,0,100,0,0
78886,-97.864786096937,4,1,0,100,0,0
78980,-97.5671627956895,4,1,0,100,0,0
79073,-97.271344251069,4,1,0,100,0,0
79167,-96.9773140969133,4,1,0,100,0,0
79261,-96.6850561643491,4,1,0,100,0,0
79355,-96.3945544788284,4,1,0,100,0,0
79448,-96.1058856205413,4,1,0,100,0,0
79542,-95.8188487173689,4,1,0,100,0,0
79636,-95.5335212796142,4,1,0,100,0,0
79730,-95.2498880813815,4,1,0,100,0,0
79792,-95.0617330894683,4,1,0,100,0,0
79855,-94.8743199883115,4,1,0,100,0,0
79917,-94.6876443986577,4,1,0,100,0,0
80011,-94.4090043531992,4,1,0,100,0,0
80105,-94.1319994201469,4,1,0,100,0,0
80198,-93.8566152488843,4,1,0,100,0,0
80292,-93.5829252337935,4,1,0,100,0,0
80386,-93.3107396928957,4,1,0,100,0,0
80480,-93.0401328613097,4,1,0,100,0,0
80573,-92.7710910436933,4,1,0,100,0,0
80667,-92.5036007026573,4,1,0,100,0,0
80761,-92.2376484564952,4,1,0,100,0,0
80855,-91.9732210769512,4,1,0,100,0,0
80948,-91.7103054870276,4,1,0,100,0,0
81042,-91.4489723878973,4,1,0,100,0,0
81136,-91.1890412657769,4,1,0,100,0,0
81230,-90.9090909090909,4,1,0,100,0,0
81292,-90.5678149156134,4,1,0,100,0,0
81355,-90.2290916637342,4,1,0,100,0,0
81417,-89.8928926184451,4,1,0,100,0,0
81511,-89.3932256025774,4,1,0,100,0,0
81605,-88.8991616809054,4,1,0,100,0,0
81667,-88.5727040183664,4,1,0,100,0,0
81730,-88.248713113141,4,1,0,100,0,0
81792,-87.9270838279232,4,1,0,100,0,0
81886,-87.4490499972454,4,1,0,100,0,0
81980,-86.9761102717917,4,1,0,100,0,0
82042,-86.6636738811286,4,1,0,100,0,0
82105,-86.3534741297944,4,1,0,100,0,0
82167,-86.0454870862933,4,1,0,100,0,0
82261,-85.5875672076372,4,1,0,100,0,0
82355,-85.1345679548378,4,1,0,100,0,0
82417,-84.8351991421465,4,1,0,100,0,0
82480,-84.5378568976974,4,1,0,100,0,0
82542,-84.2426626746877,4,1,0,100,0,0
82636,-83.8037517263573,4,1,0,100,0,0
82730,-83.3693210902706,4,1,0,100,0,0
82917,-86.9565217391304,4,1,0,80,0,0
83855,-85.7142612244968,4,1,0,80,0,0
84042,-83.3333333333333,4,1,0,80,0,0
84230,-76.9230769230769,4,1,0,90,0,0
84417,-86.9565217391304,4,1,0,100,0,0
87230,-88.8888888888889,4,1,0,100,0,0
87605,-90.9090909090909,4,1,0,100,0,0
89105,-95.2380952380952,4,1,0,100,0,0
89480,-100,4,1,0,100,0,0
89855,-86.9565217391304,4,1,0,100,0,0
90042,-88.8685083776343,4,1,0,100,0,0
90230,-90.8665488430417,4,1,0,100,0,0
90292,-91.5526226164275,4,1,0,100,0,0
90355,-92.2491353949785,4,1,0,100,0,0
90417,-92.9564136671956,4,1,0,100,0,0
90605,-95.1446722313614,4,1,0,100,0,0
93230,-97.5609756097561,4,1,0,100,0,0
93605,-100,4,1,0,100,0,0
94917,-94.594581811543,4,1,0,80,0,0
95386,-90.9090909090909,4,1,0,80,0,0
95667,-87.5000109375014,4,1,0,80,0,0
95948,-84.3373697198481,4,1,0,80,0,0
96042,-83.3333333333333,4,1,0,80,0,0
96230,-76.9230769230769,4,1,0,90,0,0
96417,-86.9565217391304,4,1,0,100,0,0
99230,-88.8888888888889,4,1,0,100,0,0
99605,-90.9090909090909,4,1,0,100,0,0
101011,-93.4579439252336,4,1,0,100,0,0
101105,-94.3396226415094,4,1,0,100,0,0
101292,-96.1538461538461,4,1,0,100,0,0
101386,-97.0873786407767,4,1,0,100,0,0
101480,-98.0392156862745,4,1,0,100,0,0
101667,-100,4,1,0,100,0,0
101855,-86.9565217391304,4,1,0,100,0,0
101948,-87.9021192321926,4,1,0,100,0,0
102042,-88.8685083776343,4,1,0,100,0,0
102230,-90.8665488430417,4,1,0,100,0,0
102323,-91.8996015233278,4,1,0,100,0,0
102417,-92.9564136671956,4,1,0,100,0,0
105230,-93.5715415256466,4,1,0,100,0,0
105417,-92.7599039749474,4,1,0,100,0,0
105511,-92.3593851451012,4,1,0,100,0,0
105698,-91.5685509643084,4,1,0,100,0,0
105792,-91.1782324734922,4,1,0,100,0,0
105980,-90.4074119612622,4,1,0,100,0,0
106167,-89.6495152202464,4,1,0,100,0,0
106261,-89.2753519680751,4,1,0,100,0,0
106448,-88.5362392107526,4,1,0,100,0,0
106542,-88.171292132652,4,1,0,100,0,0
106730,-87.4503500637513,4,1,0,100,0,0
106917,-86.7410268576241,4,1,0,100,0,0
107011,-86.3907002139034,4,1,0,100,0,0
107105,-86.0431179272557,4,1,0,100,0,0
107198,-85.6983947833673,4,1,0,100,0,0
107292,-85.3564228147475,4,1,0,100,0,0
107480,-84.6805299985012,4,1,0,100,0,0
107573,-84.3466173632573,4,1,0,100,0,0
107667,-84.0152571707022,4,1,0,100,0,0
107761,-83.6865603568395,4,1,0,100,0,0
107855,-83.3604254716116,4,1,0,100,0,0
108042,-93.0232558139535,4,1,0,90,0,0
108511,-111.159280132502,4,1,0,80,0,0
120230,-105.263157894737,4,1,0,80,0,0
131292,-100,4,1,0,100,0,0
131526,-99.0807289963717,4,1,0,100,0,0
131667,-96.4215085530699,4,1,0,100,0,0
131714,-95.566479866054,4,1,0,100,0,0
131855,-93.090194158218,4,1,0,100,0,0
131901,-92.2930674062418,4,1,0,100,0,0
132042,-89.9814638184534,4,1,0,100,0,0
132089,-89.2363952422724,4,1,0,100,0,0
132230,-87.0735789156553,4,1,0,100,0,0
132417,-100,4,1,0,100,0,0
138605,-98.7685536728074,4,1,0,90,0,0
138792,-98.1642307212813,4,1,0,90,0,0
138980,-97.5671627956895,4,1,0,90,0,0
139073,-97.271344251069,4,1,0,90,0,0
139167,-96.9773140969133,4,1,0,90,0,0
139355,-96.3945544788284,4,1,0,90,0,0
139542,-95.8188487173689,4,1,0,90,0,0
139605,-95.6284414285359,4,1,0,90,0,0
139667,-95.4387893780445,4,1,0,90,0,0
139730,-95.2498880813815,4,1,0,90,0,0
140105,-94.1319994201469,4,1,0,90,0,0
140292,-93.5829252337935,4,1,0,90,0,0
140480,-93.0401328613097,4,1,0,90,0,0
140573,-92.7710910436933,4,1,0,90,0,0
140667,-92.5036007026573,4,1,0,90,0,0
140855,-91.9732210769512,4,1,0,90,0,0
141042,-91.4489723878973,4,1,0,90,0,0
141136,-90.9090909090909,4,1,0,100,0,0
141292,-90.5678149156134,4,1,0,100,0,0
141355,-90.2290916637342,4,1,0,100,0,0
141417,-89.8928926184451,4,1,0,100,0,0
141511,-89.3932256025774,4,1,0,100,0,0
141605,-88.8991616809054,4,1,0,100,0,0
141667,-88.5727040183664,4,1,0,100,0,0
141730,-88.248713113141,4,1,0,100,0,0
141792,-87.9270838279232,4,1,0,100,0,0
141886,-87.4490499972454,4,1,0,100,0,0
141980,-86.9761102717917,4,1,0,100,0,0
142042,-86.6636738811286,4,1,0,100,0,0
142105,-86.3534741297944,4,1,0,100,0,0
142167,-86.0454870862933,4,1,0,100,0,0
142261,-85.5875672076372,4,1,0,100,0,0
142355,-85.1345679548378,4,1,0,100,0,0
142448,-84.6862670208811,4,1,0,100,0,0
142542,-84.2426626746877,4,1,0,100,0,0
142636,-83.8037517263573,4,1,0,100,0,0
142730,-83.3693210902706,4,1,0,100,0,0
142917,-86.9565217391304,4,1,0,60,0,0
143480,-90.9090909090909,4,1,0,60,0,0
143667,-85.7142612244968,4,1,0,80,0,0
143917,-84.9056443574256,4,1,0,80,0,0
143980,-84.1121416717625,4,1,0,80,0,0
144042,-83.3333333333333,4,1,0,80,0,0
144136,-83.3333333333333,4,1,0,60,0,0
144417,-100,4,1,0,80,0,0
144698,-97.6095423088561,4,1,0,80,0,0
144792,-95.3307022059524,4,1,0,80,0,0
144886,-93.1559271856011,4,1,0,80,0,0
144980,-91.0780821506086,4,1,0,80,0,0
145167,-83.3333333333333,4,1,0,90,0,0
145448,-76.9230769230769,4,1,0,100,0,0
145730,-78.4313725490196,4,1,0,100,0,0
145917,-80,4,1,0,100,0,0
146105,-83.3333333333333,4,1,0,100,0,0
146386,-90.9090909090909,4,1,0,100,0,0
147605,-83.3333333333333,4,1,0,100,0,0
147980,-90.9090909090909,4,1,0,100,0,0
148261,-76.9230769230769,4,1,0,100,0,0
148542,-83.3333333333333,4,1,0,100,0,0
148730,-82.207231276892,4,1,0,100,0,0
149105,-80.0438640374926,4,1,0,100,0,0
149386,-90.9090909090909,4,1,0,100,0,0
150042,-83.3333333333333,4,1,0,100,0,0
150230,-86.9565217391304,4,1,0,100,0,0
150417,-90.9090909090909,4,1,0,100,0,0
151355,-76.9230769230769,4,1,0,100,0,0
151636,-80,4,1,0,100,0,0
151730,-81.0811029948927,4,1,0,100,0,0
151917,-83.3333333333333,4,1,0,100,0,0
152198,-86.9565217391304,4,1,0,100,0,0
152480,-90.9090909090909,4,1,0,100,0,0
152855,-83.3333333333333,4,1,0,100,0,0
153230,-80,4,1,0,100,0,0
153605,-76.9230769230769,4,1,0,100,0,0
153980,-90.9090909090909,4,1,0,100,0,0
154355,-76.9230769230769,4,1,0,100,0,0
154542,-71.4285714285714,4,1,0,100,0,0
154730,-66.6666666666667,4,1,0,100,0,0
155105,-76.9230769230769,4,1,0,100,0,0
155667,-88.2353200692118,4,1,0,100,0,0
155855,-85.7142612244968,4,1,0,100,0,0
155948,-84.5070660583285,4,1,0,100,0,0
156042,-83.3333333333333,4,1,0,100,0,0
156230,-77.0201815981842,4,1,0,100,0,0
156605,-90.9090909090909,4,1,0,100,0,0
157261,-83.3333333333333,4,1,0,100,0,0
157542,-76.9230769230769,4,1,0,100,0,0
157730,-78.4313725490196,4,1,0,100,0,0
157917,-80,4,1,0,100,0,0
158105,-83.3333333333333,4,1,0,100,0,0
158386,-90.9090909090909,4,1,0,100,0,0
159605,-83.3333333333333,4,1,0,100,0,0
159980,-90.9090909090909,4,1,0,100,0,0
160261,-76.9230769230769,4,1,0,100,0,0
160542,-83.3333333333333,4,1,0,100,0,0
160730,-82.207231276892,4,1,0,100,0,0
161105,-80.0438640374926,4,1,0,100,0,0
161386,-90.9090909090909,4,1,0,100,0,0
162042,-83.3333333333333,4,1,0,100,0,0
162230,-86.9565217391304,4,1,0,100,0,0
162417,-90.9090909090909,4,1,0,100,0,0
163355,-76.9230769230769,4,1,0,100,0,0
163636,-80,4,1,0,100,0,0
163730,-81.0811029948927,4,1,0,100,0,0
163917,-83.3333333333333,4,1,0,100,0,0
164198,-86.9565217391304,4,1,0,100,0,0
164480,-90.9090909090909,4,1,0,100,0,0
164855,-76.9230769230769,4,1,0,100,0,0
165230,-83.3333333333333,4,1,0,100,0,0
166730,-90.9090909090909,4,1,0,100,0,0
168230,-100,4,1,0,100,0,0
168605,-125.161301627472,4,1,0,80,0,0
174980,-122.645211930926,4,1,0,80,0,0
175730,-120.37750385208,4,1,0,80,0,0
176105,-119.274809160305,4,1,0,80,0,0
176480,-118.192133131619,4,1,0,80,0,0
177230,-116.084695393759,4,1,0,80,0,0
177980,-114.051094890511,4,1,0,80,0,0
178730,-112.087517934003,4,1,0,80,0,0
179105,-111.130867709815,4,1,0,80,0,0
179292,-83.3436818404949,4,1,0,90,0,0
180042,-100,4,1,0,100,0,0
186292,-99.7926309129629,4,1,0,100,0,0
186355,-99.586120084927,4,1,0,100,0,0
186417,-99.3804621986536,4,1,0,100,0,0
186511,-99.0735631113458,4,1,0,100,0,0
186605,-98.7685536728074,4,1,0,100,0,0
186698,-98.4655134385733,4,1,0,100,0,0
186792,-98.1642307212813,4,1,0,100,0,0
186886,-97.864786096937,4,1,0,100,0,0
186980,-97.5671627956895,4,1,0,100,0,0
187073,-97.271344251069,4,1,0,100,0,0
187167,-96.9773140969133,4,1,0,100,0,0
187261,-96.6850561643491,4,1,0,100,0,0
187355,-96.3945544788284,4,1,0,100,0,0
187448,-96.1058856205413,4,1,0,100,0,0
187542,-95.8188487173689,4,1,0,100,0,0
187636,-95.5335212796142,4,1,0,100,0,0
187730,-95.2498880813815,4,1,0,100,0,0
187792,-95.0617330894683,4,1,0,100,0,0
187855,-94.8743199883115,4,1,0,100,0,0
187917,-94.6876443986577,4,1,0,100,0,0
188011,-94.4090043531992,4,1,0,100,0,0
188105,-94.1319994201469,4,1,0,100,0,0
188198,-93.8566152488843,4,1,0,100,0,0
188292,-93.5829252337935,4,1,0,100,0,0
188386,-93.3107396928957,4,1,0,100,0,0
188480,-93.0401328613097,4,1,0,100,0,0
188573,-92.7710910436933,4,1,0,100,0,0
188667,-92.5036007026573,4,1,0,100,0,0
188761,-92.2376484564952,4,1,0,100,0,0
188855,-91.9732210769512,4,1,0,100,0,0
188948,-91.7103054870276,4,1,0,100,0,0
189042,-91.4489723878973,4,1,0,100,0,0
189136,-91.1890412657769,4,1,0,100,0,0
189230,-90.9090909090909,4,1,0,100,0,0
189292,-90.5678149156134,4,1,0,100,0,0
189355,-90.2290916637342,4,1,0,100,0,0
189417,-89.8928926184451,4,1,0,100,0,0
189511,-89.3932256025774,4,1,0,100,0,0
189605,-88.8991616809054,4,1,0,100,0,0
189667,-88.5727040183664,4,1,0,100,0,0
189730,-88.248713113141,4,1,0,100,0,0
189792,-87.9270838279232,4,1,0,100,0,0
189886,-87.4490499972454,4,1,0,100,0,0
189980,-86.9761102717917,4,1,0,100,0,0
190042,-86.6636738811286,4,1,0,100,0,0
190105,-86.3534741297944,4,1,0,100,0,0
190167,-86.0454870862933,4,1,0,100,0,0
190261,-85.5875672076372,4,1,0,100,0,0
190355,-85.1345679548378,4,1,0,100,0,0
190417,-84.8351991421465,4,1,0,100,0,0
190480,-84.5378568976974,4,1,0,100,0,0
190542,-84.2426626746877,4,1,0,100,0,0
190636,-83.8037517263573,4,1,0,100,0,0
190730,-83.3693210902706,4,1,0,100,0,0
190917,-111.111111111111,4,1,0,80,0,0
191761,-105.263157894737,4,1,0,80,0,0
191855,-103.448240190262,4,1,0,80,0,0
192042,-100,4,1,0,80,0,0
192230,-90.9090909090909,4,1,0,100,0,1
204230,-90.9090909090909,4,1,0,90,0,0
204605,-90.9090909090909,4,1,0,100,0,1
215480,-80,4,1,0,100,0,0
216230,-100,4,1,0,100,0,0
222292,-99.7926309129629,4,1,0,100,0,0
222355,-99.586120084927,4,1,0,100,0,0
222417,-99.3804621986536,4,1,0,100,0,0
222511,-99.0735631113458,4,1,0,100,0,0
222605,-98.7685536728074,4,1,0,100,0,0
222698,-98.4655134385733,4,1,0,100,0,0
222792,-98.1642307212813,4,1,0,100,0,0
222886,-97.864786096937,4,1,0,100,0,0
222980,-97.5671627956895,4,1,0,100,0,0
223073,-97.271344251069,4,1,0,100,0,0
223167,-96.9773140969133,4,1,0,100,0,0
223261,-96.6850561643491,4,1,0,100,0,0
223355,-96.3945544788284,4,1,0,100,0,0
223448,-96.1058856205413,4,1,0,100,0,0
223542,-95.8188487173689,4,1,0,100,0,0
223636,-95.5335212796142,4,1,0,100,0,0
223730,-95.2498880813815,4,1,0,100,0,0
223792,-95.0617330894683,4,1,0,100,0,0
223855,-94.8743199883115,4,1,0,100,0,0
223917,-94.6876443986577,4,1,0,100,0,0
224011,-94.4090043531992,4,1,0,100,0,0
224105,-94.1319994201469,4,1,0,100,0,0
224198,-93.8566152488843,4,1,0,100,0,0
224292,-93.5829252337935,4,1,0,100,0,0
224386,-93.3107396928957,4,1,0,100,0,0
224480,-93.0401328613097,4,1,0,100,0,0
224573,-92.7710910436933,4,1,0,100,0,0
224667,-92.5036007026573,4,1,0,100,0,0
224761,-92.2376484564952,4,1,0,100,0,0
224855,-91.9732210769512,4,1,0,100,0,0
224948,-91.7103054870276,4,1,0,100,0,0
225042,-91.4489723878973,4,1,0,100,0,0
225136,-91.1890412657769,4,1,0,100,0,0
225230,-90.9090909090909,4,1,0,100,0,0
225292,-90.5678149156134,4,1,0,100,0,0
225355,-90.2290916637342,4,1,0,100,0,0
225417,-89.8928926184451,4,1,0,100,0,0
225511,-89.3932256025774,4,1,0,100,0,0
225605,-88.8991616809054,4,1,0,100,0,0
225667,-88.5727040183664,4,1,0,100,0,0
225730,-88.248713113141,4,1,0,100,0,0
225792,-87.9270838279232,4,1,0,100,0,0
225886,-87.4490499972454,4,1,0,100,0,0
225980,-86.9761102717917,4,1,0,100,0,0
226042,-86.6636738811286,4,1,0,100,0,0
226105,-86.3534741297944,4,1,0,100,0,0
226167,-86.0454870862933,4,1,0,100,0,0
226261,-85.5875672076372,4,1,0,100,0,0
226355,-85.1345679548378,4,1,0,100,0,0
226417,-84.8351991421465,4,1,0,100,0,0
226480,-84.5378568976974,4,1,0,100,0,0
226542,-84.2426626746877,4,1,0,100,0,0
226636,-83.8037517263573,4,1,0,100,0,0
226730,-83.3693210902706,4,1,0,100,0,0
226917,-86.9565217391304,4,1,0,80,0,0
227855,-85.7142612244968,4,1,0,80,0,0
228042,-83.3333333333333,4,1,0,80,0,0
228230,-76.9230769230769,4,1,0,90,0,0
228417,-86.9565217391304,4,1,0,100,0,0
231042,-87.9021192321926,4,1,0,100,0,0
231230,-88.8685083776343,4,1,0,100,0,0
231605,-90.8665488430417,4,1,0,100,0,0
233011,-86.9565217391304,4,1,0,100,0,0
233105,-87.7066807932894,4,1,0,100,0,0
233198,-88.4698954639715,4,1,0,100,0,0
233292,-89.2465095690108,4,1,0,100,0,0
233386,-90.0368791056817,4,1,0,100,0,0
233480,-90.8413727948257,4,1,0,100,0,0
233761,-86.9565217391304,4,1,0,100,0,0
233855,-87.7066807932894,4,1,0,100,0,0
233948,-88.4698954639715,4,1,0,100,0,0
234042,-89.2465095690108,4,1,0,100,0,0
234136,-90.0368791056817,4,1,0,100,0,0
234230,-90.8413727948257,4,1,0,100,0,0
234605,-95.1446722313614,4,1,0,100,0,0
237042,-96.3735593357549,4,1,0,100,0,0
237230,-97.536424977908,4,1,0,100,0,0
237605,-99.9485265088479,4,1,0,100,0,0
238917,-95.261593097726,4,1,0,80,0,0
239386,-91.9923425574055,4,1,0,80,0,0
239667,-88.9401183970856,4,1,0,80,0,0
239855,-87.0153138250801,4,1,0,80,0,0
239948,-86.0838560058124,4,1,0,80,0,0
240042,-85.1721286133211,4,1,0,80,0,0
240230,-83.4053399434845,4,1,0,90,0,0
240417,-85.1063829787234,4,1,0,90,0,0
240605,-86.9565217391304,4,1,0,100,0,0
243042,-87.9021192321926,4,1,0,100,0,0
243230,-88.8685083776343,4,1,0,100,0,0
243605,-90.8665488430417,4,1,0,100,0,0
245011,-86.9565217391304,4,1,0,100,0,0
245105,-87.7066807932894,4,1,0,100,0,0
245198,-88.4698954639715,4,1,0,100,0,0
245292,-89.2465095690108,4,1,0,100,0,0
245386,-90.0368791056817,4,1,0,100,0,0
245480,-90.8413727948257,4,1,0,100,0,0
245761,-86.9565217391304,4,1,0,100,0,0
245855,-87.7066807932894,4,1,0,100,0,0
245948,-88.4698954639715,4,1,0,100,0,0
246042,-89.2465095690108,4,1,0,100,0,0
246136,-90.0368791056817,4,1,0,100,0,0
246230,-90.9090909090909,4,1,0,100,0,0
246417,-91.9431166326017,4,1,0,100,0,0
246605,-93.000935589412,4,1,0,100,0,0
246698,-93.5390693985064,4,1,0,100,0,0
246980,-95.1914061198555,4,1,0,100,0,0
249042,-97.5609756097561,4,1,0,100,0,0
249230,-100,4,1,0,100,0,0
249323,-99.0760170648532,4,1,0,100,0,0
249417,-98.1688563230069,4,1,0,100,0,0
249511,-97.2782517930814,4,1,0,100,0,0
249605,-96.4035684744906,4,1,0,100,0,0
249698,-95.5445658072751,4,1,0,100,0,0
249792,-94.7006465213138,4,1,0,100,0,0
249886,-93.8715930478698,4,1,0,100,0,0
249980,-93.0569294377221,4,1,0,100,0,0
250073,-92.2561991553022,4,1,0,100,0,0
250167,-91.4692151209589,4,1,0,100,0,0
250261,-90.6954618711743,4,1,0,100,0,0
250355,-89.9347703110934,4,1,0,100,0,0
250448,-89.1866533956926,4,1,0,100,0,0
250542,-88.4509583661339,4,1,0,100,0,0
250636,-87.7273014380259,4,1,0,100,0,0
250730,-86.9565217391304,4,1,0,90,0,0
250917,-88.8753008428934,4,1,0,90,0,0
251011,-89.8667186695412,4,1,0,90,0,0
251198,-91.9175940385925,4,1,0,90,0,0
251292,-92.9785396232696,4,1,0,90,0,0
251480,-95.1755513043809,4,1,0,90,0,0
251573,-96.3135043090662,4,1,0,90,0,0
251761,-98.6730448922885,4,1,0,90,0,0
251855,-99.8967068051635,4,1,0,90,0,0
252042,-95.2380952380952,4,1,0,100,0,0
261323,-94.6774245468265,4,1,0,100,0,0
261417,-94.1234051965532,4,1,0,100,0,0
261511,-93.5757444184408,4,1,0,100,0,0
261605,-93.0345064984603,4,1,0,100,0,0
261698,-92.4994080037888,4,1,0,100,0,0
261792,-91.9704296674533,4,1,0,100,0,0
261886,-91.4475507145254,4,1,0,100,0,0
261980,-90.9305009088503,4,1,0,100,0,0
262073,-90.4192650902972,4,1,0,100,0,0
262167,-89.9138265885975,4,1,0,100,0,0
262261,-89.4139274709986,4,1,0,100,0,0
262355,-88.9196353227916,4,1,0,100,0,0
262448,-88.4306999555193,4,1,0,100,0,0
262542,-87.9471121246527,4,1,0,100,0,0
262636,-87.4688610854536,4,1,0,100,0,0
262730,-86.9957076317855,4,1,0,100,0,0
263480,-100,4,1,0,100,0,0
263605,-96.8063582416093,4,1,0,100,0,0
263730,-93.8104784428211,4,1,0,100,0,0
263855,-90.9943774574169,4,1,0,100,0,0
263980,-88.3424222962139,4,1,0,100,0,0
264105,-85.8407413893152,4,1,0,100,0,0
264230,-83.4767742570985,4,1,0,100,0,0
264417,-125.323020084267,4,1,0,60,0,0

[HitObjects]
256,192,230,5,4,0:0:0:0:
256,192,2480,1,8,0:0:0:0:
256,192,2573,1,0,0:0:0:0:
256,192,3230,1,8,0:0:0:0:
256,192,3323,1,8,0:0:0:0:
256,192,4730,1,0,0:0:0:0:
256,192,4823,1,8,0:0:0:0:
256,192,5480,1,8,0:0:0:0:
256,192,5526,1,8,0:0:0:0:
256,192,6230,1,0,0:0:0:0:
256,192,8480,1,8,0:0:0:0:
256,192,8573,1,8,0:0:0:0:
256,192,9230,1,0,0:0:0:0:
256,192,9323,1,0,0:0:0:0:
256,192,9417,1,8,0:0:0:0:
256,192,10730,1,0,0:0:0:0:
256,192,10823,1,8,0:0:0:0:
256,192,11480,1,8,0:0:0:0:
256,192,11526,1,8,0:0:0:0:
256,192,12230,1,0,0:0:0:0:
256,192,15230,1,0,0:0:0:0:
256,192,16730,1,8,0:0:0:0:
256,192,18230,1,0,0:0:0:0:
256,192,21230,1,0,0:0:0:0:
256,192,22730,1,8,0:0:0:0:
256,192,24230,1,0,0:0:0:0:
256,192,24605,1,8,0:0:0:0:
256,192,24792,1,8,0:0:0:0:
256,192,24980,1,0,0:0:0:0:
256,192,25073,1,8,0:0:0:0:
256,192,25167,1,8,0:0:0:0:
256,192,25355,1,8,0:0:0:0:
256,192,25542,1,0,0:0:0:0:
256,192,25605,1,0,0:0:0:0:
256,192,25667,1,0,0:0:0:0:
256,192,25730,1,8,0:0:0:0:
256,192,26105,1,8,0:0:0:0:
256,192,26292,1,8,0:0:0:0:
256,192,26480,1,0,0:0:0:0:
256,192,26573,1,8,0:0:0:0:
256,192,26667,1,8,0:0:0:0:
256,192,26855,1,8,0:0:0:0:
256,192,27042,1,0,0:0:0:0:
256,192,27136,1,0,0:0:0:0:
256,192,27230,1,8,0:0:0:0:
256,192,27605,1,8,0:0:0:0:
256,192,27792,1,8,0:0:0:0:
256,192,27980,1,0,0:0:0:0:
256,192,28073,1,8,0:0:0:0:
256,192,28167,1,8,0:0:0:0:
256,192,28355,1,8,0:0:0:0:
256,192,28542,1,0,0:0:0:0:
256,192,28605,1,0,0:0:0:0:
256,192,28667,1,0,0:0:0:0:
256,192,28730,1,8,0:0:0:0:
256,192,28917,1,0,0:0:0:0:
256,192,29011,1,8,0:0:0:0:
256,192,29105,1,8,0:0:0:0:
256,192,29292,1,0,0:0:0:0:
256,192,29386,1,0,0:0:0:0:
256,192,29480,1,8,0:0:0:0:
256,192,29573,1,0,0:0:0:0:
256,192,29667,1,8,0:0:0:0:
256,192,29730,1,8,0:0:0:0:
256,192,29792,1,8,0:0:0:0:
256,192,29855,1,0,0:0:0:0:
256,192,30042,1,8,0:0:0:0:
256,192,30136,1,8,0:0:0:0:
256,192,30230,1,0,0:0:0:0:
256,192,30605,1,8,0:0:0:0:
256,192,30792,1,8,0:0:0:0:
256,192,30980,1,0,0:0:0:0:
256,192,31073,1,8,0:0:0:0:
256,192,31167,1,8,0:0:0:0:
256,192,31355,1,8,0:0:0:0:
256,192,31542,1,0,0:0:0:0:
256,192,31605,1,0,0:0:0:0:
256,192,31667,1,0,0:0:0:0:
256,192,31730,1,8,0:0:0:0:
256,192,32105,1,8,0:0:0:0:
256,192,32292,1,8,0:0:0:0:
256,192,32480,1,0,0:0:0:0:
256,192,32573,1,8,0:0:0:0:
256,192,32667,1,8,0:0:0:0:
256,192,32855,1,8,0:0:0:0:
256,192,33042,1,0,0:0:0:0:
256,192,33230,1,8,0:0:0:0:
256,192,33292,1,8,0:0:0:0:
256,192,33355,1,8,0:0:0:0:
256,192,33417,1,0,0:0:0:0:
256,192,33511,1,0,0:0:0:0:
256,192,33605,1,8,0:0:0:0:
256,192,33667,1,8,0:0:0:0:
256,192,33730,1,8,0:0:0:0:
256,192,33792,1,0,0:0:0:0:
256,192,33886,1,0,0:0:0:0:
256,192,33980,1,8,0:0:0:0:
256,192,34042,1,0,0:0:0:0:
256,192,34105,1,0,0:0:0:0:
256,192,34167,1,8,0:0:0:0:
256,192,34261,1,0,0:0:0:0:
256,192,34355,1,8,0:0:0:0:
256,192,34448,1,8,0:0:0:0:
256,192,34542,1,8,0:0:0:0:
256,192,34636,1,8,0:0:0:0:
256,192,34730,1,0,0:0:0:0:
256,192,35105,1,8,0:0:0:0:
256,192,35480,1,8,0:0:0:0:
256,192,35855,1,0,0:0:0:0:
256,192,35917,1,0,0:0:0:0:
256,192,35980,1,0,0:0:0:0:
256,192,36042,1,8,0:0:0:0:
256,192,36230,1,4,0:0:0:0:
256,192,36605,1,8,0:0:0:0:
256,192,36792,1,0,0:0:0:0:
256,192,36886,1,0,0:0:0:0:
256,192,36980,1,8,0:0:0:0:
256,192,37073,1,8,0:0:0:0:
256,192,37261,1,4,0:0:0:0:
256,192,37542,1,12,0:0:0:0:
256,192,37917,1,12,0:0:0:0:
256,192,38105,1,12,0:0:0:0:
256,192,38386,1,0,0:0:0:0:
256,192,38480,1,8,0:0:0:0:
256,192,38573,1,0,0:0:0:0:
256,192,38667,1,0,0:0:0:0:
256,192,38761,1,8,0:0:0:0:
256,192,38948,1,8,0:0:0:0:
256,192,39042,1,0,0:0:0:0:
256,192,39230,1,8,0:0:0:0:
256,192,39292,1,0,0:0:0:0:
256,192,39355,1,0,0:0:0:0:
256,192,39417,1,8,0:0:0:0:
256,192,39605,1,4,0:0:0:0:
256,192,39980,1,0,0:0:0:0:
256,192,40073,1,8,0:0:0:0:
256,192,40261,1,4,0:0:0:0:
256,192,40542,1,4,0:0:0:0:
256,192,41105,1,12,0:0:0:0:
256,192,41386,1,0,0:0:0:0:
256,192,41480,1,8,0:0:0:0:
256,192,41573,1,0,0:0:0:0:
256,192,41761,1,8,0:0:0:0:
256,192,41855,1,8,0:0:0:0:
256,192,42042,1,4,0:0:0:0:
256,192,42417,1,0,0:0:0:0:
256,192,42605,1,8,0:0:0:0:
256,192,42667,1,8,0:0:0:0:
256,192,42730,1,8,0:0:0:0:
256,192,42792,1,0,0:0:0:0:
256,192,42886,1,0,0:0:0:0:
256,192,42980,1,8,0:0:0:0:
256,192,43105,1,8,0:0:0:0:
256,192,43230,1,8,0:0:0:0:
256,192,43355,1,4,0:0:0:0:
256,192,43636,1,4,0:0:0:0:
256,192,43917,1,12,0:0:0:0:
256,192,44198,1,12,0:0:0:0:
256,192,44480,1,0,0:0:0:0:
256,192,44573,1,8,0:0:0:0:
256,192,44855,1,4,0:0:0:0:
256,192,45605,1,12,0:0:0:0:
256,192,45980,1,0,0:0:0:0:
256,192,46355,1,12,0:0:0:0:
256,192,46542,1,4,0:0:0:0:
256,192,46730,1,12,0:0:0:0:
256,192,47105,1,4,0:0:0:0:
256,192,47667,1,8,0:0:0:0:
256,192,47855,1,8,0:0:0:0:
256,192,47948,1,8,0:0:0:0:
256,192,48042,1,8,0:0:0:0:
256,192,48230,1,4,0:0:0:0:
256,192,48605,1,8,0:0:0:0:
256,192,48792,1,0,0:0:0:0:
256,192,48886,1,0,0:0:0:0:
256,192,48980,1,8,0:0:0:0:
256,192,49073,1,8,0:0:0:0:
256,192,49261,1,4,0:0:0:0:
256,192,49542,1,12,0:0:0:0:
256,192,49917,1,12,0:0:0:0:
256,192,50105,1,12,0:0:0:0:
256,192,50386,1,0,0:0:0:0:
256,192,50480,1,8,0:0:0:0:
256,192,50573,1,8,0:0:0:0:
256,192,50667,1,0,0:0:0:0:
256,192,50761,1,8,0:0:0:0:
256,192,50948,1,8,0:0:0:0:
256,192,51042,1,0,0:0:0:0:
256,192,51230,1,8,0:0:0:0:
256,192,51292,1,0,0:0:0:0:
256,192,51355,1,0,0:0:0:0:
256,192,51417,1,8,0:0:0:0:
256,192,51605,1,4,0:0:0:0:
256,192,51980,1,0,0:0:0:0:
256,192,52073,1,8,0:0:0:0:
256,192,52261,1,4,0:0:0:0:
256,192,52542,1,4,0:0:0:0:
256,192,53105,1,12,0:0:0:0:
256,192,53386,1,0,0:0:0:0:
256,192,53480,1,8,0:0:0:0:
256,192,53573,1,0,0:0:0:0:
256,192,53761,1,8,0:0:0:0:
256,192,53855,1,8,0:0:0:0:
256,192,54042,1,4,0:0:0:0:
256,192,54417,1,0,0:0:0:0:
256,192,54605,1,8,0:0:0:0:
256,192,54667,1,8,0:0:0:0:
256,192,54730,1,8,0:0:0:0:
256,192,54792,1,0,0:0:0:0:
256,192,54886,1,0,0:0:0:0:
256,192,54980,1,8,0:0:0:0:
256,192,55105,1,8,0:0:0:0:
256,192,55230,1,8,0:0:0:0:
256,192,55355,1,4,0:0:0:0:
256,192,55636,1,4,0:0:0:0:
256,192,55917,1,12,0:0:0:0:
256,192,56198,1,12,0:0:0:0:
256,192,56480,1,0,0:0:0:0:
256,192,56573,1,8,0:0:0:0:
256,192,56855,1,4,0:0:0:0:
256,192,57230,8,0,59105,0:0:0:0:
256,192,59480,5,0,0:0:0:0:
256,192,59605,1,0,0:0:0:0:
256,192,59730,1,0,0:0:0:0:
256,192,59855,1,8,0:0:0:0:
256,192,59980,1,8,0:0:0:0:
256,192,60105,1,8,0:0:0:0:
256,192,60230,1,4,0:0:0:0:
256,192,61730,1,8,0:0:0:0:
256,192,63230,1,0,0:0:0:0:
256,192,64730,1,0,0:0:0:0:
256,192,66230,1,0,0:0:0:0:
256,192,67730,1,8,0:0:0:0:
256,192,69230,1,0,0:0:0:0:
256,192,70730,1,0,0:0:0:0:
256,192,71480,8,0,71855,0:0:0:0:
256,192,72230,5,4,0:0:0:0:
256,192,72417,1,8,0:0:0:0:
256,192,72511,1,8,0:0:0:0:
256,192,72605,1,0,0:0:0:0:
256,192,72698,1,0,0:0:0:0:
256,192,72792,1,8,0:0:0:0:
256,192,72980,1,0,0:0:0:0:
256,192,73073,1,8,0:0:0:0:
256,192,73261,1,8,0:0:0:0:
256,192,73355,1,0,0:0:0:0:
256,192,73448,1,0,0:0:0:0:
256,192,73542,1,8,0:0:0:0:
256,192,73730,1,0,0:0:0:0:
256,192,73917,1,8,0:0:0:0:
256,192,74011,1,0,0:0:0:0:
256,192,74105,1,8,0:0:0:0:
256,192,74198,1,8,0:0:0:0:
256,192,74292,1,0,0:0:0:0:
256,192,74480,1,8,0:0:0:0:
256,192,74573,1,8,0:0:0:0:
256,192,74667,1,0,0:0:0:0:
256,192,74761,1,8,0:0:0:0:
256,192,74855,1,0,0:0:0:0:
256,192,74948,1,0,0:0:0:0:
256,192,75042,1,8,0:0:0:0:
256,192,75230,1,0,0:0:0:0:
256,192,75417,1,8,0:0:0:0:
256,192,75511,1,0,0:0:0:0:
256,192,75605,1,0,0:0:0:0:
256,192,75792,1,8,0:0:0:0:
256,192,75980,1,0,0:0:0:0:
256,192,76073,1,8,0:0:0:0:
256,192,76261,1,8,0:0:0:0:
256,192,76355,1,0,0:0:0:0:
256,192,76448,1,0,0:0:0:0:
256,192,76542,1,8,0:0:0:0:
256,192,76730,1,0,0:0:0:0:
256,192,76917,1,8,0:0:0:0:
256,192,77011,1,0,0:0:0:0:
256,192,77105,1,8,0:0:0:0:
256,192,77292,1,0,0:0:0:0:
256,192,77480,1,8,0:0:0:0:
256,192,77573,1,8,0:0:0:0:
256,192,77667,1,0,0:0:0:0:
256,192,77761,1,8,0:0:0:0:
256,192,77855,1,0,0:0:0:0:
256,192,77948,1,0,0:0:0:0:
256,192,78042,1,8,0:0:0:0:
256,192,78230,1,0,0:0:0:0:
256,192,78292,1,0,0:0:0:0:
256,192,78355,1,0,0:0:0:0:
256,192,78417,1,8,0:0:0:0:
256,192,78511,1,0,0:0:0:0:
256,192,78605,1,8,0:0:0:0:
256,192,78698,1,8,0:0:0:0:
256,192,78792,1,0,0:0:0:0:
256,192,78886,1,8,0:0:0:0:
256,192,78980,1,0,0:0:0:0:
256,192,79073,1,0,0:0:0:0:
256,192,79167,1,8,0:0:0:0:
256,192,79261,1,0,0:0:0:0:
256,192,79355,1,8,0:0:0:0:
256,192,79448,1,8,0:0:0:0:
256,192,79542,1,0,0:0:0:0:
256,192,79636,1,8,0:0:0:0:
256,192,79730,1,0,0:0:0:0:
256,192,79792,1,0,0:0:0:0:
256,192,79855,1,0,0:0:0:0:
256,192,79917,1,8,0:0:0:0:
256,192,80011,1,0,0:0:0:0:
256,192,80105,1,8,0:0:0:0:
256,192,80198,1,8,0:0:0:0:
256,192,80292,1,0,0:0:0:0:
256,192,80386,1,8,0:0:0:0:
256,192,80480,1,0,0:0:0:0:
256,192,80573,1,0,0:0:0:0:
256,192,80667,1,8,0:0:0:0:
256,192,80761,1,0,0:0:0:0:
256,192,80855,1,8,0:0:0:0:
256,192,80948,1,8,0:0:0:0:
256,192,81042,1,0,0:0:0:0:
256,192,81136,1,0,0:0:0:0:
256,192,81230,1,8,0:0:0:0:
256,192,81292,1,0,0:0:0:0:
256,192,81355,1,0,0:0:0:0:
256,192,81417,1,8,0:0:0:0:
256,192,81511,1,0,0:0:0:0:
256,192,81605,1,8,0:0:0:0:
256,192,81667,1,8,0:0:0:0:
256,192,81730,1,8,0:0:0:0:
256,192,81792,1,0,0:0:0:0:
256,192,81886,1,0,0:0:0:0:
256,192,81980,1,8,0:0:0:0:
256,192,82042,1,0,0:0:0:0:
256,192,82105,1,0,0:0:0:0:
256,192,82167,1,8,0:0:0:0:
256,192,82261,1,0,0:0:0:0:
256,192,82355,1,8,0:0:0:0:
256,192,82417,1,8,0:0:0:0:
256,192,82480,1,8,0:0:0:0:
256,192,82542,1,0,0:0:0:0:
256,192,82636,1,0,0:0:0:0:
256,192,82730,1,8,0:0:0:0:
256,192,83761,1,0,0:0:0:0:
256,192,83855,1,8,0:0:0:0:
256,192,84042,1,8,0:0:0:0:
256,192,84230,1,4,0:0:0:0:
256,192,84605,1,0,0:0:0:0:
256,192,84698,1,0,0:0:0:0:
256,192,84792,1,8,0:0:0:0:
256,192,84886,1,8,0:0:0:0:
256,192,84980,1,0,0:0:0:0:
256,192,85073,1,8,0:0:0:0:
256,192,85167,1,8,0:0:0:0:
256,192,85261,1,8,0:0:0:0:
256,192,85355,1,0,0:0:0:0:
256,192,85448,1,8,0:0:0:0:
256,192,85542,1,8,0:0:0:0:
256,192,85636,1,8,0:0:0:0:
256,192,85730,1,0,0:0:0:0:
256,192,85823,1,8,0:0:0:0:
256,192,85917,1,8,0:0:0:0:
256,192,86011,1,8,0:0:0:0:
256,192,86105,1,0,0:0:0:0:
256,192,86198,1,8,0:0:0:0:
256,192,86292,1,8,0:0:0:0:
256,192,86386,1,8,0:0:0:0:
256,192,86480,1,0,0:0:0:0:
256,192,86573,1,8,0:0:0:0:
256,192,86667,1,0,0:0:0:0:
256,192,86761,1,0,0:0:0:0:
256,192,86855,1,8,0:0:0:0:
256,192,87230,1,0,0:0:0:0:
256,192,87605,1,8,0:0:0:0:
256,192,87698,1,8,0:0:0:0:
256,192,87792,1,0,0:0:0:0:
256,192,87886,1,0,0:0:0:0:
256,192,87980,1,8,0:0:0:0:
256,192,88073,1,8,0:0:0:0:
256,192,88167,1,8,0:0:0:0:
256,192,88261,1,0,0:0:0:0:
256,192,88355,1,8,0:0:0:0:
256,192,88448,1,8,0:0:0:0:
256,192,88542,1,8,0:0:0:0:
256,192,88636,1,0,0:0:0:0:
256,192,88730,1,8,0:0:0:0:
256,192,89105,1,0,0:0:0:0:
256,192,89480,1,0,0:0:0:0:
256,192,89855,1,8,0:0:0:0:
256,192,90042,1,0,0:0:0:0:
256,192,90230,1,8,0:0:0:0:
256,192,90292,1,0,0:0:0:0:
256,192,90355,1,0,0:0:0:0:
256,192,90417,1,8,0:0:0:0:
256,192,90605,1,0,0:0:0:0:
256,192,90698,1,8,0:0:0:0:
256,192,90792,1,0,0:0:0:0:
256,192,90886,1,0,0:0:0:0:
256,192,90980,1,8,0:0:0:0:
256,192,91073,1,0,0:0:0:0:
256,192,91167,1,0,0:0:0:0:
256,192,91261,1,0,0:0:0:0:
256,192,91355,1,8,0:0:0:0:
256,192,91448,1,0,0:0:0:0:
256,192,91542,1,0,0:0:0:0:
256,192,91636,1,0,0:0:0:0:
256,192,91730,1,8,0:0:0:0:
256,192,91823,1,0,0:0:0:0:
256,192,91917,1,0,0:0:0:0:
256,192,92011,1,0,0:0:0:0:
256,192,92105,1,8,0:0:0:0:
256,192,92198,1,0,0:0:0:0:
256,192,92292,1,0,0:0:0:0:
256,192,92386,1,0,0:0:0:0:
256,192,92480,1,8,0:0:0:0:
256,192,92573,1,0,0:0:0:0:
256,192,92667,1,8,0:0:0:0:
256,192,92761,1,8,0:0:0:0:
256,192,92855,1,0,0:0:0:0:
256,192,93230,1,8,0:0:0:0:
256,192,93605,1,0,0:0:0:0:
256,192,93698,1,0,0:0:0:0:
256,192,93792,1,8,0:0:0:0:
256,192,93886,1,8,0:0:0:0:
256,192,93980,1,0,0:0:0:0:
256,192,94073,1,0,0:0:0:0:
256,192,94167,1,0,0:0:0:0:
256,192,94261,1,8,0:0:0:0:
256,192,94355,1,0,0:0:0:0:
256,192,94448,1,0,0:0:0:0:
256,192,94542,1,0,0:0:0:0:
256,192,94636,1,8,0:0:0:0:
256,192,94730,1,0,0:0:0:0:
256,192,95105,1,8,0:0:0:0:
256,192,95386,1,8,0:0:0:0:
256,192,95667,1,0,0:0:0:0:
256,192,95948,1,0,0:0:0:0:
256,192,96042,1,8,0:0:0:0:
256,192,96230,1,4,0:0:0:0:
256,192,96605,1,0,0:0:0:0:
256,192,96792,1,8,0:0:0:0:
256,192,96839,1,8,0:0:0:0:
256,192,96980,1,0,0:0:0:0:
256,192,97073,1,0,0:0:0:0:
256,192,97167,1,8,0:0:0:0:
256,192,97261,1,8,0:0:0:0:
256,192,97355,1,0,0:0:0:0:
256,192,97448,1,8,0:0:0:0:
256,192,97542,1,8,0:0:0:0:
256,192,97636,1,8,0:0:0:0:
256,192,97730,1,0,0:0:0:0:
256,192,97823,1,8,0:0:0:0:
256,192,97917,1,8,0:0:0:0:
256,192,98011,1,8,0:0:0:0:
256,192,98105,1,0,0:0:0:0:
256,192,98198,1,8,0:0:0:0:
256,192,98292,1,8,0:0:0:0:
256,192,98386,1,8,0:0:0:0:
256,192,98480,1,0,0:0:0:0:
256,192,98573,1,8,0:0:0:0:
256,192,98667,1,0,0:0:0:0:
256,192,98761,1,0,0:0:0:0:
256,192,98855,1,8,0:0:0:0:
256,192,99230,1,0,0:0:0:0:
256,192,99605,1,8,0:0:0:0:
256,192,99698,1,8,0:0:0:0:
256,192,99792,1,0,0:0:0:0:
256,192,99886,1,0,0:0:0:0:
256,192,99980,1,8,0:0:0:0:
256,192,100073,1,8,0:0:0:0:
256,192,100167,1,8,0:0:0:0:
256,192,100261,1,0,0:0:0:0:
256,192,100355,1,8,0:0:0:0:
256,192,100448,1,8,0:0:0:0:
256,192,100542,1,8,0:0:0:0:
256,192,100636,1,0,0:0:0:0:
256,192,100730,1,8,0:0:0:0:
256,192,101011,1,8,0:0:0:0:
256,192,101105,1,0,0:0:0:0:
256,192,101292,1,8,0:0:0:0:
256,192,101386,1,8,0:0:0:0:
256,192,101480,1,0,0:0:0:0:
256,192,101667,1,8,0:0:0:0:
256,192,101855,1,0,0:0:0:0:
256,192,101948,1,0,0:0:0:0:
256,192,102042,1,8,0:0:0:0:
256,192,102230,1,0,0:0:0:0:
256,192,102323,1,8,0:0:0:0:
256,192,102417,1,8,0:0:0:0:
256,192,102605,1,8,0:0:0:0:
256,192,102698,1,8,0:0:0:0:
256,192,102792,1,0,0:0:0:0:
256,192,102886,1,0,0:0:0:0:
256,192,102980,1,8,0:0:0:0:
256,192,103073,1,0,0:0:0:0:
256,192,103167,1,0,0:0:0:0:
256,192,103261,1,0,0:0:0:0:
256,192,103355,1,8,0:0:0:0:
256,192,103448,1,0,0:0:0:0:
256,192,103542,1,0,0:0:0:0:
256,192,103636,1,0,0:0:0:0:
256,192,103730,1,8,0:0:0:0:
256,192,103823,1,0,0:0:0:0:
256,192,103917,1,0,0:0:0:0:
256,192,104011,1,0,0:0:0:0:
256,192,104105,1,8,0:0:0:0:
256,192,104198,1,0,0:0:0:0:
256,192,104292,1,0,0:0:0:0:
256,192,104386,1,0,0:0:0:0:
256,192,104480,1,8,0:0:0:0:
256,192,104573,1,0,0:0:0:0:
256,192,104667,1,8,0:0:0:0:
256,192,104761,1,8,0:0:0:0:
256,192,104855,1,0,0:0:0:0:
256,192,105230,1,8,0:0:0:0:
256,192,105417,1,0,0:0:0:0:
256,192,105511,1,8,0:0:0:0:
256,192,105698,1,8,0:0:0:0:
256,192,105792,1,0,0:0:0:0:
256,192,105980,1,8,0:0:0:0:
256,192,106167,1,0,0:0:0:0:
256,192,106261,1,8,0:0:0:0:
256,192,106448,1,8,0:0:0:0:
256,192,106542,1,0,0:0:0:0:
256,192,106730,1,8,0:0:0:0:
256,192,106917,1,0,0:0:0:0:
256,192,107011,1,8,0:0:0:0:
256,192,107105,1,0,0:0:0:0:
256,192,107198,1,0,0:0:0:0:
256,192,107292,1,8,0:0:0:0:
256,192,107480,1,0,0:0:0:0:
256,192,107573,1,8,0:0:0:0:
256,192,107667,1,8,0:0:0:0:
256,192,107761,1,0,0:0:0:0:
256,192,107855,1,8,0:0:0:0:
256,192,108230,8,0,108417,0:0:0:0:
256,192,108605,5,0,0:0:0:0:
256,192,108698,1,8,0:0:0:0:
256,192,108886,1,8,0:0:0:0:
256,192,108980,1,0,0:0:0:0:
256,192,109167,1,0,0:0:0:0:
256,192,109355,1,8,0:0:0:0:
256,192,109730,1,0,0:0:0:0:
256,192,109917,1,0,0:0:0:0:
256,192,110105,1,8,0:0:0:0:
256,192,110198,1,8,0:0:0:0:
256,192,110386,1,8,0:0:0:0:
256,192,110480,1,0,0:0:0:0:
256,192,110667,1,0,0:0:0:0:
256,192,110855,1,8,0:0:0:0:
256,192,111230,1,0,0:0:0:0:
256,192,111417,1,8,0:0:0:0:
256,192,111605,1,0,0:0:0:0:
256,192,111698,1,8,0:0:0:0:
256,192,111886,1,8,0:0:0:0:
256,192,111980,1,0,0:0:0:0:
256,192,112167,1,0,0:0:0:0:
256,192,112355,1,8,0:0:0:0:
256,192,112730,1,0,0:0:0:0:
256,192,112917,1,0,0:0:0:0:
256,192,113105,1,8,0:0:0:0:
256,192,113198,1,8,0:0:0:0:
256,192,113386,1,8,0:0:0:0:
256,192,113480,1,0,0:0:0:0:
256,192,113667,1,0,0:0:0:0:
256,192,113855,1,8,0:0:0:0:
256,192,113948,1,0,0:0:0:0:
256,192,114042,1,8,0:0:0:0:
256,192,114230,1,0,0:0:0:0:
256,192,114417,1,8,0:0:0:0:
256,192,114605,1,0,0:0:0:0:
256,192,114698,1,8,0:0:0:0:
256,192,114886,1,8,0:0:0:0:
256,192,114980,1,0,0:0:0:0:
256,192,115167,1,0,0:0:0:0:
256,192,115355,1,8,0:0:0:0:
256,192,115730,1,0,0:0:0:0:
256,192,115917,1,0,0:0:0:0:
256,192,116105,1,8,0:0:0:0:
256,192,116198,1,8,0:0:0:0:
256,192,116386,1,8,0:0:0:0:
256,192,116480,1,0,0:0:0:0:
256,192,116667,1,0,0:0:0:0:
256,192,116855,1,8,0:0:0:0:
256,192,117230,1,0,0:0:0:0:
256,192,117417,1,8,0:0:0:0:
256,192,117605,1,0,0:0:0:0:
256,192,117698,1,8,0:0:0:0:
256,192,117886,1,8,0:0:0:0:
256,192,117980,1,0,0:0:0:0:
256,192,118167,1,0,0:0:0:0:
256,192,118355,1,8,0:0:0:0:
256,192,118730,1,0,0:0:0:0:
256,192,118917,1,0,0:0:0:0:
256,192,119105,1,8,0:0:0:0:
256,192,119198,1,8,0:0:0:0:
256,192,119292,1,0,0:0:0:0:
256,192,119386,1,8,0:0:0:0:
256,192,119480,1,0,0:0:0:0:
256,192,119667,1,0,0:0:0:0:
256,192,119855,1,8,0:0:0:0:
256,192,119948,1,0,0:0:0:0:
256,192,120042,1,8,0:0:0:0:
256,192,120230,1,4,0:0:0:0:
256,192,120417,1,8,0:0:0:0:
256,192,120605,1,0,0:0:0:0:
256,192,120698,1,8,0:0:0:0:
256,192,120886,1,8,0:0:0:0:
256,192,120980,1,0,0:0:0:0:
256,192,121073,1,8,0:0:0:0:
256,192,121167,1,0,0:0:0:0:
256,192,121355,1,8,0:0:0:0:
256,192,121730,1,0,0:0:0:0:
256,192,121917,1,0,0:0:0:0:
256,192,122105,1,8,0:0:0:0:
256,192,122198,1,8,0:0:0:0:
256,192,122386,1,8,0:0:0:0:
256,192,122480,1,0,0:0:0:0:
256,192,122573,1,8,0:0:0:0:
256,192,122667,1,0,0:0:0:0:
256,192,122855,1,8,0:0:0:0:
256,192,123230,1,0,0:0:0:0:
256,192,123417,1,8,0:0:0:0:
256,192,123605,1,0,0:0:0:0:
256,192,123698,1,8,0:0:0:0:
256,192,123886,1,8,0:0:0:0:
256,192,123980,1,0,0:0:0:0:
256,192,124073,1,8,0:0:0:0:
256,192,124167,1,0,0:0:0:0:
256,192,124355,1,8,0:0:0:0:
256,192,124730,1,0,0:0:0:0:
256,192,124917,1,0,0:0:0:0:
256,192,125105,1,8,0:0:0:0:
256,192,125198,1,8,0:0:0:0:
256,192,125386,1,8,0:0:0:0:
256,192,125480,1,0,0:0:0:0:
256,192,125573,1,8,0:0:0:0:
256,192,125667,1,0,0:0:0:0:
256,192,125855,1,8,0:0:0:0:
256,192,125948,1,0,0:0:0:0:
256,192,126042,1,8,0:0:0:0:
256,192,126230,1,0,0:0:0:0:
256,192,126417,1,8,0:0:0:0:
256,192,126605,1,0,0:0:0:0:
256,192,126698,1,8,0:0:0:0:
256,192,126886,1,8,0:0:0:0:
256,192,126980,1,0,0:0:0:0:
256,192,127073,1,8,0:0:0:0:
256,192,127167,1,0,0:0:0:0:
256,192,127355,1,8,0:0:0:0:
256,192,127730,1,0,0:0:0:0:
256,192,127917,1,0,0:0:0:0:
256,192,128105,1,8,0:0:0:0:
256,192,128198,1,8,0:0:0:0:
256,192,128386,1,8,0:0:0:0:
256,192,128480,1,0,0:0:0:0:
256,192,128573,1,8,0:0:0:0:
256,192,128667,1,0,0:0:0:0:
256,192,128855,1,8,0:0:0:0:
256,192,129230,1,0,0:0:0:0:
256,192,129417,1,8,0:0:0:0:
256,192,129605,1,0,0:0:0:0:
256,192,129698,1,8,0:0:0:0:
256,192,129886,1,8,0:0:0:0:
256,192,129980,1,0,0:0:0:0:
256,192,130073,1,8,0:0:0:0:
256,192,130167,1,0,0:0:0:0:
256,192,130355,1,8,0:0:0:0:
256,192,130730,1,0,0:0:0:0:
256,192,131480,1,0,0:0:0:0:
256,192,131526,1,0,0:0:0:0:
256,192,131667,1,0,0:0:0:0:
256,192,131714,1,0,0:0:0:0:
256,192,131855,1,8,0:0:0:0:
256,192,131901,1,8,0:0:0:0:
256,192,132042,1,8,0:0:0:0:
256,192,132089,1,8,0:0:0:0:
256,192,132230,1,4,0:0:0:0:
256,192,132605,1,8,0:0:0:0:
256,192,132792,1,8,0:0:0:0:
256,192,132980,1,0,0:0:0:0:
256,192,133073,1,8,0:0:0:0:
256,192,133167,1,8,0:0:0:0:
256,192,133355,1,8,0:0:0:0:
256,192,133542,1,0,0:0:0:0:
256,192,133605,1,0,0:0:0:0:
256,192,133667,1,0,0:0:0:0:
256,192,133730,1,8,0:0:0:0:
256,192,134105,1,8,0:0:0:0:
256,192,134292,1,8,0:0:0:0:
256,192,134480,1,0,0:0:0:0:
256,192,134573,1,8,0:0:0:0:
256,192,134667,1,8,0:0:0:0:
256,192,134855,1,8,0:0:0:0:
256,192,135042,1,0,0:0:0:0:
256,192,135136,1,0,0:0:0:0:
256,192,135230,1,8,0:0:0:0:
256,192,135605,1,8,0:0:0:0:
256,192,135792,1,8,0:0:0:0:
256,192,135980,1,0,0:0:0:0:
256,192,136073,1,8,0:0:0:0:
256,192,136167,1,8,0:0:0:0:
256,192,136355,1,8,0:0:0:0:
256,192,136542,1,0,0:0:0:0:
256,192,136605,1,0,0:0:0:0:
256,192,136667,1,0,0:0:0:0:
256,192,136730,1,8,0:0:0:0:
256,192,136917,1,0,0:0:0:0:
256,192,137011,1,8,0:0:0:0:
256,192,137105,1,8,0:0:0:0:
256,192,137292,1,0,0:0:0:0:
256,192,137386,1,0,0:0:0:0:
256,192,137480,1,8,0:0:0:0:
256,192,137573,1,0,0:0:0:0:
256,192,137667,1,8,0:0:0:0:
256,192,137730,1,8,0:0:0:0:
256,192,137792,1,8,0:0:0:0:
256,192,137855,1,0,0:0:0:0:
256,192,138042,1,8,0:0:0:0:
256,192,138136,1,8,0:0:0:0:
256,192,138230,1,0,0:0:0:0:
256,192,138605,1,8,0:0:0:0:
256,192,138792,1,8,0:0:0:0:
256,192,138980,1,0,0:0:0:0:
256,192,139073,1,8,0:0:0:0:
256,192,139167,1,8,0:0:0:0:
256,192,139355,1,8,0:0:0:0:
256,192,139542,1,0,0:0:0:0:
256,192,139605,1,0,0:0:0:0:
256,192,139667,1,0,0:0:0:0:
256,192,139730,1,8,0:0:0:0:
256,192,140105,1,8,0:0:0:0:
256,192,140292,1,8,0:0:0:0:
256,192,140480,1,0,0:0:0:0:
256,192,140573,1,8,0:0:0:0:
256,192,140667,1,8,0:0:0:0:
256,192,140855,1,8,0:0:0:0:
256,192,141042,1,0,0:0:0:0:
256,192,141230,1,8,0:0:0:0:
256,192,141292,1,8,0:0:0:0:
256,192,141355,1,8,0:0:0:0:
256,192,141417,1,0,0:0:0:0:
256,192,141511,1,0,0:0:0:0:
256,192,141605,1,8,0:0:0:0:
256,192,141667,1,8,0:0:0:0:
256,192,141730,1,8,0:0:0:0:
256,192,141792,1,0,0:0:0:0:
256,192,141886,1,0,0:0:0:0:
256,192,141980,1,8,0:0:0:0:
256,192,142042,1,0,0:0:0:0:
256,192,142105,1,0,0:0:0:0:
256,192,142167,1,8,0:0:0:0:
256,192,142261,1,0,0:0:0:0:
256,192,142355,1,8,0:0:0:0:
256,192,142448,1,8,0:0:0:0:
256,192,142542,1,8,0:0:0:0:
256,192,142636,1,8,0:0:0:0:
256,192,142730,1,0,0:0:0:0:
256,192,143105,1,8,0:0:0:0:
256,192,143480,1,8,0:0:0:0:
256,192,143855,1,0,0:0:0:0:
256,192,143917,1,0,0:0:0:0:
256,192,143980,1,0,0:0:0:0:
256,192,144042,1,8,0:0:0:0:
256,192,144605,1,0,0:0:0:0:
256,192,144698,1,0,0:0:0:0:
256,192,144792,1,0,0:0:0:0:
256,192,144886,1,0,0:0:0:0:
256,192,144980,1,8,0:0:0:0:
256,192,145261,1,4,0:0:0:0:
256,192,145542,1,12,0:0:0:0:
256,192,145917,1,12,0:0:0:0:
256,192,146105,1,12,0:0:0:0:
256,192,146386,1,0,0:0:0:0:
256,192,146480,1,8,0:0:0:0:
256,192,146573,1,0,0:0:0:0:
256,192,146667,1,0,0:0:0:0:
256,192,146761,1,8,0:0:0:0:
256,192,146948,1,8,0:0:0:0:
256,192,147042,1,0,0:0:0:0:
256,192,147230,1,8,0:0:0:0:
256,192,147292,1,0,0:0:0:0:
256,192,147355,1,0,0:0:0:0:
256,192,147417,1,8,0:0:0:0:
256,192,147605,1,4,0:0:0:0:
256,192,147980,1,0,0:0:0:0:
256,192,148073,1,8,0:0:0:0:
256,192,148261,1,4,0:0:0:0:
256,192,148542,1,4,0:0:0:0:
256,192,149105,1,12,0:0:0:0:
256,192,149386,1,0,0:0:0:0:
256,192,149480,1,8,0:0:0:0:
256,192,149573,1,0,0:0:0:0:
256,192,149761,1,8,0:0:0:0:
256,192,149855,1,8,0:0:0:0:
256,192,150042,1,4,0:0:0:0:
256,192,150417,1,0,0:0:0:0:
256,192,150605,1,8,0:0:0:0:
256,192,150667,1,8,0:0:0:0:
256,192,150730,1,8,0:0:0:0:
256,192,150792,1,0,0:0:0:0:
256,192,150886,1,0,0:0:0:0:
256,192,150980,1,8,0:0:0:0:
256,192,151105,1,8,0:0:0:0:
256,192,151230,1,8,0:0:0:0:
256,192,151355,1,4,0:0:0:0:
256,192,151636,1,4,0:0:0:0:
256,192,151917,1,12,0:0:0:0:
256,192,152198,1,12,0:0:0:0:
256,192,152480,1,0,0:0:0:0:
256,192,152573,1,8,0:0:0:0:
256,192,152855,1,4,0:0:0:0:
256,192,153605,1,12,0:0:0:0:
256,192,153980,1,0,0:0:0:0:
256,192,154355,1,12,0:0:0:0:
256,192,154542,1,4,0:0:0:0:
256,192,154730,1,12,0:0:0:0:
256,192,155105,1,4,0:0:0:0:
256,192,155667,1,8,0:0:0:0:
256,192,155855,1,8,0:0:0:0:
256,192,155948,1,8,0:0:0:0:
256,192,156042,1,8,0:0:0:0:
256,192,156230,1,4,0:0:0:0:
256,192,156605,1,8,0:0:0:0:
256,192,156792,1,0,0:0:0:0:
256,192,156886,1,0,0:0:0:0:
256,192,156980,1,8,0:0:0:0:
256,192,157073,1,8,0:0:0:0:
256,192,157261,1,4,0:0:0:0:
256,192,157542,1,12,0:0:0:0:
256,192,157917,1,12,0:0:0:0:
256,192,158105,1,12,0:0:0:0:
256,192,158386,1,0,0:0:0:0:
256,192,158480,1,8,0:0:0:0:
256,192,158573,1,8,0:0:0:0:
256,192,158667,1,0,0:0:0:0:
256,192,158761,1,8,0:0:0:0:
256,192,158948,1,8,0:0:0:0:
256,192,159042,1,0,0:0:0:0:
256,192,159230,1,8,0:0:0:0:
256,192,159292,1,0,0:0:0:0:
256,192,159355,1,0,0:0:0:0:
256,192,159417,1,8,0:0:0:0:
256,192,159605,1,4,0:0:0:0:
256,192,159980,1,0,0:0:0:0:
256,192,160073,1,8,0:0:0:0:
256,192,160261,1,4,0:0:0:0:
256,192,160542,1,4,0:0:0:0:
256,192,161105,1,12,0:0:0:0:
256,192,161386,1,0,0:0:0:0:
256,192,161480,1,8,0:0:0:0:
256,192,161573,1,0,0:0:0:0:
256,192,161761,1,8,0:0:0:0:
256,192,161855,1,8,0:0:0:0:
256,192,162042,1,4,0:0:0:0:
256,192,162417,1,0,0:0:0:0:
256,192,162605,1,8,0:0:0:0:
256,192,162667,1,8,0:0:0:0:
256,192,162730,1,8,0:0:0:0:
256,192,162792,1,0,0:0:0:0:
256,192,162886,1,0,0:0:0:0:
256,192,162980,1,8,0:0:0:0:
256,192,163105,1,8,0:0:0:0:
256,192,163230,1,8,0:0:0:0:
256,192,163355,1,4,0:0:0:0:
256,192,163636,1,4,0:0:0:0:
256,192,163917,1,12,0:0:0:0:
256,192,164198,1,12,0:0:0:0:
256,192,164480,1,0,0:0:0:0:
256,192,164573,1,8,0:0:0:0:
256,192,164855,1,4,0:0:0:0:
256,192,165230,8,0,166730,0:0:0:0:
256,192,168230,5,4,0:0:0:0:
256,192,169730,1,8,0:0:0:0:
256,192,171230,1,0,0:0:0:0:
256,192,172730,1,0,0:0:0:0:
256,192,174230,1,0,0:0:0:0:
256,192,174980,1,0,0:0:0:0:
256,192,175730,1,8,0:0:0:0:
256,192,176105,1,0,0:0:0:0:
256,192,176480,1,8,0:0:0:0:
256,192,177230,1,8,0:0:0:0:
256,192,177980,1,0,0:0:0:0:
256,192,178730,1,8,0:0:0:0:
256,192,179105,1,8,0:0:0:0:
256,192,179480,12,0,179855,0:0:0:0:
256,192,180230,5,4,0:0:0:0:
256,192,180417,1,8,0:0:0:0:
256,192,180511,1,8,0:0:0:0:
256,192,180605,1,0,0:0:0:0:
256,192,180698,1,0,0:0:0:0:
256,192,180792,1,8,0:0:0:0:
256,192,180980,1,0,0:0:0:0:
256,192,181073,1,8,0:0:0:0:
256,192,181261,1,8,0:0:0:0:
256,192,181355,1,0,0:0:0:0:
256,192,181448,1,0,0:0:0:0:
256,192,181542,1,8,0:0:0:0:
256,192,181730,1,0,0:0:0:0:
256,192,181917,1,8,0:0:0:0:
256,192,182011,1,0,0:0:0:0:
256,192,182105,1,8,0:0:0:0:
256,192,182198,1,8,0:0:0:0:
256,192,182292,1,0,0:0:0:0:
256,192,182480,1,8,0:0:0:0:
256,192,182573,1,8,0:0:0:0:
256,192,182667,1,0,0:0:0:0:
256,192,182761,1,8,0:0:0:0:
256,192,182855,1,0,0:0:0:0:
256,192,182948,1,0,0:0:0:0:
256,192,183042,1,8,0:0:0:0:
256,192,183230,1,0,0:0:0:0:
256,192,183417,1,8,0:0:0:0:
256,192,183511,1,0,0:0:0:0:
256,192,183605,1,0,0:0:0:0:
256,192,183792,1,8,0:0:0:0:
256,192,183980,1,0,0:0:0:0:
256,192,184073,1,8,0:0:0:0:
256,192,184261,1,8,0:0:0:0:
256,192,184355,1,0,0:0:0:0:
256,192,184448,1,0,0:0:0:0:
256,192,184542,1,8,0:0:0:0:
256,192,184730,1,0,0:0:0:0:
256,192,184917,1,8,0:0:0:0:
256,192,185011,1,0,0:0:0:0:
256,192,185105,1,8,0:0:0:0:
256,192,185292,1,0,0:0:0:0:
256,192,185480,1,8,0:0:0:0:
256,192,185573,1,8,0:0:0:0:
256,192,185667,1,0,0:0:0:0:
256,192,185761,1,8,0:0:0:0:
256,192,185855,1,0,0:0:0:0:
256,192,185948,1,0,0:0:0:0:
256,192,186042,1,8,0:0:0:0:
256,192,186230,1,0,0:0:0:0:
256,192,186292,1,0,0:0:0:0:
256,192,186355,1,0,0:0:0:0:
256,192,186417,1,8,0:0:0:0:
256,192,186511,1,0,0:0:0:0:
256,192,186605,1,8,0:0:0:0:
256,192,186698,1,8,0:0:0:0:
256,192,186792,1,0,0:0:0:0:
256,192,186886,1,8,0:0:0:0:
256,192,186980,1,0,0:0:0:0:
256,192,187073,1,0,0:0:0:0:
256,192,187167,1,8,0:0:0:0:
256,192,187261,1,0,0:0:0:0:
256,192,187355,1,8,0:0:0:0:
256,192,187448,1,8,0:0:0:0:
256,192,187542,1,0,0:0:0:0:
256,192,187636,1,8,0:0:0:0:
256,192,187730,1,0,0:0:0:0:
256,192,187792,1,0,0:0:0:0:
256,192,187855,1,0,0:0:0:0:
256,192,187917,1,8,0:0:0:0:
256,192,188011,1,0,0:0:0:0:
256,192,188105,1,8,0:0:0:0:
256,192,188198,1,8,0:0:0:0:
256,192,188292,1,0,0:0:0:0:
256,192,188386,1,8,0:0:0:0:
256,192,188480,1,0,0:0:0:0:
256,192,188573,1,0,0:0:0:0:
256,192,188667,1,8,0:0:0:0:
256,192,188761,1,0,0:0:0:0:
256,192,188855,1,8,0:0:0:0:
256,192,188948,1,8,0:0:0:0:
256,192,189042,1,0,0:0:0:0:
256,192,189136,1,0,0:0:0:0:
256,192,189230,1,8,0:0:0:0:
256,192,189292,1,0,0:0:0:0:
256,192,189355,1,0,0:0:0:0:
256,192,189417,1,8,0:0:0:0:
256,192,189511,1,0,0:0:0:0:
256,192,189605,1,8,0:0:0:0:
256,192,189667,1,8,0:0:0:0:
256,192,189730,1,8,0:0:0:0:
256,192,189792,1,0,0:0:0:0:
256,192,189886,1,0,0:0:0:0:
256,192,189980,1,8,0:0:0:0:
256,192,190042,1,0,0:0:0:0:
256,192,190105,1,0,0:0:0:0:
256,192,190167,1,8,0:0:0:0:
256,192,190261,1,0,0:0:0:0:
256,192,190355,1,8,0:0:0:0:
256,192,190417,1,8,0:0:0:0:
256,192,190480,1,8,0:0:0:0:
256,192,190542,1,0,0:0:0:0:
256,192,190636,1,0,0:0:0:0:
256,192,190730,1,8,0:0:0:0:
256,192,191761,1,0,0:0:0:0:
256,192,191855,1,8,0:0:0:0:
256,192,192042,1,8,0:0:0:0:
256,192,192230,1,4,0:0:0:0:
256,192,192417,1,8,0:0:0:0:
256,192,192511,1,8,0:0:0:0:
256,192,192605,1,0,0:0:0:0:
256,192,192698,1,0,0:0:0:0:
256,192,192792,1,8,0:0:0:0:
256,192,192980,1,0,0:0:0:0:
256,192,193167,1,8,0:0:0:0:
256,192,193261,1,8,0:0:0:0:
256,192,193355,1,0,0:0:0:0:
256,192,193542,1,8,0:0:0:0:
256,192,193730,1,0,0:0:0:0:
256,192,193917,1,8,0:0:0:0:
256,192,194011,1,0,0:0:0:0:
256,192,194105,1,8,0:0:0:0:
256,192,194198,1,8,0:0:0:0:
256,192,194292,1,0,0:0:0:0:
256,192,194480,1,8,0:0:0:0:
256,192,194573,1,8,0:0:0:0:
256,192,194667,1,0,0:0:0:0:
256,192,194761,1,8,0:0:0:0:
256,192,194855,1,0,0:0:0:0:
256,192,194948,1,0,0:0:0:0:
256,192,195042,1,8,0:0:0:0:
256,192,195230,1,0,0:0:0:0:
256,192,195417,1,8,0:0:0:0:
256,192,195511,1,0,0:0:0:0:
256,192,195605,1,8,0:0:0:0:
256,192,195792,1,0,0:0:0:0:
256,192,195980,1,8,0:0:0:0:
256,192,196073,1,8,0:0:0:0:
256,192,196167,1,0,0:0:0:0:
256,192,196261,1,8,0:0:0:0:
256,192,196355,1,0,0:0:0:0:
256,192,196542,1,8,0:0:0:0:
256,192,196730,1,0,0:0:0:0:
256,192,196823,1,8,0:0:0:0:
256,192,196917,1,0,0:0:0:0:
256,192,197011,1,8,0:0:0:0:
256,192,197198,1,8,0:0:0:0:
256,192,197292,1,0,0:0:0:0:
256,192,197480,1,8,0:0:0:0:
256,192,197667,1,0,0:0:0:0:
256,192,197761,1,8,0:0:0:0:
256,192,197855,1,8,0:0:0:0:
256,192,197948,1,0,0:0:0:0:
256,192,198042,1,8,0:0:0:0:
256,192,198230,1,0,0:0:0:0:
256,192,198417,1,8,0:0:0:0:
256,192,198511,1,8,0:0:0:0:
256,192,198605,1,0,0:0:0:0:
256,192,198698,1,0,0:0:0:0:
256,192,198792,1,8,0:0:0:0:
256,192,198980,1,0,0:0:0:0:
256,192,199167,1,8,0:0:0:0:
256,192,199261,1,8,0:0:0:0:
256,192,199355,1,0,0:0:0:0:
256,192,199542,1,8,0:0:0:0:
256,192,199730,1,0,0:0:0:0:
256,192,199917,1,8,0:0:0:0:
256,192,200011,1,0,0:0:0:0:
256,192,200105,1,8,0:0:0:0:
256,192,200198,1,8,0:0:0:0:
256,192,200292,1,0,0:0:0:0:
256,192,200480,1,8,0:0:0:0:
256,192,200573,1,0,0:0:0:0:
256,192,200667,1,0,0:0:0:0:
256,192,200761,1,8,0:0:0:0:
256,192,200855,1,8,0:0:0:0:
256,192,201042,1,0,0:0:0:0:
256,192,201230,1,8,0:0:0:0:
256,192,201323,1,8,0:0:0:0:
256,192,201417,1,8,0:0:0:0:
256,192,201511,1,0,0:0:0:0:
256,192,201605,1,8,0:0:0:0:
256,192,201698,1,8,0:0:0:0:
256,192,201792,1,0,0:0:0:0:
256,192,201886,1,0,0:0:0:0:
256,192,201980,1,8,0:0:0:0:
256,192,202073,1,0,0:0:0:0:
256,192,202167,1,8,0:0:0:0:
256,192,202261,1,8,0:0:0:0:
256,192,202355,1,0,0:0:0:0:
256,192,202417,1,0,0:0:0:0:
256,192,202480,1,0,0:0:0:0:
256,192,202542,1,8,0:0:0:0:
256,192,202730,1,0,0:0:0:0:
256,192,202917,1,8,0:0:0:0:
256,192,203011,1,0,0:0:0:0:
256,192,203198,1,0,0:0:0:0:
256,192,203292,1,8,0:0:0:0:
256,192,203386,1,0,0:0:0:0:
256,192,203480,1,8,0:0:0:0:
256,192,203667,1,0,0:0:0:0:
256,192,203761,1,8,0:0:0:0:
256,192,203855,1,0,0:0:0:0:
256,192,203948,1,0,0:0:0:0:
256,192,204042,1,8,0:0:0:0:
256,192,204230,1,0,0:0:0:0:
256,192,204323,1,0,0:0:0:0:
256,192,204511,1,0,0:0:0:0:
256,192,204605,1,12,0:0:0:0:
256,192,204792,1,0,0:0:0:0:
256,192,204886,1,0,0:0:0:0:
256,192,204980,1,8,0:0:0:0:
256,192,205167,1,8,0:0:0:0:
256,192,205261,1,8,0:0:0:0:
256,192,205355,1,0,0:0:0:0:
256,192,205542,1,8,0:0:0:0:
256,192,205730,1,0,0:0:0:0:
256,192,205917,1,8,0:0:0:0:
256,192,206011,1,0,0:0:0:0:
256,192,206105,1,8,0:0:0:0:
256,192,206198,1,8,0:0:0:0:
256,192,206292,1,0,0:0:0:0:
256,192,206480,1,8,0:0:0:0:
256,192,206573,1,8,0:0:0:0:
256,192,206667,1,0,0:0:0:0:
256,192,206761,1,8,0:0:0:0:
256,192,206855,1,0,0:0:0:0:
256,192,206948,1,0,0:0:0:0:
256,192,207042,1,8,0:0:0:0:
256,192,207230,1,0,0:0:0:0:
256,192,207417,1,8,0:0:0:0:
256,192,207511,1,0,0:0:0:0:
256,192,207605,1,8,0:0:0:0:
256,192,207792,1,0,0:0:0:0:
256,192,207980,1,8,0:0:0:0:
256,192,208073,1,8,0:0:0:0:
256,192,208167,1,0,0:0:0:0:
256,192,208261,1,8,0:0:0:0:
256,192,208355,1,0,0:0:0:0:
256,192,208542,1,8,0:0:0:0:
256,192,208730,1,0,0:0:0:0:
256,192,208823,1,8,0:0:0:0:
256,192,208917,1,0,0:0:0:0:
256,192,209011,1,8,0:0:0:0:
256,192,209198,1,8,0:0:0:0:
256,192,209292,1,0,0:0:0:0:
256,192,209480,1,8,0:0:0:0:
256,192,209667,1,0,0:0:0:0:
256,192,209761,1,8,0:0:0:0:
256,192,209855,1,8,0:0:0:0:
256,192,209948,1,0,0:0:0:0:
256,192,210042,1,8,0:0:0:0:
256,192,210230,1,0,0:0:0:0:
256,192,210417,1,8,0:0:0:0:
256,192,210511,1,8,0:0:0:0:
256,192,210605,1,0,0:0:0:0:
256,192,210698,1,0,0:0:0:0:
256,192,210792,1,8,0:0:0:0:
256,192,210980,1,0,0:0:0:0:
256,192,211167,1,8,0:0:0:0:
256,192,211261,1,8,0:0:0:0:
256,192,211355,1,0,0:0:0:0:
256,192,211542,1,8,0:0:0:0:
256,192,211730,1,0,0:0:0:0:
256,192,211917,1,8,0:0:0:0:
256,192,212011,1,0,0:0:0:0:
256,192,212105,1,8,0:0:0:0:
256,192,212198,1,8,0:0:0:0:
256,192,212292,1,0,0:0:0:0:
256,192,212480,1,8,0:0:0:0:
256,192,212573,1,0,0:0:0:0:
256,192,212667,1,0,0:0:0:0:
256,192,212761,1,8,0:0:0:0:
256,192,212855,1,8,0:0:0:0:
256,192,213042,1,0,0:0:0:0:
256,192,213230,1,8,0:0:0:0:
256,192,213417,1,0,0:0:0:0:
256,192,213511,1,8,0:0:0:0:
256,192,213698,1,8,0:0:0:0:
256,192,213792,1,0,0:0:0:0:
256,192,213886,1,0,0:0:0:0:
256,192,213980,1,8,0:0:0:0:
256,192,214167,1,0,0:0:0:0:
256,192,214261,1,8,0:0:0:0:
256,192,214448,1,8,0:0:0:0:
256,192,214542,1,8,0:0:0:0:
256,192,214636,1,0,0:0:0:0:
256,192,214730,1,8,0:0:0:0:
256,192,215011,1,0,0:0:0:0:
256,192,215292,1,0,0:0:0:0:
256,192,215386,1,0,0:0:0:0:
256,192,215480,12,0,215855,0:0:0:0:
256,192,216230,5,4,0:0:0:0:
256,192,216511,1,8,0:0:0:0:
256,192,216698,1,8,0:0:0:0:
256,192,216792,1,0,0:0:0:0:
256,192,216980,1,8,0:0:0:0:
256,192,217261,1,0,0:0:0:0:
256,192,217449,1,0,0:0:0:0:
256,192,217542,1,8,0:0:0:0:
256,192,217730,1,0,0:0:0:0:
256,192,218011,1,8,0:0:0:0:
256,192,218198,1,8,0:0:0:0:
256,192,218292,1,0,0:0:0:0:
256,192,218480,1,8,0:0:0:0:
256,192,218573,1,8,0:0:0:0:
256,192,218667,1,8,0:0:0:0:
256,192,218761,1,0,0:0:0:0:
256,192,218948,1,0,0:0:0:0:
256,192,219042,1,8,0:0:0:0:
256,192,219230,1,0,0:0:0:0:
256,192,219511,1,8,0:0:0:0:
256,192,219698,1,8,0:0:0:0:
256,192,219792,1,0,0:0:0:0:
256,192,219980,1,0,0:0:0:0:
256,192,220073,1,8,0:0:0:0:
256,192,220261,1,8,0:0:0:0:
256,192,220448,1,8,0:0:0:0:
256,192,220542,1,0,0:0:0:0:
256,192,220730,1,0,0:0:0:0:
256,192,220917,1,8,0:0:0:0:
256,192,221011,1,0,0:0:0:0:
256,192,221105,1,8,0:0:0:0:
256,192,221292,1,0,0:0:0:0:
256,192,221480,1,8,0:0:0:0:
256,192,221573,1,8,0:0:0:0:
256,192,221667,1,8,0:0:0:0:
256,192,221761,1,0,0:0:0:0:
256,192,221948,1,0,0:0:0:0:
256,192,222042,1,8,0:0:0:0:
256,192,222230,1,0,0:0:0:0:
256,192,222292,1,0,0:0:0:0:
256,192,222355,1,0,0:0:0:0:
256,192,222417,1,8,0:0:0:0:
256,192,222511,1,0,0:0:0:0:
256,192,222605,1,8,0:0:0:0:
256,192,222698,1,8,0:0:0:0:
256,192,222792,1,0,0:0:0:0:
256,192,222886,1,8,0:0:0:0:
256,192,222980,1,0,0:0:0:0:
256,192,223073,1,0,0:0:0:0:
256,192,223167,1,8,0:0:0:0:
256,192,223261,1,0,0:0:0:0:
256,192,223355,1,8,0:0:0:0:
256,192,223448,1,8,0:0:0:0:
256,192,223542,1,0,0:0:0:0:
256,192,223636,1,8,0:0:0:0:
256,192,223730,1,0,0:0:0:0:
256,192,223792,1,0,0:0:0:0:
256,192,223855,1,0,0:0:0:0:
256,192,223917,1,8,0:0:0:0:
256,192,224011,1,0,0:0:0:0:
256,192,224105,1,8,0:0:0:0:
256,192,224198,1,8,0:0:0:0:
256,192,224292,1,0,0:0:0:0:
256,192,224386,1,8,0:0:0:0:
256,192,224480,1,0,0:0:0:0:
256,192,224573,1,0,0:0:0:0:
256,192,224667,1,8,0:0:0:0:
256,192,224761,1,0,0:0:0:0:
256,192,224855,1,8,0:0:0:0:
256,192,224948,1,8,0:0:0:0:
256,192,225042,1,0,0:0:0:0:
256,192,225136,1,0,0:0:0:0:
256,192,225230,1,8,0:0:0:0:
256,192,225292,1,0,0:0:0:0:
256,192,225355,1,0,0:0:0:0:
256,192,225417,1,8,0:0:0:0:
256,192,225511,1,0,0:0:0:0:
256,192,225605,1,8,0:0:0:0:
256,192,225667,1,8,0:0:0:0:
256,192,225730,1,8,0:0:0:0:
256,192,225792,1,0,0:0:0:0:
256,192,225886,1,0,0:0:0:0:
256,192,225980,1,8,0:0:0:0:
256,192,226042,1,0,0:0:0:0:
256,192,226105,1,0,0:0:0:0:
256,192,226167,1,8,0:0:0:0:
256,192,226261,1,0,0:0:0:0:
256,192,226355,1,8,0:0:0:0:
256,192,226417,1,8,0:0:0:0:
256,192,226480,1,8,0:0:0:0:
256,192,226542,1,0,0:0:0:0:
256,192,226636,1,0,0:0:0:0:
256,192,226730,1,8,0:0:0:0:
256,192,227761,1,0,0:0:0:0:
256,192,227855,1,8,0:0:0:0:
256,192,228042,1,8,0:0:0:0:
256,192,228230,1,4,0:0:0:0:
256,192,228605,1,0,0:0:0:0:
256,192,228698,1,0,0:0:0:0:
256,192,228792,1,8,0:0:0:0:
256,192,228886,1,8,0:0:0:0:
256,192,228980,1,0,0:0:0:0:
256,192,229073,1,8,0:0:0:0:
256,192,229167,1,8,0:0:0:0:
256,192,229261,1,8,0:0:0:0:
256,192,229355,1,0,0:0:0:0:
256,192,229448,1,0,0:0:0:0:
256,192,229542,1,8,0:0:0:0:
256,192,229636,1,8,0:0:0:0:
256,192,229730,1,0,0:0:0:0:
256,192,229823,1,8,0:0:0:0:
256,192,229917,1,8,0:0:0:0:
256,192,230011,1,8,0:0:0:0:
256,192,230105,1,0,0:0:0:0:
256,192,230198,1,8,0:0:0:0:
256,192,230292,1,8,0:0:0:0:
256,192,230386,1,8,0:0:0:0:
256,192,230480,1,0,0:0:0:0:
256,192,230573,1,8,0:0:0:0:
256,192,230667,1,0,0:0:0:0:
256,192,230761,1,0,0:0:0:0:
256,192,230855,1,8,0:0:0:0:
256,192,231042,1,8,0:0:0:0:
256,192,231230,1,0,0:0:0:0:
256,192,231605,1,8,0:0:0:0:
256,192,231698,1,8,0:0:0:0:
256,192,231792,1,0,0:0:0:0:
256,192,231886,1,0,0:0:0:0:
256,192,231980,1,8,0:0:0:0:
256,192,232073,1,8,0:0:0:0:
256,192,232167,1,8,0:0:0:0:
256,192,232261,1,0,0:0:0:0:
256,192,232355,1,8,0:0:0:0:
256,192,232448,1,8,0:0:0:0:
256,192,232542,1,0,0:0:0:0:
256,192,232636,1,0,0:0:0:0:
256,192,232730,1,8,0:0:0:0:
256,192,233011,1,0,0:0:0:0:
256,192,233105,1,8,0:0:0:0:
256,192,233198,1,8,0:0:0:0:
256,192,233292,1,8,0:0:0:0:
256,192,233386,1,0,0:0:0:0:
256,192,233480,1,8,0:0:0:0:
256,192,233761,1,0,0:0:0:0:
256,192,233855,1,8,0:0:0:0:
256,192,233948,1,0,0:0:0:0:
256,192,234042,1,8,0:0:0:0:
256,192,234136,1,8,0:0:0:0:
256,192,234230,1,0,0:0:0:0:
256,192,234605,1,8,0:0:0:0:
256,192,234698,1,8,0:0:0:0:
256,192,234792,1,0,0:0:0:0:
256,192,234886,1,0,0:0:0:0:
256,192,234980,1,8,0:0:0:0:
256,192,235073,1,0,0:0:0:0:
256,192,235167,1,0,0:0:0:0:
256,192,235261,1,0,0:0:0:0:
256,192,235355,1,8,0:0:0:0:
256,192,235448,1,8,0:0:0:0:
256,192,235542,1,0,0:0:0:0:
256,192,235636,1,0,0:0:0:0:
256,192,235730,1,8,0:0:0:0:
256,192,235823,1,0,0:0:0:0:
256,192,235917,1,0,0:0:0:0:
256,192,236011,1,0,0:0:0:0:
256,192,236105,1,8,0:0:0:0:
256,192,236198,1,0,0:0:0:0:
256,192,236292,1,0,0:0:0:0:
256,192,236386,1,0,0:0:0:0:
256,192,236480,1,8,0:0:0:0:
256,192,236573,1,0,0:0:0:0:
256,192,236667,1,8,0:0:0:0:
256,192,236761,1,8,0:0:0:0:
256,192,236855,1,0,0:0:0:0:
256,192,237042,1,0,0:0:0:0:
256,192,237230,1,8,0:0:0:0:
256,192,237605,1,0,0:0:0:0:
256,192,237698,1,0,0:0:0:0:
256,192,237792,1,8,0:0:0:0:
256,192,237886,1,8,0:0:0:0:
256,192,237980,1,0,0:0:0:0:
256,192,238073,1,0,0:0:0:0:
256,192,238167,1,0,0:0:0:0:
256,192,238261,1,8,0:0:0:0:
256,192,238355,1,0,0:0:0:0:
256,192,238448,1,0,0:0:0:0:
256,192,238542,1,8,0:0:0:0:
256,192,238636,1,8,0:0:0:0:
256,192,238730,1,0,0:0:0:0:
256,192,239105,1,8,0:0:0:0:
256,192,239386,1,8,0:0:0:0:
256,192,239667,1,0,0:0:0:0:
256,192,239855,1,8,0:0:0:0:
256,192,239948,1,0,0:0:0:0:
256,192,240042,1,8,0:0:0:0:
256,192,240230,1,0,0:0:0:0:
256,192,240417,1,0,0:0:0:0:
256,192,240605,1,0,0:0:0:0:
256,192,240792,1,8,0:0:0:0:
256,192,240839,1,8,0:0:0:0:
256,192,240980,1,0,0:0:0:0:
256,192,241073,1,8,0:0:0:0:
256,192,241167,1,8,0:0:0:0:
256,192,241261,1,8,0:0:0:0:
256,192,241355,1,0,0:0:0:0:
256,192,241448,1,0,0:0:0:0:
256,192,241542,1,8,0:0:0:0:
256,192,241636,1,8,0:0:0:0:
256,192,241730,1,0,0:0:0:0:
256,192,241823,1,8,0:0:0:0:
256,192,241917,1,8,0:0:0:0:
256,192,242011,1,8,0:0:0:0:
256,192,242105,1,0,0:0:0:0:
256,192,242198,1,8,0:0:0:0:
256,192,242292,1,8,0:0:0:0:
256,192,242386,1,8,0:0:0:0:
256,192,242480,1,0,0:0:0:0:
256,192,242573,1,8,0:0:0:0:
256,192,242667,1,0,0:0:0:0:
256,192,242761,1,0,0:0:0:0:
256,192,242855,1,8,0:0:0:0:
256,192,243042,1,8,0:0:0:0:
256,192,243230,1,0,0:0:0:0:
256,192,243605,1,8,0:0:0:0:
256,192,243698,1,8,0:0:0:0:
256,192,243792,1,0,0:0:0:0:
256,192,243886,1,0,0:0:0:0:
256,192,243980,1,8,0:0:0:0:
256,192,244073,1,8,0:0:0:0:
256,192,244167,1,8,0:0:0:0:
256,192,244261,1,0,0:0:0:0:
256,192,244355,1,8,0:0:0:0:
256,192,244448,1,8,0:0:0:0:
256,192,244542,1,0,0:0:0:0:
256,192,244636,1,0,0:0:0:0:
256,192,244730,1,8,0:0:0:0:
256,192,245011,1,0,0:0:0:0:
256,192,245105,1,8,0:0:0:0:
256,192,245198,1,8,0:0:0:0:
256,192,245292,1,8,0:0:0:0:
256,192,245386,1,0,0:0:0:0:
256,192,245480,1,8,0:0:0:0:
256,192,245761,1,0,0:0:0:0:
256,192,245855,1,8,0:0:0:0:
256,192,245948,1,0,0:0:0:0:
256,192,246042,1,8,0:0:0:0:
256,192,246136,1,8,0:0:0:0:
256,192,246230,1,0,0:0:0:0:
256,192,246417,1,0,0:0:0:0:
256,192,246605,1,0,0:0:0:0:
256,192,246698,1,8,0:0:0:0:
256,192,246980,1,8,0:0:0:0:
256,192,247073,1,0,0:0:0:0:
256,192,247167,1,0,0:0:0:0:
256,192,247261,1,0,0:0:0:0:
256,192,247355,1,8,0:0:0:0:
256,192,247448,1,8,0:0:0:0:
256,192,247542,1,0,0:0:0:0:
256,192,247636,1,0,0:0:0:0:
256,192,247730,1,8,0:0:0:0:
256,192,247823,1,0,0:0:0:0:
256,192,247917,1,0,0:0:0:0:
256,192,248011,1,0,0:0:0:0:
256,192,248105,1,8,0:0:0:0:
256,192,248198,1,0,0:0:0:0:
256,192,248292,1,0,0:0:0:0:
256,192,248386,1,0,0:0:0:0:
256,192,248480,1,8,0:0:0:0:
256,192,248573,1,0,0:0:0:0:
256,192,248667,1,8,0:0:0:0:
256,192,248761,1,8,0:0:0:0:
256,192,248855,1,0,0:0:0:0:
256,192,249042,1,0,0:0:0:0:
256,192,249230,1,8,0:0:0:0:
256,192,249323,1,0,0:0:0:0:
256,192,249417,1,0,0:0:0:0:
256,192,249511,1,8,0:0:0:0:
256,192,249605,1,0,0:0:0:0:
256,192,249698,1,0,0:0:0:0:
256,192,249792,1,8,0:0:0:0:
256,192,249886,1,0,0:0:0:0:
256,192,249980,1,8,0:0:0:0:
256,192,250073,1,0,0:0:0:0:
256,192,250167,1,0,0:0:0:0:
256,192,250261,1,8,0:0:0:0:
256,192,250355,1,0,0:0:0:0:
256,192,250448,1,0,0:0:0:0:
256,192,250542,1,8,0:0:0:0:
256,192,250636,1,0,0:0:0:0:
256,192,250730,1,8,0:0:0:0:
256,192,250917,1,0,0:0:0:0:
256,192,251011,1,8,0:0:0:0:
256,192,251198,1,0,0:0:0:0:
256,192,251292,1,8,0:0:0:0:
256,192,251480,1,0,0:0:0:0:
256,192,251573,1,8,0:0:0:0:
256,192,251761,1,0,0:0:0:0:
256,192,251855,1,8,0:0:0:0:
256,192,252230,1,12,0:0:0:0:
256,192,252417,1,0,0:0:0:0:
256,192,252511,1,8,0:0:0:0:
256,192,252605,1,0,0:0:0:0:
256,192,252792,1,8,0:0:0:0:
256,192,252980,1,0,0:0:0:0:
256,192,253073,1,8,0:0:0:0:
256,192,253167,1,8,0:0:0:0:
256,192,253261,1,0,0:0:0:0:
256,192,253355,1,8,0:0:0:0:
256,192,253542,1,8,0:0:0:0:
256,192,253636,1,0,0:0:0:0:
256,192,253730,1,0,0:0:0:0:
256,192,253823,1,8,0:0:0:0:
256,192,254011,1,0,0:0:0:0:
256,192,254105,1,8,0:0:0:0:
256,192,254292,1,0,0:0:0:0:
256,192,254386,1,8,0:0:0:0:
256,192,254480,1,8,0:0:0:0:
256,192,254573,1,0,0:0:0:0:
256,192,254667,1,8,0:0:0:0:
256,192,254761,1,8,0:0:0:0:
256,192,254855,1,0,0:0:0:0:
256,192,255042,1,8,0:0:0:0:
256,192,255136,1,0,0:0:0:0:
256,192,255230,1,8,0:0:0:0:
256,192,255417,1,0,0:0:0:0:
256,192,255511,1,8,0:0:0:0:
256,192,255605,1,0,0:0:0:0:
256,192,255698,1,0,0:0:0:0:
256,192,255792,1,8,0:0:0:0:
256,192,255980,1,0,0:0:0:0:
256,192,256073,1,8,0:0:0:0:
256,192,256167,1,8,0:0:0:0:
256,192,256261,1,0,0:0:0:0:
256,192,256355,1,8,0:0:0:0:
256,192,256542,1,8,0:0:0:0:
256,192,256636,1,8,0:0:0:0:
256,192,256730,1,0,0:0:0:0:
256,192,256823,1,8,0:0:0:0:
256,192,256917,1,0,0:0:0:0:
256,192,257011,1,0,0:0:0:0:
256,192,257105,1,8,0:0:0:0:
256,192,257292,1,0,0:0:0:0:
256,192,257386,1,8,0:0:0:0:
256,192,257480,1,0,0:0:0:0:
256,192,257573,1,0,0:0:0:0:
256,192,257667,1,8,0:0:0:0:
256,192,257855,1,0,0:0:0:0:
256,192,258042,1,8,0:0:0:0:
256,192,258136,1,0,0:0:0:0:
256,192,258230,1,8,0:0:0:0:
256,192,258417,1,0,0:0:0:0:
256,192,258511,1,8,0:0:0:0:
256,192,258605,1,0,0:0:0:0:
256,192,258792,1,8,0:0:0:0:
256,192,258980,1,0,0:0:0:0:
256,192,259073,1,8,0:0:0:0:
256,192,259167,1,8,0:0:0:0:
256,192,259261,1,0,0:0:0:0:
256,192,259355,1,8,0:0:0:0:
256,192,259542,1,8,0:0:0:0:
256,192,259636,1,0,0:0:0:0:
256,192,259730,1,0,0:0:0:0:
256,192,259823,1,8,0:0:0:0:
256,192,260011,1,0,0:0:0:0:
256,192,260105,1,8,0:0:0:0:
256,192,260292,1,0,0:0:0:0:
256,192,260386,1,8,0:0:0:0:
256,192,260480,1,8,0:0:0:0:
256,192,260573,1,0,0:0:0:0:
256,192,260667,1,8,0:0:0:0:
256,192,260761,1,8,0:0:0:0:
256,192,260855,1,0,0:0:0:0:
256,192,261042,1,8,0:0:0:0:
256,192,261230,1,8,0:0:0:0:
256,192,261323,1,8,0:0:0:0:
256,192,261417,1,0,0:0:0:0:
256,192,261511,1,8,0:0:0:0:
256,192,261605,1,0,0:0:0:0:
256,192,261698,1,0,0:0:0:0:
256,192,261792,1,8,0:0:0:0:
256,192,261886,1,8,0:0:0:0:
256,192,261980,1,0,0:0:0:0:
256,192,262073,1,8,0:0:0:0:
256,192,262167,1,0,0:0:0:0:
256,192,262261,1,0,0:0:0:0:
256,192,262355,1,8,0:0:0:0:
256,192,262448,1,0,0:0:0:0:
256,192,262542,1,8,0:0:0:0:
256,192,262636,1,8,0:0:0:0:
256,192,262730,1,0,0:0:0:0:
256,192,263480,1,0,0:0:0:0:
256,192,263605,1,8,0:0:0:0:
256,192,263730,1,8,0:0:0:0:
256,192,263855,1,0,0:0:0:0:
256,192,263980,1,8,0:0:0:0:
256,192,264105,1,8,0:0:0:0:
256,192,264230,1,4,0:0:0:0:
256,192,266480,1,8,0:0:0:0:
256,192,266573,1,0,0:0:0:0:
256,192,267230,1,8,0:0:0:0:
256,192,268730,1,8,0:0:0:0:
256,192,268823,1,0,0:0:0:0:
256,192,269480,1,8,0:0:0:0:
256,192,269526,1,8,0:0:0:0:
256,192,270230,1,0,0:0:0:0:
256,192,270323,1,8,0:0:0:0:
256,192,272480,1,8,0:0:0:0:
256,192,272573,1,8,0:0:0:0:
256,192,273230,1,0,0:0:0:0:
256,192,273323,1,0,0:0:0:0:
256,192,273417,1,8,0:0:0:0:
256,192,274730,1,0,0:0:0:0:
256,192,274823,1,8,0:0:0:0:
256,192,275480,1,8,0:0:0:0:
256,192,275526,1,8,0:0:0:0:
256,192,276230,1,0,0:0:0:0:
