osu file format v14

[General]
AudioFilename: [HD] Epic Trance - Bad Apple!! (REDALiCE Remix).mp3
AudioLeadIn: 0
PreviewTime: 158490
Countdown: 0
SampleSet: Normal
StackLeniency: 0.7
Mode: 0
LetterboxInBreaks: 1
EpilepsyWarning: 1
WidescreenStoryboard: 1

[Editor]
Bookmarks: 45557,90733,102028,135910,157616,219204
DistanceSpacing: 1
BeatDivisor: 4
GridSize: 4
TimelineZoom: 1

[Metadata]
Title:Bad Apple!! (REDALiCE Remix)
TitleUnicode:Bad Apple!! (REDALiCE Remix)
Artist:Masayoshi Minoshima
ArtistUnicode:簑島 正佳
Creator:Evening
Version:neonat's Insane
Source:Touhou
Tags:Gensoukyou Lotus Land Story nomico Lovelight Trois Noir CoroQuetz Soldsaga KunG neonat Kuo Kyoka Papcio GetxOriginal
BeatmapID:360925
BeatmapSetID:132824

[Difficulty]
HPDrainRate:6
CircleSize:4
OverallDifficulty:7
ApproachRate:9
SliderMultiplier:1.90000000596046
SliderTickRate:1

[Events]
//Background and Video events
0,0,"badappleneonat.jpg",0,0
//Break Periods
//Storyboard Layer 0 (Background)
//Storyboard Layer 1 (Fail)
//Storyboard Layer 2 (Pass)
//Storyboard Layer 3 (Foreground)
Sprite,Foreground,Centre,"Warning.png",320,240 F,0,223411,223433,0,1 S,0,223433,,0.5578184 F,0,223433,223764,1 M,0,223764,,320,256 F,0,223764,223786,1,0 F,0,223786,224117,0 F,0,224117,224139,0,1 F,0,224139,224448,1 F,0,224448,224470,1,0 F,0,224470,224823,0 F,0,224823,224845,0,1 F,0,224845,225154,1 F,0,225154,225176,1,0 F,0,225176,225529,0 F,0,225529,225551,0,1 F,0,225551,225860,1 F,0,225860,225882,1,0
Sprite,Foreground,Centre,"Warning.png",320,240 F,0,133058,133080,0,1 S,0,133080,,0.5578184 F,0,133080,133411,1 M,0,133147,,320,256 F,0,133411,133433,1,0 F,0,133433,133764,0 F,0,133764,133786,0,1 F,0,133786,134095,1 F,0,134095,134117,1,0 F,0,134117,134470,0 F,0,134470,134492,0,1 F,0,134492,134801,1 F,0,134801,134823,1,0 F,0,134823,135176,0 F,0,135176,135198,0,1 F,0,135198,135507,1 F,0,135507,135529,1,0
Sprite,Foreground,Centre,"Alt_SB\DJNightmare.png",320,240 M,0,6000,,320,240 F,0,6000,6022,0,0.9978182 F,0,6022,6044,0.9978182,0 F,0,6044,6066,0,1 F,0,6066,6088,1 F,0,6088,6110,1,0.4676364 F,0,6110,6132,0.4676364,0.6327305 F,0,6132,6154,0.6327305,0.2676987 F,0,6154,6176,0.2676987,0.8612748 F,0,6176,6198,0.8612748,0.5563967 F,0,6198,6220,0.5563967,1 F,0,6220,6264,1,0 F,0,6264,6286,0,0.9933167 F,0,6286,6308,0.9933167,0.4609813 F,0,6308,6330,0.4609813,1 F,0,6330,6374,1,0.5403636 F,0,6374,6397,0.5403636,1 F,0,6397,6441,1,0.5927274 F,0,6441,6485,0.5927274,1 F,0,6485,6529,1,0 F,0,6529,6551,0,1 F,0,6551,6595,1,0.205818 F,0,6595,6661,0.205818,0.5918428 F,0,6661,6683,0.5918428,0 F,0,6683,6705,0,0.5835048 F,0,6705,6749,0.5835048,0.1888052 F,0,6749,6794,0.1888052,1 F,0,6794,10235,1 M,0,10213,10235,320,240,320,105 M,0,10235,10257,320,105,320,240 F,0,10235,10257,1,0.5043756 F,0,10257,10279,0.5043756,0.0740919 M,0,10257,10566,320,240 F,0,10279,10301,0.0740919,1 F,0,10301,10345,1,0.4065454 F,0,10345,10522,0.4065454,1 F,0,10522,10610,1,0.1941817 M,0,10566,10588,320,240,320,401 M,0,10588,10610,320,401,320,240 F,0,10610,10742,0.1941817,0.8473198 M,0,10610,10875,320,240 M,0,10610,10897,320,240,146,388 F,0,10742,10808,0.8473198,0.4306162 F,0,10808,10874,0.4306162,1 F,0,10874,11007,1,0 M,0,10897,10919,146,388,320,240 M,0,10919,10941,320,240,438,134 M,0,10941,10963,438,134,320,240 M,0,10963,11117,320,240 F,0,11007,11051,0,0.2986687 F,0,11051,11117,0.2986687,0 M,0,11117,11139,320,240,134,240 F,0,11117,11139,0,1 M,0,11139,11161,134,240,320,240 F,0,11139,11183,1,0.1447272 M,0,11161,11272,320,240 F,0,11183,11249,0.1447272,1 F,0,11249,11272,1,0 M,0,11272,11294,320,240,523,240 F,0,11272,11294,0,1 M,0,11294,11316,523,240,320,240 F,0,11294,11316,1,0.05163635 F,0,11316,11338,0.05163635,0.4838441 M,0,11316,11382,320,240 F,0,11338,11360,0.4838441,0 F,0,11360,11382,0,1 M,0,11382,11404,320,240,147,240 F,0,11382,11404,1,0.3367273 M,0,11404,11426,147,240,320,240 F,0,11404,11448,0.3367273,0 M,0,11426,11492,320,240 F,0,11448,11470,0,1 F,0,11470,11492,1,0.09897875 M,0,11492,11514,320,240,466,240 F,0,11492,11514,0.09897875,1 M,0,11514,11536,466,240,320,240 F,0,11514,11536,1,0.2033138 F,0,11536,11558,0.2033138,1 M,0,11536,11602,320,240 F,0,11558,11580,1,0 F,0,11580,11602,0,0.2530909 F,0,11602,11624,0.2530909,0 M,0,11602,11625,320,240,41,240 F,0,11624,11647,0 M,0,11625,11647,41,240,320,240 M,0,11647,11669,320,240
Sprite,Foreground,Centre,"Alt_SB\lZenxl.png",320,240 M,0,353,,320,240 F,0,353,375,0,1 F,0,375,397,1,0 F,0,397,419,0,1 F,0,419,441,1 F,0,441,463,1,0.4676364 F,0,463,485,0.4676364,0.6327305 F,0,485,507,0.6327305,0.2676987 F,0,507,529,0.2676987,0.8612748 F,0,529,551,0.8612748,0.5563967 F,0,551,573,0.5563967,1 F,0,573,617,1,0 F,0,617,639,0,1 F,0,639,661,1,0.4609813 F,0,661,683,0.4609813,1 F,0,683,727,1,0.5403636 F,0,727,750,0.5403636,1 F,0,750,794,1,0.5927274 F,0,794,838,0.5927274,1 F,0,838,882,1,0 F,0,882,904,0,1 F,0,904,948,1,0.205818 F,0,948,1014,0.205818,0.5918428 F,0,1014,1036,0.5918428,0 F,0,1036,1058,0,0.5835048 F,0,1058,1102,0.5835048,0.1888052 F,0,1102,1147,0.1888052,1 F,0,1147,4588,1 F,0,4588,4610,1,0.5043756 F,0,4610,4632,0.5043756,0 F,0,4632,4654,0,1 F,0,4654,4698,1,0.4065454 F,0,4698,4875,0.4065454,1 F,0,4875,4963,1,0.1941817 F,0,4963,5095,0.1941817,0.8473198 F,0,5095,5161,0.8473198,0.4306162 F,0,5161,5227,0.4306162,1 F,0,5227,5360,1,0 F,0,5360,5404,0,0.2986687 F,0,5404,5470,0.2986687,0 F,0,5470,5492,0,1 F,0,5492,5536,1,0.1447272 F,0,5536,5602,0.1447272,1 F,0,5602,5625,1,0 F,0,5625,5647,0,1 F,0,5647,5669,1,0.05163635 F,0,5669,5691,0.05163635,0.4838441 F,0,5691,5713,0.4838441,0 F,0,5713,5735,0,1 F,0,5735,5757,1,0.3367273 F,0,5757,5801,0.3367273,0 F,0,5801,5823,0,1 F,0,5823,5845,1,0 F,0,5845,5867,0,1 F,0,5867,5889,1,0.2033138 F,0,5889,5911,0.2033138,1 F,0,5911,5933,1,0 F,0,5933,5955,0,0.2530909 F,0,5955,5977,0.2530909,0 F,0,5977,6000,0
Sprite,Foreground,Centre,"Alt_SB\GD.png",320,240 M,0,11647,,93,240 S,0,11647,,1 F,0,20117,20382,1 M,2,20117,20470,93,240,-434,240 F,0,20382,20470,1,0
Sprite,Foreground,Centre,"Alt_SB\GDer.png",320,240 F,0,11647,,1 M,0,11647,12794,521,46 M,2,12794,13058,521,46,521,124 M,0,13058,13147,521,124 M,0,13147,14205,521,124 M,2,14205,14470,521,124,521,203 M,0,14470,14558,521,203 M,0,14558,15617,521,203 M,2,15617,15882,521,203,521,285 M,0,15882,15970,521,285 M,0,15970,17029,521,285 M,2,17029,17294,521,285,521,366 M,0,17294,17382,521,366 M,0,17382,18441,521,366 M,2,18441,18705,521,366,521,452 M,0,18705,18794,521,452 M,0,18794,20117,521,452 F,0,20117,20382,1 M,0,20117,20470,521,452,1036,452 F,0,20382,20470,1,0
Sprite,Foreground,Centre,"Bar.png",320,240 F,0,21882,,1 M,0,21882,21904,320,217,313,306 M,0,21904,21926,313,306,289,210 M,0,21926,21948,289,210,287,245 M,0,21948,21970,287,245,285,185 M,0,21970,21992,285,185,283,234 M,0,21992,22036,283,234,261,92 M,0,22036,22058,261,92,271,145 M,0,22058,22080,271,145,279,100 M,0,22080,22102,279,100,275,132 M,0,22102,22125,275,132,278,76 M,0,22125,22169,278,76,281,337 M,0,22169,22191,281,337,279,278 M,0,22191,22213,279,278,279,244 M,0,22213,22235,279,244,277,305
Sprite,Foreground,Centre,"Alt_SB\Badapple.png",320,240 M,0,22235,,320,240 F,0,22235,22279,0,1 S,0,22235,22588,5,0.3483634 F,0,22279,22588,1 F,0,22588,32823,1 R,0,22588,41294,0,6.283637 F,0,32823,33882,1,0.6654546 F,0,33882,34235,0.6654546,1 F,0,34235,41294,1 F,0,41294,41338,1,0.6625454 R,2,41294,44470,6.283637,50 F,0,41338,41382,0.6625454,1 F,0,41382,41426,1,0.7847273 F,0,41426,41470,0.7847273,1 F,0,41470,41514,1,0.6625454 F,0,41514,41558,0.6625454,1 F,0,41558,41602,1,0.6625454 F,0,41602,41647,0.6625454,1 F,0,41647,41691,1,0.7149091 F,0,41691,41735,0.7149091,1 F,0,41735,41779,1,0.7265454 F,0,41779,41823,0.7265454,1 F,0,41823,41867,1,0.7149091 F,0,41867,41911,0.7149091,1 F,0,41911,41955,1,0.6654546 F,0,41955,42000,0.6654546,1 F,0,42000,42044,1,0.5927272 F,0,42044,42088,0.5927272,1 F,0,42088,42132,1,0.4298183 F,0,42132,42176,0.4298183,1 F,0,42176,42220,1,0.6450909 F,0,42220,42264,0.6450909,1 F,0,42264,42308,1,0.5403636 F,0,42308,42352,0.5403636,1 F,0,42352,42397,1,0.7236363 F,0,42397,42441,0.7236363,1 F,0,42441,42485,1,0.6741818 F,0,42485,42529,0.6741818,1 F,0,42529,42573,1,0.6741818 F,0,42573,42617,0.6741818,1 F,0,42617,42661,1,0.426909 F,0,42661,42705,0.426909,1 F,0,42705,42750,1,0.3978181 F,0,42750,42794,0.3978181,1 F,0,42794,42838,1,0.6247272 F,0,42838,42882,0.6247272,1 F,0,42882,42926,1,0.6130908 F,0,42926,42970,0.6130908,1 F,0,42970,43014,1,0.5287273 F,0,43014,43058,0.5287273,1 F,0,43058,43102,1,0.2378182 F,0,43102,43147,0.2378182,1 F,0,43147,43191,1,0 F,0,43191,43235,0,1 F,0,43235,43279,1,0 F,0,43279,43323,0,1 F,0,43323,43367,1,0 F,0,43367,43411,0,1 F,0,43411,43455,1,0 F,0,43455,43500,0,1 F,0,43500,43544,1,0 F,0,43544,43588,0,1 F,0,43588,43632,1,0 F,0,43632,43676,0,1 F,0,43676,43720,1,0 F,0,43720,43764,0,1 F,0,43764,43808,1,0 F,0,43808,43852,0,1 F,0,43852,43897,1,0 F,0,43897,43941,0,1 F,0,43941,43985,1,0 F,0,43985,44029,0,1 F,0,44029,44073,1,0 F,0,44073,44117,0,1 F,1,44117,44205,1,0 S,1,44117,44470,0.3483634,1.203636 F,0,44205,44470,0
Sprite,Foreground,Centre,"Alt_SB\Badapple.png",320,240 F,0,22588,25764,1,0 S,1,22588,25764,0.348364,0.5752732
//Storyboard Sound Samples

[TimingPoints]
353,352.941176470588,4,1,0,35,1,0
21882,-133.333333333333,4,1,0,35,0,0
22235,-100,4,1,0,35,0,0
22941,-100,4,2,0,35,0,0
45529,-100,4,1,0,45,0,1
66705,-133.333333333333,4,1,0,45,0,0
68117,-100,4,1,0,45,0,0
90705,-133.333333333333,4,2,0,45,0,0
102000,-111.111111111111,4,1,0,45,0,0
111970,-111.111111111111,4,2,0,45,0,0
112588,-133.333333333333,4,2,0,45,0,0
113294,-100,4,1,0,40,0,1
113382,-100,4,1,0,40,0,0
134470,-100,4,1,0,30,0,0
135176,-133.333333333333,4,1,0,30,0,0
135882,-100,4,1,0,45,0,1
157058,-133.333333333333,4,1,0,35,0,0
158470,-100,4,1,0,45,0,0
203647,-133.333333333333,4,2,0,35,0,0
214941,-100,4,1,0,35,0,0
224911,-100,4,2,0,35,0,0
225529,-133.333333333333,4,1,0,35,0,0
226235,-100,4,1,0,45,0,1
237529,-100,4,1,0,40,0,1
240352,-100,4,1,0,35,0,1
243176,-100,4,1,0,30,0,1
246000,-100,4,1,0,25,0,1
247411,-133.333333333333,4,1,0,45,0,1
247588,-133.333333333333,4,1,0,25,0,1
248029,-133.333333333333,4,1,0,55,0,1
248205,-133.333333333333,4,1,0,25,0,1
248382,-133.333333333333,4,1,0,55,0,1
248558,-133.333333333333,4,1,0,25,0,1
248823,-100,4,1,0,45,0,0
250235,-100,4,1,0,40,0,0
251647,-100,4,1,0,35,0,0
253058,-100,4,1,0,30,0,0
254470,-100,4,1,0,25,0,0
255882,-100,4,1,0,20,0,0
256588,-100,4,2,0,5,0,0

[Colours]
Combo1 : 193,239,171
Combo2 : 253,244,89
Combo3 : 191,215,209
Combo4 : 250,154,169

[HitObjects]
256,96,10058,5,0,0:0:0:0:
256,96,10147,1,0,0:0:0:0:
256,96,10235,2,8,L|368:84,1,95.000000298023,8|0,1:0|0:0,0:0:0:0:
436,216,10588,2,0,L|336:228,1,95.000000298023,8|0,1:0|0:0,0:0:0:0:
341,226,10852,1,0,0:0:0:0:
341,226,10941,5,8,1:0:0:0:
248,332,11117,1,8,1:0:0:0:
208,204,11294,1,8,1:0:0:0:
200,204,11382,1,8,1:0:0:0:
192,204,11470,1,8,1:0:0:0:
184,204,11558,1,8,1:0:0:0:
176,204,11647,6,0,B|128:220|128:220|72:204,1,95.000000298023,8|0,1:0|0:0,0:0:0:0:
28,88,12000,2,0,B|76:72|76:72|132:88,1,95.000000298023,8|0,1:0|0:0,0:0:0:0:
252,80,12352,2,0,L|356:80,1,95.000000298023,8|0,1:0|0:0,0:0:0:0:
220,44,12705,1,8,1:0:0:0:
260,160,12882,2,0,L|364:160,1,95.000000298023,0|8,0:0|1:0,0:0:0:0:
240,120,13235,1,0,0:0:0:0:
176,264,13411,6,0,L|112:348,1,95.000000298023,8|0,1:0|0:0,0:0:0:0:
276,264,13764,1,8,1:0:0:0:
364,216,13941,2,0,L|476:192,1,95.000000298023,0|8,0:0|1:0,0:0:0:0:
360,320,14294,2,0,L|460:296,1,95.000000298023,0|8,0:0|1:0,0:0:0:0:
184,286,14647,2,0,L|284:262,1,95.000000298023,0|8,0:0|1:0,0:0:0:0:
272,148,15000,6,0,L|372:124,1,95.000000298023,0|8,0:0|1:0,0:0:0:0:
184,128,15352,2,0,L|84:160,1,95.000000298023,0|8,0:0|1:0,0:0:0:0:
12,104,15705,1,0,0:0:0:0:
344,192,17294,5,8,1:0:0:0:
276,284,17470,1,0,0:0:0:0:
236,176,17647,1,8,1:0:0:0:
340,220,17823,1,0,0:0:0:0:
264,308,18000,2,0,P|216:336|176:332,1,95.000000298023,8|0,1:0|0:0,0:0:0:0:
236,176,18352,1,8,1:0:0:0:
336,128,18529,2,0,P|392:120|456:160,1,95.000000298023,0|8,0:0|1:0,0:0:0:0:
320,268,18882,1,0,0:0:0:0:
216,228,19058,6,0,L|112:208,1,95.000000298023,8|0,1:0|0:0,0:0:0:0:
340,220,19411,1,8,1:0:0:0:
272,132,19588,2,0,L|252:32,1,95.000000298023,0|8,0:0|1:0,0:0:0:0:
396,120,19941,6,0,L|480:60,1,95.000000298023,0|8,0:0|1:0,0:0:0:0:
452,220,20294,2,0,L|516:292,1,95.000000298023,0|8,0:0|1:0,0:0:0:0:
404,312,20647,2,0,L|328:368,1,95.000000298023,0|8,0:0|1:0,0:0:0:0:
340,220,21000,1,8,1:0:0:0:
340,220,21088,1,8,1:0:0:0:
340,220,21176,1,8,1:0:0:0:
232,268,21352,1,8,1:0:0:0:
136,192,21529,5,12,1:0:0:0:
136,192,21882,2,2,B|192:180|160:140|232:112,1,106.875004412234
252,100,22235,2,0,P|324:104|452:96,1,190.000000596046,4|4,0:0|1:0,0:0:0:0:
352,264,22941,6,0,P|312:308|268:320,1,95.000000298023
196,272,23294,2,0,P|236:228|280:216,1,95.000000298023
352,168,23647,2,0,P|360:112|272:20,1,190.000000596046,2|0,0:0|0:0,0:0:0:0:
212,92,24176,2,0,P|136:68|32:132,1,190.000000596046,2|0,0:0|0:0,0:0:0:0:
100,192,24705,2,0,P|56:244|84:356,1,190.000000596046,2|0,0:0|0:0,0:0:0:0:
208,340,25235,6,0,L|208:244,1,95.000000298023,2|0,0:0|0:0,0:0:0:0:
300,160,25588,2,0,L|300:256,1,95.000000298023,2|0,0:0|0:0,0:0:0:0:
372,316,25941,1,2,0:0:0:0:
496,172,26294,1,2,0:0:0:0:
336,72,26647,1,2,0:0:0:0:
284,256,27000,1,2,0:0:0:0:
472,232,27352,1,2,0:0:0:0:
192,88,28588,6,0,P|144:56|96:52,2,95.000000298023
196,184,29117,1,0,0:0:0:0:
284,224,29294,2,0,P|336:232|380:216,2,95.000000298023,2|0|0,0:0|0:0|0:0,0:0:0:0:
140,264,29823,2,0,P|108:304|100:360,2,95.000000298023,2|0|0,0:0|0:0|0:0,0:0:0:0:
272,136,30352,2,0,L|332:52,1,95.000000298023,2|0,0:0|0:0,0:0:0:0:
196,184,30705,1,0,0:0:0:0:
104,176,30882,2,0,L|0:152,1,95.000000298023,2|0,0:0|0:0,0:0:0:0:
232,272,31235,6,0,L|304:340,1,95.000000298023,2|0,0:0|0:0,0:0:0:0:
200,96,31588,2,0,L|200:0,1,95.000000298023,2|0,0:0|0:0,0:0:0:0:
292,196,31941,1,2,0:0:0:0:
448,92,32294,1,2,0:0:0:0:
460,280,32647,1,2,0:0:0:0:
356,120,33000,1,2,0:0:0:0:
332,308,34235,6,0,L|232:352,1,95.000000298023
160,300,34588,2,0,L|64:288,1,95.000000298023
124,212,34941,2,0,L|192:136,1,95.000000298023,2|0,0:0|0:0,0:0:0:0:
280,156,35294,1,0,0:0:0:0:
492,133,35470,2,0,P|476:175|432:184,1,95.000000298023,2|0,0:0|0:0,0:0:0:0:
364,116,35823,1,0,0:0:0:0:
347,217,36000,2,0,P|363:259|408:268,1,95.000000298023,2|0,0:0|0:0,0:0:0:0:
364,116,36352,1,0,0:0:0:0:
288,64,36529,6,0,P|240:40|192:76,1,95.000000298023,2|0,0:0|0:0,0:0:0:0:
176,148,36882,2,0,L|180:252,1,95.000000298023,2|0,0:0|0:0,0:0:0:0:
264,148,37235,2,0,L|324:228,1,95.000000298023,2|0,0:0|0:0,0:0:0:0:
176,148,37588,2,0,L|136:256,1,95.000000298023,2|0,0:0|0:0,0:0:0:0:
264,148,37941,1,2,0:0:0:0:
260,300,39882,6,0,L|260:200,2,95.000000298023
172,336,40411,1,0,0:0:0:0:
104,272,40588,2,0,L|104:160,1,95.000000298023,2|0,0:0|0:0,0:0:0:0:
188,136,40941,1,0,0:0:0:0:
380,44,41117,2,0,L|380:164,1,95.000000298023,2|0,0:0|0:0,0:0:0:0:
300,192,41470,1,0,0:0:0:0:
92,176,41647,2,0,L|-4:180,1,95.000000298023,2|0,0:0|0:0,0:0:0:0:
16,88,42000,1,0,0:0:0:0:
148,48,42176,6,0,L|268:48,1,95.000000298023,2|0,0:0|0:0,0:0:0:0:
448,192,42529,2,0,L|336:196,1,95.000000298023,2|0,0:0|0:0,0:0:0:0:
168,140,42882,2,0,L|296:136,1,95.000000298023,2|0,0:0|0:0,0:0:0:0:
416,280,43235,2,0,L|296:280,1,95.000000298023,2|0,0:0|1:0,0:0:0:0:
300,280,43500,1,0,1:0:0:0:
280,280,43588,1,0,1:0:0:0:
260,280,43676,1,0,1:0:0:0:
240,280,43764,1,0,1:0:0:0:
220,280,43852,1,0,1:0:0:0:
200,280,43941,1,0,1:0:0:0:
180,280,44029,1,0,1:0:0:0:
160,280,44117,5,4,1:0:0:0:
80,160,44470,1,0,0:0:0:0:
180,64,44823,2,4,L|288:80,1,95.000000298023,4|0,2:0|0:0,1:0:0:0:
320,60,45088,1,0,0:0:0:0:
364,80,45176,2,0,L|404:84,2,23.7500000745057,4|0|0,1:0|0:0|0:0,0:0:0:0:
284,196,45529,6,0,P|308:240|376:248,1,95.000000298023,4|0,1:0|0:0,0:0:0:0:
408,180,45882,1,0,0:0:0:0:
452,264,46058,1,0,0:0:0:0:
384,328,46235,1,8,0:0:0:0:
384,328,46323,1,0,0:0:0:0:
384,328,46411,1,0,0:0:0:0:
284,196,46588,1,0,0:0:0:0:
268,312,46764,5,8,0:0:0:0:
268,312,46852,1,0,0:0:0:0:
268,312,46941,1,0,0:0:0:0:
88,272,47117,1,0,0:0:0:0:
180,244,47294,1,8,0:0:0:0:
180,244,47382,1,0,0:0:0:0:
180,244,47470,1,0,0:0:0:0:
368,240,47647,6,0,P|400:200|396:140,1,95.000000298023,0|8,0:0|0:0,0:0:0:0:
384,116,47911,1,0,0:0:0:0:
384,116,48000,2,0,P|348:68|312:60,1,95.000000298023,0|8,0:0|0:0,0:0:0:0:
268,64,48264,1,0,0:0:0:0:
224,76,48352,1,8,0:0:0:0:
108,152,48529,1,8,0:0:0:0:
108,152,48617,2,8,P|48:148|24:112,1,95.000000298023
24,76,48882,2,8,L|24:24,2,47.5000001490115
24,260,49235,5,8,0:0:0:0:
24,260,49323,2,8,P|56:316|100:324,1,95.000000298023
128,324,49588,2,8,L|176:324,2,47.5000001490115
192,200,49941,1,8,0:0:0:0:
192,200,50029,2,8,B|248:188|256:216|300:196,1,95.000000298023
332,184,50294,2,8,L|376:152,1,47.5000001490115
404,124,50470,6,8,L|424:32,1,95.000000298023
504,40,50735,1,0,0:0:0:0:
504,40,50823,2,8,L|484:132,1,95.000000298023
484,176,51088,1,8,0:0:0:0:
484,224,51176,5,8,0:0:0:0:
380,316,51352,1,0,0:0:0:0:
404,200,51529,1,0,0:0:0:0:
504,320,51705,1,0,0:0:0:0:
320,240,51882,6,0,L|184:272,1,95.000000298023,8|0,0:0|0:0,0:0:0:0:
380,316,52235,1,0,0:0:0:0:
328,148,52411,2,0,L|248:88,1,95.000000298023,8|0,0:0|0:0,0:0:0:0:
320,240,52764,1,0,0:0:0:0:
408,104,52941,6,0,L|416:-8,1,95.000000298023,8|0,0:0|0:0,0:0:0:0:
404,200,53294,1,0,0:0:0:0:
248,180,53470,1,8,0:0:0:0:
248,180,53558,1,0,0:0:0:0:
248,180,53647,2,0,L|136:196,1,95.000000298023,0|8,0:0|0:0,0:0:0:0:
108,196,53911,1,0,0:0:0:0:
108,196,54000,6,8,P|32:188|8:164,1,95.000000298023
4,132,54264,1,8,0:0:0:0:
208,100,54441,1,8,0:0:0:0:
208,100,54529,1,8,0:0:0:0:
208,100,54617,1,8,0:0:0:0:
208,100,54705,6,8,P|244:144|236:212,1,95.000000298023
260,228,54970,2,8,P|296:268|344:272,1,95.000000298023
384,272,55235,2,8,L|464:272,2,47.5000001490115
332,88,55588,1,8,0:0:0:0:
332,88,55676,6,8,P|392:52|440:60,1,95.000000298023
460,64,55941,2,8,L|512:96,1,47.5000001490115
512,136,56117,1,8,0:0:0:0:
432,324,56294,2,8,L|432:248,1,47.5000001490115
400,188,56470,2,8,B|352:172|320:208|276:184,1,95.000000298023
260,192,56735,1,8,0:0:0:0:
212,184,56823,5,12,0:0:0:0:
104,116,57000,1,0,0:0:0:0:
92,256,57176,2,0,P|48:288|-4:292,1,95.000000298023
48,180,57529,5,8,0:0:0:0:
184,268,57705,1,0,0:0:0:0:
192,96,57882,1,0,0:0:0:0:
92,256,58058,2,0,L|92:360,1,95.000000298023,8|0,0:0|0:0,0:0:0:0:
212,184,58411,1,0,0:0:0:0:
104,116,58588,2,0,L|104:12,1,95.000000298023,8|0,0:0|0:0,0:0:0:0:
192,96,58941,1,0,0:0:0:0:
264,256,59117,6,0,P|320:264|384:244,1,95.000000298023,8|0,0:0|0:0,0:0:0:0:
408,140,59470,2,0,P|352:132|288:152,1,95.000000298023,8|8,0:0|0:0,0:0:0:0:
136,192,59823,1,8,0:0:0:0:
136,192,59911,2,8,L|52:248,1,95.000000298023
32,284,60176,2,8,L|32:348,2,47.5000001490115
24,112,60529,5,8,0:0:0:0:
24,112,60617,2,8,P|48:64|88:40,1,95.000000298023
128,40,60882,2,8,L|208:40,2,47.5000001490115
280,152,61235,1,8,0:0:0:0:
280,152,61323,2,8,P|296:212|328:232,1,95.000000298023
360,260,61588,2,8,L|392:312,1,47.5000001490115
416,336,61764,6,8,P|480:348|524:304,1,95.000000298023
503,334,62029,1,8,0:0:0:0:
503,334,62117,1,8,0:0:0:0:
440,180,62294,1,8,0:0:0:0:
440,180,62382,1,8,0:0:0:0:
440,180,62470,6,0,B|432:128|448:128|436:80,1,95.000000298023,8|0,0:0|0:0,0:0:0:0:
280,152,62823,2,0,B|290:194|274:194|282:246,1,95.000000298023
316,80,63176,1,8,0:0:0:0:
364,200,63352,1,0,0:0:0:0:
204,180,63529,1,0,0:0:0:0:
328,276,63705,5,8,0:0:0:0:
384,120,63882,1,0,0:0:0:0:
224,96,64058,1,0,0:0:0:0:
224,264,64235,2,0,B|204:308|204:308|136:316,1,95.000000298023,8|0,0:0|0:0,0:0:0:0:
280,204,64588,1,0,0:0:0:0:
332,140,64764,6,0,B|352:96|352:96|420:88,1,95.000000298023,8|0,0:0|0:0,0:0:0:0:
496,208,65117,2,0,B|476:252|476:252|408:260,1,95.000000298023,8|8,0:0|0:0,0:0:0:0:
280,204,65470,2,0,L|160:204,1,95.000000298023,0|8,0:0|0:0,0:0:0:0:
68,152,65823,1,8,0:0:0:0:
68,152,65911,1,0,0:0:0:0:
68,152,66000,1,8,0:0:0:0:
128,36,66176,5,8,0:0:0:0:
176,28,66264,1,8,0:0:0:0:
220,48,66352,1,8,0:0:0:0:
240,92,66441,1,8,0:0:0:0:
276,124,66529,1,8,0:0:0:0:
324,124,66617,1,8,0:0:0:0:
364,100,66705,6,12,P|424:80|508:108,1,142.500005882978,4|0,1:0|0:0,1:0:0:0:
444,232,67411,1,4,2:0:0:0:
444,252,67764,1,4,2:0:0:0:
444,268,68117,6,0,P|428:304|380:328,1,95.000000298023,8|0,0:0|0:0,0:0:0:0:
280,216,68470,2,0,P|296:180|344:156,1,95.000000298023,8|0,0:0|0:0,0:0:0:0:
284,304,68823,2,0,P|232:288|204:256,1,95.000000298023,8|0,0:0|0:0,0:0:0:0:
296,44,69176,1,8,0:0:0:0:
368,104,69352,1,0,0:0:0:0:
192,144,69529,5,8,0:0:0:0:
108,96,69705,1,0,0:0:0:0:
288,160,69882,1,8,0:0:0:0:
312,252,70058,1,0,0:0:0:0:
464,236,70235,1,8,0:0:0:0:
508,320,70411,1,0,0:0:0:0:
416,372,70588,1,0,0:0:0:0:
372,288,70764,1,8,0:0:0:0:
420,132,70941,5,8,0:0:0:0:
420,132,71029,1,8,0:0:0:0:
420,132,71117,2,8,P|360:120|324:132,1,95.000000298023
244,176,71470,1,8,0:0:0:0:
116,184,71647,2,0,P|64:152|56:116,1,95.000000298023,8|0,0:0|0:0,0:0:0:0:
148,96,72000,2,0,P|200:128|208:164,1,95.000000298023,8|0,0:0|0:0,0:0:0:0:
156,308,72352,5,8,0:0:0:0:
156,308,72441,1,8,0:0:0:0:
156,308,72529,2,8,P|212:328|252:320,1,95.000000298023
384,196,72882,1,8,0:0:0:0:
384,196,72970,1,8,0:0:0:0:
384,196,73058,2,8,P|436:216|464:268,1,95.000000298023
288,216,73411,2,8,L|288:120,1,95.000000298023
164,44,73764,5,8,0:0:0:0:
156,52,73852,1,8,0:0:0:0:
148,60,73941,1,8,0:0:0:0:
140,68,74029,1,8,0:0:0:0:
132,76,74117,1,8,0:0:0:0:
64,196,74294,1,8,0:0:0:0:
64,196,74382,1,0,0:0:0:0:
64,196,74470,2,0,L|152:252,1,95.000000298023,8|0,0:0|0:0,0:0:0:0:
276,180,74823,1,8,0:0:0:0:
248,336,75000,1,0,0:0:0:0:
376,264,75176,6,0,L|488:260,1,95.000000298023,8|0,0:0|0:0,0:0:0:0:
136,264,75529,2,0,L|24:260,1,95.000000298023,8|0,0:0|0:0,0:0:0:0:
243,71,75882,5,8,0:0:0:0:
376,179,76058,1,0,0:0:0:0:
268,312,76235,1,8,0:0:0:0:
135,204,76411,1,0,0:0:0:0:
116,64,76588,5,8,0:0:0:0:
116,64,76676,1,8,0:0:0:0:
116,64,76764,2,8,P|160:52|208:64,1,95.000000298023
268,136,77117,1,8,0:0:0:0:
352,216,77294,2,8,P|416:208|444:164,1,95.000000298023,8|0,0:0|0:0,0:0:0:0:
420,84,77647,2,0,P|476:88|520:132,1,95.000000298023,8|0,0:0|0:0,0:0:0:0:
444,328,78000,5,8,0:0:0:0:
444,328,78088,1,8,0:0:0:0:
444,328,78176,2,8,B|392:312|380:332|320:320,1,95.000000298023
208,224,78529,1,8,0:0:0:0:
120,336,78705,1,8,0:0:0:0:
292,288,78882,1,8,0:0:0:0:
328,140,79058,1,8,0:0:0:0:
304,116,79147,1,8,0:0:0:0:
276,100,79235,1,8,0:0:0:0:
244,92,79323,1,8,0:0:0:0:
212,100,79411,6,0,P|160:112|120:96,1,95.000000298023,12|0,0:0|0:0,0:0:0:0:
284,20,79764,1,8,0:0:0:0:
368,96,79941,1,0,0:0:0:0:
472,28,80117,2,0,P|512:64|512:136,1,95.000000298023,8|0,0:0|0:0,0:0:0:0:
392,340,80470,1,8,0:0:0:0:
396,244,80647,1,0,0:0:0:0:
276,100,80823,6,0,P|260:152|284:204,1,95.000000298023,8|0,0:0|0:0,0:0:0:0:
464,189,81176,2,0,P|476:143|460:100,1,95.000000298023,8|0,0:0|0:0,0:0:0:0:
308,292,81529,1,8,0:0:0:0:
184,232,81705,1,0,0:0:0:0:
112,344,81882,1,8,0:0:0:0:
72,204,82058,1,8,0:0:0:0:
72,204,82147,1,8,0:0:0:0:
72,204,82235,6,0,P|40:152|40:104,1,95.000000298023,8|8,0:0|0:0,0:0:0:0:
168,72,82588,2,0,P|200:124|200:172,1,95.000000298023,8|8,0:0|0:0,0:0:0:0:
268,224,82941,1,8,0:0:0:0:
392,176,83117,1,0,0:0:0:0:
328,292,83294,1,8,0:0:0:0:
316,160,83470,1,0,0:0:0:0:
408,260,83647,5,8,0:0:0:0:
492,304,83823,1,0,0:0:0:0:
236,144,84000,1,8,0:0:0:0:
220,52,84176,1,0,0:0:0:0:
244,304,84352,1,8,0:0:0:0:
160,348,84529,1,0,0:0:0:0:
392,176,84705,1,8,0:0:0:0:
444,96,84882,1,8,0:0:0:0:
444,96,84970,1,8,0:0:0:0:
444,96,85058,6,8,P|448:32|432:8,1,95.000000298023,8|8,0:0|0:0,0:0:0:0:
304,184,85411,2,8,P|336:244|384:256,1,95.000000298023
352,100,85764,1,8,0:0:0:0:
464,224,85941,1,0,0:0:0:0:
304,184,86117,2,0,L|244:104,1,95.000000298023,8|0,0:0|0:0,0:0:0:0:
376,248,86470,5,8,0:0:0:0:
320,324,86647,1,0,0:0:0:0:
248,264,86823,1,8,0:0:0:0:
160,296,87000,1,0,0:0:0:0:
64,188,87176,5,8,0:0:0:0:
160,180,87352,1,0,0:0:0:0:
148,84,87529,1,8,0:0:0:0:
244,88,87705,1,0,0:0:0:0:
416,104,87882,6,8,L|440:60,2,47.5000001490115
344,204,88235,2,8,P|336:260|352:320,1,95.000000298023
342,297,88500,1,0,0:0:0:0:
342,297,88588,1,8,0:0:0:0:
440,356,88764,1,8,0:0:0:0:
496,228,88941,2,8,P|504:172|488:112,1,95.000000298023
288,36,89294,6,8,L|180:100,1,95.000000298023
180,124,89558,1,8,0:0:0:0:
180,124,89647,2,8,P|176:180|180:228,1,95.000000298023
324,160,90000,1,8,0:0:0:0:
328,164,90088,1,8,0:0:0:0:
332,168,90176,1,8,0:0:0:0:
336,172,90264,1,8,0:0:0:0:
340,176,90352,1,8,0:0:0:0:
344,180,90441,1,8,0:0:0:0:
348,184,90529,1,8,0:0:0:0:
352,188,90617,1,8,0:0:0:0:
356,192,90705,6,0,L|416:256,1,71.2500029414892,12|0,1:0|0:0,0:0:0:0:
428,136,91058,2,0,L|488:200,1,71.2500029414892
504,280,91411,2,0,P|464:336|384:340,1,142.500005882978,8|0,1:0|0:0,0:0:0:0:
288,288,91941,1,0,0:0:0:0:
152,348,92117,6,0,L|56:344,1,71.2500029414892,8|0,1:0|0:0,0:0:0:0:
208,200,92470,2,0,L|304:196,1,71.2500029414892
376,284,92823,2,0,P|428:264|456:168,1,142.500005882978,8|0,1:0|0:0,0:0:0:0:
408,120,93352,1,0,0:0:0:0:
232,40,93529,6,0,L|232:144,1,71.2500029414892,8|0,1:0|0:0,0:0:0:0:
116,240,93882,2,0,L|116:152,1,71.2500029414892
108,56,94235,2,0,P|44:76|8:168,1,142.500005882978,8|0,1:0|0:0,0:0:0:0:
20,232,94764,1,0,0:0:0:0:
200,196,94941,6,0,L|296:192,2,71.2500029414892,8|0|0,1:0|0:0|0:0,0:0:0:0:
116,236,95470,1,0,0:0:0:0:
176,340,95647,2,0,B|240:328|260:360|336:340,1,142.500005882978,8|0,1:0|0:0,0:0:0:0:
384,284,96176,1,0,0:0:0:0:
352,92,96352,6,0,P|408:92|440:116,1,71.2500029414892,8|0,1:0|0:0,0:0:0:0:
320,184,96705,2,0,P|264:184|232:160,1,71.2500029414892,0|0,0:0|0:0,0:0:0:0:
236,72,97058,2,0,L|160:80,1,71.2500029414892,8|0,1:0|0:0,0:0:0:0:
88,136,97411,1,0,0:0:0:0:
36,248,97588,1,0,0:0:0:0:
36,248,97676,1,0,0:0:0:0:
36,248,97764,6,0,P|72:276|104:276,1,71.2500029414892,8|0,1:0|0:0,0:0:0:0:
176,212,98117,2,0,P|216:224|236:252,1,71.2500029414892
292,324,98470,1,8,1:0:0:0:
388,348,98647,1,0,0:0:0:0:
360,252,98823,1,0,0:0:0:0:
416,176,99000,1,0,0:0:0:0:
344,88,99176,6,0,P|292:88|256:112,1,71.2500029414892,8|0,1:0|0:0,0:0:0:0:
432,84,99529,2,0,P|464:60|476:28,1,71.2500029414892
288,8,99882,2,0,P|224:28|188:104,1,142.500005882978,8|0,1:0|0:0,0:0:0:0:
236,200,100411,1,0,0:0:0:0:
236,200,100500,1,0,0:0:0:0:
236,200,100588,6,0,L|228:288,1,71.2500029414892,8|0,1:0|0:0,0:0:0:0:
132,344,100941,1,0,0:0:0:0:
132,344,101117,1,0,0:0:0:0:
32,264,101294,1,8,1:0:0:0:
32,264,101382,2,0,L|56:172,1,71.2500029414892
68,164,101647,5,0,1:0:0:0:
100,152,101735,1,0,1:0:0:0:
132,140,101823,1,0,1:0:0:0:
164,128,101911,1,0,1:0:0:0:
204,112,102000,6,0,L|320:112,1,85.4999976589678,12|0,1:0|0:0,1:0:0:0:
436,192,102352,2,8,L|324:192,1,85.4999976589678
308,192,102617,2,8,L|216:224,1,85.4999976589678
236,264,102882,1,8,0:0:0:0:
328,340,103058,1,8,0:0:0:0:
424,280,103235,1,0,0:0:0:0:
392,180,103411,6,0,L|388:88,1,85.4999976589678,8|0,0:0|0:0,0:0:0:0:
272,32,103764,2,8,L|276:136,1,85.4999976589678
300,152,104029,2,8,L|304:252,1,85.4999976589678
332,256,104294,1,8,0:0:0:0:
200,176,104470,1,8,0:0:0:0:
124,272,104647,1,0,0:0:0:0:
276,344,104823,5,8,0:0:0:0:
416,316,105000,1,0,0:0:0:0:
320,212,105176,1,8,0:0:0:0:
316,348,105352,1,8,0:0:0:0:
316,348,105441,2,8,L|376:252,1,85.4999976589678
364,232,105705,1,8,0:0:0:0:
468,320,105882,1,8,0:0:0:0:
308,268,106058,1,8,0:0:0:0:
436,172,106235,6,8,P|456:108|440:76,1,85.4999976589678,8|0,0:0|0:0,0:0:0:0:
292,188,106588,2,0,P|248:168|200:176,1,85.4999976589678,8|0,0:0|0:0,0:0:0:0:
120,304,106941,1,8,0:0:0:0:
120,304,107117,1,8,0:0:0:0:
80,144,107294,1,8,0:0:0:0:
100,108,107382,1,8,0:0:0:0:
136,84,107470,1,8,0:0:0:0:
180,76,107558,1,8,0:0:0:0:
216,92,107647,6,0,P|272:96|312:80,1,85.4999976589678,8|0,0:0|0:0,0:0:0:0:
436,128,108000,2,8,P|468:180|460:232,1,85.4999976589678
436,228,108264,2,8,L|428:324,1,85.4999976589678
404,348,108529,1,8,0:0:0:0:
240,308,108705,1,8,0:0:0:0:
336,256,108882,1,0,0:0:0:0:
152,200,109058,6,0,P|112:160|120:120,1,85.4999976589678,8|0,0:0|0:0,0:0:0:0:
44,32,109411,2,8,P|4:72|12:112,1,85.4999976589678
24,136,109676,2,8,L|12:232,1,85.4999976589678
32,260,109941,1,8,0:0:0:0:
144,336,110117,1,8,0:0:0:0:
228,232,110294,1,0,0:0:0:0:
304,60,110470,5,8,1:0:0:0:
384,132,110647,1,0,0:0:0:0:
200,148,110823,1,8,1:0:0:0:
132,220,111000,1,0,0:0:0:0:
312,240,111176,1,8,1:0:0:0:
372,324,111352,1,0,0:0:0:0:
292,152,111529,1,8,1:0:0:0:
220,64,111705,1,0,0:0:0:0:
212,268,111882,5,4,0:0:0:0:
224,352,112058,1,0,0:0:0:0:
288,300,112235,1,0,0:0:0:0:
276,220,112411,1,0,0:0:0:0:
204,188,112588,2,0,L|52:188,1,142.500005882978
61,188,113117,1,0,0:0:0:0:
40,64,113294,5,8,0:0:0:0:
128,100,113470,1,0,0:0:0:0:
220,16,113647,2,8,P|272:16|320:24,1,95.000000298023
352,48,113911,2,8,P|416:72|468:64,1,95.000000298023
488,68,114176,2,8,B|516:108|516:108|476:180,2,95.000000298023
328,168,114705,5,8,0:0:0:0:
368,296,114882,1,0,0:0:0:0:
240,264,115058,2,8,P|172:264|128:228,1,95.000000298023
144,204,115323,2,8,P|108:160|48:144,1,95.000000298023
28,148,115588,1,8,0:0:0:0:
120,332,115764,2,8,P|168:352|224:340,1,95.000000298023
328,168,116117,5,8,0:0:0:0:
404,240,116294,1,0,0:0:0:0:
296,276,116470,2,8,L|192:264,1,95.000000298023
168,232,116735,2,8,L|120:136,1,95.000000298023
112,100,117000,1,8,0:0:0:0:
256,48,117176,1,8,0:0:0:0:
136,16,117352,1,0,0:0:0:0:
212,140,117529,6,8,P|252:176|304:180,2,95.000000298023,8|0|8,0:0|0:0|0:0,0:0:0:0:
192,48,118058,1,0,0:0:0:0:
312,20,118235,2,8,P|360:20|404:52,1,95.000000298023
488,152,118588,1,8,0:0:0:0:
488,168,118676,1,8,0:0:0:0:
488,184,118764,1,8,0:0:0:0:
488,200,118852,1,8,0:0:0:0:
488,216,118941,6,8,B|488:264|488:264|480:292|436:304,1,95.000000298023,8|0,0:0|0:0,0:0:0:0:
368,240,119294,2,8,B|352:216|328:212|328:212|244:228,1,95.000000298023
256,264,119558,2,8,L|152:276,1,95.000000298023
120,244,119823,2,8,B|92:220|92:196|92:196|112:164,2,95.000000298023
296,172,120352,6,0,P|312:116|296:76,1,95.000000298023,8|0,0:0|0:0,0:0:0:0:
168,16,120705,2,8,P|152:72|168:112,1,95.000000298023
204,140,120970,2,8,L|208:248,1,95.000000298023
208,264,121235,1,8,0:0:0:0:
312,344,121411,1,8,0:0:0:0:
340,356,121500,1,8,0:0:0:0:
368,356,121588,1,8,0:0:0:0:
392,344,121676,1,8,0:0:0:0:
416,328,121764,6,8,P|468:300|508:308,2,95.000000298023
296,240,122294,1,8,0:0:0:0:
296,240,122382,2,8,P|312:180|352:156,1,95.000000298023
388,160,122647,1,8,0:0:0:0:
388,32,122823,1,8,0:0:0:0:
488,84,123000,1,0,0:0:0:0:
320,104,123176,5,8,0:0:0:0:
412,52,123352,1,0,0:0:0:0:
416,156,123529,1,8,0:0:0:0:
416,156,123617,2,8,L|424:260,1,95.000000298023
408,300,123882,1,8,0:0:0:0:
408,300,123970,2,8,P|336:320|296:312,1,95.000000298023
280,256,124235,1,8,0:0:0:0:
252,240,124323,1,8,0:0:0:0:
220,244,124411,1,8,0:0:0:0:
192,264,124500,1,8,0:0:0:0:
164,284,124588,6,0,P|104:308|76:300,1,95.000000298023,12|0,0:0|0:0,0:0:0:0:
8,196,124941,2,8,P|68:172|96:180,1,95.000000298023
132,188,125205,2,8,P|196:180|224:156,1,95.000000298023
244,132,125470,1,8,0:0:0:0:
168,24,125647,1,8,0:0:0:0:
344,8,125823,1,0,0:0:0:0:
452,136,126000,6,0,P|464:204|448:240,1,95.000000298023,8|0,0:0|0:0,0:0:0:0:
348,184,126352,1,8,0:0:0:0:
348,184,126441,2,8,P|336:232|356:284,1,95.000000298023
384,316,126705,2,8,L|484:320,1,95.000000298023
300,348,127058,1,8,0:0:0:0:
272,348,127147,1,8,0:0:0:0:
244,348,127235,1,8,0:0:0:0:
216,348,127323,1,8,0:0:0:0:
188,348,127411,6,8,L|92:348,1,95.000000298023,8|0,0:0|0:0,0:0:0:0:
16,264,127764,2,8,P|36:212|84:200,1,95.000000298023,8|8,0:0|0:0,0:0:0:0:
120,208,128029,2,8,P|168:188|180:140,1,95.000000298023
172,96,128294,1,8,0:0:0:0:
244,196,128470,1,8,0:0:0:0:
64,104,128647,1,0,0:0:0:0:
256,112,128823,6,0,L|336:60,1,95.000000298023,8|0,0:0|0:0,0:0:0:0:
188,268,129176,2,0,L|184:364,1,95.000000298023,8|0,0:0|0:0,0:0:0:0:
32,188,129529,1,8,0:0:0:0:
124,176,129705,1,8,0:0:0:0:
216,160,129882,2,8,L|280:144,3,47.5000001490115
316,144,130235,6,0,P|384:144|424:152,1,95.000000298023,8|0,0:0|0:0,0:0:0:0:
264,288,130588,2,8,P|252:232|264:192,1,95.000000298023
312,200,130852,2,8,L|396:256,1,95.000000298023
432,280,131117,1,8,0:0:0:0:
488,164,131294,2,0,P|488:116|456:80,1,95.000000298023,8|0,0:0|0:0,0:0:0:0:
364,40,131647,5,8,0:0:0:0:
280,100,131823,1,0,0:0:0:0:
196,36,132000,1,8,0:0:0:0:
196,36,132088,2,8,P|140:44|112:72,1,95.000000298023
92,116,132352,2,8,L|60:224,1,95.000000298023
192,216,132705,1,8,0:0:0:0:
200,232,132794,1,8,0:0:0:0:
208,248,132882,1,8,0:0:0:0:
216,264,132970,1,8,0:0:0:0:
224,280,133058,5,8,0:0:0:0:
324,336,133235,1,0,0:0:0:0:
416,136,133411,1,8,0:0:0:0:
316,192,133588,1,0,0:0:0:0:
136,24,133764,1,8,0:0:0:0:
236,80,133941,1,0,0:0:0:0:
432,44,134117,1,8,0:0:0:0:
432,44,134294,1,0,0:0:0:0:
404,228,134470,5,4,0:0:0:0:
492,264,134647,1,0,0:0:0:0:
416,320,134823,2,0,L|320:332,1,95.000000298023
96,280,135176,2,0,L|252:260,1,142.500005882978,4|4,2:0|2:0,0:0:0:0:
404,228,135882,6,8,P|436:152|424:112,1,95.000000298023,12|0,0:0|0:0,0:0:0:0:
420,96,136147,2,0,L|332:44,1,95.000000298023,8|0,0:0|0:0,0:0:0:0:
296,28,136411,2,0,L|240:28,2,47.5000001490115,8|0|8,0:0|0:0|0:0,0:0:0:0:
480,176,136764,1,0,0:0:0:0:
480,176,136852,2,0,P|508:224|508:280,1,95.000000298023,8|0,0:0|0:0,0:0:0:0:
488,304,137117,2,0,L|516:360,2,47.5000001490115,8|0|8,0:0|0:0|0:0,0:0:0:0:
328,332,137470,5,0,0:0:0:0:
328,332,137558,2,0,B|276:336|276:336|208:328,1,95.000000298023,8|0,0:0|0:0,0:0:0:0:
188,296,137823,1,8,0:0:0:0:
132,304,137911,1,0,0:0:0:0:
80,332,138000,2,0,P|32:324|-8:264,1,95.000000298023,8|8,0:0|0:0,0:0:0:0:
8,236,138264,1,8,0:0:0:0:
8,236,138352,2,0,L|24:136,1,95.000000298023,8|8,0:0|0:0,0:0:0:0:
56,96,138617,1,8,0:0:0:0:
40,44,138705,5,8,0:0:0:0:
188,72,138882,1,0,0:0:0:0:
188,72,138970,2,0,P|264:84|296:72,1,95.000000298023,8|0,0:0|0:0,0:0:0:0:
324,44,139235,2,0,L|392:24,2,47.5000001490115,8|0|8,0:0|0:0|0:0,0:0:0:0:
232,192,139588,1,0,0:0:0:0:
232,192,139676,2,0,P|236:248|272:272,1,95.000000298023,8|0,0:0|0:0,0:0:0:0:
320,268,139941,2,0,L|372:248,2,47.5000001490115,8|0|8,0:0|0:0|0:0,0:0:0:0:
132,196,140294,5,0,0:0:0:0:
132,196,140382,2,0,P|92:148|100:88,1,95.000000298023,8|0,0:0|0:0,0:0:0:0:
120,68,140647,2,0,L|164:32,1,47.5000001490115,8|0,0:0|0:0,0:0:0:0:
212,40,140823,2,0,B|260:36|260:36|264:48|264:48|320:64,1,95.000000298023,8|8,0:0|0:0,0:0:0:0:
356,56,141088,1,8,0:0:0:0:
356,56,141176,1,8,0:0:0:0:
268,160,141352,1,8,0:0:0:0:
268,160,141441,1,8,0:0:0:0:
268,160,141529,6,0,P|312:204|364:208,1,95.000000298023,8|0,0:0|0:0,0:0:0:0:
396,192,141794,2,0,P|444:208|468:256,1,95.000000298023,8|0,0:0|0:0,0:0:0:0:
460,300,142058,2,0,L|480:352,2,47.5000001490115,8|0|8,0:0|0:0|0:0,0:0:0:0:
312,284,142411,1,0,0:0:0:0:
340,300,142500,2,0,L|232:308,1,95.000000298023,8|0,0:0|0:0,0:0:0:0:
192,288,142764,2,0,L|132:304,2,47.5000001490115,8|0|8,0:0|0:0|0:0,0:0:0:0:
168,136,143117,5,0,0:0:0:0:
140,156,143205,2,0,L|124:52,1,95.000000298023,8|0,0:0|0:0,0:0:0:0:
80,28,143470,2,0,L|20:24,1,47.5000001490115,8|0,0:0|0:0,0:0:0:0:
8,56,143647,1,8,0:0:0:0:
24,228,143823,1,8,0:0:0:0:
24,228,143911,1,8,0:0:0:0:
24,228,144000,2,8,B|40:264|28:292|56:320,1,95.000000298023,8|8,0:0|0:0,0:0:0:0:
104,340,144264,1,8,0:0:0:0:
160,332,144352,5,8,0:0:0:0:
272,228,144529,1,0,0:0:0:0:
272,196,144617,2,0,P|328:204|372:228,1,95.000000298023,8|0,0:0|0:0,0:0:0:0:
412,252,144882,2,0,L|464:256,2,47.5000001490115,8|0|8,0:0|0:0|0:0,0:0:0:0:
268,336,145235,1,0,0:0:0:0:
240,356,145323,2,0,P|192:332|184:292,1,95.000000298023,8|0,0:0|0:0,0:0:0:0:
160,244,145588,2,0,L|132:180,2,47.5000001490115,8|0|8,0:0|0:0|0:0,0:0:0:0:
256,88,145941,5,0,0:0:0:0:
280,108,146029,2,0,L|376:92,1,95.000000298023,8|0,0:0|0:0,0:0:0:0:
408,48,146294,1,8,0:0:0:0:
464,40,146382,1,0,0:0:0:0:
504,80,146470,2,0,P|496:148|508:208,1,95.000000298023,8|8,1:0|0:0,0:0:0:0:
508,232,146735,1,8,0:0:0:0:
508,232,146823,2,0,L|432:304,1,95.000000298023,8|8,0:0|0:0,0:0:0:0:
392,328,147088,1,8,0:0:0:0:
336,316,147176,5,12,0:0:0:0:
220,240,147352,1,0,0:0:0:0:
192,216,147441,2,0,L|180:316,1,95.000000298023,8|0,0:0|0:0,0:0:0:0:
136,348,147705,2,0,L|88:364,2,47.5000001490115,8|0|8,0:0|0:0|0:0,0:0:0:0:
256,168,148058,1,0,0:0:0:0:
288,160,148147,2,0,L|300:56,1,95.000000298023,8|0,0:0|0:0,0:0:0:0:
344,32,148411,2,0,L|404:24,2,47.5000001490115,8|0|8,0:0|0:0|0:0,0:0:0:0:
176,136,148764,5,0,0:0:0:0:
148,112,148852,2,0,P|96:152|92:200,1,95.000000298023,8|0,0:0|0:0,0:0:0:0:
104,232,149117,2,0,L|116:296,1,47.5000001490115,8|0,0:0|0:0,0:0:0:0:
96,320,149294,2,0,P|144:336|220:316,1,95.000000298023,8|8,0:0|0:0,0:0:0:0:
228,292,149558,1,8,0:0:0:0:
228,292,149647,2,0,P|296:284|336:304,1,95.000000298023,8|8,0:0|0:0,0:0:0:0:
372,316,149911,1,8,0:0:0:0:
372,316,150000,5,8,0:0:0:0:
464,200,150176,1,0,0:0:0:0:
464,200,150264,2,0,L|448:100,1,95.000000298023,8|0,0:0|0:0,0:0:0:0:
412,64,150529,2,0,L|412:8,2,47.5000001490115,8|0|8,0:0|0:0|0:0,0:0:0:0:
280,156,150882,1,0,0:0:0:0:
280,156,150970,2,0,L|264:256,1,95.000000298023,8|0,0:0|0:0,0:0:0:0:
228,292,151235,2,0,L|228:348,2,47.5000001490115,8|0|8,0:0|0:0|0:0,0:0:0:0:
140,164,151588,5,0,0:0:0:0:
108,152,151676,2,0,P|100:88|128:56,1,95.000000298023,8|0,0:0|0:0,0:0:0:0:
152,20,151941,2,0,L|224:16,1,47.5000001490115,8|0,0:0|0:0,0:0:0:0:
252,40,152117,2,0,P|312:48|356:32,1,95.000000298023,8|8,0:0|0:0,0:0:0:0:
396,16,152382,1,8,0:0:0:0:
396,16,152470,1,8,0:0:0:0:
496,136,152647,1,8,0:0:0:0:
496,136,152735,1,8,0:0:0:0:
496,136,152823,6,0,P|472:192|480:240,1,95.000000298023,8|0,0:0|0:0,0:0:0:0:
504,272,153088,2,0,P|488:316|424:336,1,95.000000298023,8|0,0:0|0:0,0:0:0:0:
396,316,153352,2,0,L|328:312,2,47.5000001490115,8|0|8,0:0|0:0|0:0,0:0:0:0:
392,144,153705,1,0,0:0:0:0:
392,144,153794,2,0,P|344:80|296:80,1,95.000000298023,8|0,0:0|0:0,0:0:0:0:
280,88,154058,2,0,L|216:128,2,47.5000001490115,8|0|8,0:0|0:0|0:0,0:0:0:0:
288,248,154411,5,0,0:0:0:0:
288,248,154500,2,0,L|176:284,1,95.000000298023,8|0,0:0|0:0,0:0:0:0:
152,244,154764,1,8,0:0:0:0:
96,260,154852,1,0,0:0:0:0:
52,224,154941,2,0,P|20:188|16:136,1,95.000000298023,8|8,0:0|0:0,0:0:0:0:
36,88,155205,1,8,0:0:0:0:
36,88,155294,2,0,P|80:52|120:52,1,95.000000298023,8|8,0:0|0:0,0:0:0:0:
168,72,155558,1,8,0:0:0:0:
220,44,155647,5,8,0:0:0:0:
340,144,155823,1,0,0:0:0:0:
340,144,155911,2,0,P|396:128|412:88,1,95.000000298023,8|0,0:0|0:0,0:0:0:0:
408,40,156176,2,0,L|460:12,2,47.5000001490115,8|0|8,0:0|0:0|0:0,0:0:0:0:
168,72,156529,1,8,0:0:0:0:
280,236,156705,1,8,0:0:0:0:
300,68,156882,1,8,0:0:0:0:
148,180,157058,6,8,P|131:234|178:322,1,142.500005882978,12|8,0:0|0:0,0:0:0:0:
328,156,157764,1,4,2:0:0:0:
344,156,158117,1,4,2:0:0:0:
364,156,158470,6,0,P|420:164|452:216,1,95.000000298023,8|0,0:0|0:0,0:0:0:0:
456,344,158823,2,0,P|400:336|368:284,1,95.000000298023,8|0,0:0|0:0,0:0:0:0:
268,244,159176,2,0,P|196:240|152:272,1,95.000000298023,8|0,0:0|0:0,0:0:0:0:
300,352,159529,1,8,0:0:0:0:
288,168,159705,1,0,0:0:0:0:
216,348,159882,5,8,0:0:0:0:
352,280,160058,1,0,0:0:0:0:
200,180,160235,2,0,L|92:168,1,95.000000298023,8|0,0:0|0:0,0:0:0:0:
4,296,160588,1,8,0:0:0:0:
108,360,160764,1,0,0:0:0:0:
124,236,160941,2,0,P|168:200|168:136,1,95.000000298023,8|0,0:0|0:0,0:0:0:0:
24,56,161294,5,8,0:0:0:0:
24,56,161382,1,8,0:0:0:0:
24,56,161470,2,8,L|128:24,1,95.000000298023
224,88,161823,1,8,0:0:0:0:
368,36,162000,2,0,P|400:76|388:132,1,95.000000298023,8|0,0:0|0:0,0:0:0:0:
284,168,162352,2,0,P|282:214|312:249,1,95.000000298023,8|0,0:0|0:0,0:0:0:0:
480,192,162705,5,8,0:0:0:0:
480,192,162794,1,8,0:0:0:0:
480,192,162882,2,8,P|512:232|500:288,1,95.000000298023
376,156,163235,1,8,0:0:0:0:
376,156,163323,1,8,0:0:0:0:
376,156,163411,2,8,P|344:116|356:60,1,95.000000298023
472,84,163764,1,8,0:0:0:0:
264,112,163941,1,8,0:0:0:0:
160,180,164117,5,8,0:0:0:0:
156,184,164205,1,8,0:0:0:0:
152,188,164294,1,8,0:0:0:0:
148,192,164382,1,8,0:0:0:0:
144,196,164470,1,8,0:0:0:0:
176,316,164647,1,8,0:0:0:0:
312,192,164823,2,0,P|348:152|352:92,1,95.000000298023,8|0,0:0|0:0,0:0:0:0:
100,276,165176,2,0,P|64:316|60:376,1,95.000000298023,8|0,0:0|0:0,0:0:0:0:
276,288,165529,5,8,0:0:0:0:
232,100,165705,1,0,0:0:0:0:
168,256,165882,1,8,0:0:0:0:
356,224,166058,1,0,0:0:0:0:
160,160,166235,5,8,0:0:0:0:
284,164,166411,1,0,0:0:0:0:
220,272,166588,1,8,0:0:0:0:
104,232,166764,1,0,0:0:0:0:
80,64,166941,5,8,0:0:0:0:
80,64,167029,1,8,0:0:0:0:
80,64,167117,2,8,P|136:32|180:32,1,95.000000298023
280,80,167470,1,8,0:0:0:0:
276,204,167647,2,0,P|220:236|176:236,1,95.000000298023,8|0,0:0|0:0,0:0:0:0:
348,144,168000,1,8,0:0:0:0:
432,236,168176,1,0,0:0:0:0:
212,140,168352,5,8,0:0:0:0:
212,140,168441,1,8,0:0:0:0:
212,140,168529,1,8,0:0:0:0:
360,60,168705,2,8,P|412:48|452:64,1,95.000000298023
449,62,168970,1,8,0:0:0:0:
449,62,169058,1,8,0:0:0:0:
404,176,169235,1,8,0:0:0:0:
316,312,169411,1,8,0:0:0:0:
288,288,169500,1,8,0:0:0:0:
252,284,169588,1,8,0:0:0:0:
216,288,169676,1,8,0:0:0:0:
180,284,169764,6,0,P|120:280|84:256,1,95.000000298023,12|0,0:0|0:0,0:0:0:0:
120,144,170117,1,8,0:0:0:0:
236,192,170294,1,0,0:0:0:0:
324,40,170470,2,0,P|376:48|408:92,1,95.000000298023,8|0,0:0|0:0,0:0:0:0:
204,104,170823,2,0,L|132:36,1,95.000000298023,8|0,0:0|0:0,0:0:0:0:
320,140,171176,6,0,L|389:205,1,95.000000298023,8|0,0:0|0:0,0:0:0:0:
428,324,171529,1,8,0:0:0:0:
428,324,171617,1,8,0:0:0:0:
428,324,171705,1,8,0:0:0:0:
280,248,171882,1,8,0:0:0:0:
196,336,172058,1,0,0:0:0:0:
136,228,172235,1,8,0:0:0:0:
52,316,172411,1,0,0:0:0:0:
12,140,172588,5,8,0:0:0:0:
12,140,172676,1,8,0:0:0:0:
12,140,172764,2,8,B|4:92|4:92|36:28,1,95.000000298023
136,104,173117,1,8,0:0:0:0:
252,56,173294,2,0,B|260:104|260:104|228:168,1,95.000000298023,8|0,0:0|0:0,0:0:0:0:
136,228,173647,1,8,0:0:0:0:
260,236,173823,1,0,0:0:0:0:
380,120,174000,5,8,0:0:0:0:
380,120,174088,1,8,0:0:0:0:
380,120,174176,1,8,0:0:0:0:
444,224,174352,1,8,0:0:0:0:
476,88,174529,2,0,P|444:40|388:20,1,95.000000298023,8|8,0:0|0:0,0:0:0:0:
352,212,174882,1,8,0:0:0:0:
264,128,175058,2,0,L|156:108,1,95.000000298023,8|8,0:0|0:0,0:0:0:0:
52,216,175411,5,8,0:0:0:0:
52,216,175500,1,8,0:0:0:0:
52,216,175588,2,8,P|96:240|152:252,1,95.000000298023
256,212,175941,1,8,0:0:0:0:
384,52,176117,2,0,P|448:60|484:100,1,95.000000298023,8|0,0:0|0:0,0:0:0:0:
264,124,176470,1,8,0:0:0:0:
164,52,176647,1,0,0:0:0:0:
356,144,176823,6,0,P|394:195|390:249,1,95.000000298023,8|0,0:0|0:0,0:0:0:0:
252,36,177176,1,8,0:0:0:0:
176,136,177352,1,0,0:0:0:0:
256,312,177529,5,8,0:0:0:0:
332,216,177705,1,0,0:0:0:0:
308,336,177882,1,8,0:0:0:0:
264,220,178058,1,0,0:0:0:0:
144,256,178235,5,8,0:0:0:0:
144,256,178323,1,8,0:0:0:0:
144,256,178411,2,8,L|32:256,1,95.000000298023
176,136,178764,1,8,0:0:0:0:
176,136,178852,1,8,0:0:0:0:
176,136,178940,2,8,L|288:136,1,95.000000298023
372,208,179294,2,8,P|392:164|380:88,1,95.000000298023
256,56,179647,6,8,L|252:8,2,47.5000001490115
244,180,180000,2,8,L|252:232,2,47.5000001490115
120,60,180352,1,8,0:0:0:0:
92,60,180441,1,8,0:0:0:0:
68,76,180529,1,8,0:0:0:0:
52,100,180617,1,8,0:0:0:0:
56,128,180705,1,8,0:0:0:0:
72,152,180794,1,8,0:0:0:0:
88,176,180882,1,8,0:0:0:0:
84,204,180970,1,8,0:0:0:0:
76,232,181058,6,0,B|48:276|48:276|76:352,1,95.000000298023,12|0,0:0|0:0,0:0:0:0:
204,344,181411,2,8,B|232:300|232:300|204:224,1,95.000000298023
217,259,181676,1,8,0:0:0:0:
217,259,181764,1,8,0:0:0:0:
228,116,181941,1,8,0:0:0:0:
344,196,182117,2,0,L|448:244,1,95.000000298023,8|0,0:0|0:0,0:0:0:0:
452,56,182470,6,0,P|396:24|352:32,1,95.000000298023,8|0,0:0|0:0,0:0:0:0:
228,116,182823,1,8,0:0:0:0:
344,196,183000,1,8,0:0:0:0:
484,188,183176,1,8,0:0:0:0:
484,188,183264,1,8,0:0:0:0:
484,188,183352,1,8,0:0:0:0:
352,76,183529,1,8,0:0:0:0:
264,188,183705,1,0,0:0:0:0:
80,156,183882,5,8,0:0:0:0:
80,156,183970,1,8,0:0:0:0:
80,156,184058,1,8,0:0:0:0:
136,24,184235,2,8,P|184:48|200:104,1,95.000000298023,8|8,0:0|0:0,0:0:0:0:
172,152,184500,2,8,P|160:208|176:252,1,95.000000298023
240,264,184764,1,8,0:0:0:0:
348,160,184941,1,8,0:0:0:0:
348,160,185117,1,8,0:0:0:0:
252,56,185294,5,8,0:0:0:0:
120,108,185470,1,0,0:0:0:0:
292,156,185647,1,8,0:0:0:0:
92,204,185823,1,0,0:0:0:0:
328,240,186000,1,8,0:0:0:0:
176,204,186176,1,0,0:0:0:0:
228,304,186352,1,8,0:0:0:0:
252,336,186441,1,8,0:0:0:0:
288,348,186529,1,8,0:0:0:0:
324,344,186617,1,8,0:0:0:0:
360,328,186705,6,0,P|424:300|464:312,1,95.000000298023,12|0,0:0|0:0,0:0:0:0:
484,164,187058,2,8,P|428:140|400:104,1,95.000000298023
368,52,187323,2,8,P|304:40|260:68,1,95.000000298023
240,112,187588,1,8,0:0:0:0:
228,304,187764,1,8,0:0:0:0:
100,240,187941,1,8,0:0:0:0:
156,108,188117,6,0,P|184:48|232:32,1,95.000000298023,8|0,0:0|0:0,0:0:0:0:
320,120,188470,1,8,0:0:0:0:
320,120,188558,1,8,0:0:0:0:
320,120,188647,1,8,0:0:0:0:
320,120,188735,1,8,0:0:0:0:
320,120,188823,2,8,P|352:162|345:212,1,95.000000298023
260,184,189176,2,0,L|160:188,1,95.000000298023,8|8,0:0|0:0,0:0:0:0:
96,212,189441,1,8,0:0:0:0:
40,256,189529,6,0,P|32:312|56:356,1,95.000000298023,8|0,0:0|0:0,0:0:0:0:
176,288,189882,2,0,L|292:268,1,95.000000298023,8|8,0:0|0:0,0:0:0:0:
340,292,190147,2,8,P|388:300|448:272,1,95.000000298023
460,220,190411,1,8,0:0:0:0:
248,96,190588,2,8,P|196:120|176:160,1,95.000000298023
264,264,190941,5,8,0:0:0:0:
404,356,191117,1,0,0:0:0:0:
400,208,191294,1,8,0:0:0:0:
284,352,191470,1,0,0:0:0:0:
312,180,191647,1,8,0:0:0:0:
312,180,191735,2,8,B|316:136|316:136|320:104|292:76,1,95.000000298023
248,40,192000,1,8,0:0:0:0:
216,44,192088,1,8,0:0:0:0:
184,48,192176,1,8,0:0:0:0:
152,52,192264,1,8,0:0:0:0:
120,56,192352,6,0,B|76:72|76:72|68:128,1,95.000000298023,12|0,0:0|0:0,0:0:0:0:
116,276,192705,2,8,B|160:260|160:260|168:204,1,95.000000298023
196,144,192970,2,8,L|288:120,1,95.000000298023
360,132,193235,1,8,0:0:0:0:
420,260,193411,1,8,0:0:0:0:
496,120,193588,1,8,0:0:0:0:
376,32,193764,6,0,L|260:44,1,95.000000298023,8|0,0:0|0:0,0:0:0:0:
196,144,194117,1,8,0:0:0:0:
196,144,194205,2,8,P|144:168|76:152,1,95.000000298023
52,120,194470,2,8,L|8:28,1,95.000000298023
196,144,194823,1,8,0:0:0:0:
232,176,194911,1,8,0:0:0:0:
228,224,195000,1,8,0:0:0:0:
260,256,195088,1,8,0:0:0:0:
308,260,195176,6,8,P|368:260|408:236,1,95.000000298023,8|0,0:0|0:0,0:0:0:0:
324,120,195529,2,8,P|384:92|452:104,1,95.000000298023
476,120,195794,2,8,L|524:216,1,95.000000298023
496,272,196058,1,8,0:0:0:0:
400,164,196235,1,8,0:0:0:0:
400,164,196323,1,8,0:0:0:0:
400,164,196411,1,8,0:0:0:0:
284,48,196588,6,0,L|188:72,1,95.000000298023,8|0,0:0|0:0,0:0:0:0:
276,188,196941,1,8,0:0:0:0:
380,64,197117,1,0,0:0:0:0:
348,236,197294,2,0,L|356:340,1,95.000000298023,8|0,0:0|0:0,0:0:0:0:
224,120,197647,1,8,0:0:0:0:
188,112,197735,1,8,0:0:0:0:
152,120,197823,1,8,0:0:0:0:
124,148,197911,1,8,0:0:0:0:
116,184,198000,6,0,P|108:236|76:276,1,95.000000298023,12|0,0:0|0:0,0:0:0:0:
24,140,198352,2,8,P|32:60|48:40,1,95.000000298023
104,24,198617,2,8,L|200:24,1,95.000000298023
264,56,198882,1,8,0:0:0:0:
404,36,199058,1,8,0:0:0:0:
360,172,199235,1,8,0:0:0:0:
208,220,199411,6,0,P|216:284|248:340,1,95.000000298023,12|0,0:0|0:0,0:0:0:0:
280,176,199764,2,8,P|236:140|192:136,1,95.000000298023
140,176,200029,1,8,0:0:0:0:
140,176,200117,2,8,P|72:200|32:184,1,95.000000298023
264,56,200470,1,8,0:0:0:0:
264,56,200647,1,8,0:0:0:0:
276,256,200823,5,12,0:0:0:0:
152,96,201000,1,0,0:0:0:0:
348,212,201176,1,8,0:0:0:0:
192,24,201352,1,0,0:0:0:0:
196,256,201529,1,12,0:0:0:0:
344,48,201705,1,0,0:0:0:0:
136,200,201882,2,8,L|32:224,1,95.000000298023,8|0,0:0|0:0,0:0:0:0:
232,92,202235,5,4,0:0:0:0:
324,200,202411,1,0,0:0:0:0:
180,212,202588,1,0,0:0:0:0:
296,132,202764,1,0,0:0:0:0:
252,268,202941,2,0,L|252:372,1,95.000000298023,4|0,0:0|0:0,0:0:0:0:
168,136,203294,2,0,L|40:104,1,95.000000298023,4|0,0:0|0:0,0:0:0:0:
176,48,203647,6,0,L|264:72,1,71.2500029414892,4|0,0:3|0:0,0:0:0:0:
344,108,204000,2,0,L|440:104,1,71.2500029414892
492,28,204352,2,0,P|524:96|508:164,1,142.500005882978
510,159,204882,1,8,0:0:0:0:
400,312,205058,6,0,P|380:256|384:212,1,71.2500029414892
488,248,205411,2,0,P|508:304|504:348,1,71.2500029414892
332,352,205764,1,8,0:0:0:0:
332,352,205852,1,8,0:0:0:0:
332,352,205941,1,8,0:0:0:0:
260,272,206117,2,0,P|196:232|192:232,1,71.2500029414892,0|8,0:0|0:0,0:0:0:0:
64,308,206470,6,0,L|48:224,1,71.2500029414892
132,168,206823,2,0,L|128:88,1,71.2500029414892,8|0,0:0|0:0,0:0:0:0:
36,44,207176,1,8,0:0:0:0:
36,44,207264,1,8,0:0:0:0:
36,44,207352,1,8,0:0:0:0:
216,48,207529,2,0,L|288:60,1,71.2500029414892,0|8,0:0|0:0,0:0:0:0:
384,200,207882,5,0,0:0:0:0:
488,220,208058,1,0,0:0:0:0:
392,96,208235,1,0,0:0:0:0:
312,164,208411,1,0,0:0:0:0:
388,308,208588,1,0,0:0:0:0:
388,308,208764,1,0,0:0:0:0:
284,284,208941,1,0,0:0:0:0:
244,276,209029,1,0,0:0:0:0:
204,288,209117,1,0,0:0:0:0:
164,304,209205,1,0,0:0:0:0:
120,304,209294,6,0,P|60:292|40:284,1,71.2500029414892
44,180,209647,2,0,P|104:192|124:200,1,71.2500029414892,8|0,0:0|0:0,0:0:0:0:
256,180,210000,1,8,0:0:0:0:
256,180,210088,1,8,0:0:0:0:
256,180,210176,1,8,0:0:0:0:
332,64,210352,2,0,P|376:68|416:104,1,71.2500029414892,0|8,0:0|0:0,0:0:0:0:
384,224,210705,6,0,P|440:224|472:212,1,71.2500029414892
424,116,211058,1,0,0:0:0:0:
332,168,211235,1,0,0:0:0:0:
228,136,211411,2,0,P|192:120|172:80,1,71.2500029414892
92,24,211764,1,8,0:0:0:0:
92,24,211852,1,8,0:0:0:0:
92,24,211941,1,8,0:0:0:0:
92,24,212029,1,8,0:0:0:0:
92,24,212117,6,0,P|48:40|20:64,1,71.2500029414892
76,152,212470,1,8,0:0:0:0:
12,240,212647,1,0,0:0:0:0:
8,268,212735,1,0,0:0:0:0:
16,296,212823,1,0,0:0:0:0:
32,320,212911,1,0,0:0:0:0:
60,332,213000,1,0,0:0:0:0:
88,332,213088,1,0,0:0:0:0:
116,324,213176,1,0,0:0:0:0:
136,304,213264,1,0,0:0:0:0:
156,284,213352,1,8,0:0:0:0:
180,268,213441,1,0,0:0:0:0:
208,264,213529,6,0,P|264:260|304:272,1,71.2500029414892
400,332,213882,1,8,0:0:0:0:
400,332,213970,1,0,0:0:0:0:
400,332,214058,2,0,P|452:336|488:328,1,71.2500029414892
504,292,214323,1,0,0:0:0:0:
504,240,214411,2,0,L|504:148,1,71.2500029414892
504,144,214676,1,0,0:0:0:0:
504,116,214764,1,0,0:0:0:0:
504,88,214852,1,0,0:0:0:0:
504,60,214941,6,0,P|456:48|408:56,1,95.000000298023
340,172,215294,2,8,P|280:184|224:172,1,95.000000298023,8|0,0:0|0:0,0:0:0:0:
208,116,215558,2,8,P|144:112|104:128,1,95.000000298023
68,180,215823,1,8,0:0:0:0:
144,312,216000,1,8,0:0:0:0:
260,216,216264,1,0,0:0:0:0:
304,40,216352,6,0,P|380:48|416:72,1,95.000000298023,8|0,0:0|0:0,0:0:0:0:
412,208,216705,2,8,P|400:272|420:312,1,95.000000298023
476,340,216970,2,8,L|360:340,1,95.000000298023
308,316,217235,1,8,0:0:0:0:
144,312,217411,1,8,0:0:0:0:
144,312,217500,1,8,0:0:0:0:
144,312,217588,1,8,0:0:0:0:
36,208,217764,6,0,P|24:152|60:112,1,95.000000298023,8|0,0:0|0:0,0:0:0:0:
196,132,218117,2,8,L|288:168,1,95.000000298023
352,204,218382,2,8,P|424:192|448:160,1,95.000000298023
456,104,218647,1,8,0:0:0:0:
424,252,218823,1,8,0:0:0:0:
348,120,219000,6,0,L|280:32,1,95.000000298023,8|8,0:0|0:0,0:0:0:0:
280,256,219352,2,0,L|176:280,1,95.000000298023,0|8,0:0|0:0,0:0:0:0:
160,72,219705,2,0,L|68:32,1,95.000000298023,0|8,0:0|0:0,0:0:0:0:
120,264,220058,1,0,0:0:0:0:
12,164,220235,1,8,0:0:0:0:
0,200,220323,1,8,0:0:0:0:
0,236,220411,1,8,0:0:0:0:
8,272,220500,1,8,0:0:0:0:
32,304,220588,6,0,P|80:336|128:336,1,95.000000298023,12|0,0:0|0:0,0:0:0:0:
216,224,220941,2,8,P|276:232|316:272,1,95.000000298023
272,320,221205,2,8,P|336:320|368:280,1,95.000000298023
392,232,221470,1,8,0:0:0:0:
268,144,221647,1,8,0:0:0:0:
408,84,221823,1,8,0:0:0:0:
472,264,222000,6,0,P|440:304|400:316,1,95.000000298023,8|0,0:0|0:0,0:0:0:0:
268,236,222352,1,8,0:0:0:0:
268,236,222441,2,8,L|176:264,1,95.000000298023
144,300,222705,1,8,0:0:0:0:
392,232,222882,1,8,0:0:0:0:
268,144,223058,1,8,0:0:0:0:
260,140,223147,1,8,0:0:0:0:
252,136,223235,1,8,0:0:0:0:
244,132,223323,1,8,0:0:0:0:
236,128,223411,5,12,0:0:0:0:
116,96,223588,1,8,3:0:0:0:
232,248,223764,1,8,3:0:0:0:
272,364,223941,1,8,3:0:0:0:
348,156,224117,1,8,3:0:0:0:
448,84,224294,1,8,3:0:0:0:
156,184,224470,1,8,3:0:0:0:
40,224,224647,1,8,3:0:0:0:
312,288,224823,5,4,1:0:0:0:
392,240,225000,1,0,0:0:0:0:
348,156,225176,1,0,0:0:0:0:
268,204,225353,1,0,0:0:0:0:
216,284,225529,2,0,L|72:292,1,142.500005882978
48,92,226235,6,0,P|104:56|160:56,1,95.000000298023,12|0,0:0|0:0,0:0:0:0:
212,88,226500,2,0,L|316:88,1,95.000000298023,8|0,0:0|0:0,0:0:0:0:
388,60,226764,2,0,L|448:32,2,47.5000001490115,8|0|8,0:0|0:0|0:0,0:0:0:0:
456,216,227117,1,0,0:0:0:0:
456,216,227205,2,0,P|396:240|324:228,1,95.000000298023,8|0,0:0|0:0,0:0:0:0:
280,248,227470,2,0,L|224:296,2,47.5000001490115,8|0|8,0:0|0:0|0:0,0:0:0:0:
132,144,227823,5,0,0:0:0:0:
132,144,227911,2,0,P|72:144|12:192,1,95.000000298023,8|0,0:0|0:0,0:0:0:0:
12,240,228176,2,0,L|0:308,2,47.5000001490115,8|0|8,0:0|0:0|0:0,0:0:0:0:
216,184,228529,1,8,0:0:0:0:
216,184,228617,1,8,0:0:0:0:
216,184,228705,2,8,L|240:88,1,95.000000298023
300,32,228970,1,8,0:0:0:0:
300,32,229058,1,8,0:0:0:0:
436,136,229235,5,0,0:0:0:0:
436,136,229323,2,0,P|456:192|432:236,1,95.000000298023,8|0,0:0|0:0,0:0:0:0:
396,292,229588,2,0,L|396:344,2,47.5000001490115,8|0|8,0:0|0:0|0:0,0:0:0:0:
300,148,229941,1,0,0:0:0:0:
300,148,230029,2,0,P|268:104|216:92,1,95.000000298023,8|0,0:0|0:0,0:0:0:0:
148,108,230294,2,0,L|68:112,2,47.5000001490115,8|0|8,0:0|0:0|0:0,0:0:0:0:
280,220,230647,5,0,0:0:0:0:
280,220,230735,2,0,P|276:284|240:332,1,95.000000298023,8|0,0:0|0:0,0:0:0:0:
176,320,231000,2,0,L|128:352,1,47.5000001490115,8|0,0:0|0:0,0:0:0:0:
56,316,231176,2,8,P|12:260|20:212,1,95.000000298023,8|8,0:0|0:0,0:0:0:0:
56,164,231441,1,8,0:0:0:0:
56,164,231529,2,8,P|76:112|64:68,1,95.000000298023
68,76,231794,1,8,0:0:0:0:
68,76,231882,5,8,0:0:0:0:
236,40,232058,1,0,0:0:0:0:
236,40,232147,2,0,P|296:60|340:48,1,95.000000298023,8|0,0:0|0:0,0:0:0:0:
408,40,232411,2,0,L|464:28,2,47.5000001490115,8|0|8,0:0|0:0|0:0,0:0:0:0:
320,188,232764,1,0,0:0:0:0:
320,188,232852,2,0,P|292:244|296:288,1,95.000000298023,8|0,0:0|0:0,0:0:0:0:
352,336,233117,2,0,L|392:360,2,47.5000001490115,8|0|8,0:0|0:0|0:0,0:0:0:0:
448,196,233470,5,0,0:0:0:0:
448,196,233558,2,0,P|436:136|400:108,1,95.000000298023,8|0,0:0|0:0,0:0:0:0:
332,80,233823,2,0,L|268:88,1,47.5000001490115,8|0,0:0|0:0,0:0:0:0:
220,144,234000,2,8,P|168:164|108:136,1,95.000000298023,8|8,0:0|0:0,0:0:0:0:
80,84,234264,1,8,0:0:0:0:
80,84,234352,2,8,P|88:132|56:192,1,95.000000298023
72,174,234617,1,8,0:0:0:0:
72,174,234705,5,8,0:0:0:0:
168,316,234882,1,0,0:0:0:0:
168,316,234970,2,0,P|240:272|240:244,1,95.000000298023,8|0,0:0|0:0,0:0:0:0:
300,208,235235,2,0,L|348:180,2,47.5000001490115,8|0|8,0:0|0:0|0:0,0:0:0:0:
212,104,235588,1,0,0:0:0:0:
212,104,235676,2,0,P|248:52|280:48,1,95.000000298023,8|0,0:0|0:0,0:0:0:0:
360,48,235941,2,0,L|412:32,2,47.5000001490115,8|0|8,0:0|0:0|0:0,0:0:0:0:
440,200,236294,5,0,0:0:0:0:
440,200,236382,2,0,B|424:248|424:248|440:300,1,95.000000298023,8|0,0:0|0:0,0:0:0:0:
472,328,236647,1,8,0:0:0:0:
428,356,236735,1,0,0:0:0:0:
380,336,236823,2,8,P|320:328|264:348,1,95.000000298023
240,360,237088,1,8,0:0:0:0:
192,344,237176,2,8,P|132:304|136:256,1,95.000000298023
144,236,237441,1,8,0:0:0:0:
144,236,237529,5,12,0:0:0:0:
228,88,237705,1,0,0:0:0:0:
228,88,237794,2,0,P|192:32|152:28,1,95.000000298023,8|0,0:0|0:0,0:0:0:0:
88,60,238058,2,0,L|32:76,2,47.5000001490115,8|0|8,0:0|0:0|0:0,0:0:0:0:
212,180,238411,1,0,0:0:0:0:
212,180,238500,2,0,P|276:200|316:180,1,95.000000298023,8|0,0:0|0:0,0:0:0:0:
364,136,238764,2,0,L|416:128,2,47.5000001490115,8|0|8,0:0|0:0|0:0,0:0:0:0:
220,40,239117,5,0,0:0:0:0:
220,40,239205,2,0,P|148:48|120:92,1,95.000000298023,8|0,0:0|0:0,0:0:0:0:
100,140,239470,2,0,L|56:172,2,47.5000001490115,8|0|8,0:0|0:0|0:0,0:0:0:0:
272,132,239823,1,8,0:0:0:0:
272,132,239911,1,8,0:0:0:0:
272,132,240000,2,8,P|304:180|300:224,1,95.000000298023
240,272,240264,1,8,0:0:0:0:
240,272,240352,6,0,P|248:328|316:344,1,95.000000298023,8|0,0:0|0:0,0:0:0:0:
360,328,240617,2,0,L|472:308,1,95.000000298023,8|0,0:0|0:0,0:0:0:0:
492,232,240882,2,0,L|492:172,2,47.5000001490115,8|0|8,0:0|0:0|0:0,0:0:0:0:
360,120,241235,1,0,0:0:0:0:
360,120,241323,2,0,L|264:92,1,95.000000298023,8|0,0:0|0:0,0:0:0:0:
184,104,241588,2,0,L|116:112,2,47.5000001490115,8|0|8,0:0|0:0|0:0,0:0:0:0:
144,272,241941,5,0,0:0:0:0:
144,272,242029,2,0,P|72:264|32:232,1,95.000000298023,8|0,0:0|0:0,0:0:0:0:
20,172,242294,1,8,0:0:0:0:
20,172,242382,1,0,0:0:0:0:
20,172,242470,2,0,P|12:112|24:72,1,95.000000298023,8|0,0:0|0:0,0:0:0:0:
88,24,242735,2,0,L|152:20,1,47.5000001490115,8|0,0:0|0:0,0:0:0:0:
288,100,243000,1,8,0:0:0:0:
288,100,243088,1,0,0:0:0:0:
288,100,243176,6,0,P|330:119|376:112,1,95.000000298023,8|0,0:0|0:0,0:0:0:0:
452,68,243441,2,0,P|488:104|492:184,1,95.000000298023,8|0,0:0|0:0,0:0:0:0:
484,228,243705,2,0,L|484:292,2,47.5000001490115,8|0|8,0:0|0:0|0:0,0:0:0:0:
312,244,244058,1,0,0:0:0:0:
312,244,244147,2,0,P|248:256|216:240,1,95.000000298023,8|0,0:0|0:0,0:0:0:0:
156,188,244411,2,0,L|92:176,2,47.5000001490115,8|0|8,0:0|0:0|0:0,0:0:0:0:
296,88,244764,5,0,0:0:0:0:
296,88,244852,2,0,P|372:96|392:140,1,95.000000298023,8|0,0:0|0:0,0:0:0:0:
420,180,245117,1,8,0:0:0:0:
420,180,245205,1,0,0:0:0:0:
420,180,245294,2,0,L|408:276,1,95.000000298023,8|8,0:0|0:0,0:0:0:0:
332,312,245558,1,8,0:0:0:0:
332,312,245647,2,0,L|344:188,1,95.000000298023,8|8,0:0|0:0,0:0:0:0:
272,168,245911,1,8,0:0:0:0:
272,168,246000,6,0,L|156:208,1,95.000000298023,8|8,0:0|0:0,0:0:0:0:
392,56,246352,2,8,L|488:84,1,95.000000298023
432,304,246705,2,8,L|376:192,1,95.000000298023
152,24,247058,1,8,0:0:0:0:
168,56,247147,1,8,0:0:0:0:
184,84,247235,1,8,0:0:0:0:
200,112,247323,1,8,0:0:0:0:
216,136,247411,5,12,0:0:0:0:
284,240,247588,1,0,0:0:0:0:
356,136,247764,2,0,L|448:136,1,71.2500029414892
252,48,248117,2,0,L|168:48,1,71.2500029414892,4|0,0:0|0:0,0:0:0:0:
200,220,248470,2,0,L|200:296,1,71.2500029414892,4|0,0:0|0:0,0:0:0:0:
256,192,248823,12,0,256588,0:0:0:0:
