osu file format v14

[General]
AudioFilename: [HD] Epic Trance - Bad Apple!! (REDALiCE Remix).mp3
AudioLeadIn: 0
PreviewTime: 158490
Countdown: 0
SampleSet: Normal
StackLeniency: 0.7
Mode: 0
LetterboxInBreaks: 1
EpilepsyWarning: 1
WidescreenStoryboard: 1

[Editor]
Bookmarks: 45557,90733,102028,135910,157616,219204
DistanceSpacing: 1
BeatDivisor: 4
GridSize: 4
TimelineZoom: 1

[Metadata]
Title:Bad Apple!! (REDALiCE Remix)
TitleUnicode:Bad Apple!! (REDALiCE Remix)
Artist:Masayoshi Minoshima
ArtistUnicode:簑島 正佳
Creator:Evening
Version:neonat's Hard
Source:Touhou
Tags:Gensoukyou Lotus Land Story nomico Lovelight Trois Noir CoroQuetz Soldsaga KunG neonat Kuo Kyoka Papcio GetxOriginal
BeatmapID:344643
BeatmapSetID:132824

[Difficulty]
HPDrainRate:5
CircleSize:4
OverallDifficulty:5
ApproachRate:8
SliderMultiplier:1.70000000596046
SliderTickRate:1

[Events]
//Background and Video events
0,0,"badappleneonat.jpg",0,0
//Break Periods
//Storyboard Layer 0 (Background)
//Storyboard Layer 1 (Fail)
//Storyboard Layer 2 (Pass)
//Storyboard Layer 3 (Foreground)
Sprite,Foreground,Centre,"Warning.png",320,240 F,0,223411,223433,0,1 S,0,223433,,0.5578184 F,0,223433,223764,1 M,0,223764,,320,256 F,0,223764,223786,1,0 F,0,223786,224117,0 F,0,224117,224139,0,1 F,0,224139,224448,1 F,0,224448,224470,1,0 F,0,224470,224823,0 F,0,224823,224845,0,1 F,0,224845,225154,1 F,0,225154,225176,1,0 F,0,225176,225529,0 F,0,225529,225551,0,1 F,0,225551,225860,1 F,0,225860,225882,1,0
Sprite,Foreground,Centre,"Warning.png",320,240 F,0,133058,133080,0,1 S,0,133080,,0.5578184 F,0,133080,133411,1 M,0,133147,,320,256 F,0,133411,133433,1,0 F,0,133433,133764,0 F,0,133764,133786,0,1 F,0,133786,134095,1 F,0,134095,134117,1,0 F,0,134117,134470,0 F,0,134470,134492,0,1 F,0,134492,134801,1 F,0,134801,134823,1,0 F,0,134823,135176,0 F,0,135176,135198,0,1 F,0,135198,135507,1 F,0,135507,135529,1,0
Sprite,Foreground,Centre,"Alt_SB\DJNightmare.png",320,240 M,0,6000,,320,240 F,0,6000,6022,0,0.9978182 F,0,6022,6044,0.9978182,0 F,0,6044,6066,0,1 F,0,6066,6088,1 F,0,6088,6110,1,0.4676364 F,0,6110,6132,0.4676364,0.6327305 F,0,6132,6154,0.6327305,0.2676987 F,0,6154,6176,0.2676987,0.8612748 F,0,6176,6198,0.8612748,0.5563967 F,0,6198,6220,0.5563967,1 F,0,6220,6264,1,0 F,0,6264,6286,0,0.9933167 F,0,6286,6308,0.9933167,0.4609813 F,0,6308,6330,0.4609813,1 F,0,6330,6374,1,0.5403636 F,0,6374,6397,0.5403636,1 F,0,6397,6441,1,0.5927274 F,0,6441,6485,0.5927274,1 F,0,6485,6529,1,0 F,0,6529,6551,0,1 F,0,6551,6595,1,0.205818 F,0,6595,6661,0.205818,0.5918428 F,0,6661,6683,0.5918428,0 F,0,6683,6705,0,0.5835048 F,0,6705,6749,0.5835048,0.1888052 F,0,6749,6794,0.1888052,1 F,0,6794,10235,1 M,0,10213,10235,320,240,320,105 M,0,10235,10257,320,105,320,240 F,0,10235,10257,1,0.5043756 F,0,10257,10279,0.5043756,0.0740919 M,0,10257,10566,320,240 F,0,10279,10301,0.0740919,1 F,0,10301,10345,1,0.4065454 F,0,10345,10522,0.4065454,1 F,0,10522,10610,1,0.1941817 M,0,10566,10588,320,240,320,401 M,0,10588,10610,320,401,320,240 F,0,10610,10742,0.1941817,0.8473198 M,0,10610,10875,320,240 M,0,10610,10897,320,240,146,388 F,0,10742,10808,0.8473198,0.4306162 F,0,10808,10874,0.4306162,1 F,0,10874,11007,1,0 M,0,10897,10919,146,388,320,240 M,0,10919,10941,320,240,438,134 M,0,10941,10963,438,134,320,240 M,0,10963,11117,320,240 F,0,11007,11051,0,0.2986687 F,0,11051,11117,0.2986687,0 M,0,11117,11139,320,240,134,240 F,0,11117,11139,0,1 M,0,11139,11161,134,240,320,240 F,0,11139,11183,1,0.1447272 M,0,11161,11272,320,240 F,0,11183,11249,0.1447272,1 F,0,11249,11272,1,0 M,0,11272,11294,320,240,523,240 F,0,11272,11294,0,1 M,0,11294,11316,523,240,320,240 F,0,11294,11316,1,0.05163635 F,0,11316,11338,0.05163635,0.4838441 M,0,11316,11382,320,240 F,0,11338,11360,0.4838441,0 F,0,11360,11382,0,1 M,0,11382,11404,320,240,147,240 F,0,11382,11404,1,0.3367273 M,0,11404,11426,147,240,320,240 F,0,11404,11448,0.3367273,0 M,0,11426,11492,320,240 F,0,11448,11470,0,1 F,0,11470,11492,1,0.09897875 M,0,11492,11514,320,240,466,240 F,0,11492,11514,0.09897875,1 M,0,11514,11536,466,240,320,240 F,0,11514,11536,1,0.2033138 F,0,11536,11558,0.2033138,1 M,0,11536,11602,320,240 F,0,11558,11580,1,0 F,0,11580,11602,0,0.2530909 F,0,11602,11624,0.2530909,0 M,0,11602,11625,320,240,41,240 F,0,11624,11647,0 M,0,11625,11647,41,240,320,240 M,0,11647,11669,320,240
Sprite,Foreground,Centre,"Alt_SB\lZenxl.png",320,240 M,0,353,,320,240 F,0,353,375,0,1 F,0,375,397,1,0 F,0,397,419,0,1 F,0,419,441,1 F,0,441,463,1,0.4676364 F,0,463,485,0.4676364,0.6327305 F,0,485,507,0.6327305,0.2676987 F,0,507,529,0.2676987,0.8612748 F,0,529,551,0.8612748,0.5563967 F,0,551,573,0.5563967,1 F,0,573,617,1,0 F,0,617,639,0,1 F,0,639,661,1,0.4609813 F,0,661,683,0.4609813,1 F,0,683,727,1,0.5403636 F,0,727,750,0.5403636,1 F,0,750,794,1,0.5927274 F,0,794,838,0.5927274,1 F,0,838,882,1,0 F,0,882,904,0,1 F,0,904,948,1,0.205818 F,0,948,1014,0.205818,0.5918428 F,0,1014,1036,0.5918428,0 F,0,1036,1058,0,0.5835048 F,0,1058,1102,0.5835048,0.1888052 F,0,1102,1147,0.1888052,1 F,0,1147,4588,1 F,0,4588,4610,1,0.5043756 F,0,4610,4632,0.5043756,0 F,0,4632,4654,0,1 F,0,4654,4698,1,0.4065454 F,0,4698,4875,0.4065454,1 F,0,4875,4963,1,0.1941817 F,0,4963,5095,0.1941817,0.8473198 F,0,5095,5161,0.8473198,0.4306162 F,0,5161,5227,0.4306162,1 F,0,5227,5360,1,0 F,0,5360,5404,0,0.2986687 F,0,5404,5470,0.2986687,0 F,0,5470,5492,0,1 F,0,5492,5536,1,0.1447272 F,0,5536,5602,0.1447272,1 F,0,5602,5625,1,0 F,0,5625,5647,0,1 F,0,5647,5669,1,0.05163635 F,0,5669,5691,0.05163635,0.4838441 F,0,5691,5713,0.4838441,0 F,0,5713,5735,0,1 F,0,5735,5757,1,0.3367273 F,0,5757,5801,0.3367273,0 F,0,5801,5823,0,1 F,0,5823,5845,1,0 F,0,5845,5867,0,1 F,0,5867,5889,1,0.2033138 F,0,5889,5911,0.2033138,1 F,0,5911,5933,1,0 F,0,5933,5955,0,0.2530909 F,0,5955,5977,0.2530909,0 F,0,5977,6000,0
Sprite,Foreground,Centre,"Alt_SB\GD.png",320,240 M,0,11647,,93,240 S,0,11647,,1 F,0,20117,20382,1 M,2,20117,20470,93,240,-434,240 F,0,20382,20470,1,0
Sprite,Foreground,Centre,"Alt_SB\GDer.png",320,240 F,0,11647,,1 M,0,11647,12794,521,46 M,2,12794,13058,521,46,521,124 M,0,13058,13147,521,124 M,0,13147,14205,521,124 M,2,14205,14470,521,124,521,203 M,0,14470,14558,521,203 M,0,14558,15617,521,203 M,2,15617,15882,521,203,521,285 M,0,15882,15970,521,285 M,0,15970,17029,521,285 M,2,17029,17294,521,285,521,366 M,0,17294,17382,521,366 M,0,17382,18441,521,366 M,2,18441,18705,521,366,521,452 M,0,18705,18794,521,452 M,0,18794,20117,521,452 F,0,20117,20382,1 M,0,20117,20470,521,452,1036,452 F,0,20382,20470,1,0
Sprite,Foreground,Centre,"Bar.png",320,240 F,0,21882,,1 M,0,21882,21904,320,217,313,306 M,0,21904,21926,313,306,289,210 M,0,21926,21948,289,210,287,245 M,0,21948,21970,287,245,285,185 M,0,21970,21992,285,185,283,234 M,0,21992,22036,283,234,261,92 M,0,22036,22058,261,92,271,145 M,0,22058,22080,271,145,279,100 M,0,22080,22102,279,100,275,132 M,0,22102,22125,275,132,278,76 M,0,22125,22169,278,76,281,337 M,0,22169,22191,281,337,279,278 M,0,22191,22213,279,278,279,244 M,0,22213,22235,279,244,277,305
Sprite,Foreground,Centre,"Alt_SB\Badapple.png",320,240 M,0,22235,,320,240 F,0,22235,22279,0,1 S,0,22235,22588,5,0.3483634 F,0,22279,22588,1 F,0,22588,32823,1 R,0,22588,41294,0,6.283637 F,0,32823,33882,1,0.6654546 F,0,33882,34235,0.6654546,1 F,0,34235,41294,1 F,0,41294,41338,1,0.6625454 R,2,41294,44470,6.283637,50 F,0,41338,41382,0.6625454,1 F,0,41382,41426,1,0.7847273 F,0,41426,41470,0.7847273,1 F,0,41470,41514,1,0.6625454 F,0,41514,41558,0.6625454,1 F,0,41558,41602,1,0.6625454 F,0,41602,41647,0.6625454,1 F,0,41647,41691,1,0.7149091 F,0,41691,41735,0.7149091,1 F,0,41735,41779,1,0.7265454 F,0,41779,41823,0.7265454,1 F,0,41823,41867,1,0.7149091 F,0,41867,41911,0.7149091,1 F,0,41911,41955,1,0.6654546 F,0,41955,42000,0.6654546,1 F,0,42000,42044,1,0.5927272 F,0,42044,42088,0.5927272,1 F,0,42088,42132,1,0.4298183 F,0,42132,42176,0.4298183,1 F,0,42176,42220,1,0.6450909 F,0,42220,42264,0.6450909,1 F,0,42264,42308,1,0.5403636 F,0,42308,42352,0.5403636,1 F,0,42352,42397,1,0.7236363 F,0,42397,42441,0.7236363,1 F,0,42441,42485,1,0.6741818 F,0,42485,42529,0.6741818,1 F,0,42529,42573,1,0.6741818 F,0,42573,42617,0.6741818,1 F,0,42617,42661,1,0.426909 F,0,42661,42705,0.426909,1 F,0,42705,42750,1,0.3978181 F,0,42750,42794,0.3978181,1 F,0,42794,42838,1,0.6247272 F,0,42838,42882,0.6247272,1 F,0,42882,42926,1,0.6130908 F,0,42926,42970,0.6130908,1 F,0,42970,43014,1,0.5287273 F,0,43014,43058,0.5287273,1 F,0,43058,43102,1,0.2378182 F,0,43102,43147,0.2378182,1 F,0,43147,43191,1,0 F,0,43191,43235,0,1 F,0,43235,43279,1,0 F,0,43279,43323,0,1 F,0,43323,43367,1,0 F,0,43367,43411,0,1 F,0,43411,43455,1,0 F,0,43455,43500,0,1 F,0,43500,43544,1,0 F,0,43544,43588,0,1 F,0,43588,43632,1,0 F,0,43632,43676,0,1 F,0,43676,43720,1,0 F,0,43720,43764,0,1 F,0,43764,43808,1,0 F,0,43808,43852,0,1 F,0,43852,43897,1,0 F,0,43897,43941,0,1 F,0,43941,43985,1,0 F,0,43985,44029,0,1 F,0,44029,44073,1,0 F,0,44073,44117,0,1 F,1,44117,44205,1,0 S,1,44117,44470,0.3483634,1.203636 F,0,44205,44470,0
Sprite,Foreground,Centre,"Alt_SB\Badapple.png",320,240 F,0,22588,25764,1,0 S,1,22588,25764,0.348364,0.5752732
//Storyboard Sound Samples

[TimingPoints]
353,352.941176470588,4,1,0,35,1,0
21882,-133.333333333333,4,1,0,35,0,0
22235,-100,4,1,0,35,0,0
22941,-100,4,2,0,35,0,0
45529,-100,4,1,0,45,0,1
66705,-100,4,1,0,45,0,0
90705,-100,4,2,0,45,0,0
91411,-111.111111111111,4,2,0,45,0,0
92117,-100,4,2,0,45,0,0
92823,-111.111111111111,4,2,0,45,0,0
93529,-100,4,2,0,45,0,0
94235,-111.111111111111,4,2,0,45,0,0
94764,-100,4,2,0,45,0,0
95647,-111.111111111111,4,2,0,45,0,0
96176,-100,4,2,0,45,0,0
97058,-111.111111111111,4,2,0,45,0,0
97588,-100,4,2,0,45,0,0
98470,-111.111111111111,4,2,0,45,0,0
99000,-100,4,2,0,45,0,0
99882,-111.111111111111,4,2,0,45,0,0
100411,-100,4,2,0,45,0,0
102000,-100,4,1,0,45,0,0
111970,-100,4,2,0,45,0,0
113294,-100,4,1,0,40,0,1
113382,-100,4,1,0,40,0,0
134470,-100,4,1,0,30,0,0
135882,-100,4,1,0,45,0,1
157058,-100,4,1,0,35,0,0
158470,-100,4,1,0,45,0,0
203647,-100,4,2,0,35,0,0
204352,-125,4,2,0,35,0,0
214941,-100,4,1,0,35,0,0
224911,-100,4,2,0,35,0,0
225529,-133.333333333333,4,1,0,35,0,0
226235,-100,4,1,0,45,0,1
237529,-100,4,1,0,40,0,1
240352,-100,4,1,0,35,0,1
243176,-100,4,1,0,30,0,1
246000,-100,4,1,0,25,0,1
247411,-133.333333333333,4,1,0,45,0,1
247588,-133.333333333333,4,1,0,25,0,1
248029,-133.333333333333,4,1,0,55,0,1
248205,-133.333333333333,4,1,0,25,0,1
248382,-133.333333333333,4,1,0,55,0,1
248558,-133.333333333333,4,1,0,25,0,1
248823,-100,4,1,0,45,0,0
250235,-100,4,1,0,40,0,0
251647,-100,4,1,0,35,0,0
253058,-100,4,1,0,30,0,0
254470,-100,4,1,0,25,0,0
255882,-100,4,1,0,20,0,0
256588,-100,4,2,0,5,0,0

[Colours]
Combo1 : 193,239,171
Combo2 : 253,244,89
Combo3 : 191,215,209
Combo4 : 250,154,169

[HitObjects]
256,92,10058,5,0,0:0:0:0:
256,92,10147,1,0,0:0:0:0:
256,92,10235,1,8,0:0:0:0:
256,264,10588,2,0,P|308:272|380:216,1,127.500000447035,8|0,0:0|0:0,0:0:0:0:
396,204,10941,2,0,L|396:100,1,85.000000298023,8|0,0:0|0:0,0:0:0:0:
480,204,11294,2,0,L|480:296,1,85.000000298023,8|0,0:0|0:0,0:0:0:0:
400,320,11647,1,4,0:0:0:0:
308,88,12000,5,8,1:0:0:0:
372,244,12352,1,8,1:0:0:0:
204,220,12705,1,8,1:0:0:0:
364,160,13058,1,8,1:0:0:0:
272,304,13411,1,8,1:0:0:0:
200,148,13764,1,8,1:0:0:0:
340,244,14117,1,8,1:0:0:0:
172,236,14470,6,0,P|116:184|140:80,1,170.000000596046,8|8,1:0|1:0,0:0:0:0:
296,92,15176,1,8,1:0:0:0:
340,244,15529,1,8,1:0:0:0:
196,152,15882,2,0,P|108:176|92:260,1,170.000000596046,0|0,0:0|0:0,0:0:0:0:
340,244,16588,2,0,P|428:220|444:136,1,170.000000596046,0|0,0:0|0:0,0:0:0:0:
320,40,17294,5,8,1:0:0:0:
160,96,17647,1,8,1:0:0:0:
236,248,18000,1,8,1:0:0:0:
396,192,18353,1,8,1:0:0:0:
272,76,18705,1,8,1:0:0:0:
272,248,19058,1,8,1:0:0:0:
124,164,19411,1,8,1:0:0:0:
296,164,19764,1,8,1:0:0:0:
448,240,20117,6,0,P|468:288|376:352,1,170.000000596046,8|8,1:0|1:0,0:0:0:0:
256,252,20823,2,0,B|176:280|176:236|84:248,1,170.000000596046,8|8,1:0|1:0,0:0:0:0:
88,247,21529,1,12,1:0:0:0:
36,88,21882,2,0,L|156:72,1,95.6250039830803,2|2,0:0|0:0,0:0:0:0:
172,92,22235,2,0,B|256:80|260:112|340:96,1,170.000000596046,4|4,0:0|1:0,0:0:0:0:
404,252,22941,6,0,P|440:292|492:296,2,85.000000298023,0|0|0,0:0|0:0|0:0,0:0:0:0:
400,168,23470,1,0,0:0:0:0:
344,104,23647,2,0,P|296:72|172:96,1,170.000000596046,2|0,0:0|0:0,0:0:0:0:
216,164,24176,2,0,P|156:208|156:312,1,170.000000596046,2|0,0:0|0:0,0:0:0:0:
232,288,24705,2,0,P|264:332|376:320,1,170.000000596046,2|0,0:0|0:0,0:0:0:0:
370,325,25235,5,2,0:0:0:0:
296,172,25588,1,2,0:0:0:0:
464,196,25941,1,2,0:0:0:0:
464,196,26294,1,2,0:0:0:0:
370,325,26647,1,2,0:0:0:0:
160,100,28588,6,0,P|200:64|248:72,1,85.000000298023,0|0,0:0|0:0,0:0:0:0:
292,120,28941,1,0,0:0:0:0:
376,120,29117,1,0,0:0:0:0:
456,152,29294,2,0,P|480:212|424:296,1,170.000000596046,2|0,0:0|0:0,0:0:0:0:
360,348,29823,2,0,P|328:316|352:204,1,170.000000596046,2|0,0:0|0:0,0:0:0:0:
376,120,30352,2,0,P|432:160|420:252,1,170.000000596046,2|0,0:0|0:0,0:0:0:0:
336,260,30882,6,0,B|252:240|256:304|172:264,1,170.000000596046,2|2,0:0|0:0,0:0:0:0:
28,172,31588,1,2,0:0:0:0:
188,116,31941,1,2,0:0:0:0:
124,272,32294,1,2,0:0:0:0:
88,80,32647,1,2,0:0:0:0:
256,192,32823,12,0,33882,0:0:0:0:
296,120,34235,6,0,P|348:120|388:140,2,85.000000298023,0|0|0,0:0|0:0|0:0,0:0:0:0:
232,176,34764,1,0,0:0:0:0:
152,204,34941,2,0,P|84:212|16:144,1,170.000000596046,2|0,0:0|0:0,0:0:0:0:
84,36,35470,2,0,P|152:28|220:96,1,170.000000596046,2|0,0:0|0:0,0:0:0:0:
232,176,36000,2,0,P|276:240|364:236,1,170.000000596046,2|0,0:0|0:0,0:0:0:0:
316,164,36529,5,2,0:0:0:0:
184,272,36882,1,2,0:0:0:0:
348,320,37235,1,2,0:0:0:0:
316,164,37588,1,2,0:0:0:0:
184,272,37941,1,2,0:0:0:0:
312,144,39882,5,0,0:0:0:0:
336,224,40058,1,0,0:0:0:0:
396,164,40235,1,0,0:0:0:0:
372,84,40411,1,0,0:0:0:0:
456,100,40588,2,0,P|484:172|416:248,1,170.000000596046,2|0,0:0|0:0,0:0:0:0:
336,224,41117,2,0,P|264:212|168:256,1,170.000000596046,2|0,0:0|0:0,0:0:0:0:
112,304,41647,2,0,P|40:304|0:204,1,170.000000596046,2|0,0:0|0:0,0:0:0:0:
24,144,42176,5,2,0:0:0:0:
188,180,42529,1,2,0:0:0:0:
256,192,42705,12,4,44117,1:0:0:0:
172,160,44823,6,0,L|288:124,1,85.000000298023,4|0,2:0|0:0,0:0:0:0:
296,136,45088,1,0,0:0:0:0:
336,152,45176,2,0,P|404:172|484:128,1,127.500000447035,4|0,1:0|0:0,0:0:0:0:
492,176,45529,6,0,L|496:280,1,85.000000298023,4|0,1:0|0:0,0:0:0:0:
416,344,45882,2,0,L|416:252,1,85.000000298023,0|0,0:0|0:0,0:0:0:0:
332,236,46235,2,0,P|276:224|236:260,1,85.000000298023,8|0,0:0|0:0,0:0:0:0:
290,308,46588,2,0,P|251:322|212:308,1,85.000000298023,0|8,0:0|0:0,0:0:0:0:
128,300,46941,6,0,L|24:332,1,85.000000298023,0|0,0:0|0:0,0:0:0:0:
104,216,47294,2,0,L|12:232,1,85.000000298023,8|0,0:0|0:0,0:0:0:0:
112,128,47647,2,0,L|12:108,1,85.000000298023,0|8,0:0|0:0,0:0:0:0:
88,40,48000,1,0,0:0:0:0:
172,60,48176,1,8,0:0:0:0:
196,140,48352,6,0,P|240:168|284:152,1,85.000000298023,8|8,0:0|0:0,0:0:0:0:
308,88,48705,2,0,P|348:124|352:176,1,85.000000298023,0|8,0:0|0:0,0:0:0:0:
340,304,49058,2,0,L|316:216,1,85.000000298023,8|8,0:0|0:0,0:0:0:0:
240,256,49411,2,0,L|156:320,1,85.000000298023,0|8,0:0|0:0,0:0:0:0:
92,336,49764,5,8,0:0:0:0:
20,288,49941,1,8,0:0:0:0:
92,244,50117,1,0,0:0:0:0:
144,312,50294,1,8,0:0:0:0:
60,324,50470,1,8,0:0:0:0:
92,244,50647,1,8,0:0:0:0:
176,236,50823,2,0,P|228:216|240:168,1,85.000000298023,8|8,0:0|0:0,0:0:0:0:
228,88,51176,6,0,P|276:64|332:80,2,85.000000298023,8|0|0,0:0|0:0|0:0,0:0:0:0:
168,148,51705,1,0,0:0:0:0:
88,176,51882,2,0,P|16:176|-4:156,1,85.000000298023,8|0,0:0|0:0,0:0:0:0:
88,176,52235,1,0,0:0:0:0:
148,232,52411,6,0,P|164:280|144:328,1,85.000000298023,8|0,0:0|0:0,0:0:0:0:
148,232,52764,1,0,0:0:0:0:
228,204,52941,2,0,P|280:208|320:248,1,85.000000298023,8|0,0:0|0:0,0:0:0:0:
364,288,53294,1,0,0:0:0:0:
416,352,53470,2,0,P|460:336|484:284,1,85.000000298023,8|0,0:0|0:0,0:0:0:0:
432,236,53823,6,0,L|432:144,1,85.000000298023,8|8,0:0|0:0,0:0:0:0:
360,104,54176,2,0,L|360:192,1,85.000000298023,8|0,0:0|0:0,0:0:0:0:
288,236,54529,1,8,0:0:0:0:
232,300,54705,1,8,0:0:0:0:
152,268,54882,1,8,0:0:0:0:
164,184,55058,1,0,0:0:0:0:
244,160,55235,1,8,0:0:0:0:
328,156,55411,6,0,L|440:156,1,85.000000298023,8|8,0:0|0:0,0:0:0:0:
464,88,55764,2,0,L|464:-4,1,85.000000298023,0|8,0:0|0:0,0:0:0:0:
464,172,56117,2,0,L|464:276,1,85.000000298023,8|8,0:0|0:0,0:0:0:0:
404,316,56470,2,0,L|312:316,1,85.000000298023,8|8,0:0|0:0,0:0:0:0:
212,264,56823,6,0,P|180:232|180:176,2,85.000000298023,12|0|0,0:0|0:0|0:0,0:0:0:0:
284,308,57352,1,0,0:0:0:0:
212,352,57529,2,0,B|152:344|152:360|100:340,1,85.000000298023,8|0,0:0|0:0,0:0:0:0:
56,304,57882,1,0,0:0:0:0:
128,204,58058,6,0,B|152:152|128:136|168:108,1,85.000000298023,8|0,0:0|0:0,0:0:0:0:
44,220,58411,1,0,0:0:0:0:
8,120,58588,2,0,B|44:88|24:80|68:52,1,85.000000298023,8|0,0:0|0:0,0:0:0:0:
104,124,58941,1,0,0:0:0:0:
172,48,59117,2,0,L|272:48,1,85.000000298023,8|0,0:0|0:0,0:0:0:0:
392,120,59470,2,0,L|280:120,1,85.000000298023,8|8,0:0|0:0,0:0:0:0:
232,252,59823,6,0,L|232:160,1,85.000000298023,8|0,0:0|0:0,0:0:0:0:
316,252,60176,2,0,L|316:344,1,85.000000298023,8|8,0:0|0:0,0:0:0:0:
400,356,60529,1,8,0:0:0:0:
408,224,60705,1,0,0:0:0:0:
480,268,60882,1,8,0:0:0:0:
460,136,61058,5,8,0:0:0:0:
376,148,61235,1,8,0:0:0:0:
324,216,61411,2,0,P|248:232|216:216,1,85.000000298023,0|8,0:0|0:0,0:0:0:0:
200,156,61764,2,0,P|164:196|164:240,1,85.000000298023,8|8,0:0|0:0,0:0:0:0:
196,320,62117,1,8,0:0:0:0:
196,320,62294,1,8,0:0:0:0:
116,352,62470,6,0,P|52:348|32:320,2,85.000000298023,8|0|0,0:0|0:0|0:0,0:0:0:0:
196,320,63000,1,0,0:0:0:0:
276,348,63176,2,0,P|336:348|384:344,2,85.000000298023,8|0|0,0:0|0:0|0:0,0:0:0:0:
240,236,63705,2,0,P|180:236|132:240,2,85.000000298023,8|0|0,0:0|0:0|0:0,0:0:0:0:
388,256,64235,2,0,P|448:256|496:252,2,85.000000298023,8|0|0,0:0|0:0|0:0,0:0:0:0:
276,144,64764,1,8,0:0:0:0:
276,144,64941,1,0,0:0:0:0:
408,172,65117,1,8,0:0:0:0:
408,172,65294,1,8,0:0:0:0:
360,56,65470,6,0,L|272:40,1,85.000000298023,0|8,0:0|0:0,0:0:0:0:
160,124,65823,2,0,L|208:32,1,85.000000298023,8|8,0:0|0:0,0:0:0:0:
256,112,66176,1,8,0:0:0:0:
276,196,66352,2,0,L|328:208,4,42.5000001490115,8|8|8|8|4,0:0|0:0|0:0|0:0|1:0,0:0:0:0:
8,100,67411,5,4,2:0:0:0:
36,140,67764,1,4,2:0:0:0:
64,180,68117,6,0,P|108:208|152:200,1,85.000000298023,8|0,0:0|0:0,0:0:0:0:
220,144,68470,2,0,P|244:200|236:232,1,85.000000298023,8|0,0:0|0:0,0:0:0:0:
268,348,68823,2,0,P|324:308|336:276,1,85.000000298023,8|0,0:0|0:0,0:0:0:0:
344,144,69176,1,8,0:0:0:0:
424,172,69352,1,0,0:0:0:0:
448,252,69529,2,0,P|440:300|400:344,1,85.000000298023,8|0,0:0|0:0,0:0:0:0:
268,348,69882,2,0,P|276:300|316:256,1,85.000000298023,8|0,0:0|0:0,0:0:0:0:
408,88,70235,5,8,0:0:0:0:
344,144,70411,1,0,0:0:0:0:
360,228,70588,1,8,0:0:0:0:
424,172,70764,1,8,0:0:0:0:
332,60,70941,6,0,L|236:60,1,85.000000298023,8|8,0:0|0:0,0:0:0:0:
104,152,71294,2,0,L|220:152,1,85.000000298023,8|8,0:0|0:0,0:0:0:0:
276,276,71647,2,0,P|336:276|408:184,1,170.000000596046,8|8,0:0|0:0,0:0:0:0:
384,116,72176,1,0,0:0:0:0:
240,156,72352,2,0,L|240:60,1,85.000000298023,8|8,0:0|0:0,0:0:0:0:
240,156,72705,2,0,L|240:264,1,85.000000298023,8|8,0:0|0:0,0:0:0:0:
316,156,73058,6,0,L|412:156,1,85.000000298023,8|8,0:0|0:0,0:0:0:0:
168,156,73411,2,0,L|83:156,1,85.000000298023,8|8,0:0|0:0,0:0:0:0:
48,280,73764,6,0,P|80:316|128:320,1,85.000000298023,8|0,0:0|0:0,0:0:0:0:
192,284,74117,1,8,0:0:0:0:
268,324,74294,1,8,0:0:0:0:
352,312,74470,2,0,P|412:280|440:176,1,170.000000596046,8|8,0:0|0:0,0:0:0:0:
400,112,75000,1,0,0:0:0:0:
284,160,75176,2,0,P|216:172|184:148,1,85.000000298023,8|0,0:0|0:0,0:0:0:0:
120,56,75529,2,0,P|188:44|220:68,1,85.000000298023,8|0,0:0|0:0,0:0:0:0:
320,84,75882,5,8,0:0:0:0:
364,156,76058,1,0,0:0:0:0:
448,168,76235,1,8,0:0:0:0:
492,96,76411,1,0,0:0:0:0:
408,84,76588,6,0,L|384:184,1,85.000000298023,8|8,0:0|0:0,0:0:0:0:
304,288,76941,2,0,L|320:192,1,85.000000298023,8|8,0:0|0:0,0:0:0:0:
320,84,77294,1,8,0:0:0:0:
320,84,77470,1,0,0:0:0:0:
208,136,77647,2,0,P|152:144|108:132,1,85.000000298023,8|0,0:0|0:0,0:0:0:0:
16,40,78000,5,8,0:0:0:0:
64,240,78352,1,8,0:0:0:0:
228,88,78705,1,8,0:0:0:0:
4,152,79058,1,8,0:0:0:0:
172,184,79411,6,0,P|236:200|260:232,1,85.000000298023,12|0,0:0|0:0,0:0:0:0:
280,312,79764,2,0,P|314:336|356:339,1,85.000000298023,8|0,0:0|0:0,0:0:0:0:
432,184,80117,1,8,0:0:0:0:
476,260,80294,1,0,0:0:0:0:
352,356,80470,2,0,P|312:316|300:272,1,85.000000298023,8|0,0:0|0:0,0:0:0:0:
296,128,80823,2,0,L|300:80|296:40,1,85.000000298023,8|0,0:0|0:0,0:0:0:0:
188,132,81176,2,0,L|184:180|188:220,1,85.000000298023,8|0,0:0|0:0,0:0:0:0:
344,288,81529,5,8,0:0:0:0:
428,288,81705,1,0,0:0:0:0:
428,204,81882,1,8,0:0:0:0:
344,204,82058,1,8,0:0:0:0:
264,232,82235,6,0,P|212:236|168:228,1,85.000000298023,8|8,0:0|0:0,0:0:0:0:
0,216,82588,2,0,P|52:212|96:220,1,85.000000298023,8|8,0:0|0:0,0:0:0:0:
124,368,82941,2,0,L|124:276,1,85.000000298023,8|0,0:0|0:0,0:0:0:0:
128,120,83294,1,8,0:0:0:0:
224,104,83470,1,0,0:0:0:0:
384,152,83647,5,8,0:0:0:0:
288,180,83823,1,0,0:0:0:0:
196,280,84000,2,0,L|140:192,1,85.000000298023,8|0,0:0|0:0,0:0:0:0:
80,48,84352,2,0,L|136:132,1,85.000000298023,8|0,0:0|0:0,0:0:0:0:
236,96,84705,2,0,L|308:40,1,85.000000298023,8|8,0:0|0:0,0:0:0:0:
456,84,85058,5,8,0:0:0:0:
480,164,85235,1,8,0:0:0:0:
448,244,85411,1,8,0:0:0:0:
376,288,85588,1,8,0:0:0:0:
292,276,85764,2,0,P|224:248|120:280,1,170.000000596046,8|8,0:0|0:0,0:0:0:0:
136,356,86294,1,0,0:0:0:0:
216,328,86470,2,0,P|224:232|168:176,1,170.000000596046,8|8,0:0|0:0,0:0:0:0:
92,184,87000,1,0,0:0:0:0:
16,148,87176,6,0,P|4:92|20:52,1,85.000000298023,8|0,0:0|0:0,0:0:0:0:
96,52,87529,2,0,P|144:64|192:40,1,85.000000298023,8|0,0:0|0:0,0:0:0:0:
260,32,87882,1,8,0:0:0:0:
344,44,88058,1,8,0:0:0:0:
384,120,88235,1,8,0:0:0:0:
300,120,88411,1,8,0:0:0:0:
340,196,88588,6,0,L|344:296,1,85.000000298023,8|8,0:0|0:0,0:0:0:0:
428,340,88941,2,0,L|428:248,1,85.000000298023,8|8,0:0|0:0,0:0:0:0:
384,120,89294,1,8,0:0:0:0:
280,328,89647,1,8,0:0:0:0:
204,120,90000,1,8,0:0:0:0:
140,328,90352,1,8,0:0:0:0:
32,156,90705,6,0,L|132:152,1,85.000000298023,12|0,1:0|0:0,0:0:0:0:
184,204,91058,2,0,L|288:172,1,85.000000298023,0|0,0:0|0:0,0:0:0:0:
340,220,91411,2,0,P|408:192|424:100,1,152.999995867252,8|0,1:0|0:0,0:0:0:0:
384,48,91941,1,0,0:0:0:0:
308,84,92117,6,0,L|240:160,1,85.000000298023,8|0,1:0|0:0,0:0:0:0:
188,92,92470,2,0,L|88:104,1,85.000000298023,0|0,0:0|0:0,0:0:0:0:
28,60,92823,2,0,P|-4:128|24:216,1,152.999995867252,8|0,1:0|0:0,0:0:0:0:
92,232,93352,1,0,0:0:0:0:
156,336,93529,6,0,P|224:296|228:272,1,85.000000298023,8|0,1:0|0:0,0:0:0:0:
260,220,93882,2,0,P|312:216|364:248,1,85.000000298023,0|0,0:0|0:0,0:0:0:0:
384,304,94235,2,0,P|452:280|472:184,1,152.999995867252,8|0,1:0|0:0,0:0:0:0:
416,128,94764,1,0,0:0:0:0:
280,128,94941,6,0,P|220:132|188:152,1,85.000000298023,8|0,1:0|0:0,0:0:0:0:
144,80,95294,2,0,P|88:84|56:64,1,85.000000298023,0|0,0:0|0:0,0:0:0:0:
12,140,95647,2,0,P|0:228|16:308,1,152.999995867252,8|0,1:0|0:0,0:0:0:0:
88,344,96176,1,0,0:0:0:0:
172,260,96352,6,0,L|264:240,1,85.000000298023,8|0,1:0|0:0,0:0:0:0:
364,332,96705,2,0,L|272:320,1,85.000000298023,0|0,0:0|0:0,0:0:0:0:
196,344,97058,2,0,P|120:336|92:240,1,152.999995867252,8|0,1:0|0:0,0:0:0:0:
108,176,97588,1,0,0:0:0:0:
176,84,97764,6,0,L|224:164,1,85.000000298023,8|0,1:0|0:0,0:0:0:0:
316,240,98117,2,0,L|300:136,1,85.000000298023,0|0,0:0|0:0,0:0:0:0:
288,72,98470,2,0,P|356:52|456:76,1,152.999995867252,8|0,1:0|0:0,0:0:0:0:
492,144,99000,1,0,0:0:0:0:
412,240,99176,6,0,P|396:296|352:320,1,85.000000298023,8|0,1:0|0:0,0:0:0:0:
256,312,99529,2,0,P|227:281|220:240,1,85.000000298023,0|0,0:0|0:0,0:0:0:0:
252,160,99882,2,0,P|196:100|96:112,1,152.999995867252,8|0,1:0|0:0,0:0:0:0:
56,104,100411,1,0,0:0:0:0:
8,268,100588,6,0,L|28:360,1,85.000000298023,8|0,1:0|0:0,0:0:0:0:
164,352,100941,1,0,0:0:0:0:
236,268,101117,1,0,0:0:0:0:
128,248,101294,1,8,1:0:0:0:
56,92,101647,1,0,1:0:0:0:
152,36,101823,1,0,1:0:0:0:
156,144,102000,6,0,P|216:160|260:140,1,85.000000298023,12|0,1:0|0:0,0:0:0:0:
284,48,102352,2,0,P|325:42|364:58,1,85.000000298023,8|8,0:0|0:0,0:0:0:0:
424,120,102705,2,0,B|488:184|420:228|504:284,1,170.000000596046,0|8,0:0|0:0,0:0:0:0:
420,324,103235,1,0,0:0:0:0:
344,204,103411,6,0,P|288:152|248:152,1,85.000000298023,8|0,0:0|0:0,0:0:0:0:
160,208,103764,2,0,P|183:242|221:261,1,85.000000298023,8|8,0:0|0:0,0:0:0:0:
304,280,104117,2,0,P|260:340|168:332,1,170.000000596046,0|8,0:0|0:0,0:0:0:0:
96,292,104647,1,0,0:0:0:0:
12,184,104823,6,0,L|16:80,1,85.000000298023,8|0,0:0|0:0,0:0:0:0:
104,36,105176,1,8,0:0:0:0:
104,36,105352,1,8,0:0:0:0:
192,104,105529,2,0,P|256:120|368:100,1,170.000000596046,0|8,0:0|0:0,0:0:0:0:
420,44,106058,1,8,0:0:0:0:
300,52,106235,6,0,L|300:160,1,85.000000298023,8|0,0:0|0:0,0:0:0:0:
232,272,106588,2,0,L|236:172,1,85.000000298023,8|0,0:0|0:0,0:0:0:0:
192,104,106941,2,0,P|112:88|48:152,1,170.000000596046,8|8,0:0|0:0,0:0:0:0:
52,228,107470,1,8,0:0:0:0:
112,324,107647,6,0,B|156:312|156:336|208:316,1,85.000000298023,8|0,0:0|0:0,0:0:0:0:
244,240,108000,2,0,B|288:228|288:252|340:232,1,85.000000298023,8|8,0:0|0:0,0:0:0:0:
392,152,108352,1,0,0:0:0:0:
444,84,108529,1,8,0:0:0:0:
360,64,108705,2,0,P|292:40|240:48,1,85.000000298023,8|0,0:0|0:0,0:0:0:0:
212,120,109058,6,0,P|156:124|124:108,1,85.000000298023,8|0,0:0|0:0,0:0:0:0:
64,40,109411,2,0,P|32:104|40:140,1,85.000000298023,8|8,0:0|0:0,0:0:0:0:
80,236,109764,1,0,0:0:0:0:
80,236,109941,1,8,0:0:0:0:
188,336,110117,1,8,0:0:0:0:
220,256,110294,1,0,0:0:0:0:
312,344,110470,6,0,L|400:340,1,85.000000298023,8|0,1:0|0:0,0:0:0:0:
508,256,110823,2,0,L|416:256,1,85.000000298023,8|0,1:0|0:0,0:0:0:0:
352,184,111176,1,8,1:0:0:0:
256,128,111352,1,0,0:0:0:0:
248,240,111529,1,8,1:0:0:0:
352,184,111705,1,0,0:0:0:0:
256,192,111882,12,0,112941,0:0:0:0:
376,144,113294,6,0,P|392:192|368:232,1,85.000000298023,8|0,0:0|0:0,0:0:0:0:
300,188,113647,1,8,0:0:0:0:
228,144,113823,1,8,0:0:0:0:
152,180,114000,2,0,P|100:252|148:328,1,170.000000596046,0|8,0:0|0:0,0:0:0:0:
188,256,114529,1,8,0:0:0:0:
228,144,114705,6,0,L|232:48,1,85.000000298023,8|0,0:0|0:0,0:0:0:0:
316,44,115058,1,8,0:0:0:0:
368,112,115235,1,8,0:0:0:0:
404,36,115411,2,0,P|452:24|528:108,1,170.000000596046,0|8,0:0|0:0,0:0:0:0:
476,168,115941,1,8,0:0:0:0:
496,272,116117,6,0,L|460:352,1,85.000000298023,8|0,0:0|0:0,0:0:0:0:
376,340,116470,2,0,L|420:232,1,85.000000298023,8|8,0:0|0:0,0:0:0:0:
360,160,116823,2,0,P|312:116|184:108,1,170.000000596046,0|8,0:0|0:0,0:0:0:0:
140,148,117352,1,0,0:0:0:0:
40,280,117529,5,8,0:0:0:0:
100,340,117705,1,0,0:0:0:0:
188,248,117882,1,8,0:0:0:0:
232,320,118058,1,0,0:0:0:0:
332,348,118235,2,0,P|408:312|416:208,1,170.000000596046,8|8,0:0|0:0,0:0:0:0:
380,160,118764,1,8,0:0:0:0:
276,84,118941,6,0,L|176:100,1,85.000000298023,8|0,0:0|0:0,0:0:0:0:
72,136,119294,2,0,L|176:180,1,85.000000298023,8|8,0:0|0:0,0:0:0:0:
236,168,119647,2,0,P|288:180|352:288,1,170.000000596046,0|8,0:0|0:0,0:0:0:0:
296,336,120176,1,8,0:0:0:0:
208,280,120352,6,0,L|204:168,1,85.000000298023,8|0,0:0|0:0,0:0:0:0:
128,156,120705,2,0,L|108:60,1,85.000000298023,8|8,0:0|0:0,0:0:0:0:
32,40,121058,2,0,P|0:108|36:208,1,170.000000596046,0|8,0:0|0:0,0:0:0:0:
104,268,121588,1,8,0:0:0:0:
148,360,121764,5,8,0:0:0:0:
208,280,121941,1,8,0:0:0:0:
300,340,122117,2,0,L|408:332,1,85.000000298023,8|8,0:0|0:0,0:0:0:0:
452,272,122470,2,0,B|484:228|472:176|472:176|432:148|440:108,1,170.000000596046,0|8,0:0|0:0,0:0:0:0:
464,40,123000,1,0,0:0:0:0:
344,56,123176,6,0,P|284:64|240:56,1,85.000000298023,8|0,0:0|0:0,0:0:0:0:
112,112,123529,2,0,P|168:128|220:116,1,85.000000298023,8|0,0:0|0:0,0:0:0:0:
272,164,123882,2,0,P|312:224|284:320,1,170.000000596046,8|8,0:0|0:0,0:0:0:0:
216,244,124411,1,8,0:0:0:0:
92,216,124588,6,0,L|32:288,1,85.000000298023,12|0,0:0|0:0,0:0:0:0:
108,352,124941,2,0,L|172:280,1,85.000000298023,8|8,0:0|0:0,0:0:0:0:
312,244,125294,2,0,B|356:248|376:304|376:304|412:324|464:300,1,170.000000596046,8|8,0:0|0:0,0:0:0:0:
508,240,125823,1,0,0:0:0:0:
428,160,126000,6,0,P|412:100|432:64,1,85.000000298023,8|0,0:0|0:0,0:0:0:0:
500,28,126352,2,0,P|516:88|496:124,1,85.000000298023,8|0,0:0|0:0,0:0:0:0:
428,160,126705,2,0,B|344:152|316:168|236:152,1,170.000000596046,8|8,0:0|0:0,0:0:0:0:
184,112,127235,1,8,0:0:0:0:
64,144,127411,6,0,P|52:204|72:244,1,85.000000298023,8|0,0:0|0:0,0:0:0:0:
160,272,127764,2,0,P|172:212|152:172,1,85.000000298023,8|8,0:0|0:0,0:0:0:0:
64,144,128117,2,0,P|79:57|155:13,1,170.000000596046,0|8,0:0|0:0,0:0:0:0:
228,28,128647,1,0,0:0:0:0:
304,120,128823,5,8,0:0:0:0:
432,128,129000,1,0,0:0:0:0:
356,232,129176,1,8,0:0:0:0:
304,120,129352,1,0,0:0:0:0:
228,224,129529,2,0,L|196:320,1,85.000000298023,8|8,0:0|0:0,0:0:0:0:
72,304,129882,1,8,0:0:0:0:
72,304,130058,1,8,0:0:0:0:
16,200,130235,6,0,L|28:116,1,85.000000298023,8|0,0:0|0:0,0:0:0:0:
104,80,130588,2,0,L|192:24,1,85.000000298023,8|8,0:0|0:0,0:0:0:0:
260,80,130941,2,0,P|328:92|440:72,1,170.000000596046,0|8,0:0|0:0,0:0:0:0:
492,132,131470,1,0,0:0:0:0:
452,208,131647,6,0,P|428:260|448:304,1,85.000000298023,8|0,0:0|0:0,0:0:0:0:
372,344,132000,2,0,P|312:336|264:364,1,85.000000298023,8|0,0:0|0:0,0:0:0:0:
212,284,132352,2,0,P|224:204|320:156,1,170.000000596046,8|8,0:0|0:0,0:0:0:0:
412,136,132882,1,8,0:0:0:0:
336,40,133058,6,0,L|228:40,1,85.000000298023,8|0,0:0|0:0,0:0:0:0:
116,104,133411,2,0,L|228:104,1,85.000000298023,8|0,0:0|0:0,0:0:0:0:
256,168,133764,2,0,L|256:260,1,85.000000298023,8|0,0:0|0:0,0:0:0:0:
368,340,134117,1,8,0:0:0:0:
416,240,134294,1,0,0:0:0:0:
308,252,134470,6,0,L|200:272,1,85.000000298023,4|0,0:0|0:0,0:0:0:0:
132,328,134823,1,0,0:0:0:0:
24,300,135000,1,0,0:0:0:0:
20,188,135176,5,4,2:0:0:0:
336,304,135882,6,0,L|428:320,1,85.000000298023,12|0,0:0|0:0,0:0:0:0:
388,212,136235,2,0,L|476:152,1,85.000000298023,0|8,0:0|0:0,0:0:0:0:
380,84,136588,2,0,L|340:4,1,85.000000298023,8|0,0:0|0:0,0:0:0:0:
260,80,136941,2,0,L|156:64,1,85.000000298023,0|8,0:0|0:0,0:0:0:0:
100,148,137294,5,8,0:0:0:0:
140,252,137470,1,0,0:0:0:0:
224,184,137647,1,0,0:0:0:0:
264,288,137823,1,8,0:0:0:0:
356,228,138000,2,0,L|476:212,1,85.000000298023,8|8,0:0|0:0,0:0:0:0:
512,108,138352,2,0,L|436:120,1,85.000000298023,8|8,0:0|0:0,0:0:0:0:
272,40,138705,6,0,L|188:48,1,85.000000298023,8|0,0:0|0:0,0:0:0:0:
84,168,139058,2,0,L|172:128,1,85.000000298023,0|8,0:0|0:0,0:0:0:0:
328,168,139411,2,0,L|236:120,1,85.000000298023,8|0,0:0|0:0,0:0:0:0:
208,284,139764,2,0,L|208:188,1,85.000000298023,0|8,0:0|0:0,0:0:0:0:
84,168,140117,5,8,0:0:0:0:
16,256,140294,1,0,0:0:0:0:
64,356,140470,1,0,0:0:0:0:
176,356,140647,1,8,0:0:0:0:
216,252,140823,2,0,L|312:204,1,85.000000298023,8|8,0:0|0:0,0:0:0:0:
192,168,141176,2,0,L|196:72,1,85.000000298023,8|8,0:0|0:0,0:0:0:0:
344,32,141529,6,0,P|392:48|420:92,1,85.000000298023,8|0,0:0|0:0,0:0:0:0:
344,160,141882,2,0,P|380:208|432:216,1,85.000000298023,0|8,0:0|0:0,0:0:0:0:
464,308,142235,2,0,P|384:360|364:360,1,85.000000298023,8|0,0:0|0:0,0:0:0:0:
300,304,142588,1,0,0:0:0:0:
192,316,142764,1,8,0:0:0:0:
60,256,142941,6,0,P|64:208|100:176,1,85.000000298023,8|0,0:0|0:0,0:0:0:0:
200,184,143294,1,0,0:0:0:0:
148,84,143470,1,8,0:0:0:0:
260,88,143647,2,0,P|308:76|360:104,1,85.000000298023,8|8,0:0|0:0,0:0:0:0:
296,244,144000,2,0,L|300:156,1,85.000000298023,8|8,0:0|0:0,0:0:0:0:
412,156,144352,6,0,L|416:244,1,85.000000298023,8|0,0:0|0:0,0:0:0:0:
356,360,144705,2,0,P|280:360|240:344,1,85.000000298023,0|8,0:0|0:0,0:0:0:0:
192,280,145058,2,0,P|144:264|104:272,1,85.000000298023,8|0,0:0|0:0,0:0:0:0:
32,348,145411,2,0,P|0:292|8:248,1,85.000000298023,0|8,0:0|0:0,0:0:0:0:
52,132,145764,5,8,0:0:0:0:
144,72,145941,1,0,0:0:0:0:
152,180,146117,1,0,0:0:0:0:
76,72,146294,1,8,0:0:0:0:
172,128,146470,2,0,L|268:120,1,85.000000298023,8|8,1:0|0:0,0:0:0:0:
92,188,146823,2,0,L|76:280,1,85.000000298023,8|8,0:0|0:0,0:0:0:0:
156,344,147176,6,0,P|232:356|264:332,1,85.000000298023,12|0,0:0|0:0,0:0:0:0:
312,272,147529,1,0,0:0:0:0:
312,272,147705,1,8,0:0:0:0:
272,148,147882,2,0,P|324:112|364:112,1,85.000000298023,8|0,0:0|0:0,0:0:0:0:
444,156,148235,1,0,0:0:0:0:
444,156,148411,1,8,0:0:0:0:
464,284,148588,5,8,0:0:0:0:
384,360,148764,1,0,0:0:0:0:
312,272,148941,2,0,L|200:256,1,85.000000298023,0|8,0:0|0:0,0:0:0:0:
112,340,149294,1,8,0:0:0:0:
60,240,149470,1,8,0:0:0:0:
136,148,149647,2,0,L|172:60,1,85.000000298023,8|8,0:0|0:0,0:0:0:0:
308,64,150000,6,0,L|400:32,2,85.000000298023,8|0|0,0:0|0:0|0:0,0:0:0:0:
256,164,150529,1,8,0:0:0:0:
320,288,150705,2,0,L|408:332,2,85.000000298023,8|0|0,0:0|0:0|0:0,0:0:0:0:
180,288,151235,1,8,0:0:0:0:
92,180,151411,6,0,L|12:124,2,85.000000298023,8|0|0,0:0|0:0|0:0,0:0:0:0:
216,160,151941,1,8,0:0:0:0:
328,60,152117,2,0,P|380:80|396:120,1,85.000000298023,8|8,0:0|0:0,0:0:0:0:
432,248,152470,2,0,P|380:228|364:188,1,85.000000298023,8|8,0:0|0:0,0:0:0:0:
284,132,152823,6,0,L|200:72,1,85.000000298023,8|0,0:0|0:0,0:0:0:0:
96,128,153176,2,0,L|40:220,1,85.000000298023,0|8,0:0|0:0,0:0:0:0:
104,332,153529,2,0,L|184:304,1,85.000000298023,8|0,0:0|0:0,0:0:0:0:
240,208,153882,2,0,L|236:112,1,85.000000298023,0|8,0:0|0:0,0:0:0:0:
144,48,154235,5,8,0:0:0:0:
48,120,154411,2,0,P|16:188|24:220,2,85.000000298023,0|0|8,0:0|0:0|0:0,0:0:0:0:
156,152,154941,1,8,0:0:0:0:
264,128,155117,2,0,P|316:112|348:72,1,85.000000298023,8|8,0:0|0:0,0:0:0:0:
436,44,155470,1,8,0:0:0:0:
452,152,155647,6,0,L|460:240,1,85.000000298023,8|0,0:0|0:0,0:0:0:0:
392,324,156000,2,0,L|380:216,1,85.000000298023,0|8,0:0|0:0,0:0:0:0:
296,168,156352,1,8,0:0:0:0:
324,60,156529,1,8,0:0:0:0:
436,44,156705,1,8,0:0:0:0:
452,152,156882,1,8,0:0:0:0:
384,240,157058,6,0,B|364:320|284:264|264:348,1,170.000000596046,12|8,0:0|0:0,0:0:0:0:
44,192,157764,1,4,2:0:0:0:
44,192,158117,1,4,2:0:0:0:
232,60,158470,6,0,P|288:52|328:68,1,85.000000298023,8|0,0:0|0:0,0:0:0:0:
372,132,158823,2,0,P|396:188|384:220,1,85.000000298023,8|0,0:0|0:0,0:0:0:0:
308,252,159176,2,0,L|216:272,1,85.000000298023,8|0,0:0|0:0,0:0:0:0:
176,140,159529,2,0,L|152:224,1,85.000000298023,8|0,0:0|0:0,0:0:0:0:
112,348,159882,5,8,0:0:0:0:
72,264,160058,1,0,0:0:0:0:
152,312,160235,1,8,0:0:0:0:
180,224,160411,1,0,0:0:0:0:
288,168,160588,2,0,L|312:264,1,85.000000298023,8|0,0:0|0:0,0:0:0:0:
364,328,160941,2,0,L|408:240,1,85.000000298023,8|0,0:0|0:0,0:0:0:0:
448,172,161294,5,8,0:0:0:0:
448,80,161470,1,8,0:0:0:0:
360,44,161647,1,8,0:0:0:0:
276,84,161823,1,8,0:0:0:0:
196,136,162000,2,0,P|140:144|104:132,2,85.000000298023,8|0|8,0:0|0:0|0:0,0:0:0:0:
196,44,162529,1,0,0:0:0:0:
113,136,162705,6,0,L|112:248,1,85.000000298023,8|8,0:0|0:0,0:0:0:0:
192,344,163058,2,0,L|192:240,1,85.000000298023,8|8,0:0|0:0,0:0:0:0:
112,136,163411,1,8,0:0:0:0:
32,180,163588,1,8,0:0:0:0:
36,308,163764,2,0,P|96:308|128:280,1,85.000000298023,8|8,0:0|0:0,0:0:0:0:
184,196,164117,5,8,0:0:0:0:
268,156,164294,1,8,0:0:0:0:
348,204,164470,1,8,0:0:0:0:
440,200,164647,1,8,0:0:0:0:
488,120,164823,2,0,P|436:88|392:88,1,85.000000298023,8|0,0:0|0:0,0:0:0:0:
348,204,165176,2,0,L|344:300,1,85.000000298023,8|0,0:0|0:0,0:0:0:0:
268,344,165529,5,8,0:0:0:0:
176,344,165705,1,0,0:0:0:0:
268,344,165882,2,0,L|364:344,1,85.000000298023,8|0,0:0|0:0,0:0:0:0:
348,204,166235,1,8,0:0:0:0:
440,212,166411,1,0,0:0:0:0:
492,292,166588,1,8,0:0:0:0:
424,356,166764,1,0,0:0:0:0:
268,344,166941,6,0,P|224:284|236:248,1,85.000000298023,8|8,0:0|0:0,0:0:0:0:
348,204,167294,2,0,P|328:148|276:132,1,85.000000298023,8|8,0:0|0:0,0:0:0:0:
180,160,167647,2,0,L|72:160,1,85.000000298023,8|0,0:0|0:0,0:0:0:0:
12,68,168000,1,8,0:0:0:0:
12,68,168176,1,0,0:0:0:0:
136,28,168352,5,8,0:0:0:0:
240,260,168705,1,8,0:0:0:0:
332,44,169058,1,8,0:0:0:0:
128,176,169411,1,8,0:0:0:0:
376,180,169764,5,12,0:0:0:0:
428,256,169941,1,0,0:0:0:0:
468,172,170117,2,0,P|468:116|444:84,1,85.000000298023,8|0,0:0|0:0,0:0:0:0:
292,152,170470,2,0,P|292:208|316:240,1,85.000000298023,8|0,0:0|0:0,0:0:0:0:
428,256,170823,2,0,L|428:360,1,85.000000298023,8|0,0:0|0:0,0:0:0:0:
272,344,171176,6,0,B|184:320|188:360|88:344,2,170.000000596046,8|8|8,0:0|0:0|0:0,0:0:0:0:
364,336,172058,1,0,0:0:0:0:
428,256,172235,2,0,P|412:196|376:184,1,85.000000298023,8|0,0:0|0:0,0:0:0:0:
256,232,172588,6,0,L|148:240,1,85.000000298023,8|8,0:0|0:0,0:0:0:0:
92,184,172941,1,8,0:0:0:0:
56,100,173117,2,0,L|8:20,2,85.000000298023,8|8|0,0:0|0:0|0:0,0:0:0:0:
152,100,173647,2,0,L|248:48,1,85.000000298023,8|0,0:0|0:0,0:0:0:0:
368,48,174000,6,0,P|376:100|364:156,1,85.000000298023,8|8,0:0|0:0,0:0:0:0:
464,204,174352,2,0,P|472:256|460:312,1,85.000000298023,8|8,0:0|0:0,0:0:0:0:
320,304,174705,1,8,0:0:0:0:
248,244,174882,1,8,0:0:0:0:
312,176,175058,1,8,0:0:0:0:
384,236,175235,1,8,0:0:0:0:
248,244,175411,6,0,L|152:244,1,85.000000298023,8|8,0:0|0:0,0:0:0:0:
64,212,175764,2,0,P|36:152|48:116,1,85.000000298023,8|8,0:0|0:0,0:0:0:0:
100,52,176117,2,0,P|156:60|276:52,1,170.000000596046,8|8,0:0|0:0,0:0:0:0:
328,140,176647,1,0,0:0:0:0:
384,56,176823,2,0,P|428:132|392:216,1,170.000000596046,8|8,0:0|0:0,0:0:0:0:
308,244,177352,1,0,0:0:0:0:
140,180,177529,5,8,0:0:0:0:
108,276,177705,1,0,0:0:0:0:
168,356,177882,1,8,0:0:0:0:
268,360,178058,1,0,0:0:0:0:
308,244,178235,6,0,P|368:244|396:272,1,85.000000298023,8|8,0:0|0:0,0:0:0:0:
480,256,178588,2,0,P|516:212|512:168,1,85.000000298023,8|8,0:0|0:0,0:0:0:0:
440,80,178941,2,0,B|368:64|348:84|348:84|312:124|248:108,1,170.000000596046,8|8,0:0|0:0,0:0:0:0:
200,64,179470,1,8,0:0:0:0:
108,68,179647,5,8,0:0:0:0:
164,304,180000,1,8,0:0:0:0:
200,64,180352,1,8,0:0:0:0:
72,312,180705,1,8,0:0:0:0:
36,128,181058,6,0,P|80:156|120:152,1,85.000000298023,12|0,0:0|0:0,0:0:0:0:
200,64,181411,2,0,P|264:64|296:88,1,85.000000298023,8|8,0:0|0:0,0:0:0:0:
348,140,181764,2,0,B|324:212|388:240|356:312,1,170.000000596046,8|8,0:0|0:0,0:0:0:0:
276,348,182294,1,0,0:0:0:0:
200,256,182470,6,0,L|304:272,1,85.000000298023,8|0,0:0|0:0,0:0:0:0:
408,272,182823,2,0,L|464:208,1,85.000000298023,8|8,0:0|0:0,0:0:0:0:
416,72,183176,2,0,P|344:44|260:108,1,170.000000596046,8|8,0:0|0:0,0:0:0:0:
200,148,183705,1,0,0:0:0:0:
124,236,183882,6,0,L|32:240,1,85.000000298023,8|8,0:0|0:0,0:0:0:0:
0,152,184235,2,0,L|92:148,1,85.000000298023,8|8,0:0|0:0,0:0:0:0:
200,148,184588,2,0,B|240:140|280:184|280:184|320:144|376:160,1,170.000000596046,0|8,0:0|0:0,0:0:0:0:
436,192,185117,1,8,0:0:0:0:
328,336,185294,5,8,0:0:0:0:
272,212,185470,1,0,0:0:0:0:
216,344,185647,1,8,0:0:0:0:
160,208,185823,1,0,0:0:0:0:
120,312,186000,2,0,P|60:308|24:204,1,170.000000596046,8|8,0:0|0:0,0:0:0:0:
72,140,186529,1,8,0:0:0:0:
152,64,186705,6,0,L|244:88,1,85.000000298023,12|0,0:0|0:0,0:0:0:0:
388,128,187058,2,0,L|272:152,1,85.000000298023,8|8,0:0|0:0,0:0:0:0:
200,188,187411,2,0,P|208:252|308:292,1,170.000000596046,0|8,0:0|0:0,0:0:0:0:
360,228,187941,1,8,0:0:0:0:
388,128,188117,6,0,P|448:124|480:144,1,85.000000298023,8|0,0:0|0:0,0:0:0:0:
500,224,188470,2,0,L|496:316,1,85.000000298023,8|8,0:0|0:0,0:0:0:0:
412,352,188823,2,0,P|340:340|240:352,1,170.000000596046,8|8,0:0|0:0,0:0:0:0:
152,352,189352,1,8,0:0:0:0:
84,272,189529,6,0,P|36:288|8:336,2,85.000000298023,8|0|8,0:0|0:0|0:0,0:0:0:0:
176,260,190058,1,8,0:0:0:0:
268,276,190235,2,0,P|336:280|404:208,1,170.000000596046,0|8,0:0|0:0,0:0:0:0:
400,116,190764,1,8,0:0:0:0:
272,44,190941,5,8,0:0:0:0:
280,160,191117,1,0,0:0:0:0:
372,24,191294,2,0,L|468:16,1,85.000000298023,8|0,0:0|0:0,0:0:0:0:
504,108,191647,2,0,P|464:208|384:216,1,170.000000596046,8|8,0:0|0:0,0:0:0:0:
324,188,192176,1,8,0:0:0:0:
200,108,192352,6,0,L|128:152,1,85.000000298023,12|0,0:0|0:0,0:0:0:0:
192,220,192705,2,0,L|124:280,1,85.000000298023,8|8,0:0|0:0,0:0:0:0:
64,344,193058,2,0,P|16:312|0:192,1,170.000000596046,0|8,0:0|0:0,0:0:0:0:
36,124,193588,1,8,0:0:0:0:
152,48,193764,6,0,L|224:92,1,85.000000298023,8|0,0:0|0:0,0:0:0:0:
160,160,194117,2,0,L|228:220,1,85.000000298023,8|0,0:0|0:0,0:0:0:0:
288,284,194470,2,0,P|336:252|352:132,1,170.000000596046,8|8,0:0|0:0,0:0:0:0:
284,76,195000,1,8,0:0:0:0:
160,160,195176,5,8,0:0:0:0:
68,208,195352,1,0,0:0:0:0:
44,108,195529,1,8,0:0:0:0:
144,120,195705,1,8,0:0:0:0:
220,188,195882,2,0,P|228:256|172:340,1,170.000000596046,0|8,0:0|0:0,0:0:0:0:
72,328,196411,1,8,0:0:0:0:
68,208,196588,6,0,L|144:256,1,85.000000298023,8|0,0:0|0:0,0:0:0:0:
220,188,196941,2,0,L|304:208,1,85.000000298023,8|0,0:0|0:0,0:0:0:0:
372,284,197294,2,0,P|448:280|504:188,1,170.000000596046,8|8,0:0|0:0,0:0:0:0:
468,112,197823,1,8,0:0:0:0:
348,60,198000,6,0,P|292:52|256:68,2,85.000000298023,12|0|8,0:0|0:0|0:0,0:0:0:0:
376,160,198529,1,8,0:0:0:0:
304,232,198705,2,0,B|216:256|188:204|120:244,1,170.000000596046,0|8,0:0|0:0,0:0:0:0:
60,308,199235,1,8,0:0:0:0:
168,356,199411,6,0,P|216:364|264:352,1,85.000000298023,12|0,0:0|0:0,0:0:0:0:
216,260,199764,2,0,P|257:253|299:261,1,85.000000298023,8|8,0:0|0:0,0:0:0:0:
376,328,200117,2,0,P|468:308|500:236,1,170.000000596046,8|8,0:0|0:0,0:0:0:0:
404,228,200647,1,8,0:0:0:0:
312,108,200823,5,12,0:0:0:0:
148,144,201000,1,0,0:0:0:0:
256,60,201176,1,8,0:0:0:0:
200,192,201352,1,0,0:0:0:0:
188,40,201529,1,12,0:0:0:0:
272,192,201705,1,0,0:0:0:0:
312,108,201882,2,0,P|384:96|408:112,1,85.000000298023,8|0,0:0|0:0,0:0:0:0:
456,180,202235,5,4,0:0:0:0:
476,280,202411,1,0,0:0:0:0:
400,352,202588,2,0,P|344:356|308:336,1,85.000000298023,0|0,0:0|0:0,0:0:0:0:
252,268,202941,2,0,B|212:232|140:244|140:244|72:268,1,170.000000596046,4|4,0:0|0:0,0:0:0:0:
28,340,203470,1,0,0:0:0:0:
152,356,203647,5,4,0:3:0:0:
208,304,203823,1,0,0:0:0:0:
216,228,204000,1,0,0:0:0:0:
284,260,204176,1,0,0:0:0:0:
352,288,204352,2,0,P|424:304|472:264,1,136.000000476837,0|0,0:0|0:0,0:0:0:0:
472,192,204882,1,8,0:0:0:0:
404,92,205058,6,0,L|308:92,1,68.0000002384184,0|0,0:0|0:0,0:0:0:0:
200,168,205411,2,0,L|288:168,1,68.0000002384184,0|0,0:0|0:0,0:0:0:0:
344,212,205764,2,0,P|376:264|340:348,1,136.000000476837,8|0,0:0|0:0,0:0:0:0:
296,280,206294,1,8,0:0:0:0:
188,328,206470,6,0,P|124:332|92:320,1,68.0000002384184,0|0,0:0|0:0,0:0:0:0:
68,276,206823,1,8,0:0:0:0:
148,256,207000,1,0,0:0:0:0:
92,200,207176,2,0,B|36:180|16:156|16:156|16:104,1,136.000000476837,8|0,0:0|0:0,0:0:0:0:
56,48,207705,1,8,0:0:0:0:
168,32,207882,5,0,0:0:0:0:
208,96,208058,1,0,0:0:0:0:
240,28,208235,1,0,0:0:0:0:
280,88,208411,1,0,0:0:0:0:
348,124,208588,2,0,B|416:140|380:184|456:200,1,136.000000476837,0|0,0:0|0:0,0:0:0:0:
496,264,209117,1,0,0:0:0:0:
412,336,209294,6,0,P|364:304|356:268,1,68.0000002384184,0|0,0:0|0:0,0:0:0:0:
320,216,209647,2,0,P|276:192|232:204,1,68.0000002384184,8|0,0:0|0:0,0:0:0:0:
192,272,210000,2,0,P|136:268|88:192,1,136.000000476837,8|0,0:0|0:0,0:0:0:0:
168,196,210529,1,8,0:0:0:0:
248,152,210705,6,0,P|277:168|294:198,1,68.0000002384184,0|0,0:0|0:0,0:0:0:0:
316,292,211058,2,0,L|392:308,1,68.0000002384184,0|0,0:0|0:0,0:0:0:0:
460,348,211411,2,0,P|476:296|452:212,1,136.000000476837,8|0,0:0|0:0,0:0:0:0:
396,176,211941,1,8,0:0:0:0:
308,88,212117,5,0,0:0:0:0:
272,184,212294,1,0,0:0:0:0:
192,140,212470,1,8,0:0:0:0:
180,232,212647,1,0,0:0:0:0:
272,184,212823,2,0,P|280:260|236:320,1,136.000000476837,0|0,0:0|0:0,0:0:0:0:
156,320,213352,1,8,0:0:0:0:
88,244,213529,6,0,P|36:220|8:216,2,68.0000002384184,0|0|8,0:0|0:0|0:0,0:0:0:0:
156,320,214058,1,0,0:0:0:0:
244,360,214235,2,0,P|308:348|352:280,1,136.000000476837,0|0,0:0|0:0,0:0:0:0:
368,180,214764,1,0,0:0:0:0:
368,180,214852,1,0,0:0:0:0:
368,180,214941,6,0,P|320:144|268:124,1,85.000000298023,8|0,0:0|0:0,0:0:0:0:
248,212,215294,2,0,P|217:196|176:160,1,85.000000298023,8|0,0:0|0:0,0:0:0:0:
176,56,215647,1,0,0:0:0:0:
176,56,215823,1,8,0:0:0:0:
268,68,216000,2,0,L|368:64,1,85.000000298023,8|0,0:0|0:0,0:0:0:0:
476,64,216352,6,0,P|496:112|492:164,1,85.000000298023,8|0,0:0|0:0,0:0:0:0:
436,208,216705,2,0,L|424:300,1,85.000000298023,8|8,0:0|0:0,0:0:0:0:
496,352,217058,1,0,0:0:0:0:
496,352,217235,1,8,0:0:0:0:
324,344,217411,6,0,P|260:312|244:296,1,85.000000298023,8|8,0:0|0:0,0:0:0:0:
80,344,217764,2,0,P|144:312|160:296,1,85.000000298023,8|0,0:0|0:0,0:0:0:0:
208,228,218117,1,8,0:0:0:0:
208,136,218294,1,8,0:0:0:0:
208,44,218470,1,0,0:0:0:0:
208,44,218647,1,8,0:0:0:0:
292,84,218823,6,0,L|388:80,1,85.000000298023,8|8,0:0|0:0,0:0:0:0:
208,136,219176,2,0,L|112:152,1,85.000000298023,8|0,0:0|0:0,0:0:0:0:
288,188,219529,2,0,L|400:192,1,85.000000298023,8|0,0:0|0:0,0:0:0:0:
456,280,219882,1,8,0:0:0:0:
456,280,220058,1,0,0:0:0:0:
368,344,220235,1,8,0:0:0:0:
280,320,220411,1,8,0:0:0:0:
144,264,220588,6,0,P|80:260|48:268,1,85.000000298023,12|0,0:0|0:0,0:0:0:0:
104,356,220941,2,0,P|168:360|200:352,1,85.000000298023,8|8,0:0|0:0,0:0:0:0:
236,248,221294,2,0,P|244:192|232:152,1,85.000000298023,0|8,0:0|0:0,0:0:0:0:
80,124,221647,2,0,P|132:112|176:128,1,85.000000298023,8|8,0:0|0:0,0:0:0:0:
252,72,222000,5,8,0:0:0:0:
344,48,222176,1,0,0:0:0:0:
428,88,222352,1,8,0:0:0:0:
392,244,222529,1,0,0:0:0:0:
292,228,222705,2,0,P|248:200|236:156,1,85.000000298023,8|8,0:0|0:0,0:0:0:0:
344,48,223058,1,8,0:0:0:0:
344,48,223235,1,8,0:0:0:0:
468,188,223411,6,0,P|484:244|468:296,1,85.000000298023,12|8,0:0|3:0,0:0:0:0:
292,228,223764,2,0,P|284:192|296:140,1,85.000000298023,8|8,3:0|3:0,0:0:0:0:
396,280,224117,1,8,3:0:0:0:
304,360,224294,1,8,3:0:0:0:
288,248,224470,1,8,3:0:0:0:
188,160,224647,1,8,3:0:0:0:
160,280,224823,5,4,1:0:0:0:
248,360,225000,1,0,0:0:0:0:
288,248,225176,1,0,0:0:0:0:
308,128,225352,1,0,0:0:0:0:
224,40,225529,2,0,L|96:36,1,127.500005310774,0|0,0:0|0:0,0:0:0:0:
40,252,226235,6,0,P|56:304|92:328,1,85.000000298023,12|0,0:0|0:0,0:0:0:0:
148,260,226588,2,0,P|212:264|256:244,1,85.000000298023,0|8,0:0|0:0,0:0:0:0:
292,184,226941,2,0,P|344:204|368:244,1,85.000000298023,8|0,0:0|0:0,0:0:0:0:
436,168,227294,2,0,P|476:204|488:264,1,85.000000298023,0|8,0:0|0:0,0:0:0:0:
444,336,227647,6,0,L|348:336,1,85.000000298023,8|0,0:0|0:0,0:0:0:0:
192,328,228000,2,0,L|304:288,1,85.000000298023,0|8,0:0|0:0,0:0:0:0:
440,220,228352,2,0,L|336:224,1,85.000000298023,8|8,0:0|0:0,0:0:0:0:
252,184,228705,1,8,0:0:0:0:
168,112,228882,1,8,0:0:0:0:
264,24,229058,6,0,P|316:24|380:52,1,85.000000298023,8|0,0:0|0:0,0:0:0:0:
420,116,229411,2,0,P|360:140|312:124,1,85.000000298023,0|8,0:0|0:0,0:0:0:0:
232,112,229764,2,0,P|184:120|152:152,1,85.000000298023,8|0,0:0|0:0,0:0:0:0:
132,252,230117,2,0,P|80:248|32:212,1,85.000000298023,0|8,0:0|0:0,0:0:0:0:
28,80,230470,5,8,0:0:0:0:
112,152,230647,1,0,0:0:0:0:
92,44,230823,1,0,0:0:0:0:
40,144,231000,1,8,0:0:0:0:
136,92,231176,2,0,L|228:96,1,85.000000298023,8|8,0:0|0:0,0:0:0:0:
360,172,231529,2,0,L|272:168,1,85.000000298023,8|8,0:0|0:0,0:0:0:0:
156,244,231882,6,0,P|144:300|164:344,1,85.000000298023,8|0,0:0|0:0,0:0:0:0:
256,288,232235,1,0,0:0:0:0:
348,352,232411,1,8,0:0:0:0:
376,236,232588,2,0,P|424:204|484:208,1,85.000000298023,8|0,0:0|0:0,0:0:0:0:
452,312,232941,1,0,0:0:0:0:
348,352,233117,1,8,0:0:0:0:
280,184,233294,6,0,P|232:168|184:180,1,85.000000298023,8|0,0:0|0:0,0:0:0:0:
148,272,233647,2,0,P|96:280|52:260,1,85.000000298023,0|8,0:0|0:0,0:0:0:0:
8,176,234000,1,8,0:0:0:0:
100,112,234176,1,8,0:0:0:0:
16,40,234352,1,8,0:0:0:0:
100,112,234529,1,8,0:0:0:0:
172,28,234705,6,0,B|216:24|220:56|272:44,1,85.000000298023,8|0,0:0|0:0,0:0:0:0:
400,76,235058,2,0,B|356:72|352:104|300:92,1,85.000000298023,0|8,0:0|0:0,0:0:0:0:
172,160,235411,2,0,B|216:164|220:132|272:144,1,85.000000298023,8|0,0:0|0:0,0:0:0:0:
356,188,235764,1,0,0:0:0:0:
408,288,235941,1,8,0:0:0:0:
316,368,236117,6,0,L|272:292,1,85.000000298023,8|0,0:0|0:0,0:0:0:0:
260,184,236470,2,0,L|280:80,1,85.000000298023,0|8,0:0|0:0,0:0:0:0:
188,36,236823,2,0,P|144:40|100:96,2,85.000000298023,8|8|8,0:0|0:0|0:0,0:0:0:0:
328,24,237352,1,8,0:0:0:0:
440,104,237529,6,0,L|440:204,1,85.000000298023,12|0,0:0|0:0,0:0:0:0:
376,300,237882,2,0,L|368:192,1,85.000000298023,0|8,0:0|0:0,0:0:0:0:
280,124,238235,2,0,L|296:228,1,85.000000298023,8|0,0:0|0:0,0:0:0:0:
232,320,238588,2,0,L|228:232,1,85.000000298023,0|8,0:0|0:0,0:0:0:0:
148,136,238941,5,8,0:0:0:0:
148,136,239117,1,0,0:0:0:0:
92,252,239294,1,0,0:0:0:0:
92,252,239470,1,8,0:0:0:0:
4,160,239647,2,0,L|8:56,1,85.000000298023,8|8,0:0|0:0,0:0:0:0:
80,172,240000,1,8,0:0:0:0:
80,172,240176,1,8,0:0:0:0:
200,76,240352,6,0,B|240:64|240:64|304:80,1,85.000000298023,8|0,0:0|0:0,0:0:0:0:
388,148,240705,2,0,B|348:160|348:160|284:144,1,85.000000298023,0|8,0:0|0:0,0:0:0:0:
372,40,241058,2,0,B|412:28|412:28|476:44,1,85.000000298023,8|0,0:0|0:0,0:0:0:0:
484,164,241411,1,0,0:0:0:0:
416,272,241588,1,8,0:0:0:0:
288,260,241764,6,0,P|232:232|216:196,1,85.000000298023,8|0,0:0|0:0,0:0:0:0:
240,88,242117,2,0,P|296:116|312:152,1,85.000000298023,0|8,0:0|0:0,0:0:0:0:
221,214,242470,2,0,L|112:220,1,85.000000298023,8|0,0:0|0:0,0:0:0:0:
16,300,242823,2,0,L|116:296,1,85.000000298023,0|8,0:0|0:0,0:0:0:0:
224,324,243176,5,8,0:0:0:0:
304,296,243352,1,0,0:0:0:0:
384,320,243529,1,0,0:0:0:0:
444,260,243705,1,8,0:0:0:0:
444,176,243882,1,8,0:0:0:0:
372,128,244058,1,0,0:0:0:0:
296,168,244235,1,0,0:0:0:0:
228,116,244411,1,8,0:0:0:0:
148,80,244588,6,0,P|100:72|60:80,1,85.000000298023,8|0,0:0|0:0,0:0:0:0:
4,136,244941,2,0,P|-8:184|0:224,1,85.000000298023,0|8,0:0|0:0,0:0:0:0:
68,296,245294,2,0,P|116:304|156:296,1,85.000000298023,8|8,0:0|0:0,0:0:0:0:
236,240,245647,2,0,P|288:232|344:248,1,85.000000298023,8|8,0:0|0:0,0:0:0:0:
416,316,246000,6,0,P|464:336|500:324,2,85.000000298023,8|8|8,0:0|0:0|0:0,0:0:0:0:
428,216,246529,1,8,0:0:0:0:
360,140,246705,2,0,P|312:120|276:132,2,85.000000298023,8|8|8,0:0|0:0|0:0,0:0:0:0:
460,116,247235,1,8,0:0:0:0:
352,24,247411,6,0,B|288:24|268:44|212:32,1,127.500005310774,12|0,0:0|0:0,0:0:0:0:
48,120,248117,2,0,B|112:120|132:140|174:130,1,127.500005310774,4|4,0:0|0:0,0:0:0:0:
256,192,248823,12,0,256588,0:0:0:0:
