osu file format v14

[General]
AudioFilename: [HD] Epic Trance - Bad Apple!! (REDALiCE Remix).mp3
AudioLeadIn: 0
PreviewTime: 158490
Countdown: 0
SampleSet: Soft
StackLeniency: 0.7
Mode: 0
LetterboxInBreaks: 1
EpilepsyWarning: 1
WidescreenStoryboard: 1

[Editor]
Bookmarks: 90733,102000,135910,157616,165529,219204
DistanceSpacing: 1
BeatDivisor: 2
GridSize: 4
TimelineZoom: 1

[Metadata]
Title:Bad Apple!! (REDALiCE Remix)
TitleUnicode:Bad Apple!! (REDALiCE Remix)
Artist:Masayoshi Minoshima
ArtistUnicode:簑島 正佳
Creator:Evening
Version:Papcio's Normal
Source:Touhou
Tags:Gensoukyou Lotus Land Story nomico Lovelight Trois Noir CoroQuetz Soldsaga KunG neonat Kuo Kyoka Papcio GetxOriginal
BeatmapID:357891
BeatmapSetID:132824

[Difficulty]
HPDrainRate:3
CircleSize:3
OverallDifficulty:4
ApproachRate:5
SliderMultiplier:1.30000000596046
SliderTickRate:1

[Events]
//Background and Video events
0,0,"badapplePapcio.jpg",0,0
//Break Periods
2,12552,16094
2,30905,31623
2,36552,38682
2,90905,100588
2,203647,222000
2,240552,246211
//Storyboard Layer 0 (Background)
//Storyboard Layer 1 (Fail)
//Storyboard Layer 2 (Pass)
//Storyboard Layer 3 (Foreground)
Sprite,Foreground,Centre,"Warning.png",320,240 F,0,223411,223433,0,1 S,0,223433,,0.5578184 F,0,223433,223764,1 M,0,223764,,320,256 F,0,223764,223786,1,0 F,0,223786,224117,0 F,0,224117,224139,0,1 F,0,224139,224448,1 F,0,224448,224470,1,0 F,0,224470,224823,0 F,0,224823,224845,0,1 F,0,224845,225154,1 F,0,225154,225176,1,0 F,0,225176,225529,0 F,0,225529,225551,0,1 F,0,225551,225860,1 F,0,225860,225882,1,0
Sprite,Foreground,Centre,"Warning.png",320,240 F,0,133058,133080,0,1 S,0,133080,,0.5578184 F,0,133080,133411,1 M,0,133147,,320,256 F,0,133411,133433,1,0 F,0,133433,133764,0 F,0,133764,133786,0,1 F,0,133786,134095,1 F,0,134095,134117,1,0 F,0,134117,134470,0 F,0,134470,134492,0,1 F,0,134492,134801,1 F,0,134801,134823,1,0 F,0,134823,135176,0 F,0,135176,135198,0,1 F,0,135198,135507,1 F,0,135507,135529,1,0
Sprite,Foreground,Centre,"Alt_SB\DJNightmare.png",320,240 M,0,6000,,320,240 F,0,6000,6022,0,0.9978182 F,0,6022,6044,0.9978182,0 F,0,6044,6066,0,1 F,0,6066,6088,1 F,0,6088,6110,1,0.4676364 F,0,6110,6132,0.4676364,0.6327305 F,0,6132,6154,0.6327305,0.2676987 F,0,6154,6176,0.2676987,0.8612748 F,0,6176,6198,0.8612748,0.5563967 F,0,6198,6220,0.5563967,1 F,0,6220,6264,1,0 F,0,6264,6286,0,0.9933167 F,0,6286,6308,0.9933167,0.4609813 F,0,6308,6330,0.4609813,1 F,0,6330,6374,1,0.5403636 F,0,6374,6397,0.5403636,1 F,0,6397,6441,1,0.5927274 F,0,6441,6485,0.5927274,1 F,0,6485,6529,1,0 F,0,6529,6551,0,1 F,0,6551,6595,1,0.205818 F,0,6595,6661,0.205818,0.5918428 F,0,6661,6683,0.5918428,0 F,0,6683,6705,0,0.5835048 F,0,6705,6749,0.5835048,0.1888052 F,0,6749,6794,0.1888052,1 F,0,6794,10235,1 M,0,10213,10235,320,240,320,105 M,0,10235,10257,320,105,320,240 F,0,10235,10257,1,0.5043756 F,0,10257,10279,0.5043756,0.0740919 M,0,10257,10566,320,240 F,0,10279,10301,0.0740919,1 F,0,10301,10345,1,0.4065454 F,0,10345,10522,0.4065454,1 F,0,10522,10610,1,0.1941817 M,0,10566,10588,320,240,320,401 M,0,10588,10610,320,401,320,240 F,0,10610,10742,0.1941817,0.8473198 M,0,10610,10875,320,240 M,0,10610,10897,320,240,146,388 F,0,10742,10808,0.8473198,0.4306162 F,0,10808,10874,0.4306162,1 F,0,10874,11007,1,0 M,0,10897,10919,146,388,320,240 M,0,10919,10941,320,240,438,134 M,0,10941,10963,438,134,320,240 M,0,10963,11117,320,240 F,0,11007,11051,0,0.2986687 F,0,11051,11117,0.2986687,0 M,0,11117,11139,320,240,134,240 F,0,11117,11139,0,1 M,0,11139,11161,134,240,320,240 F,0,11139,11183,1,0.1447272 M,0,11161,11272,320,240 F,0,11183,11249,0.1447272,1 F,0,11249,11272,1,0 M,0,11272,11294,320,240,523,240 F,0,11272,11294,0,1 M,0,11294,11316,523,240,320,240 F,0,11294,11316,1,0.05163635 F,0,11316,11338,0.05163635,0.4838441 M,0,11316,11382,320,240 F,0,11338,11360,0.4838441,0 F,0,11360,11382,0,1 M,0,11382,11404,320,240,147,240 F,0,11382,11404,1,0.3367273 M,0,11404,11426,147,240,320,240 F,0,11404,11448,0.3367273,0 M,0,11426,11492,320,240 F,0,11448,11470,0,1 F,0,11470,11492,1,0.09897875 M,0,11492,11514,320,240,466,240 F,0,11492,11514,0.09897875,1 M,0,11514,11536,466,240,320,240 F,0,11514,11536,1,0.2033138 F,0,11536,11558,0.2033138,1 M,0,11536,11602,320,240 F,0,11558,11580,1,0 F,0,11580,11602,0,0.2530909 F,0,11602,11624,0.2530909,0 M,0,11602,11625,320,240,41,240 F,0,11624,11647,0 M,0,11625,11647,41,240,320,240 M,0,11647,11669,320,240
Sprite,Foreground,Centre,"Alt_SB\lZenxl.png",320,240 M,0,353,,320,240 F,0,353,375,0,1 F,0,375,397,1,0 F,0,397,419,0,1 F,0,419,441,1 F,0,441,463,1,0.4676364 F,0,463,485,0.4676364,0.6327305 F,0,485,507,0.6327305,0.2676987 F,0,507,529,0.2676987,0.8612748 F,0,529,551,0.8612748,0.5563967 F,0,551,573,0.5563967,1 F,0,573,617,1,0 F,0,617,639,0,1 F,0,639,661,1,0.4609813 F,0,661,683,0.4609813,1 F,0,683,727,1,0.5403636 F,0,727,750,0.5403636,1 F,0,750,794,1,0.5927274 F,0,794,838,0.5927274,1 F,0,838,882,1,0 F,0,882,904,0,1 F,0,904,948,1,0.205818 F,0,948,1014,0.205818,0.5918428 F,0,1014,1036,0.5918428,0 F,0,1036,1058,0,0.5835048 F,0,1058,1102,0.5835048,0.1888052 F,0,1102,1147,0.1888052,1 F,0,1147,4588,1 F,0,4588,4610,1,0.5043756 F,0,4610,4632,0.5043756,0 F,0,4632,4654,0,1 F,0,4654,4698,1,0.4065454 F,0,4698,4875,0.4065454,1 F,0,4875,4963,1,0.1941817 F,0,4963,5095,0.1941817,0.8473198 F,0,5095,5161,0.8473198,0.4306162 F,0,5161,5227,0.4306162,1 F,0,5227,5360,1,0 F,0,5360,5404,0,0.2986687 F,0,5404,5470,0.2986687,0 F,0,5470,5492,0,1 F,0,5492,5536,1,0.1447272 F,0,5536,5602,0.1447272,1 F,0,5602,5625,1,0 F,0,5625,5647,0,1 F,0,5647,5669,1,0.05163635 F,0,5669,5691,0.05163635,0.4838441 F,0,5691,5713,0.4838441,0 F,0,5713,5735,0,1 F,0,5735,5757,1,0.3367273 F,0,5757,5801,0.3367273,0 F,0,5801,5823,0,1 F,0,5823,5845,1,0 F,0,5845,5867,0,1 F,0,5867,5889,1,0.2033138 F,0,5889,5911,0.2033138,1 F,0,5911,5933,1,0 F,0,5933,5955,0,0.2530909 F,0,5955,5977,0.2530909,0 F,0,5977,6000,0
Sprite,Foreground,Centre,"Alt_SB\GD.png",320,240 M,0,11647,,93,240 S,0,11647,,1 F,0,20117,20382,1 M,2,20117,20470,93,240,-434,240 F,0,20382,20470,1,0
Sprite,Foreground,Centre,"Alt_SB\GDer.png",320,240 F,0,11647,,1 M,0,11647,12794,521,46 M,2,12794,13058,521,46,521,124 M,0,13058,13147,521,124 M,0,13147,14205,521,124 M,2,14205,14470,521,124,521,203 M,0,14470,14558,521,203 M,0,14558,15617,521,203 M,2,15617,15882,521,203,521,285 M,0,15882,15970,521,285 M,0,15970,17029,521,285 M,2,17029,17294,521,285,521,366 M,0,17294,17382,521,366 M,0,17382,18441,521,366 M,2,18441,18705,521,366,521,452 M,0,18705,18794,521,452 M,0,18794,20117,521,452 F,0,20117,20382,1 M,0,20117,20470,521,452,1036,452 F,0,20382,20470,1,0
Sprite,Foreground,Centre,"Bar.png",320,240 F,0,21882,,1 M,0,21882,21904,320,217,313,306 M,0,21904,21926,313,306,289,210 M,0,21926,21948,289,210,287,245 M,0,21948,21970,287,245,285,185 M,0,21970,21992,285,185,283,234 M,0,21992,22036,283,234,261,92 M,0,22036,22058,261,92,271,145 M,0,22058,22080,271,145,279,100 M,0,22080,22102,279,100,275,132 M,0,22102,22125,275,132,278,76 M,0,22125,22169,278,76,281,337 M,0,22169,22191,281,337,279,278 M,0,22191,22213,279,278,279,244 M,0,22213,22235,279,244,277,305
Sprite,Foreground,Centre,"Alt_SB\Badapple.png",320,240 M,0,22235,,320,240 F,0,22235,22279,0,1 S,0,22235,22588,5,0.3483634 F,0,22279,22588,1 F,0,22588,32823,1 R,0,22588,41294,0,6.283637 F,0,32823,33882,1,0.6654546 F,0,33882,34235,0.6654546,1 F,0,34235,41294,1 F,0,41294,41338,1,0.6625454 R,2,41294,44470,6.283637,50 F,0,41338,41382,0.6625454,1 F,0,41382,41426,1,0.7847273 F,0,41426,41470,0.7847273,1 F,0,41470,41514,1,0.6625454 F,0,41514,41558,0.6625454,1 F,0,41558,41602,1,0.6625454 F,0,41602,41647,0.6625454,1 F,0,41647,41691,1,0.7149091 F,0,41691,41735,0.7149091,1 F,0,41735,41779,1,0.7265454 F,0,41779,41823,0.7265454,1 F,0,41823,41867,1,0.7149091 F,0,41867,41911,0.7149091,1 F,0,41911,41955,1,0.6654546 F,0,41955,42000,0.6654546,1 F,0,42000,42044,1,0.5927272 F,0,42044,42088,0.5927272,1 F,0,42088,42132,1,0.4298183 F,0,42132,42176,0.4298183,1 F,0,42176,42220,1,0.6450909 F,0,42220,42264,0.6450909,1 F,0,42264,42308,1,0.5403636 F,0,42308,42352,0.5403636,1 F,0,42352,42397,1,0.7236363 F,0,42397,42441,0.7236363,1 F,0,42441,42485,1,0.6741818 F,0,42485,42529,0.6741818,1 F,0,42529,42573,1,0.6741818 F,0,42573,42617,0.6741818,1 F,0,42617,42661,1,0.426909 F,0,42661,42705,0.426909,1 F,0,42705,42750,1,0.3978181 F,0,42750,42794,0.3978181,1 F,0,42794,42838,1,0.6247272 F,0,42838,42882,0.6247272,1 F,0,42882,42926,1,0.6130908 F,0,42926,42970,0.6130908,1 F,0,42970,43014,1,0.5287273 F,0,43014,43058,0.5287273,1 F,0,43058,43102,1,0.2378182 F,0,43102,43147,0.2378182,1 F,0,43147,43191,1,0 F,0,43191,43235,0,1 F,0,43235,43279,1,0 F,0,43279,43323,0,1 F,0,43323,43367,1,0 F,0,43367,43411,0,1 F,0,43411,43455,1,0 F,0,43455,43500,0,1 F,0,43500,43544,1,0 F,0,43544,43588,0,1 F,0,43588,43632,1,0 F,0,43632,43676,0,1 F,0,43676,43720,1,0 F,0,43720,43764,0,1 F,0,43764,43808,1,0 F,0,43808,43852,0,1 F,0,43852,43897,1,0 F,0,43897,43941,0,1 F,0,43941,43985,1,0 F,0,43985,44029,0,1 F,0,44029,44073,1,0 F,0,44073,44117,0,1 F,1,44117,44205,1,0 S,1,44117,44470,0.3483634,1.203636 F,0,44205,44470,0
Sprite,Foreground,Centre,"Alt_SB\Badapple.png",320,240 F,0,22588,25764,1,0 S,1,22588,25764,0.348364,0.5752732
//Storyboard Sound Samples

[TimingPoints]
353,352.941176470588,4,2,0,80,1,0
10235,-100,4,2,3,80,0,0
17294,-133.333333333333,4,2,0,80,0,0
18705,-133.333333333333,4,2,0,60,0,0
19411,-133.333333333333,4,2,0,40,0,0
21529,-100,4,2,0,60,0,0
22941,-133.333333333333,4,2,0,20,0,0
27176,-133.333333333333,4,2,0,5,0,0
28588,-133.333333333333,4,2,0,45,0,0
45529,-100,4,2,3,80,0,1
62470,-100,4,2,3,100,0,1
66705,-100,4,2,3,80,0,0
68117,-133.333333333333,4,2,3,80,0,0
88941,-100,4,2,3,80,0,0
90529,-100,4,2,3,100,0,0
112411,-100,4,2,3,80,0,0
113294,-100,4,2,3,100,0,1
113382,-100,4,2,3,80,0,0
135176,-100,4,2,3,60,0,0
135882,-100,4,2,3,100,0,1
157058,-100,4,2,3,40,0,0
158470,-100,4,2,3,40,0,0
158647,-100,4,2,3,80,0,0
179294,-100,4,2,3,80,0,0
181411,-100,4,2,3,80,0,0
202941,-100,4,2,3,80,0,0
203294,-100,4,2,3,80,0,0
203647,-100,4,2,3,80,0,0
214941,-100,4,2,3,80,0,0
224823,-100,4,2,3,40,0,0
226235,-100,4,2,3,80,0,1
227647,-100,4,2,3,80,0,1
228352,-100,4,2,3,80,0,1
231176,-100,4,2,3,80,0,1
248823,-100,4,2,3,80,0,0
250235,-100,4,2,3,80,0,0
251647,-100,4,2,3,80,0,0
253058,-100,4,2,3,80,0,0
254470,-100,4,2,3,80,0,0
255882,-100,4,2,3,80,0,0
256588,-100,4,2,3,80,0,0

[Colours]
Combo1 : 255,255,255
Combo2 : 95,95,95

[HitObjects]
256,140,10235,5,8,0:0:0:0:
256,140,10588,1,8,0:0:0:0:
144,96,11647,6,0,B|208:80|256:144|256:144|304:80|368:96,1,260.000001192092,4|0,0:0|0:0,0:0:0:0:
144,256,17294,5,2,0:0:0:0:
256,304,17647,1,0,0:0:0:0:
368,256,18000,1,2,0:0:0:0:
376,248,18705,1,2,0:0:0:0:
384,240,19411,1,2,0:0:0:0:
320,84,21529,5,4,0:0:0:0:
320,84,22235,2,4,P|256:68|184:88,1,130.000000596046,4|4,0:0|0:0,0:0:0:0:
108,68,22941,6,0,B|96:80|80:96|64:128|64:160|48:192|64:224|64:256|80:288|96:304|112:320|144:320|176:336|208:320|256:304|256:304|336:272|336:160|256:124|176:160|176:272|256:304|256:304|304:320|336:336|368:320|400:320|416:304|432:288|448:256|448:224|464:192|448:160|448:128|432:96|416:80|400:68,1,1170.00004999637,2|0,0:0|0:0,0:0:0:0:
213,124,28588,6,0,P|213:212|289:116,2,292.500012499093,2|0|0,0:0|0:0|0:0,0:0:0:0:
256,192,32823,12,2,34235,0:0:0:0:
256,240,34941,5,0,0:0:0:0:
256,240,36352,5,2,0:0:0:0:
256,88,39882,5,2,0:0:0:0:
256,88,40588,5,0,0:0:0:0:
256,88,40941,2,0,B|244:124|256:152|256:152|256:212|256:212,1,97.5000041663645,2|0,0:0|0:0,0:0:0:0:
256,192,41470,12,4,44117,0:0:0:0:
256,52,44823,5,4,0:0:0:0:
256,52,45176,1,4,0:0:0:0:
344,16,45529,5,4,0:0:0:0:
336,112,45882,1,8,0:0:0:0:
416,72,46235,2,0,P|416:152|376:192,1,130.000000596046,2|8,0:0|0:0,0:0:0:0:
312,232,46941,2,0,P|312:320|352:352,2,130.000000596046,2|8|2,0:0|0:0|0:0,0:0:0:0:
256,160,48000,1,8,0:0:0:0:
216,192,48176,1,8,0:0:0:0:
200,232,48352,2,0,P|200:320|160:352,2,130.000000596046,2|8|2,0:0|0:0|0:0,0:0:0:0:
120,192,49411,1,8,0:0:0:0:
88,92,49764,6,0,P|168:80|196:28,1,130.000000596046,2|8,0:0|0:0,0:0:0:0:
319,43,50470,2,0,P|360:90|424:92,1,130.000000596046,2|8,0:0|0:0,0:0:0:0:
428,144,51000,1,8,0:0:0:0:
416,192,51176,6,0,P|440:272|400:328,1,130.000000596046,2|8,0:0|0:0,0:0:0:0:
328,256,51882,1,2,0:0:0:0:
256,328,52235,1,8,0:0:0:0:
208,240,52588,6,0,P|187:179|213:121,1,130.000000596046,2|8,0:0|0:0,0:0:0:0:
292,188,53294,1,2,0:0:0:0:
368,120,53647,1,8,0:0:0:0:
292,48,54000,5,2,0:0:0:0:
188,32,54352,2,0,B|136:76|80:56|80:56|76:128,1,130.000000596046,8|2,0:0|0:0,0:0:0:0:
148,148,55058,1,8,0:0:0:0:
52,192,55411,1,2,0:0:0:0:
148,236,55764,1,8,0:0:0:0:
79,314,56117,2,0,B|80:328|80:328|136:308|188:352,1,130.000000596046,2|8,0:0|0:0,0:0:0:0:
236,332,56647,1,8,0:0:0:0:
284,352,56823,6,0,P|336:272|288:228,1,130.000000596046,6|8,0:0|0:0,0:0:0:0:
172,112,57882,1,8,0:0:0:0:
344,228,58588,1,8,0:0:0:0:
424,164,58941,1,4,0:0:0:0:
352,96,59294,1,8,0:0:0:0:
256,128,59647,5,2,0:0:0:0:
160,96,60000,1,8,0:0:0:0:
160,272,60705,1,8,0:0:0:0:
160,272,61058,1,2,0:0:0:0:
160,272,61411,6,0,P|192:320|272:332,1,130.000000596046,8|2,0:0|0:0,0:0:0:0:
252,232,62117,2,0,P|295:210|304:104,2,130.000000596046,8|2|8,0:0|0:0|0:0,0:0:0:0:
324,308,63176,1,2,0:0:0:0:
420,264,63529,1,8,0:0:0:0:
456,168,63882,1,2,0:0:0:0:
356,192,64235,1,8,0:0:0:0:
256,160,64588,1,2,0:0:0:0:
192,244,64941,1,8,0:0:0:0:
192,244,65294,6,2,B|208:280|192:336|104:336|56:344|-32:240|8:128|48:40|152:56|208:112,1,520.000002384184,2|4,0:0|0:0,0:0:0:0:
304,284,67411,1,4,0:0:0:0:
204,316,67764,1,0,0:0:0:0:
100,336,68117,5,0,0:0:0:0:
16,280,68470,1,8,0:0:0:0:
88,248,68823,1,0,0:0:0:0:
24,200,69176,1,8,0:0:0:0:
96,168,69529,1,0,0:0:0:0:
32,120,69882,1,8,0:0:0:0:
104,88,70235,6,2,B|224:48|224:152|328:72|328:72,1,195.000008332729
328,64,71117,2,0,P|376:64|392:72,1,48.7500020831822,0|8,0:0|0:0,0:0:0:0:
408,40,71470,2,0,P|456:32|480:40,1,48.7500020831822,0|2,0:0|0:0,0:0:0:0:
448,112,72000,2,0,P|408:144|328:128,1,97.5000041663645,8|0,0:0|0:0,0:0:0:0:
296,112,72705,2,0,P|259:81|211:77,2,97.5000041663645,8|0|8,0:0|0:0|0:0,0:0:0:0:
312,192,73764,5,0,0:0:0:0:
392,184,74117,2,0,P|384:236|345:265,1,97.5000041663645,8|0,0:0|0:0,0:0:0:0:
272,272,74823,1,8,0:0:0:0:
312,336,75176,1,0,0:0:0:0:
256,280,75529,1,8,2:0:0:0:
232,208,75882,2,0,L|232:88,2,97.5000041663645,0|8|0,0:0|0:0|0:0,0:0:0:0:
304,176,76941,1,8,0:0:0:0:
376,208,77294,2,0,L|376:320,1,97.5000041663645,0|8,0:0|0:0,0:0:0:0:
452,312,78000,5,8,0:0:0:0:
452,232,78352,1,8,0:0:0:0:
452,152,78705,1,8,0:0:0:0:
452,72,79058,1,8,0:0:0:0:
368,64,79411,6,0,P|320:104|256:96,1,97.5000041663645,0|8,0:0|0:0,0:0:0:0:
296,184,80117,2,0,P|248:175|215:141,2,97.5000041663645,0|8|0,0:0|0:0|0:0,0:0:0:0:
368,168,81176,1,8,0:0:0:0:
440,200,81529,6,0,P|376:248|304:216,1,146.250006249547,2|0,0:0|0:0,0:0:0:0:
288,208,82235,2,8,P|176:184|120:224,1,146.250006249547,2|0,0:0|0:0,0:0:0:0:
120,224,82941,1,2,0:0:0:0:
64,168,83294,2,0,P|104:148|168:168,1,105.000004452467,8|2,0:0|0:0,0:0:0:0:
120,224,84000,1,8,0:0:0:0:
172,284,84352,2,0,P|132:304|68:284,1,105.000004452467,2|8,0:0|0:0,0:0:0:0:
12,224,85058,6,0,B|0:176|48:124|100:124|100:124|276:124,1,292.500012499093
336,152,86470,1,2,0:0:0:0:
368,244,86823,1,8,0:0:0:0:
384,344,87176,2,0,P|328:364|276:328,1,97.5000041663645,8|2,0:0|0:0,0:0:0:0:
200,350,87882,2,0,P|155:364|112:344,1,97.5000041663645,8|2,0:0|0:0,0:0:0:0:
160,288,88588,1,8,0:0:0:0:
128,220,88941,5,2,0:0:0:0:
160,200,89117,1,0,0:0:0:0:
192,180,89294,1,8,0:0:0:0:
256,228,89647,5,2,0:0:0:0:
320,180,90000,5,8,0:0:0:0:
352,200,90176,1,0,0:0:0:0:
384,224,90353,1,8,0:0:0:0:
316,296,90705,5,0,1:0:0:0:
152,88,102000,6,0,P|248:112|424:80,1,260.000001192092,0|8,0:0|0:0,0:0:0:0:
400,192,103058,1,0,0:0:0:0:
344,280,103411,2,0,P|304:240|296:192,2,65.000000298023,8|0|0,0:0|0:0|0:0,0:0:0:0:
392,288,103941,2,0,P|409:315|434:334,1,65.000000298023,0|8,0:0|0:0,0:0:0:0:
480,248,104470,5,8,0:0:0:0:
480,248,104823,2,0,L|360:160,1,130.000000596046,0|8,0:0|0:0,0:0:0:0:
376,64,105529,2,0,L|496:152,2,130.000000596046,0|8|0,0:0|0:0|0:0,0:0:0:0:
328,48,106411,1,0,0:0:0:0:
272,48,106588,1,8,0:0:0:0:
224,64,106764,1,2,0:0:0:0:
200,112,106941,1,8,0:0:0:0:
256,200,107294,6,0,L|256:336,1,130.000000596046,8|2,0:0|0:0,0:0:0:0:
256,192,107823,12,4,111882,0:0:0:0:
352,224,112588,6,0,B|288:224|256:144|256:144|224:224|151:224,1,260.000001192092,4|0,0:0|0:0,0:0:0:0:
67,352,113647,2,0,P|136:345|192:304,1,140.000000596046,2|0,0:0|0:0,0:0:0:0:
320,304,114352,2,0,P|400:352|448:352,1,140.000000596046,2|0,0:0|0:0,0:0:0:0:
416,256,115058,1,2,0:0:0:0:
432,160,115411,1,0,0:0:0:0:
368,80,115764,1,2,0:0:0:0:
264,80,116117,1,2,0:0:0:0:
216,88,116294,1,0,0:0:0:0:
176,112,116470,2,0,L|80:128,2,70.000000298023,2|2|2,0:0|0:0|0:0,0:0:0:0:
136,200,117176,6,0,P|192:312|352:296,1,260.000001192092
416,296,118235,2,0,P|384:240|320:216,1,130.000000596046
224,192,118941,2,0,L|224:24,1,130.000000596046,2|0,0:0|0:0,0:0:0:0:
360,104,119647,2,0,P|408:168|488:128,1,130.000000596046,2|0,0:0|0:0,0:0:0:0:
456,272,120352,2,0,L|312:272,1,130.000000596046
224,248,121058,1,2,0:0:0:0:
184,208,121235,1,0,0:0:0:0:
152,176,121411,1,0,0:0:0:0:
232,112,121764,6,0,P|328:96|364:156,1,130.000000596046,0|0,0:0|0:0,0:0:0:0:
440,160,122470,1,2,0:0:0:0:
384,240,122823,2,0,P|304:208|288:152,1,130.000000596046,2|2,0:0|0:0,0:0:0:0:
280,72,123529,5,2,0:0:0:0:
176,48,123882,2,0,P|80:32|44:92,1,130.000000596046
64,152,124588,1,0,0:0:0:0:
72,256,124941,2,0,P|144:216|160:152,1,130.000000596046,2|8,0:0|0:0,0:0:0:0:
400,192,126000,5,0,0:0:0:0:
352,128,126352,1,8,0:0:0:0:
304,192,126705,1,0,0:0:0:0:
112,192,127411,5,8,0:0:0:0:
160,128,127763,1,0,0:0:0:0:
208,192,128116,1,8,0:0:0:0:
368,328,128823,5,8,0:0:0:0:
160,328,129529,1,8,0:0:0:0:
216,232,130235,6,0,P|152:272|88:256,2,130.000000596046,8|0|8,0:0|0:0|0:0,0:0:0:0:
296,232,131647,6,0,P|360:272|424:256,2,130.000000596046,8|0|8,0:0|0:0|0:0,0:0:0:0:
344,152,133058,6,0,B|376:72|296:112|272:176|256:88|240:176|216:112|144:72|168:160,2,260.000001192092,0|0|4,0:0|0:0|0:0,0:0:0:0:
152,248,135176,5,4,0:0:0:0:
256,296,135529,1,4,0:0:0:0:
360,248,135882,5,4,0:0:0:0:
384,104,136235,2,0,P|336:128|296:128,1,65.000000298023,0|8,0:0|0:0,0:0:0:0:
184,96,136764,2,0,P|232:72|272:72,1,65.000000298023,0|8,0:0|0:0,0:0:0:0:
112,136,137294,6,0,L|112:216,2,65.000000298023,0|0|8,0:0|0:0|0:0,0:0:0:0:
136,280,138000,2,0,B|168:280|168:280|216:272,2,65.000000298023,0|8|8,0:0|0:0|0:0,0:0:0:0:
272,232,138705,2,0,B|336:224|336:224|416:232,1,130.000000596046,0|8,0:0|0:0,0:0:0:0:
424,296,139235,2,2,B|360:312|360:312|303:341,2,130.000000596046,2|2|0,0:0|0:0|0:0,0:0:0:0:
480,256,140117,2,0,B|488:192|488:192|480:112,1,130.000000596046,8|0,0:0|0:0,0:0:0:0:
344,88,140823,6,0,B|264:112|264:112|200:96,2,130.000000596046,2|8|2,0:0|0:0|0:0,0:0:0:0:
304,224,141882,1,8,0:0:0:0:
432,296,142235,1,2,0:0:0:0:
304,224,142588,2,0,P|240:248|184:224,2,130.000000596046,8|2|8,0:0|0:0|0:0,0:0:0:0:
192,136,143647,6,2,P|120:168|168:312,2,260.000001192092
480,104,145764,2,0,B|496:168|496:168|480:240,1,130.000000596046,0|8,0:0|0:0,0:0:0:0:
352,176,146470,2,0,B|336:240|336:240|352:312,2,130.000000596046,0|2|0,0:0|0:0|0:0,0:0:0:0:
256,72,147529,2,0,B|240:136|272:136|256:200,2,130.000000596046,8|0|2,0:0|0:0|0:0,0:0:0:0:
400,48,148588,5,0,0:0:0:0:
436,172,148941,1,8,0:0:0:0:
304,204,149294,2,0,B|288:260|236:260|236:260|236:260|396:344,1,260.000001192092,2|0,0:0|0:0,0:0:0:0:
256,88,150529,1,0,0:0:0:0:
192,112,150705,2,0,P|120:136|64:128,1,130.000000596046,2|0,0:0|0:0,0:0:0:0:
176,224,151411,6,0,L|248:256,1,65.000000298023,8|0,0:0|0:0,0:0:0:0:
400,144,152117,1,0,0:0:0:0:
344,152,152294,2,0,P|304:128|208:136,1,130.000000596046,2|2,0:0|0:0,0:0:0:0:
152,144,152823,6,0,P|88:144|24:96,2,130.000000596046,8|0|0,0:0|0:0|0:0,0:0:0:0:
272,224,153882,2,0,P|336:224|400:272,2,130.000000596046
256,192,154941,12,4,157058,0:0:0:0:
176,128,157764,5,4,0:0:0:0:
256,88,158117,1,12,0:0:0:0:
336,128,158470,1,4,0:0:0:0:
424,64,158823,6,0,P|440:144|424:192,1,130.000000596046,8|0,0:0|0:0,0:0:0:0:
336,128,159529,2,0,P|320:208|336:256,1,130.000000596046,8|0,0:0|0:0,0:0:0:0:
232,256,160235,1,8,0:0:0:0:
224,256,160588,1,0,0:0:0:0:
144,208,160941,1,8,0:0:0:0:
188,180,161117,1,0,0:0:0:0:
224,160,161294,1,0,0:0:0:0:
144,96,161647,1,8,0:0:0:0:
224,48,162000,1,0,0:0:0:0:
416,120,162705,6,0,B|384:208|344:176|344:176|312:208|280:176|248:208|248:208|200:192,1,260.000001192092,8|8,0:0|0:0,0:0:0:0:
184,144,163588,2,0,P|144:160|112:216,1,65.000000298023,0|8,0:0|0:0,0:0:0:0:
56,256,164117,2,0,B|184:304|184:208|328:256,1,260.000001192092,0|8,0:0|0:0,0:0:0:0:
352,280,165000,2,0,P|400:236|400:200,1,65.000000298023,0|8,0:0|0:0,0:0:0:0:
416,192,165352,1,0,0:0:0:0:
400,144,165529,1,8,0:0:0:0:
360,48,165882,1,2,0:0:0:0:
256,48,166235,6,0,B|212:148|304:148|248:256,1,195.000000894069,8|0,0:0|0:0,0:0:0:0:
196,224,166941,2,0,P|100:232|20:208,1,130.000000596046,8|2,0:0|0:0,0:0:0:0:
144,352,167647,1,8,0:0:0:0:
288,328,168000,5,8,0:0:0:0:
344,288,168176,1,0,0:0:0:0:
384,232,168352,1,8,0:0:0:0:
248,192,168705,1,8,0:0:0:0:
384,152,169058,1,8,0:0:0:0:
248,112,169411,1,8,0:0:0:0:
112,56,169764,6,8,P|56:120|176:152,1,260.000001192092,8|2,0:0|0:0,0:0:0:0:
288,64,170823,2,0,P|368:40|400:32,1,65.000000298023,2|0,0:0|0:0,0:0:0:0:
424,32,171176,2,8,P|472:112|456:184,1,130.000000596046,2|8,0:0|0:0,0:0:0:0:
328,136,171882,2,0,B|248:184|184:184|144:104|72:136|64:192,1,260.000001192092,8|8,0:0|0:0,0:0:0:0:
32,216,172764,1,0,0:0:0:0:
80,272,172941,6,0,L|248:280,1,130.000000596046,2|8,0:0|0:0,0:0:0:0:
328,192,173647,2,0,L|160:200,1,130.000000596046,2|8,0:0|0:0,0:0:0:0:
80,112,174352,2,0,L|248:120,2,130.000000596046,2|8|8,0:0|0:0|0:0,0:0:0:0:
8,152,175411,5,2,0:0:0:0:
64,208,175764,2,0,L|216:208,1,130.000000596046,8|2,0:0|0:0,0:0:0:0:
318,208,176470,2,0,L|448:208,1,130.000000596046,8|2,0:0|0:0,0:0:0:0:
384,80,177176,1,8,3:2:0:0:
256,144,177529,6,0,P|184:160|112:136,1,130.000000596046,0|8,0:0|0:0,0:0:0:0:
256,144,178235,2,0,P|328:160|400:136,1,130.000000596046,0|8,0:0|0:0,0:0:0:0:
256,216,178941,1,2,0:0:0:0:
256,192,179294,8,2,181058,0:0:0:0:
168,208,181764,6,0,P|192:136|376:168,1,260.000001192092,8|2,0:0|0:0,0:0:0:0:
448,320,183176,5,8,0:0:0:0:
344,176,183882,6,0,P|320:248|136:216,1,260.000001192092,2|8,0:0|0:0,0:0:0:0:
64,64,185294,5,2,0:0:0:0:
160,32,185647,1,8,0:0:0:0:
256,64,186000,1,8,0:0:0:0:
216,144,186705,6,2,P|136:136|184:264,1,260.000001192092
296,184,188117,6,2,P|376:176|328:304,1,260.000001192092
216,184,189529,6,0,B|160:200|112:184|112:184|80:248|112:304|176:312,1,260.000001192092,2|2,0:0|0:0,0:0:0:0:
296,232,190941,6,0,B|352:248|400:232|400:232|432:296|400:352|336:360,1,260.000001192092,2|2,0:0|0:0,0:0:0:0:
248,336,192000,5,0,0:0:0:0:
200,312,192176,1,0,0:0:0:0:
168,272,192352,2,0,P|152:192|192:112,2,130.000000596046,8|0|8,0:0|0:0|0:0,0:0:0:0:
312,120,193764,5,8,0:0:0:0:
352,216,194117,1,2,0:0:0:0:
448,168,194470,1,8,0:0:0:0:
408,72,194823,1,8,0:0:0:0:
360,56,195000,1,2,0:0:0:0:
312,72,195176,1,2,0:0:0:0:
104,312,196235,5,8,0:0:0:0:
152,328,196412,1,2,0:0:0:0:
200,312,196588,1,2,0:0:0:0:
104,136,198000,6,2,B|120:208|72:248|72:248|144:240|224:296,1,260.000001192092
408,136,199411,2,2,B|392:208|440:248|440:248|368:240|309:281,1,260.000001192092
256,192,200470,12,4,202235,3:2:0:0:
256,192,223411,12,4,224823,0:0:0:0:
128,56,225529,5,4,0:0:0:0:
128,56,225882,1,4,0:0:0:0:
4,100,226235,5,0,0:0:0:0:
56,216,226588,2,0,P|120:232|144:224,1,65.000000298023
168,232,226941,2,0,P|256:224|304:192,1,130.000000596046
336,272,227647,5,0,0:0:0:0:
416,280,228000,2,0,P|472:248|480:232,1,48.7500020831822
488,216,228352,2,0,P|480:120|432:80,1,130.000000596046
288,96,229058,5,0,0:0:0:0:
144,112,229411,2,0,P|72:152|16:128,1,130.000000596046
368,112,230117,2,0,P|440:152|496:128,2,130.000000596046
368,256,231176,6,0,L|288:304,1,65.000000298023
240,296,231529,2,0,P|240:272|288:224,1,65.000000298023
280,168,231882,6,0,B|168:176|232:64|96:80,1,195.000000894069
128,152,232588,1,0,0:0:0:0:
384,272,233294,5,0,0:0:0:0:
240,272,233647,1,0,0:0:0:0:
152,160,234000,1,0,0:0:0:0:
256,56,234352,1,0,0:0:0:0:
360,160,234705,1,0,0:0:0:0:
224,200,235058,5,0,0:0:0:0:
288,328,235411,1,0,0:0:0:0:
296,184,235764,5,0,0:0:0:0:
216,304,236117,1,0,0:0:0:0:
152,272,236294,1,0,0:0:0:0:
96,224,236470,2,0,P|96:152|144:120,1,130.000000596046,0|0,0:0|0:0,0:0:0:0:
240,104,237176,6,0,L|408:104,1,130.000000596046,0|4,0:0|0:0,0:0:0:0:
456,40,237882,2,0,P|480:112|456:168,1,130.000000596046
368,200,238588,6,0,L|224:224,1,130.000000596046,0|0,0:0|0:0,0:0:0:0:
136,192,239294,1,0,0:0:0:0:
64,120,239647,2,0,L|-16:128,2,65.000000298023
168,96,240352,1,0,0:0:0:0:
256,96,247411,5,4,0:0:0:0:
216,176,248117,6,0,L|208:240,1,65.000000298023,4|0,0:0|0:0,0:0:0:0:
296,208,248470,6,0,L|304:136,1,65.000000298023,4|0,0:0|0:0,0:0:0:0:
256,192,248823,12,0,256588,0:0:0:0:
