osu file format v14

[General]
AudioFilename: [HD] Epic Trance - Bad Apple!! (REDALiCE Remix).mp3
AudioLeadIn: 0
PreviewTime: 158490
Countdown: 0
SampleSet: Soft
StackLeniency: 0.7
Mode: 3
LetterboxInBreaks: 1
EpilepsyWarning: 1
SpecialStyle: 0
WidescreenStoryboard: 1

[Editor]
DistanceSpacing: 1
BeatDivisor: 4
GridSize: 32
TimelineZoom: 1

[Metadata]
Title:Bad Apple!! (REDALiCE Remix)
TitleUnicode:Bad Apple!! (REDALiCE Remix)
Artist:Masayoshi Minoshima
ArtistUnicode:簑島 正佳
Creator:Evening
Version:KK's 4K Lv.4
Source:Touhou
Tags:Gensoukyou Lotus Land Story nomico Lovelight Trois Noir CoroQuetz Soldsaga KunG neonat Kuo Kyoka Papcio GetxOriginal
BeatmapID:349995
BeatmapSetID:132824

[Difficulty]
HPDrainRate:6
CircleSize:4
OverallDifficulty:6
ApproachRate:5
SliderMultiplier:1.9599999666214
SliderTickRate:1

[Events]
//Background and Video events
0,0,"badappleKK.jpg",0,0
//Break Periods
//Storyboard Layer 0 (Background)
//Storyboard Layer 1 (Fail)
//Storyboard Layer 2 (Pass)
//Storyboard Layer 3 (Foreground)
Sprite,Foreground,Centre,"Warning.png",320,240 F,0,223411,223433,0,1 S,0,223433,,0.5578184 F,0,223433,223764,1 M,0,223764,,320,256 F,0,223764,223786,1,0 F,0,223786,224117,0 F,0,224117,224139,0,1 F,0,224139,224448,1 F,0,224448,224470,1,0 F,0,224470,224823,0 F,0,224823,224845,0,1 F,0,224845,225154,1 F,0,225154,225176,1,0 F,0,225176,225529,0 F,0,225529,225551,0,1 F,0,225551,225860,1 F,0,225860,225882,1,0
Sprite,Foreground,Centre,"Warning.png",320,240 M,0,3917,3932,260,256 M,0,3932,3948,260,256 M,0,3948,3963,260,256 M,0,3963,3978,260,256 M,0,3978,3994,260,256 M,0,3994,15533,260,256,268,254 M,0,15533,15549,268,254 M,0,15549,15566,268,254 M,0,15566,15581,268,254 M,0,15581,133147,268,254,320,256 F,0,133058,133080,0,1 S,0,133080,,0.5578184 F,0,133080,133411,1 F,0,133411,133433,1,0 F,0,133433,133764,0 F,0,133764,133786,0,1 F,0,133786,134095,1 F,0,134095,134117,1,0 F,0,134117,134470,0 F,0,134470,134492,0,1 F,0,134492,134801,1 F,0,134801,134823,1,0 F,0,134823,135176,0 F,0,135176,135198,0,1 F,0,135198,135507,1 F,0,135507,135529,1,0
Sprite,Foreground,Centre,"Alt_SB\DJNightmare.png",320,240 M,0,6000,,320,240 F,0,6000,6022,0,0.9978182 F,0,6022,6044,0.9978182,0 F,0,6044,6066,0,1 F,0,6066,6088,1 F,0,6088,6110,1,0.4676364 F,0,6110,6132,0.4676364,0.6327305 F,0,6132,6154,0.6327305,0.2676987 F,0,6154,6176,0.2676987,0.8612748 F,0,6176,6198,0.8612748,0.5563967 F,0,6198,6220,0.5563967,1 F,0,6220,6264,1,0 F,0,6264,6286,0,0.9933167 F,0,6286,6308,0.9933167,0.4609813 F,0,6308,6330,0.4609813,1 F,0,6330,6374,1,0.5403636 F,0,6374,6397,0.5403636,1 F,0,6397,6441,1,0.5927274 F,0,6441,6485,0.5927274,1 F,0,6485,6529,1,0 F,0,6529,6551,0,1 F,0,6551,6595,1,0.205818 F,0,6595,6661,0.205818,0.5918428 F,0,6661,6683,0.5918428,0 F,0,6683,6705,0,0.5835048 F,0,6705,6749,0.5835048,0.1888052 F,0,6749,6794,0.1888052,1 F,0,6794,10235,1 M,0,10213,10235,320,240,320,105 M,0,10235,10257,320,105,320,240 F,0,10235,10257,1,0.5043756 F,0,10257,10279,0.5043756,0.0740919 M,0,10257,10566,320,240 F,0,10279,10301,0.0740919,1 F,0,10301,10345,1,0.4065454 F,0,10345,10522,0.4065454,1 F,0,10522,10610,1,0.1941817 M,0,10566,10588,320,240,320,401 M,0,10588,10610,320,401,320,240 F,0,10610,10742,0.1941817,0.8473198 M,0,10610,10875,320,240 M,0,10610,10897,320,240,146,388 F,0,10742,10808,0.8473198,0.4306162 F,0,10808,10874,0.4306162,1 F,0,10874,11007,1,0 M,0,10897,10919,146,388,320,240 M,0,10919,10941,320,240,438,134 M,0,10941,10963,438,134,320,240 M,0,10963,11117,320,240 F,0,11007,11051,0,0.2986687 F,0,11051,11117,0.2986687,0 M,0,11117,11139,320,240,134,240 F,0,11117,11139,0,1 M,0,11139,11161,134,240,320,240 F,0,11139,11183,1,0.1447272 M,0,11161,11272,320,240 F,0,11183,11249,0.1447272,1 F,0,11249,11272,1,0 M,0,11272,11294,320,240,523,240 F,0,11272,11294,0,1 M,0,11294,11316,523,240,320,240 F,0,11294,11316,1,0.05163635 F,0,11316,11338,0.05163635,0.4838441 M,0,11316,11382,320,240 F,0,11338,11360,0.4838441,0 F,0,11360,11382,0,1 M,0,11382,11404,320,240,147,240 F,0,11382,11404,1,0.3367273 M,0,11404,11426,147,240,320,240 F,0,11404,11448,0.3367273,0 M,0,11426,11492,320,240 F,0,11448,11470,0,1 F,0,11470,11492,1,0.09897875 M,0,11492,11514,320,240,466,240 F,0,11492,11514,0.09897875,1 M,0,11514,11536,466,240,320,240 F,0,11514,11536,1,0.2033138 F,0,11536,11558,0.2033138,1 M,0,11536,11602,320,240 F,0,11558,11580,1,0 F,0,11580,11602,0,0.2530909 F,0,11602,11624,0.2530909,0 M,0,11602,11625,320,240,41,240 F,0,11624,11647,0 M,0,11625,11647,41,240,320,240 M,0,11647,11669,320,240
Sprite,Foreground,Centre,"Alt_SB\lZenxl.png",320,240 M,0,353,,320,240 F,0,353,375,0,1 F,0,375,397,1,0 F,0,397,419,0,1 F,0,419,441,1 F,0,441,463,1,0.4676364 F,0,463,485,0.4676364,0.6327305 F,0,485,507,0.6327305,0.2676987 F,0,507,529,0.2676987,0.8612748 F,0,529,551,0.8612748,0.5563967 F,0,551,573,0.5563967,1 F,0,573,617,1,0 F,0,617,639,0,1 F,0,639,661,1,0.4609813 F,0,661,683,0.4609813,1 F,0,683,727,1,0.5403636 F,0,727,750,0.5403636,1 F,0,750,794,1,0.5927274 F,0,794,838,0.5927274,1 F,0,838,882,1,0 F,0,882,904,0,1 F,0,904,948,1,0.205818 F,0,948,1014,0.205818,0.5918428 F,0,1014,1036,0.5918428,0 F,0,1036,1058,0,0.5835048 F,0,1058,1102,0.5835048,0.1888052 F,0,1102,1147,0.1888052,1 F,0,1147,4588,1 F,0,4588,4610,1,0.5043756 F,0,4610,4632,0.5043756,0 F,0,4632,4654,0,1 F,0,4654,4698,1,0.4065454 F,0,4698,4875,0.4065454,1 F,0,4875,4963,1,0.1941817 F,0,4963,5095,0.1941817,0.8473198 F,0,5095,5161,0.8473198,0.4306162 F,0,5161,5227,0.4306162,1 F,0,5227,5360,1,0 F,0,5360,5404,0,0.2986687 F,0,5404,5470,0.2986687,0 F,0,5470,5492,0,1 F,0,5492,5536,1,0.1447272 F,0,5536,5602,0.1447272,1 F,0,5602,5625,1,0 F,0,5625,5647,0,1 F,0,5647,5669,1,0.05163635 F,0,5669,5691,0.05163635,0.4838441 F,0,5691,5713,0.4838441,0 F,0,5713,5735,0,1 F,0,5735,5757,1,0.3367273 F,0,5757,5801,0.3367273,0 F,0,5801,5823,0,1 F,0,5823,5845,1,0 F,0,5845,5867,0,1 F,0,5867,5889,1,0.2033138 F,0,5889,5911,0.2033138,1 F,0,5911,5933,1,0 F,0,5933,5955,0,0.2530909 F,0,5955,5977,0.2530909,0 F,0,5977,6000,0
Sprite,Foreground,Centre,"Alt_SB\GD.png",320,240 M,0,11647,,93,240 S,0,11647,,1 F,0,20117,20382,1 M,2,20117,20470,93,240,-434,240 F,0,20382,20470,1,0
Sprite,Foreground,Centre,"Alt_SB\GDer.png",320,240 F,0,11647,,1 M,0,11647,12794,521,46 M,2,12794,13058,521,46,521,124 M,0,13058,13147,521,124 M,0,13147,14205,521,124 M,2,14205,14470,521,124,521,203 M,0,14470,14558,521,203 M,0,14558,15617,521,203 M,2,15617,15882,521,203,521,285 M,0,15882,15970,521,285 M,0,15970,17029,521,285 M,2,17029,17294,521,285,521,366 M,0,17294,17382,521,366 M,0,17382,18441,521,366 M,2,18441,18705,521,366,521,452 M,0,18705,18794,521,452 M,0,18794,20117,521,452 F,0,20117,20382,1 M,0,20117,20470,521,452,1036,452 F,0,20382,20470,1,0
Sprite,Foreground,Centre,"Bar.png",320,240 F,0,21882,,1 M,0,21882,21904,320,217,313,306 M,0,21904,21926,313,306,289,210 M,0,21926,21948,289,210,287,245 M,0,21948,21970,287,245,285,185 M,0,21970,21992,285,185,283,234 M,0,21992,22036,283,234,261,92 M,0,22036,22058,261,92,271,145 M,0,22058,22080,271,145,279,100 M,0,22080,22102,279,100,275,132 M,0,22102,22125,275,132,278,76 M,0,22125,22169,278,76,281,337 M,0,22169,22191,281,337,279,278 M,0,22191,22213,279,278,279,244 M,0,22213,22235,279,244,277,305
Sprite,Foreground,Centre,"Alt_SB\Badapple.png",320,240 M,0,22235,,320,240 F,0,22235,22279,0,1 S,0,22235,22588,5,0.3483634 F,0,22279,22588,1 F,0,22588,32823,1 R,0,22588,41294,0,6.283637 F,0,32823,33882,1,0.6654546 F,0,33882,34235,0.6654546,1 F,0,34235,41294,1 F,0,41294,41338,1,0.6625454 R,2,41294,44470,6.283637,50 F,0,41338,41382,0.6625454,1 F,0,41382,41426,1,0.7847273 F,0,41426,41470,0.7847273,1 F,0,41470,41514,1,0.6625454 F,0,41514,41558,0.6625454,1 F,0,41558,41602,1,0.6625454 F,0,41602,41647,0.6625454,1 F,0,41647,41691,1,0.7149091 F,0,41691,41735,0.7149091,1 F,0,41735,41779,1,0.7265454 F,0,41779,41823,0.7265454,1 F,0,41823,41867,1,0.7149091 F,0,41867,41911,0.7149091,1 F,0,41911,41955,1,0.6654546 F,0,41955,42000,0.6654546,1 F,0,42000,42044,1,0.5927272 F,0,42044,42088,0.5927272,1 F,0,42088,42132,1,0.4298183 F,0,42132,42176,0.4298183,1 F,0,42176,42220,1,0.6450909 F,0,42220,42264,0.6450909,1 F,0,42264,42308,1,0.5403636 F,0,42308,42352,0.5403636,1 F,0,42352,42397,1,0.7236363 F,0,42397,42441,0.7236363,1 F,0,42441,42485,1,0.6741818 F,0,42485,42529,0.6741818,1 F,0,42529,42573,1,0.6741818 F,0,42573,42617,0.6741818,1 F,0,42617,42661,1,0.426909 F,0,42661,42705,0.426909,1 F,0,42705,42750,1,0.3978181 F,0,42750,42794,0.3978181,1 F,0,42794,42838,1,0.6247272 F,0,42838,42882,0.6247272,1 F,0,42882,42926,1,0.6130908 F,0,42926,42970,0.6130908,1 F,0,42970,43014,1,0.5287273 F,0,43014,43058,0.5287273,1 F,0,43058,43102,1,0.2378182 F,0,43102,43147,0.2378182,1 F,0,43147,43191,1,0 F,0,43191,43235,0,1 F,0,43235,43279,1,0 F,0,43279,43323,0,1 F,0,43323,43367,1,0 F,0,43367,43411,0,1 F,0,43411,43455,1,0 F,0,43455,43500,0,1 F,0,43500,43544,1,0 F,0,43544,43588,0,1 F,0,43588,43632,1,0 F,0,43632,43676,0,1 F,0,43676,43720,1,0 F,0,43720,43764,0,1 F,0,43764,43808,1,0 F,0,43808,43852,0,1 F,0,43852,43897,1,0 F,0,43897,43941,0,1 F,0,43941,43985,1,0 F,0,43985,44029,0,1 F,0,44029,44073,1,0 F,0,44073,44117,0,1 F,1,44117,44205,1,0 S,1,44117,44470,0.3483634,1.203636 F,0,44205,44470,0
Sprite,Foreground,Centre,"Alt_SB\Badapple.png",320,240 F,0,22588,25764,1,0 S,1,22588,25764,0.348364,0.5752732
//Storyboard Sound Samples

[TimingPoints]
353,352.941176470588,4,2,2,60,1,0
45529,-100,4,2,2,60,0,1
66705,-100,4,2,2,60,0,0
113294,-100,4,2,2,60,0,1
113382,-100,4,2,2,60,0,0
135882,-100,4,2,2,60,0,1
157058,-100,4,2,2,60,0,0
226235,-100,4,2,2,60,0,1
248823,-100,4,2,2,60,0,0

[HitObjects]
475,192,353,5,0,0:0:0:0:
36,192,353,128,0,1058:0:0:0:0:
329,192,705,1,2,0:0:0:0:
182,192,1058,1,0,0:0:0:0:
256,192,1411,1,2,0:0:0:0:
448,192,1764,1,0,0:0:0:0:
192,192,2117,1,2,0:0:0:0:
64,192,2470,1,0,0:0:0:0:
320,192,2823,1,2,0:0:0:0:
192,192,3176,1,0,0:0:0:0:
448,192,3529,1,2,0:0:0:0:
182,192,3882,1,0,0:0:0:0:
64,192,4235,1,2,0:0:0:0:
320,192,4588,1,0,0:0:0:0:
402,192,4941,1,2,0:0:0:0:
109,192,5294,1,0,0:0:0:0:
256,192,5647,1,2,0:0:0:0:
64,192,6000,128,0,6705:0:0:0:0:
402,192,6000,1,0,0:0:0:0:
256,192,6352,1,2,0:0:0:0:
192,192,6705,1,0,0:0:0:0:
448,192,7058,1,2,0:0:0:0:
182,192,7411,1,0,0:0:0:0:
64,192,7764,1,2,0:0:0:0:
256,192,8117,1,0,0:0:0:0:
475,192,8470,1,2,0:0:0:0:
109,192,8823,1,0,0:0:0:0:
402,192,9176,1,2,0:0:0:0:
256,192,9529,1,0,0:0:0:0:
36,192,9882,1,2,0:0:0:0:
329,192,10235,1,0,0:0:0:0:
109,192,10588,1,0,0:0:0:0:
475,192,10941,1,0,0:0:0:0:
182,192,11294,1,0,0:0:0:0:
329,192,11647,1,0,0:0:0:0:
36,192,11647,128,0,12352:0:0:0:0:
182,192,12000,1,2,0:0:0:0:
256,192,12352,1,0,0:0:0:0:
475,192,12705,1,2,0:0:0:0:
329,192,13058,1,0,0:0:0:0:
402,192,13411,1,2,0:0:0:0:
182,192,13764,1,0,0:0:0:0:
36,192,14117,1,2,0:0:0:0:
448,192,14470,1,0,0:0:0:0:
256,192,14823,1,2,0:0:0:0:
182,192,15176,1,0,0:0:0:0:
64,192,15529,1,2,0:0:0:0:
448,192,15882,1,0,0:0:0:0:
64,192,16235,1,0,0:0:0:0:
448,192,16588,1,0,0:0:0:0:
109,192,16941,1,0,0:0:0:0:
320,192,17294,128,0,18000:0:0:0:0:
402,192,17294,1,0,0:0:0:0:
36,192,17647,1,2,0:0:0:0:
448,192,18000,1,0,0:0:0:0:
192,192,18352,1,2,0:0:0:0:
109,192,18705,1,0,0:0:0:0:
402,192,19058,1,2,0:0:0:0:
256,192,19411,1,0,0:0:0:0:
64,192,19764,1,2,0:0:0:0:
182,192,20117,1,0,0:0:0:0:
36,192,20470,1,2,0:0:0:0:
256,192,20823,1,0,0:0:0:0:
475,192,21176,1,2,0:0:0:0:
36,192,21529,128,0,22588:0:0:0:0:
329,192,21529,1,0,0:0:0:0:
475,192,22588,128,0,28588:0:0:0:0:
329,192,22941,1,2,0:0:0:0:
182,192,23294,1,0,0:0:0:0:
36,192,23647,1,2,0:0:0:0:
36,192,24176,1,2,0:0:0:0:
36,192,24705,1,2,0:0:0:0:
36,192,25235,1,2,0:0:0:0:
36,192,25588,1,2,0:0:0:0:
256,192,25941,1,0,0:0:0:0:
36,192,26294,1,2,0:0:0:0:
182,192,26647,1,0,0:0:0:0:
36,192,27000,1,2,0:0:0:0:
64,192,28588,128,0,29294:0:0:0:0:
192,192,28588,1,2,0:0:0:0:
320,192,28941,1,0,0:0:0:0:
182,192,29294,1,2,0:0:0:0:
320,192,29823,1,2,0:0:0:0:
182,192,30352,1,2,0:0:0:0:
448,192,30882,1,2,0:0:0:0:
182,192,31235,1,2,0:0:0:0:
320,192,31588,1,0,0:0:0:0:
36,192,31941,1,2,0:0:0:0:
182,192,32294,1,0,0:0:0:0:
329,192,32647,1,2,0:0:0:0:
475,192,33000,128,0,34235:0:0:0:0:
256,192,34235,1,2,0:0:0:0:
182,192,34235,128,0,34941:0:0:0:0:
64,192,34588,1,0,0:0:0:0:
402,192,34941,1,2,0:0:0:0:
402,192,35470,1,2,0:0:0:0:
402,192,36000,1,2,0:0:0:0:
402,192,36529,1,2,0:0:0:0:
402,192,36882,1,2,0:0:0:0:
448,192,37235,1,0,0:0:0:0:
448,192,39176,128,0,39882:0:0:0:0:
36,192,39882,128,0,40588:0:0:0:0:
192,192,39882,1,2,0:0:0:0:
329,192,40235,1,0,0:0:0:0:
182,192,40588,1,2,0:0:0:0:
182,192,41117,1,2,0:0:0:0:
182,192,41647,1,2,0:0:0:0:
182,192,42176,1,2,0:0:0:0:
182,192,42529,1,2,0:0:0:0:
320,192,42705,128,0,44117:0:0:0:0:
402,192,44117,128,0,44823:0:0:0:0:
320,192,44823,128,0,45529:0:0:0:0:
192,192,45529,128,0,46235:0:0:0:0:
64,192,45529,1,4,0:0:0:0:
448,192,45882,1,8,0:0:0:0:
320,192,46235,1,0,0:0:0:0:
36,192,46588,1,8,0:0:0:0:
320,192,46941,1,0,0:0:0:0:
182,192,47294,1,8,0:0:0:0:
256,192,47647,1,0,0:0:0:0:
64,192,48000,1,8,0:0:0:0:
182,192,48352,128,0,49058:0:0:0:0:
402,192,48352,1,0,0:0:0:0:
329,192,48705,1,8,0:0:0:0:
475,192,49058,1,0,0:0:0:0:
64,192,49411,1,8,0:0:0:0:
402,192,49764,1,0,0:0:0:0:
329,192,50117,1,8,0:0:0:0:
448,192,50470,1,0,0:0:0:0:
64,192,50470,128,0,51176:0:0:0:0:
182,192,50823,1,8,0:0:0:0:
448,192,51176,128,0,51882:0:0:0:0:
256,192,51176,1,4,0:0:0:0:
192,192,51529,1,8,0:0:0:0:
109,192,51882,1,0,0:0:0:0:
192,192,52235,1,8,0:0:0:0:
256,192,52588,1,0,0:0:0:0:
36,192,52941,1,8,0:0:0:0:
182,192,53294,1,0,0:0:0:0:
329,192,53647,1,8,0:0:0:0:
182,192,54000,128,0,54705:0:0:0:0:
475,192,54000,1,0,0:0:0:0:
329,192,54352,1,8,0:0:0:0:
109,192,54705,1,0,0:0:0:0:
256,192,55058,1,8,0:0:0:0:
448,192,55411,1,0,0:0:0:0:
320,192,55764,1,8,0:0:0:0:
448,192,56117,128,0,56823:0:0:0:0:
64,192,56117,1,0,0:0:0:0:
192,192,56470,1,8,0:0:0:0:
320,192,56823,128,0,57529:0:0:0:0:
64,192,56823,1,4,0:0:0:0:
182,192,57176,1,8,0:0:0:0:
475,192,57529,1,0,0:0:0:0:
64,192,57882,1,8,0:0:0:0:
402,192,58235,1,0,0:0:0:0:
320,192,58588,1,8,0:0:0:0:
182,192,58941,1,0,0:0:0:0:
64,192,59294,1,8,0:0:0:0:
320,192,59647,128,0,60352:0:0:0:0:
448,192,59647,1,0,0:0:0:0:
64,192,60000,1,8,0:0:0:0:
448,192,60352,1,0,0:0:0:0:
182,192,60705,1,8,0:0:0:0:
64,192,61058,1,0,0:0:0:0:
256,192,61411,1,8,0:0:0:0:
448,192,61764,128,0,62470:0:0:0:0:
192,192,61764,1,0,0:0:0:0:
64,192,62117,1,8,0:0:0:0:
256,192,62470,128,0,63176:0:0:0:0:
182,192,62470,1,4,0:0:0:0:
36,192,62823,1,8,0:0:0:0:
448,192,63176,1,0,0:0:0:0:
192,192,63529,1,8,0:0:0:0:
329,192,63882,1,0,0:0:0:0:
182,192,64235,1,8,0:0:0:0:
475,192,64588,1,0,0:0:0:0:
256,192,64941,1,8,0:0:0:0:
448,192,65294,128,0,66000:0:0:0:0:
36,192,65294,1,0,0:0:0:0:
182,192,65647,1,8,0:0:0:0:
329,192,66000,1,0,0:0:0:0:
192,192,66352,1,8,0:0:0:0:
64,192,66705,1,4,0:0:0:0:
256,192,67411,128,0,67764:0:0:0:0:
192,192,67411,1,2,0:0:0:0:
402,192,67764,1,2,0:0:0:0:
64,192,68117,128,0,68823:0:0:0:0:
192,192,68117,1,4,0:0:0:0:
320,192,68470,1,8,0:0:0:0:
448,192,68823,1,0,0:0:0:0:
256,192,69176,1,8,0:0:0:0:
192,192,69529,1,0,0:0:0:0:
448,192,69529,128,0,69882:0:0:0:0:
329,192,69882,1,8,0:0:0:0:
36,192,70235,1,0,0:0:0:0:
256,192,70588,1,8,0:0:0:0:
448,192,70941,128,0,71647:0:0:0:0:
109,192,70941,1,4,0:0:0:0:
329,192,71294,1,8,0:0:0:0:
182,192,71647,1,0,0:0:0:0:
64,192,72000,1,8,0:0:0:0:
192,192,72352,1,4,0:0:0:0:
320,192,72352,128,0,73058:0:0:0:0:
448,192,72705,1,8,0:0:0:0:
182,192,73058,1,0,0:0:0:0:
448,192,73411,1,8,0:0:0:0:
64,192,73764,1,4,0:0:0:0:
320,192,73764,128,0,74470:0:0:0:0:
192,192,74117,1,8,0:0:0:0:
109,192,74470,1,0,0:0:0:0:
448,192,74823,1,8,0:0:0:0:
320,192,75176,1,0,0:0:0:0:
192,192,75176,128,0,75529:0:0:0:0:
448,192,75529,1,8,0:0:0:0:
64,192,75882,1,0,0:0:0:0:
256,192,76235,1,8,0:0:0:0:
475,192,76588,128,0,77294:0:0:0:0:
192,192,76588,1,4,0:0:0:0:
109,192,76941,1,8,0:0:0:0:
256,192,77294,1,0,0:0:0:0:
36,192,77647,1,8,0:0:0:0:
182,192,78000,1,0,0:0:0:0:
448,192,78000,128,0,79411:0:0:0:0:
320,192,78352,1,8,0:0:0:0:
64,192,78705,1,0,0:0:0:0:
192,192,79058,1,8,0:0:0:0:
320,192,79411,128,0,80117:0:0:0:0:
109,192,79411,1,4,0:0:0:0:
192,192,79764,1,8,0:0:0:0:
448,192,80117,1,0,0:0:0:0:
192,192,80470,1,8,0:0:0:0:
64,192,80823,1,0,0:0:0:0:
320,192,80823,128,0,81176:0:0:0:0:
192,192,81176,1,8,0:0:0:0:
64,192,81529,1,0,0:0:0:0:
329,192,81882,1,8,0:0:0:0:
182,192,82235,128,0,82941:0:0:0:0:
448,192,82235,1,4,0:0:0:0:
36,192,82588,1,8,0:0:0:0:
475,192,82941,1,0,0:0:0:0:
320,192,83294,1,8,0:0:0:0:
109,192,83647,1,4,0:0:0:0:
192,192,83647,128,0,84352:0:0:0:0:
448,192,84000,1,8,0:0:0:0:
256,192,84352,1,0,0:0:0:0:
64,192,84705,1,8,0:0:0:0:
475,192,85058,128,0,85764:0:0:0:0:
320,192,85058,1,4,0:0:0:0:
182,192,85411,1,8,0:0:0:0:
329,192,85764,1,0,0:0:0:0:
109,192,86117,1,8,0:0:0:0:
256,192,86470,1,0,0:0:0:0:
192,192,86470,128,0,86823:0:0:0:0:
402,192,86823,1,8,0:0:0:0:
64,192,87176,1,0,0:0:0:0:
329,192,87529,1,8,0:0:0:0:
36,192,87882,1,4,0:0:0:0:
192,192,87882,128,0,88588:0:0:0:0:
448,192,88235,1,8,0:0:0:0:
109,192,88588,1,0,0:0:0:0:
402,192,88941,1,8,0:0:0:0:
329,192,89294,1,0,0:0:0:0:
192,192,89294,128,0,90705:0:0:0:0:
475,192,89647,1,8,0:0:0:0:
64,192,90000,1,0,0:0:0:0:
448,192,90352,1,8,0:0:0:0:
109,192,90705,128,0,92117:0:0:0:0:
256,192,90705,1,4,0:0:0:0:
320,192,92117,128,0,92823:0:0:0:0:
182,192,92823,1,0,0:0:0:0:
402,192,93529,128,0,94941:0:0:0:0:
256,192,93529,1,0,0:0:0:0:
109,192,94941,128,0,95647:0:0:0:0:
182,192,95647,1,0,0:0:0:0:
329,192,96352,128,0,97764:0:0:0:0:
448,192,96352,1,0,0:0:0:0:
109,192,97764,128,0,98470:0:0:0:0:
256,192,98470,1,0,0:0:0:0:
36,192,99176,128,0,100588:0:0:0:0:
192,192,99176,1,0,0:0:0:0:
475,192,100588,128,0,101294:0:0:0:0:
329,192,101294,1,0,0:0:0:0:
448,192,102000,128,0,102705:0:0:0:0:
182,192,102000,1,4,0:0:0:0:
329,192,102705,1,4,0:0:0:0:
64,192,102882,1,4,0:0:0:0:
320,192,103411,128,0,104117:0:0:0:0:
182,192,103411,1,4,0:0:0:0:
36,192,104117,1,4,0:0:0:0:
448,192,104294,1,4,0:0:0:0:
192,192,104823,128,0,105529:0:0:0:0:
329,192,104823,1,4,0:0:0:0:
475,192,105529,1,4,0:0:0:0:
64,192,105705,1,4,0:0:0:0:
64,192,106235,128,0,106941:0:0:0:0:
329,192,106235,1,4,0:0:0:0:
182,192,106941,1,4,0:0:0:0:
320,192,107117,1,4,0:0:0:0:
192,192,107647,128,0,108352:0:0:0:0:
402,192,107647,1,4,0:0:0:0:
320,192,108352,1,4,0:0:0:0:
448,192,108529,1,4,0:0:0:0:
320,192,109058,128,0,109764:0:0:0:0:
192,192,109058,1,4,0:0:0:0:
64,192,109764,1,4,0:0:0:0:
448,192,109941,1,4,0:0:0:0:
448,192,110470,128,0,111882:0:0:0:0:
192,192,110470,1,2,0:0:0:0:
64,192,111882,1,0,0:0:0:0:
320,192,112941,1,0,0:0:0:0:
448,192,112941,128,0,113294:0:0:0:0:
192,192,113294,128,0,114705:0:0:0:0:
64,192,113294,1,4,0:0:0:0:
320,192,113647,1,8,0:0:0:0:
64,192,114000,1,0,0:0:0:0:
329,192,114352,1,8,0:0:0:0:
448,192,114705,1,0,0:0:0:0:
256,192,115058,1,8,0:0:0:0:
182,192,115411,1,0,0:0:0:0:
320,192,115764,1,8,0:0:0:0:
192,192,116117,128,0,117529:0:0:0:0:
402,192,116117,1,4,0:0:0:0:
256,192,116470,1,8,0:0:0:0:
109,192,116823,1,0,0:0:0:0:
329,192,117176,1,8,0:0:0:0:
448,192,117529,1,0,0:0:0:0:
64,192,117882,1,8,0:0:0:0:
192,192,118235,1,0,0:0:0:0:
320,192,118588,1,8,0:0:0:0:
448,192,118941,128,0,120352:0:0:0:0:
192,192,118941,1,4,0:0:0:0:
36,192,119294,1,8,0:0:0:0:
182,192,119647,1,0,0:0:0:0:
320,192,120000,1,8,0:0:0:0:
64,192,120352,1,0,0:0:0:0:
256,192,120705,1,8,0:0:0:0:
475,192,121058,1,0,0:0:0:0:
329,192,121411,1,8,0:0:0:0:
182,192,121764,128,0,123176:0:0:0:0:
109,192,121764,1,4,0:0:0:0:
402,192,122117,1,8,0:0:0:0:
256,192,122470,1,0,0:0:0:0:
36,192,122823,1,8,0:0:0:0:
329,192,123176,1,0,0:0:0:0:
109,192,123529,1,8,0:0:0:0:
256,192,123882,1,0,0:0:0:0:
192,192,124235,1,8,0:0:0:0:
475,192,124588,128,0,126000:0:0:0:0:
320,192,124588,1,4,0:0:0:0:
64,192,124941,1,8,0:0:0:0:
192,192,125294,1,0,0:0:0:0:
256,192,125647,1,8,0:0:0:0:
192,192,126000,1,0,0:0:0:0:
64,192,126352,1,8,0:0:0:0:
182,192,126705,1,0,0:0:0:0:
329,192,127058,1,8,0:0:0:0:
64,192,127411,128,0,128823:0:0:0:0:
448,192,127411,1,4,0:0:0:0:
256,192,127764,1,8,0:0:0:0:
182,192,128117,1,0,0:0:0:0:
402,192,128470,1,8,0:0:0:0:
329,192,128823,1,0,0:0:0:0:
475,192,129176,1,8,0:0:0:0:
256,192,129529,1,0,0:0:0:0:
182,192,129882,1,8,0:0:0:0:
64,192,130235,128,0,131647:0:0:0:0:
448,192,130235,1,4,0:0:0:0:
329,192,130588,1,8,0:0:0:0:
182,192,130941,1,0,0:0:0:0:
256,192,131294,1,8,0:0:0:0:
448,192,131647,1,4,0:0:0:0:
192,192,132000,1,8,0:0:0:0:
109,192,132352,1,0,0:0:0:0:
192,192,132705,1,8,0:0:0:0:
256,192,133058,128,0,134470:0:0:0:0:
402,192,133058,1,4,0:0:0:0:
182,192,133411,1,8,0:0:0:0:
36,192,133764,1,0,0:0:0:0:
192,192,134117,1,8,0:0:0:0:
475,192,134470,1,0,0:0:0:0:
192,192,135176,128,0,135882:0:0:0:0:
320,192,135529,1,0,0:0:0:0:
64,192,135882,128,0,138352:0:0:0:0:
475,192,135882,1,4,0:0:0:0:
329,192,136235,1,8,0:0:0:0:
192,192,136588,1,0,0:0:0:0:
402,192,136941,1,8,0:0:0:0:
256,192,137294,1,0,0:0:0:0:
448,192,137647,1,8,0:0:0:0:
182,192,138000,1,0,0:0:0:0:
256,192,138352,1,8,0:0:0:0:
448,192,138705,128,0,140823:0:0:0:0:
192,192,138705,1,4,0:0:0:0:
109,192,139058,1,8,0:0:0:0:
329,192,139411,1,0,0:0:0:0:
182,192,139764,1,8,0:0:0:0:
36,192,140117,1,0,0:0:0:0:
256,192,140470,1,8,0:0:0:0:
109,192,140823,1,0,0:0:0:0:
192,192,141176,1,8,0:0:0:0:
320,192,141529,128,0,144000:0:0:0:0:
475,192,141529,1,4,0:0:0:0:
182,192,141882,1,8,0:0:0:0:
36,192,142235,1,0,0:0:0:0:
402,192,142588,1,8,0:0:0:0:
109,192,142941,1,0,0:0:0:0:
192,192,143294,1,8,0:0:0:0:
448,192,143647,1,0,0:0:0:0:
36,192,144000,1,8,0:0:0:0:
448,192,144352,128,0,146470:0:0:0:0:
192,192,144352,1,4,0:0:0:0:
320,192,144705,1,8,0:0:0:0:
109,192,145058,1,0,0:0:0:0:
256,192,145411,1,8,0:0:0:0:
182,192,145764,1,0,0:0:0:0:
36,192,146117,1,8,0:0:0:0:
320,192,146470,1,0,0:0:0:0:
192,192,146823,1,8,0:0:0:0:
64,192,147176,128,0,149647:0:0:0:0:
256,192,147176,1,4,0:0:0:0:
182,192,147529,1,8,0:0:0:0:
448,192,147882,1,0,0:0:0:0:
329,192,148235,1,8,0:0:0:0:
192,192,148588,1,0,0:0:0:0:
256,192,148941,1,8,0:0:0:0:
402,192,149294,1,0,0:0:0:0:
329,192,149647,1,8,0:0:0:0:
182,192,150000,128,0,152117:0:0:0:0:
448,192,150000,1,4,0:0:0:0:
109,192,150352,1,8,0:0:0:0:
475,192,150705,1,0,0:0:0:0:
36,192,151058,1,8,0:0:0:0:
320,192,151411,1,0,0:0:0:0:
448,192,151764,1,8,0:0:0:0:
256,192,152117,1,0,0:0:0:0:
109,192,152470,1,8,0:0:0:0:
320,192,152823,128,0,155294:0:0:0:0:
402,192,152823,1,4,0:0:0:0:
36,192,153176,1,8,0:0:0:0:
475,192,153529,1,0,0:0:0:0:
182,192,153882,1,8,0:0:0:0:
448,192,154235,1,0,0:0:0:0:
109,192,154588,1,8,0:0:0:0:
192,192,154941,1,0,0:0:0:0:
448,192,155294,1,8,0:0:0:0:
182,192,155647,128,0,157058:0:0:0:0:
36,192,155647,1,4,0:0:0:0:
256,192,156000,1,8,0:0:0:0:
475,192,156352,1,0,0:0:0:0:
329,192,156705,1,8,0:0:0:0:
109,192,157058,1,0,0:0:0:0:
192,192,157764,128,0,158470:0:0:0:0:
320,192,158470,128,0,159882:0:0:0:0:
109,192,158470,1,4,0:0:0:0:
402,192,158823,1,8,0:0:0:0:
182,192,159176,1,0,0:0:0:0:
448,192,159529,1,8,0:0:0:0:
36,192,159882,1,0,0:0:0:0:
475,192,160235,1,8,0:0:0:0:
109,192,160588,1,0,0:0:0:0:
256,192,160941,1,8,0:0:0:0:
182,192,161294,128,0,162705:0:0:0:0:
402,192,161294,1,4,0:0:0:0:
109,192,161647,1,8,0:0:0:0:
329,192,162000,1,0,0:0:0:0:
36,192,162352,1,8,0:0:0:0:
256,192,162705,1,4,0:0:0:0:
475,192,163058,1,8,0:0:0:0:
329,192,163411,1,0,0:0:0:0:
182,192,163764,1,8,0:0:0:0:
402,192,164117,128,0,165529:0:0:0:0:
36,192,164117,1,4,0:0:0:0:
192,192,164470,1,8,0:0:0:0:
329,192,164823,1,0,0:0:0:0:
182,192,165176,1,8,0:0:0:0:
64,192,165529,1,0,0:0:0:0:
320,192,165882,1,8,0:0:0:0:
448,192,166235,1,0,0:0:0:0:
36,192,166588,1,8,0:0:0:0:
182,192,166941,128,0,168352:0:0:0:0:
256,192,166941,1,4,0:0:0:0:
475,192,167294,1,8,0:0:0:0:
329,192,167647,1,0,0:0:0:0:
36,192,168000,1,8,0:0:0:0:
256,192,168352,1,0,0:0:0:0:
448,192,168352,128,0,169764:0:0:0:0:
64,192,168705,1,8,0:0:0:0:
256,192,169058,1,0,0:0:0:0:
36,192,169411,1,8,0:0:0:0:
320,192,169764,128,0,171176:0:0:0:0:
182,192,169764,1,4,0:0:0:0:
64,192,170117,1,8,0:0:0:0:
448,192,170470,1,0,0:0:0:0:
192,192,170823,1,8,0:0:0:0:
36,192,171176,1,0,0:0:0:0:
182,192,171529,1,8,0:0:0:0:
329,192,171882,1,0,0:0:0:0:
475,192,172235,1,8,0:0:0:0:
64,192,172588,128,0,174000:0:0:0:0:
256,192,172588,1,4,0:0:0:0:
402,192,172941,1,8,0:0:0:0:
192,192,173294,1,0,0:0:0:0:
329,192,173647,1,8,0:0:0:0:
182,192,174000,1,4,0:0:0:0:
475,192,174352,1,8,0:0:0:0:
256,192,174705,1,0,0:0:0:0:
192,192,175058,1,8,0:0:0:0:
448,192,175411,128,0,176823:0:0:0:0:
109,192,175411,1,4,0:0:0:0:
192,192,175764,1,8,0:0:0:0:
256,192,176117,1,0,0:0:0:0:
182,192,176470,1,8,0:0:0:0:
329,192,176823,1,0,0:0:0:0:
109,192,177176,1,8,0:0:0:0:
192,192,177529,1,0,0:0:0:0:
256,192,177882,1,8,0:0:0:0:
448,192,178235,128,0,179647:0:0:0:0:
192,192,178235,1,4,0:0:0:0:
109,192,178588,1,8,0:0:0:0:
329,192,178941,1,0,0:0:0:0:
192,192,179294,1,8,0:0:0:0:
64,192,179647,128,0,181058:0:0:0:0:
256,192,179647,1,0,0:0:0:0:
192,192,180000,1,8,0:0:0:0:
256,192,180352,1,0,0:0:0:0:
448,192,180705,1,8,0:0:0:0:
320,192,181058,128,0,182470:0:0:0:0:
182,192,181058,1,4,0:0:0:0:
475,192,181411,1,8,0:0:0:0:
192,192,181764,1,0,0:0:0:0:
36,192,182117,1,8,0:0:0:0:
192,192,182470,1,0,0:0:0:0:
402,192,182823,1,8,0:0:0:0:
64,192,183176,1,0,0:0:0:0:
256,192,183529,1,8,0:0:0:0:
182,192,183882,128,0,185294:0:0:0:0:
475,192,183882,1,0,0:0:0:0:
36,192,184235,1,8,0:0:0:0:
402,192,184588,1,0,0:0:0:0:
256,192,184941,1,8,0:0:0:0:
109,192,185294,1,0,0:0:0:0:
329,192,185647,1,8,0:0:0:0:
36,192,186000,1,0,0:0:0:0:
256,192,186352,1,8,0:0:0:0:
448,192,186705,128,0,188117:0:0:0:0:
109,192,186705,1,4,0:0:0:0:
329,192,187058,1,8,0:0:0:0:
36,192,187411,1,0,0:0:0:0:
182,192,187764,1,8,0:0:0:0:
320,192,188117,1,0,0:0:0:0:
192,192,188470,1,8,0:0:0:0:
109,192,188823,1,0,0:0:0:0:
329,192,189176,1,8,0:0:0:0:
64,192,189529,128,0,190941:0:0:0:0:
182,192,189529,1,0,0:0:0:0:
475,192,189882,1,8,0:0:0:0:
256,192,190235,1,0,0:0:0:0:
402,192,190588,1,8,0:0:0:0:
192,192,190941,1,0,0:0:0:0:
329,192,191294,1,8,0:0:0:0:
64,192,191647,1,0,0:0:0:0:
192,192,192000,1,8,0:0:0:0:
320,192,192352,128,0,193764:0:0:0:0:
448,192,192352,1,4,0:0:0:0:
36,192,192705,1,8,0:0:0:0:
448,192,193058,1,0,0:0:0:0:
64,192,193411,1,8,0:0:0:0:
475,192,193764,1,0,0:0:0:0:
109,192,194117,1,8,0:0:0:0:
402,192,194470,1,0,0:0:0:0:
36,192,194823,1,8,0:0:0:0:
448,192,195176,128,0,196588:0:0:0:0:
256,192,195176,1,0,0:0:0:0:
64,192,195529,1,8,0:0:0:0:
320,192,195882,1,0,0:0:0:0:
109,192,196235,1,8,0:0:0:0:
329,192,196588,1,0,0:0:0:0:
36,192,196941,1,8,0:0:0:0:
256,192,197294,1,0,0:0:0:0:
64,192,197647,1,8,0:0:0:0:
182,192,198000,128,0,199411:0:0:0:0:
329,192,198000,1,4,0:0:0:0:
109,192,198352,1,8,0:0:0:0:
402,192,198705,1,0,0:0:0:0:
36,192,199058,1,8,0:0:0:0:
256,192,199411,1,4,0:0:0:0:
475,192,199764,1,8,0:0:0:0:
329,192,200117,1,0,0:0:0:0:
182,192,200470,1,8,0:0:0:0:
448,192,200823,128,0,202235:0:0:0:0:
36,192,200823,1,4,0:0:0:0:
329,192,201176,1,8,0:0:0:0:
109,192,201529,1,0,0:0:0:0:
256,192,201882,1,8,0:0:0:0:
64,192,202235,1,0,0:0:0:0:
36,192,202941,128,0,203647:0:0:0:0:
192,192,203647,128,0,205058:0:0:0:0:
402,192,203647,1,4,0:0:0:0:
320,192,204352,1,0,0:0:0:0:
64,192,205058,1,0,0:0:0:0:
448,192,205764,1,0,0:0:0:0:
320,192,206470,128,0,207882:0:0:0:0:
36,192,206470,1,0,0:0:0:0:
182,192,207176,1,0,0:0:0:0:
448,192,207882,1,0,0:0:0:0:
182,192,208588,1,0,0:0:0:0:
256,192,209294,128,0,210705:0:0:0:0:
36,192,209294,1,0,0:0:0:0:
182,192,210000,1,0,0:0:0:0:
402,192,210705,1,0,0:0:0:0:
36,192,211411,1,0,0:0:0:0:
448,192,212117,128,0,213529:0:0:0:0:
320,192,212117,1,0,0:0:0:0:
192,192,212823,1,0,0:0:0:0:
256,192,213529,1,0,0:0:0:0:
182,192,214235,1,0,0:0:0:0:
64,192,214941,128,0,215647:0:0:0:0:
475,192,214941,1,4,0:0:0:0:
320,192,215647,1,4,0:0:0:0:
448,192,215823,1,4,0:0:0:0:
192,192,216352,128,0,217058:0:0:0:0:
329,192,216352,1,4,0:0:0:0:
475,192,217058,1,4,0:0:0:0:
320,192,217235,1,4,0:0:0:0:
64,192,217764,1,4,0:0:0:0:
320,192,217764,128,0,218470:0:0:0:0:
182,192,218470,1,4,0:0:0:0:
64,192,218647,1,4,0:0:0:0:
448,192,219176,128,0,219882:0:0:0:0:
320,192,219176,1,4,0:0:0:0:
192,192,219882,1,4,0:0:0:0:
320,192,220058,1,4,0:0:0:0:
320,192,220588,128,0,221294:0:0:0:0:
109,192,220588,1,4,0:0:0:0:
192,192,221294,1,4,0:0:0:0:
64,192,221470,1,4,0:0:0:0:
192,192,222000,128,0,222705:0:0:0:0:
448,192,222000,1,4,0:0:0:0:
256,192,222705,1,4,0:0:0:0:
448,192,222882,1,4,0:0:0:0:
64,192,223411,128,0,224823:0:0:0:0:
182,192,223411,1,0,0:0:0:0:
402,192,223764,1,0,0:0:0:0:
192,192,224117,1,0,0:0:0:0:
256,192,224470,1,0,0:0:0:0:
448,192,224823,1,0,0:0:0:0:
320,192,225529,128,0,226235:0:0:0:0:
192,192,225882,1,0,0:0:0:0:
448,192,226235,128,0,227647:0:0:0:0:
36,192,226235,1,4,0:0:0:0:
192,192,226588,1,8,0:0:0:0:
109,192,226941,1,0,0:0:0:0:
320,192,227294,1,8,0:0:0:0:
182,192,227647,1,0,0:0:0:0:
329,192,228000,1,8,0:0:0:0:
36,192,228352,1,0,0:0:0:0:
256,192,228705,1,8,0:0:0:0:
402,192,229058,128,0,230470:0:0:0:0:
109,192,229058,1,4,0:0:0:0:
329,192,229411,1,8,0:0:0:0:
36,192,229764,1,0,0:0:0:0:
182,192,230117,1,8,0:0:0:0:
320,192,230470,1,0,0:0:0:0:
192,192,230823,1,8,0:0:0:0:
64,192,231176,1,0,0:0:0:0:
448,192,231529,1,8,0:0:0:0:
182,192,231882,128,0,233294:0:0:0:0:
256,192,231882,1,4,0:0:0:0:
475,192,232235,1,8,0:0:0:0:
329,192,232588,1,0,0:0:0:0:
109,192,232941,1,8,0:0:0:0:
402,192,233294,1,0,0:0:0:0:
256,192,233647,1,8,0:0:0:0:
192,192,234000,1,0,0:0:0:0:
448,192,234352,1,8,0:0:0:0:
36,192,234705,128,0,236117:0:0:0:0:
182,192,234705,1,4,0:0:0:0:
475,192,235058,1,8,0:0:0:0:
256,192,235411,1,0,0:0:0:0:
192,192,235764,1,8,0:0:0:0:
329,192,236117,1,0,0:0:0:0:
192,192,236470,1,8,0:0:0:0:
256,192,236823,1,0,0:0:0:0:
448,192,237176,1,8,0:0:0:0:
64,192,237529,128,0,238941:0:0:0:0:
192,192,237529,1,4,0:0:0:0:
329,192,237882,1,8,0:0:0:0:
448,192,238235,1,0,0:0:0:0:
256,192,238588,1,8,0:0:0:0:
182,192,238941,1,0,0:0:0:0:
402,192,239294,1,8,0:0:0:0:
109,192,239647,1,0,0:0:0:0:
329,192,240000,1,8,0:0:0:0:
182,192,240352,128,0,241764:0:0:0:0:
64,192,240352,1,4,0:0:0:0:
475,192,240705,1,8,0:0:0:0:
36,192,241058,1,0,0:0:0:0:
329,192,241411,1,8,0:0:0:0:
402,192,241764,1,0,0:0:0:0:
109,192,242117,1,8,0:0:0:0:
256,192,242470,1,0,0:0:0:0:
402,192,242823,1,8,0:0:0:0:
329,192,243176,128,0,244588:0:0:0:0:
36,192,243176,1,4,0:0:0:0:
475,192,243529,1,8,0:0:0:0:
182,192,243882,1,0,0:0:0:0:
402,192,244235,1,8,0:0:0:0:
109,192,244588,1,0,0:0:0:0:
192,192,244941,1,8,0:0:0:0:
320,192,245294,1,0,0:0:0:0:
36,192,245647,1,8,0:0:0:0:
329,192,246000,1,4,0:0:0:0:
448,192,246000,128,0,247411:0:0:0:0:
182,192,246352,1,8,0:0:0:0:
109,192,246705,1,0,0:0:0:0:
320,192,247058,1,8,0:0:0:0:
192,192,247411,1,0,0:0:0:0:
182,192,248117,128,0,248823:0:0:0:0:
320,192,248470,1,0,0:0:0:0:
475,192,248823,128,0,259411:0:0:0:0:
36,192,248823,128,4,259411:0:0:0:0:
