osu file format v14

[General]
AudioFilename: [HD] Epic Trance - Bad Apple!! (REDALiCE Remix).mp3
AudioLeadIn: 0
PreviewTime: 158490
Countdown: 0
SampleSet: None
StackLeniency: 0.7
Mode: 3
LetterboxInBreaks: 1
EpilepsyWarning: 1
SpecialStyle: 0
WidescreenStoryboard: 1

[Editor]
Bookmarks: 45549,90725,102020,135902,219196
DistanceSpacing: 1
BeatDivisor: 16
GridSize: 32
TimelineZoom: 1

[Metadata]
Title:Bad Apple!! (REDALiCE Remix)
TitleUnicode:Bad Apple!! (REDALiCE Remix)
Artist:Masayoshi Minoshima
ArtistUnicode:簑島 正佳
Creator:Evening
Version:Lv.23 7K
Source:Touhou
Tags:Gensoukyou Lotus Land Story nomico Lovelight Trois Noir CoroQuetz Soldsaga KunG neonat Kuo Kyoka Papcio GetxOriginal
BeatmapID:333856
BeatmapSetID:132824

[Difficulty]
HPDrainRate:8
CircleSize:7
OverallDifficulty:7
ApproachRate:5
SliderMultiplier:1.9599999666214
SliderTickRate:1

[Events]
//Background and Video events
0,0,"badapple.jpg",0,0
//Break Periods
//Storyboard Layer 0 (Background)
//Storyboard Layer 1 (Fail)
//Storyboard Layer 2 (Pass)
//Storyboard Layer 3 (Foreground)
Sprite,Foreground,Centre,"Warning.png",320,240 F,0,223411,223433,0,1 S,0,223433,,0.5578184 F,0,223433,223764,1 M,0,223764,,320,256 F,0,223764,223786,1,0 F,0,223786,224117,0 F,0,224117,224139,0,1 F,0,224139,224448,1 F,0,224448,224470,1,0 F,0,224470,224823,0 F,0,224823,224845,0,1 F,0,224845,225154,1 F,0,225154,225176,1,0 F,0,225176,225529,0 F,0,225529,225551,0,1 F,0,225551,225860,1 F,0,225860,225882,1,0
Sprite,Foreground,Centre,"Warning.png",320,240 F,0,133058,133080,0,1 S,0,133080,,0.5578184 F,0,133080,133411,1 M,0,133147,,320,256 F,0,133411,133433,1,0 F,0,133433,133764,0 F,0,133764,133786,0,1 F,0,133786,134095,1 F,0,134095,134117,1,0 F,0,134117,134470,0 F,0,134470,134492,0,1 F,0,134492,134801,1 F,0,134801,134823,1,0 F,0,134823,135176,0 F,0,135176,135198,0,1 F,0,135198,135507,1 F,0,135507,135529,1,0
Sprite,Foreground,Centre,"Alt_SB\DJNightmare.png",320,240 M,0,6000,,320,240 F,0,6000,6022,0,0.9978182 F,0,6022,6044,0.9978182,0 F,0,6044,6066,0,1 F,0,6066,6088,1 F,0,6088,6110,1,0.4676364 F,0,6110,6132,0.4676364,0.6327305 F,0,6132,6154,0.6327305,0.2676987 F,0,6154,6176,0.2676987,0.8612748 F,0,6176,6198,0.8612748,0.5563967 F,0,6198,6220,0.5563967,1 F,0,6220,6264,1,0 F,0,6264,6286,0,0.9933167 F,0,6286,6308,0.9933167,0.4609813 F,0,6308,6330,0.4609813,1 F,0,6330,6374,1,0.5403636 F,0,6374,6397,0.5403636,1 F,0,6397,6441,1,0.5927274 F,0,6441,6485,0.5927274,1 F,0,6485,6529,1,0 F,0,6529,6551,0,1 F,0,6551,6595,1,0.205818 F,0,6595,6661,0.205818,0.5918428 F,0,6661,6683,0.5918428,0 F,0,6683,6705,0,0.5835048 F,0,6705,6749,0.5835048,0.1888052 F,0,6749,6794,0.1888052,1 F,0,6794,10235,1 M,0,10213,10235,320,240,320,105 M,0,10235,10257,320,105,320,240 F,0,10235,10257,1,0.5043756 F,0,10257,10279,0.5043756,0.0740919 M,0,10257,10566,320,240 F,0,10279,10301,0.0740919,1 F,0,10301,10345,1,0.4065454 F,0,10345,10522,0.4065454,1 F,0,10522,10610,1,0.1941817 M,0,10566,10588,320,240,320,401 M,0,10588,10610,320,401,320,240 F,0,10610,10742,0.1941817,0.8473198 M,0,10610,10875,320,240 M,0,10610,10897,320,240,146,388 F,0,10742,10808,0.8473198,0.4306162 F,0,10808,10874,0.4306162,1 F,0,10874,11007,1,0 M,0,10897,10919,146,388,320,240 M,0,10919,10941,320,240,438,134 M,0,10941,10963,438,134,320,240 M,0,10963,11117,320,240 F,0,11007,11051,0,0.2986687 F,0,11051,11117,0.2986687,0 M,0,11117,11139,320,240,134,240 F,0,11117,11139,0,1 M,0,11139,11161,134,240,320,240 F,0,11139,11183,1,0.1447272 M,0,11161,11272,320,240 F,0,11183,11249,0.1447272,1 F,0,11249,11272,1,0 M,0,11272,11294,320,240,523,240 F,0,11272,11294,0,1 M,0,11294,11316,523,240,320,240 F,0,11294,11316,1,0.05163635 F,0,11316,11338,0.05163635,0.4838441 M,0,11316,11382,320,240 F,0,11338,11360,0.4838441,0 F,0,11360,11382,0,1 M,0,11382,11404,320,240,147,240 F,0,11382,11404,1,0.3367273 M,0,11404,11426,147,240,320,240 F,0,11404,11448,0.3367273,0 M,0,11426,11492,320,240 F,0,11448,11470,0,1 F,0,11470,11492,1,0.09897875 M,0,11492,11514,320,240,466,240 F,0,11492,11514,0.09897875,1 M,0,11514,11536,466,240,320,240 F,0,11514,11536,1,0.2033138 F,0,11536,11558,0.2033138,1 M,0,11536,11602,320,240 F,0,11558,11580,1,0 F,0,11580,11602,0,0.2530909 F,0,11602,11624,0.2530909,0 M,0,11602,11625,320,240,41,240 F,0,11624,11647,0 M,0,11625,11647,41,240,320,240 M,0,11647,11669,320,240
Sprite,Foreground,Centre,"Alt_SB\lZenxl.png",320,240 M,0,353,,320,240 F,0,353,375,0,1 F,0,375,397,1,0 F,0,397,419,0,1 F,0,419,441,1 F,0,441,463,1,0.4676364 F,0,463,485,0.4676364,0.6327305 F,0,485,507,0.6327305,0.2676987 F,0,507,529,0.2676987,0.8612748 F,0,529,551,0.8612748,0.5563967 F,0,551,573,0.5563967,1 F,0,573,617,1,0 F,0,617,639,0,1 F,0,639,661,1,0.4609813 F,0,661,683,0.4609813,1 F,0,683,727,1,0.5403636 F,0,727,750,0.5403636,1 F,0,750,794,1,0.5927274 F,0,794,838,0.5927274,1 F,0,838,882,1,0 F,0,882,904,0,1 F,0,904,948,1,0.205818 F,0,948,1014,0.205818,0.5918428 F,0,1014,1036,0.5918428,0 F,0,1036,1058,0,0.5835048 F,0,1058,1102,0.5835048,0.1888052 F,0,1102,1147,0.1888052,1 F,0,1147,4588,1 F,0,4588,4610,1,0.5043756 F,0,4610,4632,0.5043756,0 F,0,4632,4654,0,1 F,0,4654,4698,1,0.4065454 F,0,4698,4875,0.4065454,1 F,0,4875,4963,1,0.1941817 F,0,4963,5095,0.1941817,0.8473198 F,0,5095,5161,0.8473198,0.4306162 F,0,5161,5227,0.4306162,1 F,0,5227,5360,1,0 F,0,5360,5404,0,0.2986687 F,0,5404,5470,0.2986687,0 F,0,5470,5492,0,1 F,0,5492,5536,1,0.1447272 F,0,5536,5602,0.1447272,1 F,0,5602,5625,1,0 F,0,5625,5647,0,1 F,0,5647,5669,1,0.05163635 F,0,5669,5691,0.05163635,0.4838441 F,0,5691,5713,0.4838441,0 F,0,5713,5735,0,1 F,0,5735,5757,1,0.3367273 F,0,5757,5801,0.3367273,0 F,0,5801,5823,0,1 F,0,5823,5845,1,0 F,0,5845,5867,0,1 F,0,5867,5889,1,0.2033138 F,0,5889,5911,0.2033138,1 F,0,5911,5933,1,0 F,0,5933,5955,0,0.2530909 F,0,5955,5977,0.2530909,0 F,0,5977,6000,0
Sprite,Foreground,Centre,"Alt_SB\GD.png",320,240 M,0,11647,,93,240 S,0,11647,,1 F,0,20117,20382,1 M,2,20117,20470,93,240,-434,240 F,0,20382,20470,1,0
Sprite,Foreground,Centre,"Alt_SB\GDer.png",320,240 F,0,11647,,1 M,0,11647,12794,521,46 M,2,12794,13058,521,46,521,124 M,0,13058,13147,521,124 M,0,13147,14205,521,124 M,2,14205,14470,521,124,521,203 M,0,14470,14558,521,203 M,0,14558,15617,521,203 M,2,15617,15882,521,203,521,285 M,0,15882,15970,521,285 M,0,15970,17029,521,285 M,2,17029,17294,521,285,521,366 M,0,17294,17382,521,366 M,0,17382,18441,521,366 M,2,18441,18705,521,366,521,452 M,0,18705,18794,521,452 M,0,18794,20117,521,452 F,0,20117,20382,1 M,0,20117,20470,521,452,1036,452 F,0,20382,20470,1,0
Sprite,Foreground,Centre,"Bar.png",320,240 F,0,21882,,1 M,0,21882,21904,320,217,313,306 M,0,21904,21926,313,306,289,210 M,0,21926,21948,289,210,287,245 M,0,21948,21970,287,245,285,185 M,0,21970,21992,285,185,283,234 M,0,21992,22036,283,234,261,92 M,0,22036,22058,261,92,271,145 M,0,22058,22080,271,145,279,100 M,0,22080,22102,279,100,275,132 M,0,22102,22125,275,132,278,76 M,0,22125,22169,278,76,281,337 M,0,22169,22191,281,337,279,278 M,0,22191,22213,279,278,279,244 M,0,22213,22235,279,244,277,305
Sprite,Foreground,Centre,"Alt_SB\Badapple.png",320,240 M,0,22235,,320,240 F,0,22235,22279,0,1 S,0,22235,22588,5,0.3483634 F,0,22279,22588,1 F,0,22588,32823,1 R,0,22588,41294,0,6.283637 F,0,32823,33882,1,0.6654546 F,0,33882,34235,0.6654546,1 F,0,34235,41294,1 F,0,41294,41338,1,0.6625454 R,2,41294,44470,6.283637,50 F,0,41338,41382,0.6625454,1 F,0,41382,41426,1,0.7847273 F,0,41426,41470,0.7847273,1 F,0,41470,41514,1,0.6625454 F,0,41514,41558,0.6625454,1 F,0,41558,41602,1,0.6625454 F,0,41602,41647,0.6625454,1 F,0,41647,41691,1,0.7149091 F,0,41691,41735,0.7149091,1 F,0,41735,41779,1,0.7265454 F,0,41779,41823,0.7265454,1 F,0,41823,41867,1,0.7149091 F,0,41867,41911,0.7149091,1 F,0,41911,41955,1,0.6654546 F,0,41955,42000,0.6654546,1 F,0,42000,42044,1,0.5927272 F,0,42044,42088,0.5927272,1 F,0,42088,42132,1,0.4298183 F,0,42132,42176,0.4298183,1 F,0,42176,42220,1,0.6450909 F,0,42220,42264,0.6450909,1 F,0,42264,42308,1,0.5403636 F,0,42308,42352,0.5403636,1 F,0,42352,42397,1,0.7236363 F,0,42397,42441,0.7236363,1 F,0,42441,42485,1,0.6741818 F,0,42485,42529,0.6741818,1 F,0,42529,42573,1,0.6741818 F,0,42573,42617,0.6741818,1 F,0,42617,42661,1,0.426909 F,0,42661,42705,0.426909,1 F,0,42705,42750,1,0.3978181 F,0,42750,42794,0.3978181,1 F,0,42794,42838,1,0.6247272 F,0,42838,42882,0.6247272,1 F,0,42882,42926,1,0.6130908 F,0,42926,42970,0.6130908,1 F,0,42970,43014,1,0.5287273 F,0,43014,43058,0.5287273,1 F,0,43058,43102,1,0.2378182 F,0,43102,43147,0.2378182,1 F,0,43147,43191,1,0 F,0,43191,43235,0,1 F,0,43235,43279,1,0 F,0,43279,43323,0,1 F,0,43323,43367,1,0 F,0,43367,43411,0,1 F,0,43411,43455,1,0 F,0,43455,43500,0,1 F,0,43500,43544,1,0 F,0,43544,43588,0,1 F,0,43588,43632,1,0 F,0,43632,43676,0,1 F,0,43676,43720,1,0 F,0,43720,43764,0,1 F,0,43764,43808,1,0 F,0,43808,43852,0,1 F,0,43852,43897,1,0 F,0,43897,43941,0,1 F,0,43941,43985,1,0 F,0,43985,44029,0,1 F,0,44029,44073,1,0 F,0,44073,44117,0,1 F,1,44117,44205,1,0 S,1,44117,44470,0.3483634,1.203636 F,0,44205,44470,0
Sprite,Foreground,Centre,"Alt_SB\Badapple.png",320,240 F,0,22588,25764,1,0 S,1,22588,25764,0.348364,0.5752732
//Storyboard Sound Samples

[TimingPoints]
353,352.941176470588,4,3,1,35,1,0
11647,-133.333333333333,4,3,1,35,0,0
21882,-66.6666666666667,4,3,1,35,0,0
22235,-33.3333333333333,4,3,1,35,0,0
22323,-133.333333333333,4,3,1,35,0,0
22588,-33.3333333333333,4,3,1,35,0,0
22676,-500,4,3,1,35,0,0
22941,-166.666666666667,4,2,1,30,0,0
31411,-133.333333333333,4,2,1,30,0,0
34235,-125,4,2,1,30,0,0
39882,-111.111111111111,4,2,1,30,0,0
42705,-100,4,2,1,30,0,0
44117,-10,4,3,1,30,0,0
44205,-100,4,3,1,35,0,0
45176,-133.333333333333,4,3,1,35,0,0
45529,-100,4,3,1,40,0,1
66705,-50,4,3,1,45,0,0
66794,-100,4,3,1,35,0,0
66882,-200,4,3,1,35,0,0
66970,-100,4,3,1,35,0,0
67058,-50,4,3,1,35,0,0
67147,-100,4,3,1,35,0,0
67235,-200,4,3,1,35,0,0
67323,-100,4,3,1,35,0,0
67411,-50,4,3,1,35,0,0
67500,-100,4,3,1,35,0,0
67588,-200,4,3,1,35,0,0
67676,-100,4,3,1,35,0,0
67764,-50,4,3,1,35,0,0
67852,-100,4,3,1,35,0,0
67941,-200,4,3,1,35,0,0
68029,-100,4,3,1,35,0,0
68117,-100,4,3,1,35,0,0
89294,-100,4,3,1,35,0,0
89647,-100,4,3,1,35,0,0
90000,-100,4,3,1,35,0,0
90352,-100,4,3,1,35,0,0
90705,-100,4,3,1,35,0,0
100588,-125,4,3,1,30,0,0
102000,-100,4,3,1,35,0,0
113294,-100,4,3,1,20,0,1
113382,-100,4,3,1,40,0,0
134470,-200,4,3,1,40,0,0
135176,-133.333333333333,4,3,1,40,0,0
135529,-100,4,3,1,40,0,0
135882,-100,4,3,1,40,0,1
157058,-100,4,3,1,35,0,0
203647,-125,4,3,1,30,0,0
214941,-100,4,3,1,30,0,0
224823,-10,4,3,1,35,0,0
224911,-333.333333333333,4,3,1,35,0,0
225529,-133.333333333333,4,3,1,35,0,0
225882,-125,4,3,1,35,0,0
226235,-100,4,3,1,40,0,1
248823,-250,4,3,1,45,0,0

[HitObjects]
329,192,10147,128,0,10235:0:0:0:0:
475,192,10235,1,8,1:0:0:0:
256,192,10588,1,8,1:0:0:0:
329,192,10764,128,8,10941:1:0:0:0:
475,192,10941,1,0,0:0:0:0:
109,192,11117,1,8,1:0:0:0:
475,192,11294,1,0,0:0:0:0:
402,192,11382,1,0,0:0:0:0:
36,192,11470,1,8,1:0:0:0:
109,192,11558,1,0,0:0:0:0:
329,192,11647,1,8,1:0:0:0:
256,192,11647,1,0,0:0:0:0:
182,192,11823,1,0,0:0:0:0:
329,192,12000,1,8,1:0:0:0:
109,192,12000,1,0,0:0:0:0:
402,192,12176,1,0,0:0:0:0:
329,192,12352,1,8,1:0:0:0:
109,192,12352,1,0,0:0:0:0:
475,192,12529,1,0,0:0:0:0:
329,192,12705,1,8,1:0:0:0:
182,192,12705,1,0,0:0:0:0:
36,192,12882,1,8,1:0:0:0:
329,192,13058,1,0,0:0:0:0:
182,192,13058,1,0,0:0:0:0:
402,192,13235,1,8,1:0:0:0:
329,192,13411,1,8,1:0:0:0:
256,192,13411,1,0,0:0:0:0:
109,192,13588,1,0,0:0:0:0:
329,192,13764,1,8,1:0:0:0:
36,192,13764,1,0,0:0:0:0:
475,192,13941,1,8,1:0:0:0:
402,192,14117,1,0,0:0:0:0:
182,192,14117,1,0,0:0:0:0:
36,192,14294,1,8,1:0:0:0:
256,192,14470,1,8,1:0:0:0:
329,192,14470,1,0,0:0:0:0:
475,192,14647,1,0,0:0:0:0:
256,192,14823,1,8,1:0:0:0:
109,192,14823,1,0,0:0:0:0:
182,192,15000,1,0,0:0:0:0:
256,192,15176,1,8,1:0:0:0:
36,192,15176,1,0,0:0:0:0:
329,192,15352,1,0,0:0:0:0:
256,192,15529,1,8,1:0:0:0:
36,192,15529,1,0,0:0:0:0:
475,192,15705,1,8,1:0:0:0:
256,192,15882,1,8,1:0:0:0:
109,192,15882,1,0,0:0:0:0:
402,192,16058,1,0,0:0:0:0:
256,192,16235,1,8,1:0:0:0:
475,192,16235,1,0,0:0:0:0:
329,192,16411,1,8,1:0:0:0:
256,192,16588,1,0,0:0:0:0:
475,192,16588,1,0,0:0:0:0:
109,192,16764,1,8,1:0:0:0:
256,192,16941,1,8,1:0:0:0:
36,192,16941,1,0,0:0:0:0:
402,192,17117,1,0,0:0:0:0:
182,192,17294,1,8,1:0:0:0:
36,192,17294,1,0,0:0:0:0:
475,192,17470,1,0,0:0:0:0:
182,192,17647,1,8,1:0:0:0:
329,192,17647,1,0,0:0:0:0:
36,192,17823,1,0,0:0:0:0:
182,192,18000,1,8,1:0:0:0:
256,192,18000,1,0,0:0:0:0:
475,192,18176,1,0,0:0:0:0:
182,192,18352,1,8,1:0:0:0:
402,192,18352,1,0,0:0:0:0:
329,192,18529,1,8,1:0:0:0:
182,192,18705,1,0,0:0:0:0:
475,192,18705,1,0,0:0:0:0:
109,192,18882,1,8,1:0:0:0:
182,192,19058,1,8,1:0:0:0:
402,192,19058,1,0,0:0:0:0:
475,192,19235,1,0,0:0:0:0:
182,192,19411,1,8,1:0:0:0:
256,192,19411,1,0,0:0:0:0:
36,192,19588,1,8,1:0:0:0:
182,192,19764,1,0,0:0:0:0:
329,192,19764,1,0,0:0:0:0:
402,192,19941,1,8,1:0:0:0:
256,192,20117,1,8,1:0:0:0:
475,192,20117,1,0,0:0:0:0:
36,192,20294,1,0,0:0:0:0:
256,192,20470,1,8,1:0:0:0:
402,192,20470,1,0,0:0:0:0:
109,192,20647,1,0,0:0:0:0:
256,192,20823,1,8,1:0:0:0:
329,192,20823,1,0,0:0:0:0:
182,192,21000,1,0,0:0:0:0:
256,192,21176,1,8,1:0:0:0:
329,192,21176,1,0,0:0:0:0:
182,192,21352,1,8,1:0:0:0:
256,192,21529,1,8,1:0:0:0:
475,192,21529,1,4,1:0:0:0:
256,192,21882,128,0,22235:2:0:0:0:
475,192,22235,1,4,1:0:0:0:
36,192,22235,1,0,0:0:0:0:
182,192,22588,1,4,1:0:0:0:
329,192,22588,1,0,0:0:0:0:
36,192,22588,1,0,0:0:0:0:
475,192,22588,1,0,0:0:0:0:
36,192,22941,1,8,1:0:0:0:
109,192,23117,1,8,1:0:0:0:
182,192,23294,1,0,0:0:0:0:
256,192,23470,1,8,1:0:0:0:
329,192,23647,1,8,1:0:0:0:
329,192,24176,1,8,1:0:0:0:
329,192,24705,1,8,1:0:0:0:
329,192,25235,1,8,1:0:0:0:
329,192,25588,1,8,1:0:0:0:
36,192,28588,1,8,1:0:0:0:
109,192,28764,1,8,1:0:0:0:
182,192,28941,1,0,0:0:0:0:
256,192,29117,1,8,1:0:0:0:
329,192,29294,1,8,1:0:0:0:
329,192,29823,1,8,1:0:0:0:
329,192,30352,1,8,1:0:0:0:
329,192,30882,1,8,1:0:0:0:
329,192,31235,1,8,1:0:0:0:
36,192,31411,1,0,0:0:0:0:
182,192,31588,1,8,1:0:0:0:
256,192,31676,1,0,0:0:0:0:
475,192,31852,1,0,0:0:0:0:
402,192,31941,1,8,1:0:0:0:
329,192,32029,1,0,0:0:0:0:
36,192,32117,1,8,1:0:0:0:
109,192,32294,1,8,1:0:0:0:
182,192,32382,1,0,0:0:0:0:
475,192,32558,1,0,0:0:0:0:
402,192,32647,1,8,1:0:0:0:
182,192,32735,1,0,0:0:0:0:
36,192,32823,1,8,1:0:0:0:
329,192,33000,1,8,1:0:0:0:
402,192,33088,1,0,0:0:0:0:
475,192,33264,1,0,0:0:0:0:
402,192,33352,1,8,1:0:0:0:
329,192,33441,1,0,0:0:0:0:
256,192,33529,128,8,33705:1:0:0:0:
402,192,33705,1,0,0:0:0:0:
329,192,33794,1,8,1:0:0:0:
402,192,33882,1,0,0:0:0:0:
329,192,33970,1,0,0:0:0:0:
109,192,34058,1,8,1:0:0:0:
182,192,34147,1,0,0:0:0:0:
256,192,34235,1,8,1:0:0:0:
475,192,34411,1,8,1:0:0:0:
402,192,34500,1,0,0:0:0:0:
475,192,34676,1,0,0:0:0:0:
402,192,34764,1,8,1:0:0:0:
109,192,34852,1,0,0:0:0:0:
36,192,34941,1,8,1:0:0:0:
256,192,35117,1,0,0:0:0:0:
402,192,35205,1,8,1:0:0:0:
475,192,35382,1,0,0:0:0:0:
182,192,35470,1,8,1:0:0:0:
109,192,35558,1,0,0:0:0:0:
36,192,35647,1,8,1:0:0:0:
256,192,35823,1,8,1:0:0:0:
329,192,35911,1,0,0:0:0:0:
475,192,36088,1,0,0:0:0:0:
402,192,36176,1,8,1:0:0:0:
109,192,36264,1,0,0:0:0:0:
36,192,36352,1,8,1:0:0:0:
329,192,36529,1,8,1:0:0:0:
402,192,36617,1,0,0:0:0:0:
475,192,36705,1,0,0:0:0:0:
182,192,36882,1,8,1:0:0:0:
256,192,36970,1,0,0:0:0:0:
36,192,37058,1,8,1:0:0:0:
182,192,37235,1,8,1:0:0:0:
256,192,37323,1,0,0:0:0:0:
329,192,37500,1,0,0:0:0:0:
402,192,37588,1,8,1:0:0:0:
182,192,37676,1,0,0:0:0:0:
109,192,37764,1,8,1:0:0:0:
475,192,37941,1,8,1:0:0:0:
402,192,38029,1,0,0:0:0:0:
109,192,38205,1,0,0:0:0:0:
182,192,38294,1,8,1:0:0:0:
256,192,38382,1,0,0:0:0:0:
36,192,38470,1,8,1:0:0:0:
329,192,38647,1,0,0:0:0:0:
402,192,38735,1,8,1:0:0:0:
402,192,38911,1,0,0:0:0:0:
329,192,39000,1,8,1:0:0:0:
256,192,39088,1,0,0:0:0:0:
109,192,39176,128,8,39264:1:0:0:0:
182,192,39352,1,0,0:0:0:0:
109,192,39441,1,8,1:0:0:0:
182,192,39529,1,0,0:0:0:0:
109,192,39617,1,0,0:0:0:0:
329,192,39705,1,8,1:0:0:0:
402,192,39794,1,0,0:0:0:0:
182,192,39882,1,8,1:0:0:0:
475,192,40058,1,8,1:0:0:0:
402,192,40147,1,0,0:0:0:0:
182,192,40323,1,0,0:0:0:0:
109,192,40411,1,8,1:0:0:0:
402,192,40500,1,0,0:0:0:0:
36,192,40588,1,8,1:0:0:0:
256,192,40764,1,8,1:0:0:0:
475,192,40852,1,0,0:0:0:0:
182,192,41029,1,0,0:0:0:0:
109,192,41117,1,8,1:0:0:0:
475,192,41205,1,0,0:0:0:0:
256,192,41294,1,8,1:0:0:0:
402,192,41470,1,8,1:0:0:0:
475,192,41558,1,0,0:0:0:0:
109,192,41735,1,0,0:0:0:0:
182,192,41823,1,8,1:0:0:0:
256,192,41911,1,0,0:0:0:0:
475,192,42000,1,8,1:0:0:0:
329,192,42176,1,8,1:0:0:0:
402,192,42264,1,0,0:0:0:0:
475,192,42352,128,8,42441:1:0:0:0:
402,192,42529,1,0,0:0:0:0:
329,192,42617,1,0,0:0:0:0:
36,192,42705,1,0,3:0:0:0:
475,192,42705,1,0,0:0:0:0:
109,192,42794,1,0,3:0:0:0:
402,192,42794,1,0,0:0:0:0:
182,192,42882,1,0,3:0:0:0:
329,192,42882,1,0,0:0:0:0:
256,192,42970,1,0,3:0:0:0:
329,192,43058,1,0,3:0:0:0:
182,192,43058,1,0,0:0:0:0:
402,192,43147,1,0,3:0:0:0:
109,192,43147,1,0,0:0:0:0:
475,192,43235,1,0,3:0:0:0:
36,192,43235,1,0,0:0:0:0:
402,192,43323,1,0,3:0:0:0:
109,192,43323,1,0,0:0:0:0:
329,192,43411,1,0,3:0:0:0:
182,192,43411,1,0,0:0:0:0:
256,192,43500,1,0,3:0:0:0:
182,192,43588,1,0,3:0:0:0:
329,192,43588,1,0,0:0:0:0:
109,192,43676,1,0,3:0:0:0:
402,192,43676,1,0,0:0:0:0:
36,192,43764,1,0,3:0:0:0:
475,192,43764,1,0,0:0:0:0:
109,192,43852,1,0,3:0:0:0:
402,192,43852,1,0,0:0:0:0:
182,192,43941,1,0,3:0:0:0:
329,192,43941,1,0,0:0:0:0:
256,192,44029,1,0,3:0:0:0:
182,192,44117,128,4,45176:1:0:0:0:
329,192,44117,128,0,45176:3:0:0:0:
36,192,44823,1,4,1:0:0:0:
109,192,44823,1,0,0:0:0:0:
402,192,44823,1,0,0:0:0:0:
475,192,44823,1,0,0:0:0:0:
256,192,45000,1,0,0:0:0:0:
109,192,45176,1,4,1:0:0:0:
36,192,45176,1,0,0:0:0:0:
475,192,45176,1,0,0:0:0:0:
402,192,45176,1,0,0:0:0:0:
256,192,45529,1,8,1:0:0:0:
329,192,45529,1,0,0:0:0:0:
109,192,45529,1,0,0:0:0:0:
475,192,45705,1,8,1:0:0:0:
36,192,45705,1,0,0:0:0:0:
182,192,45794,1,0,0:0:0:0:
256,192,45882,1,8,1:0:0:0:
475,192,45970,1,0,0:0:0:0:
36,192,46058,1,8,1:0:0:0:
402,192,46058,1,0,0:0:0:0:
329,192,46147,1,0,0:0:0:0:
256,192,46235,1,8,1:0:0:0:
475,192,46235,1,0,0:0:0:0:
109,192,46235,1,0,0:0:0:0:
36,192,46411,1,0,0:0:0:0:
475,192,46411,1,0,0:0:0:0:
182,192,46500,1,0,0:0:0:0:
256,192,46588,1,0,0:0:0:0:
475,192,46676,1,0,0:0:0:0:
36,192,46764,1,8,1:0:0:0:
329,192,46764,1,0,0:0:0:0:
109,192,46852,1,0,0:0:0:0:
256,192,46941,1,0,0:0:0:0:
402,192,46941,1,0,0:0:0:0:
182,192,46941,1,0,0:0:0:0:
36,192,47117,1,8,1:0:0:0:
475,192,47117,1,0,0:0:0:0:
329,192,47205,1,0,0:0:0:0:
256,192,47294,1,0,0:0:0:0:
475,192,47382,1,0,0:0:0:0:
329,192,47470,1,8,1:0:0:0:
36,192,47470,1,0,0:0:0:0:
182,192,47558,1,0,0:0:0:0:
256,192,47647,1,0,0:0:0:0:
329,192,47647,1,0,0:0:0:0:
109,192,47647,1,0,0:0:0:0:
475,192,47823,1,8,1:0:0:0:
36,192,47823,1,0,0:0:0:0:
109,192,47911,1,0,0:0:0:0:
256,192,48000,1,0,0:0:0:0:
182,192,48000,1,0,0:0:0:0:
329,192,48000,1,0,0:0:0:0:
475,192,48176,1,8,1:0:0:0:
36,192,48176,1,0,0:0:0:0:
402,192,48264,1,0,0:0:0:0:
256,192,48352,1,8,1:0:0:0:
329,192,48352,1,0,0:0:0:0:
182,192,48352,1,0,0:0:0:0:
329,192,48529,1,0,0:0:0:0:
182,192,48529,1,0,0:0:0:0:
475,192,48617,1,8,1:0:0:0:
256,192,48705,1,0,0:0:0:0:
109,192,48794,1,0,0:0:0:0:
329,192,48882,1,8,1:0:0:0:
182,192,48882,1,0,0:0:0:0:
402,192,48970,1,0,0:0:0:0:
256,192,49058,1,0,0:0:0:0:
329,192,49058,1,0,0:0:0:0:
182,192,49058,1,0,0:0:0:0:
475,192,49235,1,8,1:0:0:0:
36,192,49235,1,0,0:0:0:0:
182,192,49323,1,0,0:0:0:0:
256,192,49411,1,8,1:0:0:0:
329,192,49500,1,0,0:0:0:0:
475,192,49588,1,8,1:0:0:0:
182,192,49588,1,0,0:0:0:0:
109,192,49676,1,0,0:0:0:0:
256,192,49764,1,8,1:0:0:0:
475,192,49764,1,0,0:0:0:0:
36,192,49764,1,0,0:0:0:0:
402,192,49941,1,0,0:0:0:0:
182,192,49941,1,0,0:0:0:0:
329,192,50029,1,8,1:0:0:0:
256,192,50117,1,0,0:0:0:0:
182,192,50205,1,0,0:0:0:0:
402,192,50294,1,8,1:0:0:0:
109,192,50294,1,0,0:0:0:0:
475,192,50382,1,0,0:0:0:0:
256,192,50470,1,0,0:0:0:0:
329,192,50470,1,0,0:0:0:0:
402,192,50647,1,8,1:0:0:0:
36,192,50647,1,0,0:0:0:0:
109,192,50735,1,0,0:0:0:0:
256,192,50823,1,8,1:0:0:0:
182,192,50823,1,0,0:0:0:0:
329,192,50823,1,0,0:0:0:0:
329,192,51000,1,8,1:0:0:0:
109,192,51000,1,0,0:0:0:0:
402,192,51088,1,0,0:0:0:0:
256,192,51176,1,8,1:0:0:0:
475,192,51176,1,0,0:0:0:0:
36,192,51176,1,0,0:0:0:0:
182,192,51352,1,8,1:0:0:0:
402,192,51352,1,0,0:0:0:0:
36,192,51441,1,0,0:0:0:0:
256,192,51529,1,8,1:0:0:0:
329,192,51617,1,0,0:0:0:0:
182,192,51705,1,8,1:0:0:0:
475,192,51705,1,0,0:0:0:0:
36,192,51794,1,0,0:0:0:0:
256,192,51882,1,8,1:0:0:0:
182,192,51882,1,0,0:0:0:0:
329,192,51882,1,0,0:0:0:0:
36,192,52058,1,0,0:0:0:0:
402,192,52058,1,0,0:0:0:0:
475,192,52147,1,0,0:0:0:0:
256,192,52235,1,0,0:0:0:0:
109,192,52323,1,0,0:0:0:0:
329,192,52411,1,8,1:0:0:0:
182,192,52411,1,0,0:0:0:0:
402,192,52500,1,0,0:0:0:0:
256,192,52588,1,0,0:0:0:0:
329,192,52588,1,0,0:0:0:0:
109,192,52588,1,0,0:0:0:0:
182,192,52764,1,8,1:0:0:0:
475,192,52764,1,0,0:0:0:0:
329,192,52852,1,0,0:0:0:0:
256,192,52941,1,0,0:0:0:0:
36,192,53029,1,0,0:0:0:0:
182,192,53117,1,8,1:0:0:0:
329,192,53117,1,0,0:0:0:0:
475,192,53205,1,0,0:0:0:0:
256,192,53294,1,0,0:0:0:0:
109,192,53294,1,0,0:0:0:0:
329,192,53294,1,0,0:0:0:0:
36,192,53470,1,8,1:0:0:0:
475,192,53470,1,0,0:0:0:0:
402,192,53558,1,0,0:0:0:0:
256,192,53647,1,0,0:0:0:0:
182,192,53647,1,0,0:0:0:0:
329,192,53647,1,0,0:0:0:0:
36,192,53823,1,8,1:0:0:0:
475,192,53823,1,0,0:0:0:0:
402,192,53911,1,0,0:0:0:0:
256,192,54000,1,8,1:0:0:0:
182,192,54000,1,0,0:0:0:0:
329,192,54000,1,0,0:0:0:0:
36,192,54176,1,0,0:0:0:0:
475,192,54176,1,0,0:0:0:0:
182,192,54264,1,8,1:0:0:0:
256,192,54352,1,0,0:0:0:0:
475,192,54441,1,0,0:0:0:0:
36,192,54529,1,8,1:0:0:0:
329,192,54529,1,0,0:0:0:0:
182,192,54617,1,0,0:0:0:0:
256,192,54705,1,0,0:0:0:0:
109,192,54705,1,0,0:0:0:0:
475,192,54705,1,0,0:0:0:0:
475,192,54882,1,8,1:0:0:0:
182,192,54882,1,0,0:0:0:0:
329,192,54970,1,8,1:0:0:0:
256,192,55058,1,8,1:0:0:0:
36,192,55147,1,0,0:0:0:0:
182,192,55235,1,8,1:0:0:0:
329,192,55235,1,0,0:0:0:0:
475,192,55323,1,0,0:0:0:0:
256,192,55411,1,8,1:0:0:0:
182,192,55411,1,0,0:0:0:0:
402,192,55411,1,0,0:0:0:0:
109,192,55588,1,0,0:0:0:0:
402,192,55588,1,0,0:0:0:0:
36,192,55676,1,8,1:0:0:0:
256,192,55764,1,0,0:0:0:0:
402,192,55852,1,0,0:0:0:0:
36,192,55941,1,8,1:0:0:0:
475,192,55941,1,0,0:0:0:0:
109,192,56029,1,0,0:0:0:0:
256,192,56117,1,8,1:0:0:0:
182,192,56117,1,0,0:0:0:0:
329,192,56117,1,0,0:0:0:0:
182,192,56294,1,8,1:0:0:0:
329,192,56294,1,0,0:0:0:0:
402,192,56382,1,8,1:0:0:0:
256,192,56470,1,8,1:0:0:0:
36,192,56470,1,0,0:0:0:0:
475,192,56470,1,0,0:0:0:0:
182,192,56647,1,8,1:0:0:0:
475,192,56647,1,0,0:0:0:0:
402,192,56735,1,8,1:0:0:0:
256,192,56823,1,8,1:0:0:0:
182,192,56823,1,0,0:0:0:0:
329,192,56823,1,0,0:0:0:0:
36,192,56823,128,0,58235:0:0:0:0:
402,192,57000,1,8,1:0:0:0:
182,192,57000,1,0,0:0:0:0:
475,192,57088,1,0,0:0:0:0:
256,192,57176,1,8,1:0:0:0:
109,192,57264,1,0,0:0:0:0:
182,192,57352,1,8,1:0:0:0:
329,192,57352,1,0,0:0:0:0:
402,192,57441,1,0,0:0:0:0:
256,192,57529,1,8,1:0:0:0:
182,192,57529,1,0,0:0:0:0:
475,192,57529,1,0,0:0:0:0:
182,192,57705,1,0,0:0:0:0:
402,192,57705,1,0,0:0:0:0:
109,192,57794,1,0,0:0:0:0:
256,192,57882,1,0,0:0:0:0:
402,192,57970,1,0,0:0:0:0:
109,192,58058,1,8,1:0:0:0:
329,192,58058,1,0,0:0:0:0:
182,192,58147,1,0,0:0:0:0:
256,192,58235,1,0,0:0:0:0:
475,192,58235,128,0,59647:0:0:0:0:
109,192,58235,1,0,0:0:0:0:
329,192,58235,1,0,0:0:0:0:
402,192,58411,1,8,1:0:0:0:
182,192,58411,1,0,0:0:0:0:
329,192,58500,1,0,0:0:0:0:
256,192,58588,1,0,0:0:0:0:
109,192,58676,1,0,0:0:0:0:
329,192,58764,1,8,1:0:0:0:
36,192,58764,1,0,0:0:0:0:
402,192,58852,1,0,0:0:0:0:
329,192,58941,1,0,0:0:0:0:
256,192,58941,1,0,0:0:0:0:
329,192,59117,1,8,1:0:0:0:
182,192,59117,1,0,0:0:0:0:
109,192,59205,1,0,0:0:0:0:
256,192,59294,1,0,0:0:0:0:
402,192,59294,1,0,0:0:0:0:
36,192,59294,1,0,0:0:0:0:
329,192,59470,1,8,1:0:0:0:
182,192,59470,1,0,0:0:0:0:
402,192,59558,1,0,0:0:0:0:
36,192,59647,128,8,61058:1:0:0:0:
256,192,59647,1,0,0:0:0:0:
329,192,59647,1,0,0:0:0:0:
109,192,59647,1,0,0:0:0:0:
182,192,59823,1,0,0:0:0:0:
475,192,59823,1,0,0:0:0:0:
109,192,59911,1,8,1:0:0:0:
256,192,60000,1,0,0:0:0:0:
402,192,60088,1,0,0:0:0:0:
109,192,60176,1,8,1:0:0:0:
329,192,60176,1,0,0:0:0:0:
182,192,60264,1,0,0:0:0:0:
256,192,60352,1,8,1:0:0:0:
109,192,60352,1,0,0:0:0:0:
329,192,60352,1,0,0:0:0:0:
109,192,60529,1,0,0:0:0:0:
475,192,60529,1,0,0:0:0:0:
402,192,60617,1,8,1:0:0:0:
256,192,60705,1,0,0:0:0:0:
182,192,60794,1,0,0:0:0:0:
109,192,60882,1,8,1:0:0:0:
475,192,60882,1,0,0:0:0:0:
329,192,60970,1,0,0:0:0:0:
475,192,61058,128,8,62470:1:0:0:0:
256,192,61058,1,0,0:0:0:0:
109,192,61058,1,0,0:0:0:0:
402,192,61058,1,0,0:0:0:0:
329,192,61235,1,0,0:0:0:0:
182,192,61235,1,0,0:0:0:0:
36,192,61323,1,8,1:0:0:0:
256,192,61411,1,0,0:0:0:0:
402,192,61500,1,0,0:0:0:0:
329,192,61588,1,8,1:0:0:0:
36,192,61588,1,0,0:0:0:0:
182,192,61676,1,0,0:0:0:0:
256,192,61764,1,8,1:0:0:0:
329,192,61764,1,0,0:0:0:0:
109,192,61764,1,0,0:0:0:0:
402,192,61941,1,8,1:0:0:0:
182,192,61941,1,0,0:0:0:0:
329,192,62029,1,0,0:0:0:0:
256,192,62117,1,8,1:0:0:0:
402,192,62117,1,0,0:0:0:0:
182,192,62117,1,0,0:0:0:0:
109,192,62294,1,8,1:0:0:0:
329,192,62294,1,0,0:0:0:0:
182,192,62382,1,0,0:0:0:0:
36,192,62470,128,8,63882:1:0:0:0:
256,192,62470,1,0,0:0:0:0:
109,192,62470,1,0,0:0:0:0:
329,192,62470,1,0,0:0:0:0:
109,192,62647,1,8,1:0:0:0:
475,192,62647,1,0,0:0:0:0:
329,192,62735,1,0,0:0:0:0:
256,192,62823,1,8,1:0:0:0:
182,192,62911,1,0,0:0:0:0:
109,192,63000,1,8,1:0:0:0:
475,192,63000,1,0,0:0:0:0:
402,192,63088,1,0,0:0:0:0:
256,192,63176,1,8,1:0:0:0:
109,192,63176,1,0,0:0:0:0:
329,192,63176,1,0,0:0:0:0:
182,192,63352,1,0,0:0:0:0:
475,192,63352,1,0,0:0:0:0:
109,192,63441,1,0,0:0:0:0:
256,192,63529,1,0,0:0:0:0:
402,192,63617,1,0,0:0:0:0:
182,192,63705,1,8,1:0:0:0:
475,192,63705,1,0,0:0:0:0:
109,192,63794,1,0,0:0:0:0:
475,192,63882,128,0,65294:0:0:0:0:
256,192,63882,1,0,0:0:0:0:
182,192,63882,1,0,0:0:0:0:
402,192,63882,1,0,0:0:0:0:
329,192,64058,1,8,1:0:0:0:
36,192,64058,1,0,0:0:0:0:
402,192,64147,1,0,0:0:0:0:
256,192,64235,1,0,0:0:0:0:
182,192,64323,1,0,0:0:0:0:
402,192,64411,1,8,1:0:0:0:
109,192,64411,1,0,0:0:0:0:
329,192,64500,1,0,0:0:0:0:
256,192,64588,1,0,0:0:0:0:
402,192,64588,1,0,0:0:0:0:
36,192,64588,1,0,0:0:0:0:
402,192,64764,1,8,1:0:0:0:
109,192,64764,1,0,0:0:0:0:
182,192,64852,1,0,0:0:0:0:
256,192,64941,1,0,0:0:0:0:
36,192,64941,1,0,0:0:0:0:
402,192,64941,1,0,0:0:0:0:
329,192,65117,1,8,1:0:0:0:
182,192,65117,1,0,0:0:0:0:
402,192,65205,1,0,0:0:0:0:
36,192,65294,128,8,66705:1:0:0:0:
256,192,65294,1,0,0:0:0:0:
329,192,65294,1,0,0:0:0:0:
182,192,65294,1,0,0:0:0:0:
182,192,65470,1,0,0:0:0:0:
402,192,65470,1,0,0:0:0:0:
109,192,65558,1,8,1:0:0:0:
256,192,65647,1,0,0:0:0:0:
402,192,65735,1,0,0:0:0:0:
109,192,65823,1,8,1:0:0:0:
475,192,65823,1,0,0:0:0:0:
182,192,65911,1,8,1:0:0:0:
256,192,66000,1,8,1:0:0:0:
109,192,66000,1,0,0:0:0:0:
402,192,66000,1,0,0:0:0:0:
109,192,66176,1,8,1:0:0:0:
475,192,66176,1,0,0:0:0:0:
329,192,66264,1,0,0:0:0:0:
256,192,66352,1,0,0:0:0:0:
109,192,66441,1,8,1:0:0:0:
182,192,66529,1,8,1:0:0:0:
329,192,66529,1,0,0:0:0:0:
402,192,66617,1,8,1:0:0:0:
256,192,66705,1,8,1:0:0:0:
109,192,66705,1,4,1:0:0:0:
329,192,66705,1,0,0:0:0:0:
475,192,66705,128,0,68117:0:0:0:0:
329,192,67411,1,4,1:0:0:0:
109,192,67411,1,4,1:0:0:0:
109,192,67764,1,4,1:0:0:0:
329,192,67764,1,4,1:0:0:0:
329,192,68117,1,8,1:0:0:0:
109,192,68117,1,0,0:0:0:0:
256,192,68117,1,0,0:0:0:0:
36,192,68294,1,8,1:0:0:0:
256,192,68470,1,0,0:0:0:0:
402,192,68470,1,0,0:0:0:0:
109,192,68647,1,8,1:0:0:0:
256,192,68823,1,8,1:0:0:0:
402,192,68823,1,0,0:0:0:0:
109,192,69000,1,0,0:0:0:0:
256,192,69176,1,8,1:0:0:0:
475,192,69176,1,0,0:0:0:0:
329,192,69352,1,8,1:0:0:0:
256,192,69529,1,0,0:0:0:0:
109,192,69529,1,0,0:0:0:0:
182,192,69705,1,8,1:0:0:0:
256,192,69882,1,8,1:0:0:0:
475,192,69882,1,0,0:0:0:0:
402,192,70058,1,0,0:0:0:0:
256,192,70235,1,8,1:0:0:0:
329,192,70235,1,0,0:0:0:0:
109,192,70411,1,8,1:0:0:0:
256,192,70588,1,8,1:0:0:0:
36,192,70588,1,0,0:0:0:0:
402,192,70764,1,8,1:0:0:0:
256,192,70941,1,8,1:0:0:0:
182,192,70941,1,0,0:0:0:0:
109,192,71117,1,8,1:0:0:0:
256,192,71294,1,0,0:0:0:0:
329,192,71294,1,0,0:0:0:0:
402,192,71470,1,8,1:0:0:0:
256,192,71647,1,8,1:0:0:0:
36,192,71647,1,0,0:0:0:0:
182,192,71823,1,0,0:0:0:0:
256,192,72000,1,8,1:0:0:0:
329,192,72000,1,0,0:0:0:0:
402,192,72176,1,8,1:0:0:0:
182,192,72352,128,8,72529:1:0:0:0:
256,192,72352,128,0,72529:0:0:0:0:
402,192,72529,1,8,1:0:0:0:
182,192,72705,128,8,72882:1:0:0:0:
256,192,72705,128,0,72882:0:0:0:0:
402,192,72882,1,8,1:0:0:0:
36,192,73058,1,8,1:0:0:0:
109,192,73058,1,0,0:0:0:0:
109,192,73235,1,8,1:0:0:0:
182,192,73235,1,0,0:0:0:0:
256,192,73411,1,8,1:0:0:0:
182,192,73411,1,0,0:0:0:0:
329,192,73588,1,8,1:0:0:0:
402,192,73588,1,0,0:0:0:0:
256,192,73764,1,8,1:0:0:0:
329,192,73764,1,0,0:0:0:0:
475,192,73941,1,8,1:0:0:0:
256,192,74117,1,0,0:0:0:0:
109,192,74117,1,0,0:0:0:0:
402,192,74294,1,8,1:0:0:0:
256,192,74470,1,8,1:0:0:0:
36,192,74470,1,0,0:0:0:0:
329,192,74647,1,0,0:0:0:0:
256,192,74823,1,8,1:0:0:0:
475,192,74823,1,0,0:0:0:0:
182,192,75000,1,8,1:0:0:0:
256,192,75176,1,0,0:0:0:0:
329,192,75176,1,0,0:0:0:0:
109,192,75352,1,8,1:0:0:0:
256,192,75529,1,8,1:0:0:0:
36,192,75529,1,0,0:0:0:0:
109,192,75705,1,0,0:0:0:0:
256,192,75882,1,8,1:0:0:0:
329,192,75882,1,0,0:0:0:0:
36,192,76058,1,8,1:0:0:0:
256,192,76235,1,8,1:0:0:0:
475,192,76235,1,0,0:0:0:0:
109,192,76411,1,8,1:0:0:0:
256,192,76588,1,8,1:0:0:0:
329,192,76588,1,0,0:0:0:0:
36,192,76764,1,8,1:0:0:0:
256,192,76941,1,0,0:0:0:0:
475,192,76941,1,0,0:0:0:0:
329,192,77117,1,8,1:0:0:0:
256,192,77294,1,8,1:0:0:0:
402,192,77294,1,0,0:0:0:0:
36,192,77470,1,0,0:0:0:0:
256,192,77647,1,8,1:0:0:0:
402,192,77647,1,0,0:0:0:0:
475,192,77823,1,8,1:0:0:0:
256,192,78000,1,8,1:0:0:0:
329,192,78000,1,0,0:0:0:0:
36,192,78000,128,0,78352:0:0:0:0:
182,192,78176,1,0,0:0:0:0:
256,192,78352,1,8,1:0:0:0:
109,192,78352,1,0,0:0:0:0:
475,192,78352,128,0,78705:0:0:0:0:
402,192,78529,1,0,0:0:0:0:
256,192,78705,1,8,1:0:0:0:
182,192,78705,1,0,0:0:0:0:
329,192,78705,128,0,79411:0:0:0:0:
36,192,78882,1,0,0:0:0:0:
402,192,78882,1,0,0:0:0:0:
256,192,79058,1,8,1:0:0:0:
109,192,79058,1,0,0:0:0:0:
402,192,79058,128,0,79411:0:0:0:0:
182,192,79235,1,0,0:0:0:0:
475,192,79235,1,0,0:0:0:0:
256,192,79411,1,8,1:0:0:0:
36,192,79411,1,0,0:0:0:0:
109,192,79500,1,0,0:0:0:0:
475,192,79588,1,8,1:0:0:0:
109,192,79676,1,0,0:0:0:0:
256,192,79764,1,0,0:0:0:0:
182,192,79764,1,0,0:0:0:0:
475,192,79852,1,8,1:0:0:0:
36,192,79941,1,8,1:0:0:0:
329,192,80029,1,0,0:0:0:0:
256,192,80117,1,0,0:0:0:0:
109,192,80117,1,0,0:0:0:0:
475,192,80205,1,8,1:0:0:0:
182,192,80294,1,8,1:0:0:0:
36,192,80382,1,0,0:0:0:0:
256,192,80470,1,0,0:0:0:0:
109,192,80470,1,0,0:0:0:0:
475,192,80558,1,8,1:0:0:0:
182,192,80647,1,8,1:0:0:0:
402,192,80735,1,8,1:0:0:0:
256,192,80823,1,0,0:0:0:0:
329,192,80823,1,0,0:0:0:0:
182,192,80911,1,8,1:0:0:0:
402,192,81000,1,8,1:0:0:0:
109,192,81088,1,0,0:0:0:0:
256,192,81176,1,0,0:0:0:0:
329,192,81176,1,0,0:0:0:0:
182,192,81264,1,8,1:0:0:0:
109,192,81352,1,8,1:0:0:0:
36,192,81441,1,0,0:0:0:0:
256,192,81529,1,0,0:0:0:0:
475,192,81529,1,0,0:0:0:0:
182,192,81617,1,8,1:0:0:0:
402,192,81705,1,8,1:0:0:0:
329,192,81794,1,0,0:0:0:0:
256,192,81882,1,8,1:0:0:0:
109,192,81882,1,0,0:0:0:0:
402,192,81970,1,8,1:0:0:0:
109,192,82058,1,8,1:0:0:0:
402,192,82147,1,8,1:0:0:0:
256,192,82235,1,0,0:0:0:0:
329,192,82235,1,0,0:0:0:0:
475,192,82323,1,8,1:0:0:0:
109,192,82411,1,8,1:0:0:0:
402,192,82500,1,0,0:0:0:0:
256,192,82588,1,0,0:0:0:0:
329,192,82588,1,0,0:0:0:0:
182,192,82676,1,8,1:0:0:0:
36,192,82764,1,8,1:0:0:0:
475,192,82852,1,0,0:0:0:0:
256,192,82941,1,0,0:0:0:0:
329,192,82941,1,0,0:0:0:0:
182,192,83029,1,8,1:0:0:0:
402,192,83117,1,8,1:0:0:0:
109,192,83205,1,0,0:0:0:0:
256,192,83294,1,0,0:0:0:0:
182,192,83294,1,0,0:0:0:0:
402,192,83382,1,8,1:0:0:0:
329,192,83470,1,8,1:0:0:0:
475,192,83558,1,8,1:0:0:0:
256,192,83647,1,8,1:0:0:0:
402,192,83647,1,0,0:0:0:0:
109,192,83735,1,8,1:0:0:0:
36,192,83823,1,8,1:0:0:0:
109,192,83911,1,8,1:0:0:0:
256,192,84000,1,0,0:0:0:0:
329,192,84000,1,0,0:0:0:0:
402,192,84088,1,8,1:0:0:0:
475,192,84176,1,8,1:0:0:0:
402,192,84264,1,8,1:0:0:0:
256,192,84352,1,8,1:0:0:0:
182,192,84352,1,0,0:0:0:0:
329,192,84352,1,0,0:0:0:0:
109,192,84441,1,8,1:0:0:0:
36,192,84529,1,8,1:0:0:0:
109,192,84617,1,8,1:0:0:0:
256,192,84705,1,8,1:0:0:0:
329,192,84705,1,0,0:0:0:0:
182,192,84705,1,0,0:0:0:0:
402,192,84794,1,8,1:0:0:0:
475,192,84882,1,8,1:0:0:0:
402,192,84970,1,8,1:0:0:0:
256,192,85058,1,8,1:0:0:0:
329,192,85058,1,0,0:0:0:0:
182,192,85058,1,0,0:0:0:0:
402,192,85147,1,0,0:0:0:0:
475,192,85235,1,8,1:0:0:0:
109,192,85323,1,0,0:0:0:0:
256,192,85411,1,0,0:0:0:0:
475,192,85411,1,0,0:0:0:0:
182,192,85500,1,8,1:0:0:0:
36,192,85588,1,0,0:0:0:0:
402,192,85676,1,0,0:0:0:0:
256,192,85764,1,8,1:0:0:0:
329,192,85764,1,0,0:0:0:0:
475,192,85852,1,0,0:0:0:0:
109,192,85941,1,8,1:0:0:0:
182,192,86029,1,8,1:0:0:0:
256,192,86117,1,8,1:0:0:0:
36,192,86117,1,0,0:0:0:0:
402,192,86205,1,8,1:0:0:0:
182,192,86294,1,8,1:0:0:0:
475,192,86382,1,8,1:0:0:0:
256,192,86470,1,8,1:0:0:0:
402,192,86470,1,0,0:0:0:0:
182,192,86558,1,0,0:0:0:0:
36,192,86647,1,8,1:0:0:0:
109,192,86735,1,0,0:0:0:0:
256,192,86823,1,0,0:0:0:0:
329,192,86823,1,0,0:0:0:0:
402,192,86911,1,8,1:0:0:0:
36,192,87000,1,0,0:0:0:0:
402,192,87088,1,0,0:0:0:0:
256,192,87176,1,8,1:0:0:0:
475,192,87176,1,0,0:0:0:0:
402,192,87264,1,8,1:0:0:0:
182,192,87352,1,8,1:0:0:0:
109,192,87441,1,8,1:0:0:0:
256,192,87529,1,8,1:0:0:0:
36,192,87529,1,0,0:0:0:0:
475,192,87617,1,8,1:0:0:0:
329,192,87705,1,8,1:0:0:0:
475,192,87794,1,8,1:0:0:0:
256,192,87882,1,8,1:0:0:0:
402,192,87882,1,0,0:0:0:0:
109,192,87970,1,0,0:0:0:0:
182,192,88058,1,8,1:0:0:0:
475,192,88147,1,0,0:0:0:0:
256,192,88235,1,0,0:0:0:0:
329,192,88235,1,0,0:0:0:0:
182,192,88323,1,8,1:0:0:0:
36,192,88411,1,0,0:0:0:0:
182,192,88500,1,0,0:0:0:0:
256,192,88588,1,8,1:0:0:0:
475,192,88588,1,0,0:0:0:0:
402,192,88676,1,8,1:0:0:0:
329,192,88764,1,8,1:0:0:0:
182,192,88852,1,0,0:0:0:0:
256,192,88941,1,8,1:0:0:0:
109,192,88941,1,0,0:0:0:0:
475,192,89029,1,8,1:0:0:0:
402,192,89117,1,8,1:0:0:0:
36,192,89205,1,0,0:0:0:0:
256,192,89294,1,8,1:0:0:0:
329,192,89294,1,0,0:0:0:0:
182,192,89382,1,8,1:0:0:0:
256,192,89470,1,8,1:0:0:0:
402,192,89470,1,0,0:0:0:0:
109,192,89558,1,8,1:0:0:0:
256,192,89647,1,8,1:0:0:0:
475,192,89647,1,0,0:0:0:0:
36,192,89735,1,8,1:0:0:0:
256,192,89823,1,8,1:0:0:0:
402,192,89823,1,0,0:0:0:0:
109,192,89911,1,8,1:0:0:0:
256,192,90000,1,8,1:0:0:0:
329,192,90000,1,0,0:0:0:0:
182,192,90088,1,8,1:0:0:0:
256,192,90176,1,8,1:0:0:0:
402,192,90176,1,0,0:0:0:0:
109,192,90264,1,8,1:0:0:0:
256,192,90352,1,8,1:0:0:0:
475,192,90352,1,0,0:0:0:0:
36,192,90441,1,8,1:0:0:0:
256,192,90529,1,8,1:0:0:0:
402,192,90529,1,0,0:0:0:0:
109,192,90617,1,0,0:0:0:0:
36,192,90705,128,4,100588:1:0:0:0:
182,192,90705,128,4,92117:1:0:0:0:
256,192,90705,128,0,96352:0:0:0:0:
329,192,90705,128,0,92823:0:0:0:0:
402,192,90705,128,0,93529:0:0:0:0:
475,192,90705,128,0,94941:0:0:0:0:
109,192,92117,128,0,100588:0:0:0:0:
182,192,92823,128,0,95647:0:0:0:0:
329,192,93529,128,0,100588:0:0:0:0:
402,192,94941,128,0,100588:0:0:0:0:
475,192,95647,128,0,97764:0:0:0:0:
182,192,96352,128,0,98470:0:0:0:0:
256,192,97764,128,0,99176:0:0:0:0:
475,192,98470,128,0,100588:0:0:0:0:
182,192,99176,128,0,100588:0:0:0:0:
36,192,100941,1,0,0:0:0:0:
109,192,101029,1,0,0:0:0:0:
182,192,101117,1,0,0:0:0:0:
256,192,101205,1,0,0:0:0:0:
329,192,101294,1,0,0:0:0:0:
402,192,101382,1,0,0:0:0:0:
475,192,101470,1,0,0:0:0:0:
402,192,101558,1,0,0:0:0:0:
329,192,101647,1,0,0:0:0:0:
256,192,101735,1,0,0:0:0:0:
182,192,101823,1,0,0:0:0:0:
109,192,101911,1,0,0:0:0:0:
256,192,102000,1,8,1:0:0:0:
182,192,102000,128,0,102352:0:0:0:0:
36,192,102000,1,0,0:0:0:0:
109,192,102176,128,0,102352:0:0:0:0:
256,192,102352,1,0,0:0:0:0:
402,192,102352,128,0,102882:0:0:0:0:
36,192,102529,128,8,103058:1:0:0:0:
256,192,102705,1,0,0:0:0:0:
475,192,102705,128,0,102882:0:0:0:0:
182,192,102882,128,8,103058:1:0:0:0:
256,192,103058,1,8,1:0:0:0:
402,192,103058,128,0,103588:0:0:0:0:
109,192,103235,128,0,103764:0:0:0:0:
256,192,103411,1,8,1:0:0:0:
329,192,103411,128,0,103588:0:0:0:0:
182,192,103588,128,0,103764:0:0:0:0:
256,192,103764,1,0,0:0:0:0:
475,192,103764,128,0,104294:0:0:0:0:
109,192,103941,128,8,104470:1:0:0:0:
256,192,104117,1,0,0:0:0:0:
402,192,104117,128,0,104294:0:0:0:0:
36,192,104294,128,8,104470:1:0:0:0:
256,192,104470,1,0,0:0:0:0:
475,192,104470,128,0,105000:0:0:0:0:
182,192,104647,128,8,105176:1:0:0:0:
256,192,104823,1,8,1:0:0:0:
329,192,104823,128,0,105000:0:0:0:0:
36,192,105000,128,0,105176:0:0:0:0:
256,192,105176,1,0,0:0:0:0:
402,192,105176,128,0,105705:0:0:0:0:
36,192,105352,128,8,105882:1:0:0:0:
256,192,105529,1,0,0:0:0:0:
475,192,105529,128,0,105705:0:0:0:0:
109,192,105705,128,8,105882:1:0:0:0:
256,192,105882,1,8,1:0:0:0:
475,192,105882,128,0,106411:0:0:0:0:
109,192,106058,128,0,106588:0:0:0:0:
256,192,106235,1,8,1:0:0:0:
329,192,106235,128,0,106411:0:0:0:0:
182,192,106411,128,0,106588:0:0:0:0:
256,192,106588,1,0,0:0:0:0:
402,192,106588,128,0,107117:0:0:0:0:
182,192,106764,128,8,107294:1:0:0:0:
256,192,106941,1,0,0:0:0:0:
475,192,106941,128,0,107117:0:0:0:0:
109,192,107117,128,8,107294:1:0:0:0:
256,192,107294,1,8,1:0:0:0:
402,192,107294,128,0,107647:0:0:0:0:
36,192,107470,128,8,107647:1:0:0:0:
256,192,107647,1,4,1:0:0:0:
329,192,107647,1,4,1:0:0:0:
109,192,107735,1,0,0:0:0:0:
256,192,107823,1,0,0:0:0:0:
402,192,107823,1,0,0:0:0:0:
182,192,107911,1,0,0:0:0:0:
256,192,108000,1,0,0:0:0:0:
475,192,108000,1,0,0:0:0:0:
109,192,108088,1,0,0:0:0:0:
256,192,108176,1,0,0:0:0:0:
402,192,108176,1,0,0:0:0:0:
36,192,108264,1,0,0:0:0:0:
256,192,108352,1,4,1:0:0:0:
475,192,108352,1,4,1:0:0:0:
109,192,108441,1,0,0:0:0:0:
256,192,108529,1,0,0:0:0:0:
402,192,108529,1,0,0:0:0:0:
182,192,108617,1,0,0:0:0:0:
256,192,108705,1,0,0:0:0:0:
329,192,108705,1,0,0:0:0:0:
109,192,108794,1,0,0:0:0:0:
256,192,108882,1,0,0:0:0:0:
475,192,108882,1,0,0:0:0:0:
36,192,108970,1,0,0:0:0:0:
256,192,109058,1,4,1:0:0:0:
402,192,109058,1,4,1:0:0:0:
109,192,109147,1,0,0:0:0:0:
256,192,109235,1,0,0:0:0:0:
329,192,109235,1,0,0:0:0:0:
182,192,109323,1,0,0:0:0:0:
256,192,109411,1,0,0:0:0:0:
475,192,109411,1,0,0:0:0:0:
36,192,109500,1,0,0:0:0:0:
256,192,109588,1,0,0:0:0:0:
402,192,109588,1,0,0:0:0:0:
109,192,109676,1,0,0:0:0:0:
256,192,109764,1,4,1:0:0:0:
329,192,109764,1,4,1:0:0:0:
182,192,109852,1,0,0:0:0:0:
256,192,109941,1,0,0:0:0:0:
402,192,109941,1,0,0:0:0:0:
109,192,110029,1,0,0:0:0:0:
36,192,110117,1,0,0:0:0:0:
109,192,110161,1,0,0:0:0:0:
182,192,110205,1,0,0:0:0:0:
256,192,110250,1,0,0:0:0:0:
329,192,110294,1,0,0:0:0:0:
402,192,110338,1,0,0:0:0:0:
475,192,110382,1,0,0:0:0:0:
36,192,110426,1,0,0:0:0:0:
109,192,110470,1,0,0:0:0:0:
109,192,110647,128,8,111176:1:0:0:0:
402,192,110647,128,0,111176:0:0:0:0:
182,192,111000,128,8,111529:1:0:0:0:
329,192,111000,128,0,111529:0:0:0:0:
36,192,111352,128,8,111882:1:0:0:0:
475,192,111352,128,0,111882:0:0:0:0:
182,192,111705,128,0,111882:0:0:0:0:
329,192,111705,128,0,111882:0:0:0:0:
256,192,111882,128,0,112588:0:0:0:0:
109,192,111882,1,0,0:0:0:0:
182,192,111970,1,0,0:0:0:0:
475,192,112058,1,0,0:0:0:0:
402,192,112147,1,0,0:0:0:0:
109,192,112235,1,0,0:0:0:0:
182,192,112323,1,0,0:0:0:0:
402,192,112411,1,0,0:0:0:0:
329,192,112500,1,0,0:0:0:0:
475,192,112588,1,0,0:0:0:0:
402,192,112676,1,0,0:0:0:0:
329,192,112764,1,0,0:0:0:0:
256,192,112852,1,0,0:0:0:0:
475,192,112941,1,0,2:0:0:0:
402,192,112985,1,0,2:0:0:0:
329,192,113029,1,0,2:0:0:0:
256,192,113073,1,0,2:0:0:0:
182,192,113117,1,0,2:0:0:0:
109,192,113161,1,0,2:0:0:0:
36,192,113205,1,0,2:0:0:0:
475,192,113250,1,0,2:0:0:0:
256,192,113294,1,4,0:0:0:0:
402,192,113294,1,0,0:0:0:0:
109,192,113470,128,8,113647:1:0:0:0:
256,192,113647,1,0,0:0:0:0:
402,192,113647,1,0,0:0:0:0:
182,192,113823,128,8,114000:1:0:0:0:
256,192,114000,1,0,0:0:0:0:
36,192,114000,1,0,0:0:0:0:
475,192,114000,1,0,0:0:0:0:
182,192,114176,128,8,114352:1:0:0:0:
256,192,114352,1,0,0:0:0:0:
475,192,114352,1,0,0:0:0:0:
329,192,114529,128,8,114705:1:0:0:0:
256,192,114705,1,4,0:0:0:0:
36,192,114705,1,0,0:0:0:0:
329,192,114882,128,4,115058:0:0:0:0:
256,192,115058,1,0,0:0:0:0:
36,192,115058,1,0,0:0:0:0:
109,192,115235,128,4,115411:0:0:0:0:
256,192,115411,1,0,0:0:0:0:
329,192,115411,1,0,0:0:0:0:
475,192,115588,128,4,115764:0:0:0:0:
256,192,115764,1,4,0:0:0:0:
36,192,115764,1,0,0:0:0:0:
402,192,115941,128,4,116117:0:0:0:0:
256,192,116117,1,4,0:0:0:0:
475,192,116117,1,0,0:0:0:0:
36,192,116294,128,4,116470:0:0:0:0:
256,192,116470,1,0,0:0:0:0:
402,192,116470,1,0,0:0:0:0:
475,192,116647,128,4,116823:0:0:0:0:
256,192,116823,1,0,0:0:0:0:
109,192,116823,1,0,0:0:0:0:
402,192,117000,128,4,117176:0:0:0:0:
256,192,117176,1,0,0:0:0:0:
36,192,117176,1,0,0:0:0:0:
329,192,117352,128,4,117529:0:0:0:0:
256,192,117529,1,4,0:0:0:0:
402,192,117529,1,0,0:0:0:0:
475,192,117705,128,4,118235:0:0:0:0:
256,192,117882,1,0,0:0:0:0:
402,192,117882,1,0,0:0:0:0:
109,192,118058,128,4,118235:0:0:0:0:
256,192,118235,1,0,0:0:0:0:
36,192,118235,1,0,0:0:0:0:
329,192,118235,1,0,0:0:0:0:
182,192,118411,1,4,0:0:0:0:
475,192,118411,1,0,0:0:0:0:
256,192,118588,1,4,0:0:0:0:
329,192,118588,1,0,0:0:0:0:
36,192,118588,1,0,0:0:0:0:
109,192,118676,1,4,0:0:0:0:
402,192,118676,1,0,0:0:0:0:
182,192,118764,1,4,0:0:0:0:
475,192,118764,1,0,0:0:0:0:
402,192,118852,1,0,0:0:0:0:
109,192,118852,1,4,0:0:0:0:
256,192,118941,1,4,1:0:0:0:
329,192,118941,1,0,0:0:0:0:
36,192,118941,1,0,0:0:0:0:
109,192,119117,128,4,119294:0:0:0:0:
256,192,119294,1,0,0:0:0:0:
402,192,119294,1,0,0:0:0:0:
36,192,119470,128,4,119647:0:0:0:0:
256,192,119647,1,0,0:0:0:0:
475,192,119647,1,0,0:0:0:0:
182,192,119823,128,4,120000:0:0:0:0:
256,192,120000,1,0,0:0:0:0:
109,192,120000,1,0,0:0:0:0:
475,192,120176,128,4,120352:0:0:0:0:
256,192,120352,1,4,0:0:0:0:
36,192,120352,1,0,0:0:0:0:
402,192,120529,128,4,120705:0:0:0:0:
256,192,120705,1,0,0:0:0:0:
109,192,120705,1,0,0:0:0:0:
36,192,120882,128,4,121058:0:0:0:0:
256,192,121058,1,0,0:0:0:0:
182,192,121058,1,0,0:0:0:0:
329,192,121235,128,4,121411:0:0:0:0:
256,192,121411,1,4,0:0:0:0:
109,192,121411,1,0,0:0:0:0:
475,192,121588,1,4,0:0:0:0:
256,192,121764,1,4,0:0:0:0:
182,192,121764,1,0,0:0:0:0:
36,192,121941,128,4,122117:0:0:0:0:
256,192,122117,1,0,0:0:0:0:
402,192,122117,1,0,0:0:0:0:
329,192,122294,128,4,122470:0:0:0:0:
256,192,122470,1,0,0:0:0:0:
402,192,122470,1,0,0:0:0:0:
182,192,122647,128,4,122823:0:0:0:0:
256,192,122823,1,0,0:0:0:0:
109,192,122823,1,0,0:0:0:0:
36,192,123000,128,4,123176:0:0:0:0:
256,192,123176,1,4,0:0:0:0:
109,192,123176,1,0,0:0:0:0:
182,192,123352,128,4,123882:0:0:0:0:
256,192,123529,1,0,0:0:0:0:
36,192,123529,1,0,0:0:0:0:
329,192,123705,128,4,123882:0:0:0:0:
256,192,123882,1,4,0:0:0:0:
36,192,123882,1,0,0:0:0:0:
475,192,123882,1,0,0:0:0:0:
109,192,123970,1,0,0:0:0:0:
402,192,123970,1,4,0:0:0:0:
182,192,124058,1,0,0:0:0:0:
329,192,124058,1,4,0:0:0:0:
402,192,124147,1,4,0:0:0:0:
109,192,124147,1,0,0:0:0:0:
256,192,124235,1,4,0:0:0:0:
475,192,124235,1,0,0:0:0:0:
36,192,124235,1,0,0:0:0:0:
109,192,124323,1,0,0:0:0:0:
402,192,124323,1,4,0:0:0:0:
182,192,124411,1,4,0:0:0:0:
329,192,124411,1,0,0:0:0:0:
109,192,124500,1,4,0:0:0:0:
402,192,124500,1,0,0:0:0:0:
256,192,124588,1,4,0:0:0:0:
36,192,124588,1,4,1:0:0:0:
475,192,124588,1,0,0:0:0:0:
329,192,124764,128,4,124941:0:0:0:0:
256,192,124941,1,0,0:0:0:0:
475,192,124941,1,0,0:0:0:0:
402,192,125117,128,4,125294:0:0:0:0:
256,192,125294,1,0,0:0:0:0:
109,192,125294,1,0,0:0:0:0:
475,192,125470,128,4,125647:0:0:0:0:
256,192,125647,1,0,0:0:0:0:
402,192,125647,1,0,0:0:0:0:
36,192,125823,128,4,126000:0:0:0:0:
109,192,126000,1,4,0:0:0:0:
256,192,126000,1,0,0:0:0:0:
402,192,126176,128,4,126352:0:0:0:0:
256,192,126352,1,0,0:0:0:0:
475,192,126352,1,0,0:0:0:0:
475,192,126529,128,4,126705:0:0:0:0:
256,192,126705,1,0,0:0:0:0:
109,192,126705,1,0,0:0:0:0:
475,192,126882,128,4,127058:0:0:0:0:
256,192,127058,1,4,0:0:0:0:
402,192,127058,1,0,0:0:0:0:
182,192,127235,128,4,127411:0:0:0:0:
256,192,127411,1,4,0:0:0:0:
36,192,127411,1,0,0:0:0:0:
475,192,127588,128,4,127764:0:0:0:0:
256,192,127764,1,0,0:0:0:0:
402,192,127764,1,0,0:0:0:0:
36,192,127941,128,4,128117:0:0:0:0:
256,192,128117,1,0,0:0:0:0:
109,192,128117,1,0,0:0:0:0:
475,192,128294,128,4,128470:0:0:0:0:
256,192,128470,1,0,0:0:0:0:
329,192,128470,1,0,0:0:0:0:
402,192,128647,128,4,128823:0:0:0:0:
256,192,128823,1,4,0:0:0:0:
36,192,128823,1,0,0:0:0:0:
36,192,129000,128,4,129529:0:0:0:0:
256,192,129176,1,0,0:0:0:0:
402,192,129176,1,0,0:0:0:0:
475,192,129352,128,4,129529:0:0:0:0:
256,192,129529,1,0,0:0:0:0:
329,192,129529,1,0,0:0:0:0:
402,192,129705,1,0,0:0:0:0:
109,192,129705,1,4,0:0:0:0:
256,192,129882,1,4,0:0:0:0:
182,192,129882,1,0,0:0:0:0:
36,192,129970,1,4,0:0:0:0:
475,192,129970,1,0,0:0:0:0:
109,192,130058,1,4,0:0:0:0:
329,192,130058,1,0,0:0:0:0:
475,192,130147,1,0,0:0:0:0:
36,192,130147,1,4,0:0:0:0:
256,192,130235,1,0,0:0:0:0:
182,192,130235,1,4,0:0:0:0:
475,192,130411,128,4,131117:0:0:0:0:
256,192,130588,1,0,0:0:0:0:
36,192,130764,128,4,131470:0:0:0:0:
256,192,130941,1,0,0:0:0:0:
402,192,131117,128,4,131823:0:0:0:0:
256,192,131294,1,0,0:0:0:0:
109,192,131470,128,4,132176:0:0:0:0:
256,192,131647,1,4,0:0:0:0:
475,192,131823,128,4,132529:0:0:0:0:
256,192,132000,1,0,0:0:0:0:
182,192,132176,128,4,132882:0:0:0:0:
256,192,132352,1,0,0:0:0:0:
402,192,132529,128,4,133235:0:0:0:0:
256,192,132705,1,4,0:0:0:0:
36,192,132882,128,4,133588:0:0:0:0:
256,192,133058,1,4,0:0:0:0:
475,192,133235,128,0,133941:0:0:0:0:
256,192,133411,1,4,0:0:0:0:
109,192,133588,128,0,134294:0:0:0:0:
256,192,133764,1,4,0:0:0:0:
402,192,133941,128,0,134470:0:0:0:0:
256,192,134117,1,4,0:0:0:0:
36,192,134294,128,0,134470:0:0:0:0:
256,192,134470,128,4,135882:1:0:0:0:
36,192,135176,128,0,135882:0:0:0:0:
182,192,135176,128,0,135882:0:0:0:0:
329,192,135529,128,0,135882:0:0:0:0:
475,192,135529,128,0,135882:0:0:0:0:
109,192,135882,1,4,0:0:0:0:
329,192,136058,1,0,0:0:0:0:
36,192,136058,1,0,0:0:0:0:
475,192,136147,1,4,0:0:0:0:
256,192,136235,1,0,0:0:0:0:
182,192,136323,1,0,0:0:0:0:
329,192,136411,1,0,0:0:0:0:
109,192,136411,1,4,0:0:0:0:
475,192,136500,1,0,0:0:0:0:
402,192,136588,1,0,0:0:0:0:
182,192,136588,1,0,0:0:0:0:
256,192,136588,1,0,0:0:0:0:
329,192,136764,1,4,0:0:0:0:
36,192,136764,1,0,0:0:0:0:
182,192,136852,1,0,0:0:0:0:
256,192,136941,1,4,0:0:0:0:
402,192,137029,1,0,0:0:0:0:
329,192,137117,1,4,0:0:0:0:
36,192,137117,1,0,0:0:0:0:
109,192,137205,1,0,0:0:0:0:
402,192,137294,1,4,0:0:0:0:
182,192,137294,1,0,0:0:0:0:
256,192,137294,1,0,0:0:0:0:
475,192,137470,1,0,0:0:0:0:
109,192,137470,1,0,0:0:0:0:
329,192,137558,1,4,0:0:0:0:
256,192,137647,1,0,0:0:0:0:
36,192,137735,1,0,0:0:0:0:
475,192,137823,1,4,0:0:0:0:
182,192,137823,1,0,0:0:0:0:
329,192,137911,1,0,0:0:0:0:
402,192,138000,1,0,0:0:0:0:
182,192,138000,1,0,0:0:0:0:
256,192,138000,1,0,0:0:0:0:
475,192,138176,1,4,0:0:0:0:
36,192,138176,1,0,0:0:0:0:
109,192,138264,1,4,0:0:0:0:
182,192,138352,1,4,0:0:0:0:
329,192,138352,1,0,0:0:0:0:
256,192,138352,1,0,0:0:0:0:
402,192,138529,1,0,0:0:0:0:
109,192,138529,1,4,0:0:0:0:
475,192,138617,1,0,0:0:0:0:
329,192,138705,1,4,0:0:0:0:
36,192,138705,1,0,0:0:0:0:
256,192,138705,1,0,0:0:0:0:
329,192,138882,1,0,0:0:0:0:
182,192,138882,1,0,0:0:0:0:
36,192,138970,1,4,0:0:0:0:
256,192,139058,1,0,0:0:0:0:
402,192,139147,1,0,0:0:0:0:
329,192,139235,1,0,0:0:0:0:
182,192,139235,1,4,0:0:0:0:
109,192,139323,1,0,0:0:0:0:
329,192,139411,1,0,0:0:0:0:
182,192,139411,1,0,0:0:0:0:
256,192,139411,1,0,0:0:0:0:
475,192,139588,1,4,0:0:0:0:
36,192,139588,1,0,0:0:0:0:
329,192,139676,1,0,0:0:0:0:
256,192,139764,1,4,0:0:0:0:
182,192,139852,1,0,0:0:0:0:
329,192,139941,1,4,0:0:0:0:
36,192,139941,1,0,0:0:0:0:
402,192,140029,1,0,0:0:0:0:
475,192,140117,1,4,0:0:0:0:
36,192,140117,1,0,0:0:0:0:
256,192,140117,1,0,0:0:0:0:
329,192,140294,1,0,0:0:0:0:
109,192,140294,1,0,0:0:0:0:
182,192,140382,1,4,0:0:0:0:
256,192,140470,1,0,0:0:0:0:
329,192,140558,1,0,0:0:0:0:
402,192,140647,1,0,0:0:0:0:
109,192,140647,1,4,0:0:0:0:
36,192,140735,1,0,0:0:0:0:
182,192,140823,1,0,0:0:0:0:
256,192,140823,1,4,0:0:0:0:
475,192,141000,1,4,0:0:0:0:
36,192,141000,1,0,0:0:0:0:
402,192,141088,1,4,0:0:0:0:
182,192,141176,1,4,0:0:0:0:
329,192,141176,1,0,0:0:0:0:
256,192,141176,1,0,0:0:0:0:
329,192,141352,1,4,0:0:0:0:
182,192,141352,1,0,0:0:0:0:
109,192,141441,1,4,0:0:0:0:
475,192,141529,1,4,0:0:0:0:
36,192,141529,1,0,0:0:0:0:
256,192,141529,1,0,0:0:0:0:
109,192,141705,1,0,0:0:0:0:
329,192,141705,1,0,0:0:0:0:
475,192,141794,1,4,0:0:0:0:
256,192,141882,1,0,0:0:0:0:
182,192,141970,1,0,0:0:0:0:
36,192,142058,1,0,0:0:0:0:
329,192,142058,1,4,0:0:0:0:
475,192,142147,1,0,0:0:0:0:
182,192,142235,1,0,0:0:0:0:
329,192,142235,1,0,0:0:0:0:
256,192,142235,1,0,0:0:0:0:
109,192,142411,1,4,0:0:0:0:
475,192,142411,1,0,0:0:0:0:
36,192,142500,1,0,0:0:0:0:
256,192,142588,1,4,0:0:0:0:
402,192,142676,1,0,0:0:0:0:
329,192,142764,1,4,0:0:0:0:
182,192,142764,1,0,0:0:0:0:
109,192,142852,1,0,0:0:0:0:
402,192,142941,1,4,0:0:0:0:
182,192,142941,1,0,0:0:0:0:
256,192,142941,1,0,0:0:0:0:
36,192,143117,1,0,0:0:0:0:
329,192,143117,1,0,0:0:0:0:
402,192,143205,1,4,0:0:0:0:
256,192,143294,1,0,0:0:0:0:
109,192,143382,1,0,0:0:0:0:
182,192,143470,1,4,0:0:0:0:
329,192,143470,1,0,0:0:0:0:
475,192,143558,1,0,0:0:0:0:
182,192,143647,1,0,0:0:0:0:
402,192,143647,1,0,0:0:0:0:
256,192,143647,1,0,0:0:0:0:
36,192,143823,1,4,0:0:0:0:
475,192,143823,1,0,0:0:0:0:
329,192,143911,1,4,0:0:0:0:
109,192,144000,1,4,0:0:0:0:
402,192,144000,1,0,0:0:0:0:
256,192,144000,1,0,0:0:0:0:
36,192,144176,1,4,0:0:0:0:
475,192,144176,1,0,0:0:0:0:
182,192,144264,1,0,0:0:0:0:
256,192,144352,1,4,0:0:0:0:
109,192,144352,1,0,0:0:0:0:
402,192,144352,1,0,0:0:0:0:
109,192,144529,1,0,0:0:0:0:
475,192,144529,1,0,0:0:0:0:
182,192,144617,1,4,0:0:0:0:
256,192,144705,1,0,0:0:0:0:
329,192,144794,1,0,0:0:0:0:
182,192,144882,1,4,0:0:0:0:
475,192,144882,1,0,0:0:0:0:
109,192,144970,1,0,0:0:0:0:
36,192,145058,1,0,0:0:0:0:
402,192,145058,1,0,0:0:0:0:
256,192,145058,1,0,0:0:0:0:
329,192,145235,1,4,0:0:0:0:
36,192,145235,1,0,0:0:0:0:
402,192,145323,1,0,0:0:0:0:
256,192,145411,1,4,0:0:0:0:
109,192,145500,1,0,0:0:0:0:
182,192,145588,1,4,0:0:0:0:
329,192,145588,1,0,0:0:0:0:
402,192,145676,1,0,0:0:0:0:
109,192,145764,1,4,0:0:0:0:
329,192,145764,1,0,0:0:0:0:
256,192,145764,1,0,0:0:0:0:
109,192,145941,1,0,0:0:0:0:
402,192,145941,1,0,0:0:0:0:
36,192,146029,1,4,0:0:0:0:
256,192,146117,1,0,0:0:0:0:
475,192,146205,1,0,0:0:0:0:
182,192,146294,1,4,0:0:0:0:
329,192,146294,1,0,0:0:0:0:
36,192,146382,1,0,0:0:0:0:
182,192,146470,1,4,0:0:0:0:
329,192,146470,1,0,0:0:0:0:
256,192,146470,1,0,0:0:0:0:
36,192,146647,1,4,0:0:0:0:
475,192,146647,1,0,0:0:0:0:
402,192,146735,1,4,0:0:0:0:
109,192,146823,1,4,0:0:0:0:
329,192,146823,1,0,0:0:0:0:
256,192,146823,1,0,0:0:0:0:
36,192,147000,1,4,0:0:0:0:
329,192,147000,1,0,0:0:0:0:
109,192,147088,1,4,0:0:0:0:
182,192,147176,1,4,1:0:0:0:
256,192,147176,1,4,1:0:0:0:
475,192,147176,1,0,0:0:0:0:
402,192,147176,1,0,0:0:0:0:
109,192,147352,1,0,0:0:0:0:
182,192,147441,1,4,0:0:0:0:
256,192,147529,1,0,0:0:0:0:
475,192,147529,1,0,0:0:0:0:
329,192,147529,1,0,0:0:0:0:
36,192,147617,1,0,0:0:0:0:
109,192,147705,1,4,0:0:0:0:
182,192,147794,1,0,0:0:0:0:
36,192,147882,1,0,0:0:0:0:
256,192,147882,1,0,0:0:0:0:
475,192,147882,1,0,0:0:0:0:
402,192,147882,1,0,0:0:0:0:
109,192,148058,1,4,0:0:0:0:
182,192,148147,1,0,0:0:0:0:
256,192,148235,1,4,0:0:0:0:
475,192,148235,1,0,0:0:0:0:
329,192,148235,1,0,0:0:0:0:
36,192,148323,1,0,0:0:0:0:
182,192,148411,1,4,0:0:0:0:
109,192,148500,1,0,0:0:0:0:
36,192,148588,1,4,0:0:0:0:
256,192,148588,1,0,0:0:0:0:
475,192,148588,1,0,0:0:0:0:
402,192,148588,1,0,0:0:0:0:
182,192,148764,1,0,0:0:0:0:
36,192,148852,1,4,0:0:0:0:
256,192,148941,1,0,0:0:0:0:
475,192,148941,1,0,0:0:0:0:
329,192,148941,1,0,0:0:0:0:
36,192,149029,1,0,0:0:0:0:
109,192,149117,1,4,0:0:0:0:
182,192,149205,1,0,0:0:0:0:
256,192,149294,1,0,0:0:0:0:
36,192,149294,1,0,0:0:0:0:
475,192,149294,1,0,0:0:0:0:
402,192,149294,1,0,0:0:0:0:
109,192,149470,1,4,0:0:0:0:
36,192,149558,1,4,0:0:0:0:
182,192,149647,1,4,0:0:0:0:
256,192,149647,1,0,0:0:0:0:
475,192,149647,1,0,0:0:0:0:
329,192,149647,1,0,0:0:0:0:
182,192,149823,1,4,0:0:0:0:
109,192,149911,1,0,0:0:0:0:
475,192,150000,1,4,0:0:0:0:
402,192,150000,1,0,0:0:0:0:
256,192,150000,1,0,0:0:0:0:
36,192,150000,1,0,0:0:0:0:
182,192,150000,1,0,0:0:0:0:
402,192,150176,1,0,0:0:0:0:
329,192,150264,1,4,0:0:0:0:
109,192,150352,1,0,0:0:0:0:
256,192,150352,1,0,0:0:0:0:
36,192,150352,1,0,0:0:0:0:
475,192,150441,1,0,0:0:0:0:
402,192,150529,1,4,0:0:0:0:
329,192,150617,1,0,0:0:0:0:
182,192,150705,1,0,0:0:0:0:
256,192,150705,1,0,0:0:0:0:
475,192,150705,1,0,0:0:0:0:
36,192,150705,1,0,0:0:0:0:
402,192,150882,1,4,0:0:0:0:
329,192,150970,1,0,0:0:0:0:
109,192,151058,1,4,0:0:0:0:
36,192,151058,1,0,0:0:0:0:
256,192,151058,1,0,0:0:0:0:
475,192,151147,1,0,0:0:0:0:
329,192,151235,1,4,0:0:0:0:
402,192,151323,1,0,0:0:0:0:
182,192,151411,1,0,0:0:0:0:
36,192,151411,1,4,0:0:0:0:
256,192,151411,1,0,0:0:0:0:
475,192,151411,1,0,0:0:0:0:
329,192,151588,1,0,0:0:0:0:
475,192,151676,1,4,0:0:0:0:
109,192,151764,1,0,0:0:0:0:
36,192,151764,1,0,0:0:0:0:
256,192,151764,1,0,0:0:0:0:
475,192,151852,1,0,0:0:0:0:
402,192,151941,1,4,0:0:0:0:
329,192,152029,1,0,0:0:0:0:
475,192,152117,1,4,0:0:0:0:
256,192,152117,1,0,0:0:0:0:
36,192,152117,1,0,0:0:0:0:
182,192,152117,1,0,0:0:0:0:
402,192,152294,1,0,0:0:0:0:
475,192,152382,1,4,0:0:0:0:
109,192,152470,1,4,0:0:0:0:
256,192,152470,1,0,0:0:0:0:
329,192,152470,1,0,0:0:0:0:
36,192,152470,1,0,0:0:0:0:
475,192,152647,1,4,0:0:0:0:
402,192,152735,1,4,0:0:0:0:
475,192,152823,128,0,154235:0:0:0:0:
36,192,152823,1,4,0:0:0:0:
256,192,152823,1,0,0:0:0:0:
182,192,152823,1,0,0:0:0:0:
329,192,152823,1,0,0:0:0:0:
36,192,153000,1,0,0:0:0:0:
402,192,153000,1,0,0:0:0:0:
329,192,153088,1,4,0:0:0:0:
256,192,153176,1,0,0:0:0:0:
109,192,153264,1,0,0:0:0:0:
402,192,153352,1,4,0:0:0:0:
36,192,153352,1,0,0:0:0:0:
329,192,153441,1,0,0:0:0:0:
182,192,153529,1,0,0:0:0:0:
402,192,153529,1,0,0:0:0:0:
256,192,153529,1,0,0:0:0:0:
36,192,153705,1,4,0:0:0:0:
329,192,153705,1,0,0:0:0:0:
109,192,153794,1,0,0:0:0:0:
256,192,153882,1,4,0:0:0:0:
402,192,153970,1,0,0:0:0:0:
36,192,154058,1,4,0:0:0:0:
329,192,154058,1,0,0:0:0:0:
182,192,154147,1,0,0:0:0:0:
109,192,154235,1,0,0:0:0:0:
36,192,154235,128,4,155647:0:0:0:0:
329,192,154235,1,0,0:0:0:0:
256,192,154235,1,0,0:0:0:0:
475,192,154411,1,0,0:0:0:0:
182,192,154411,1,0,0:0:0:0:
402,192,154500,1,4,0:0:0:0:
256,192,154588,1,0,0:0:0:0:
182,192,154676,1,0,0:0:0:0:
109,192,154764,1,4,0:0:0:0:
402,192,154764,1,0,0:0:0:0:
329,192,154852,1,0,0:0:0:0:
109,192,154941,1,0,0:0:0:0:
475,192,154941,1,0,0:0:0:0:
256,192,154941,1,0,0:0:0:0:
109,192,155117,1,4,0:0:0:0:
402,192,155117,1,0,0:0:0:0:
182,192,155205,1,4,0:0:0:0:
109,192,155294,1,0,0:0:0:0:
402,192,155294,1,4,0:0:0:0:
256,192,155294,1,0,0:0:0:0:
329,192,155470,1,4,0:0:0:0:
182,192,155470,1,0,0:0:0:0:
402,192,155558,1,0,0:0:0:0:
182,192,155647,1,4,0:0:0:0:
329,192,155647,1,0,0:0:0:0:
475,192,155647,128,0,157058:0:0:0:0:
256,192,155647,1,0,0:0:0:0:
109,192,155823,1,0,0:0:0:0:
329,192,155823,1,0,0:0:0:0:
36,192,155911,1,4,0:0:0:0:
256,192,156000,1,0,0:0:0:0:
329,192,156088,1,0,0:0:0:0:
36,192,156176,1,4,0:0:0:0:
402,192,156176,1,0,0:0:0:0:
182,192,156264,1,0,0:0:0:0:
402,192,156352,1,0,0:0:0:0:
109,192,156352,1,4,0:0:0:0:
256,192,156352,1,0,0:0:0:0:
36,192,156529,1,4,0:0:0:0:
402,192,156529,1,0,0:0:0:0:
329,192,156617,1,4,0:0:0:0:
256,192,156705,1,4,0:0:0:0:
36,192,156794,1,0,0:0:0:0:
182,192,156882,1,4,0:0:0:0:
329,192,156882,1,0,0:0:0:0:
402,192,156970,1,4,0:0:0:0:
182,192,157058,1,4,1:0:0:0:
36,192,157058,128,4,158470:1:0:0:0:
256,192,157058,1,4,0:0:0:0:
329,192,157058,1,0,0:0:0:0:
402,192,157764,1,4,1:0:0:0:
182,192,157764,1,0,0:0:0:0:
182,192,158117,1,4,1:0:0:0:
402,192,158117,1,0,0:0:0:0:
256,192,158470,1,8,1:0:0:0:
475,192,158470,1,0,0:0:0:0:
182,192,158470,1,0,0:0:0:0:
109,192,158647,1,0,0:0:0:0:
329,192,158647,1,0,0:0:0:0:
475,192,158823,1,8,1:0:0:0:
256,192,158823,1,0,0:0:0:0:
36,192,159000,1,8,1:0:0:0:
402,192,159000,1,0,0:0:0:0:
256,192,159176,1,0,0:0:0:0:
329,192,159176,1,0,0:0:0:0:
475,192,159352,1,8,1:0:0:0:
109,192,159352,1,0,0:0:0:0:
256,192,159529,1,8,1:0:0:0:
329,192,159529,1,0,0:0:0:0:
36,192,159705,1,0,0:0:0:0:
402,192,159705,1,0,0:0:0:0:
256,192,159882,1,4,0:0:0:0:
329,192,159882,1,0,0:0:0:0:
109,192,159882,1,0,0:0:0:0:
182,192,160058,1,0,0:0:0:0:
36,192,160058,1,0,0:0:0:0:
256,192,160235,1,0,0:0:0:0:
475,192,160235,1,4,0:0:0:0:
329,192,160411,1,0,0:0:0:0:
109,192,160411,1,4,0:0:0:0:
402,192,160588,1,0,0:0:0:0:
256,192,160588,1,0,0:0:0:0:
36,192,160764,1,4,0:0:0:0:
475,192,160764,1,0,0:0:0:0:
329,192,160941,1,0,0:0:0:0:
256,192,160941,1,4,0:0:0:0:
475,192,161117,1,0,0:0:0:0:
182,192,161117,1,0,0:0:0:0:
36,192,161294,1,4,0:0:0:0:
256,192,161294,1,0,0:0:0:0:
329,192,161294,1,0,0:0:0:0:
475,192,161470,1,0,0:0:0:0:
109,192,161470,1,0,0:0:0:0:
402,192,161647,1,0,0:0:0:0:
256,192,161647,1,4,0:0:0:0:
475,192,161823,1,0,0:0:0:0:
36,192,161823,1,4,0:0:0:0:
182,192,162000,1,0,0:0:0:0:
256,192,162000,1,0,0:0:0:0:
475,192,162176,1,0,0:0:0:0:
329,192,162176,1,4,0:0:0:0:
36,192,162352,1,4,0:0:0:0:
256,192,162352,1,0,0:0:0:0:
402,192,162529,1,0,0:0:0:0:
182,192,162529,1,0,0:0:0:0:
475,192,162705,1,0,0:0:0:0:
256,192,162705,1,4,0:0:0:0:
402,192,162705,128,0,162882:0:0:0:0:
36,192,162882,1,4,0:0:0:0:
109,192,162882,1,0,0:0:0:0:
182,192,162882,128,0,163058:0:0:0:0:
329,192,163058,1,0,0:0:0:0:
256,192,163058,1,0,0:0:0:0:
402,192,163058,128,0,163235:0:0:0:0:
109,192,163235,1,4,0:0:0:0:
475,192,163235,1,0,0:0:0:0:
182,192,163235,128,0,163411:0:0:0:0:
402,192,163411,1,0,0:0:0:0:
256,192,163411,1,0,0:0:0:0:
329,192,163588,1,4,0:0:0:0:
182,192,163588,1,0,0:0:0:0:
109,192,163764,1,0,0:0:0:0:
256,192,163764,1,0,0:0:0:0:
182,192,163941,1,0,0:0:0:0:
36,192,163941,1,4,0:0:0:0:
475,192,164117,1,0,0:0:0:0:
256,192,164117,1,4,0:0:0:0:
109,192,164117,1,0,0:0:0:0:
182,192,164294,1,0,0:0:0:0:
402,192,164294,1,0,0:0:0:0:
256,192,164470,1,4,0:0:0:0:
36,192,164470,1,0,0:0:0:0:
329,192,164647,1,4,0:0:0:0:
475,192,164647,1,0,0:0:0:0:
256,192,164823,1,0,0:0:0:0:
182,192,164823,1,0,0:0:0:0:
329,192,165000,1,4,0:0:0:0:
475,192,165000,1,0,0:0:0:0:
36,192,165176,1,4,0:0:0:0:
256,192,165176,1,0,0:0:0:0:
109,192,165352,1,0,0:0:0:0:
402,192,165352,1,0,0:0:0:0:
475,192,165529,1,0,0:0:0:0:
256,192,165529,1,4,0:0:0:0:
36,192,165705,1,0,0:0:0:0:
182,192,165705,1,0,0:0:0:0:
256,192,165882,1,4,0:0:0:0:
475,192,165882,1,0,0:0:0:0:
402,192,166058,1,0,0:0:0:0:
329,192,166058,1,4,0:0:0:0:
256,192,166235,1,0,0:0:0:0:
475,192,166235,1,0,0:0:0:0:
36,192,166411,1,0,0:0:0:0:
329,192,166411,1,4,0:0:0:0:
402,192,166588,1,4,0:0:0:0:
256,192,166588,1,0,0:0:0:0:
182,192,166764,1,0,0:0:0:0:
36,192,166764,1,0,0:0:0:0:
256,192,166941,1,4,0:0:0:0:
475,192,166941,1,0,0:0:0:0:
36,192,167117,1,0,0:0:0:0:
402,192,167117,1,0,0:0:0:0:
182,192,167294,1,0,0:0:0:0:
256,192,167294,1,4,0:0:0:0:
402,192,167470,1,4,0:0:0:0:
109,192,167470,1,0,0:0:0:0:
329,192,167647,1,0,0:0:0:0:
256,192,167647,1,0,0:0:0:0:
182,192,167823,1,4,0:0:0:0:
402,192,167823,1,0,0:0:0:0:
256,192,168000,1,4,0:0:0:0:
475,192,168000,1,0,0:0:0:0:
109,192,168176,1,0,0:0:0:0:
329,192,168176,1,0,0:0:0:0:
256,192,168352,1,4,0:0:0:0:
475,192,168352,1,0,0:0:0:0:
36,192,168352,1,0,0:0:0:0:
402,192,168529,1,4,0:0:0:0:
182,192,168529,1,0,0:0:0:0:
36,192,168705,1,0,0:0:0:0:
256,192,168705,1,0,0:0:0:0:
182,192,168882,1,4,0:0:0:0:
475,192,168882,1,0,0:0:0:0:
256,192,169058,1,0,0:0:0:0:
36,192,169058,1,0,0:0:0:0:
475,192,169147,1,0,0:0:0:0:
329,192,169235,1,4,0:0:0:0:
182,192,169235,1,0,0:0:0:0:
36,192,169323,1,0,0:0:0:0:
256,192,169411,1,4,0:0:0:0:
402,192,169411,1,0,0:0:0:0:
329,192,169500,1,4,0:0:0:0:
402,192,169588,1,4,0:0:0:0:
36,192,169588,1,0,0:0:0:0:
329,192,169676,1,4,0:0:0:0:
256,192,169764,1,4,0:0:0:0:
36,192,169764,1,4,1:0:0:0:
402,192,169764,1,0,0:0:0:0:
109,192,169941,1,4,0:0:0:0:
182,192,169941,1,0,0:0:0:0:
402,192,170117,1,0,0:0:0:0:
256,192,170117,1,0,0:0:0:0:
36,192,170294,1,4,0:0:0:0:
182,192,170294,1,0,0:0:0:0:
402,192,170470,1,4,0:0:0:0:
256,192,170470,1,0,0:0:0:0:
182,192,170647,1,4,0:0:0:0:
36,192,170647,1,0,0:0:0:0:
256,192,170823,1,4,0:0:0:0:
402,192,170823,1,0,0:0:0:0:
109,192,171000,1,0,0:0:0:0:
182,192,171000,1,4,0:0:0:0:
109,192,171176,1,4,0:0:0:0:
256,192,171176,1,0,0:0:0:0:
329,192,171176,1,0,0:0:0:0:
402,192,171352,1,4,0:0:0:0:
475,192,171352,1,0,0:0:0:0:
256,192,171529,1,0,0:0:0:0:
109,192,171529,1,0,0:0:0:0:
402,192,171705,1,4,0:0:0:0:
475,192,171705,1,0,0:0:0:0:
109,192,171882,1,4,0:0:0:0:
256,192,171882,1,0,0:0:0:0:
475,192,172058,1,4,0:0:0:0:
402,192,172058,1,0,0:0:0:0:
109,192,172235,1,4,0:0:0:0:
256,192,172235,1,0,0:0:0:0:
402,192,172411,1,4,0:0:0:0:
475,192,172411,1,0,0:0:0:0:
109,192,172588,1,4,0:0:0:0:
256,192,172588,1,0,0:0:0:0:
329,192,172588,1,0,0:0:0:0:
109,192,172764,1,4,0:0:0:0:
36,192,172764,1,0,0:0:0:0:
256,192,172941,1,0,0:0:0:0:
329,192,172941,1,0,0:0:0:0:
182,192,173117,1,4,0:0:0:0:
36,192,173117,1,0,0:0:0:0:
329,192,173294,1,4,0:0:0:0:
256,192,173294,1,0,0:0:0:0:
109,192,173470,1,4,0:0:0:0:
182,192,173470,1,0,0:0:0:0:
256,192,173647,1,4,0:0:0:0:
329,192,173647,1,0,0:0:0:0:
36,192,173823,1,4,0:0:0:0:
182,192,173823,1,0,0:0:0:0:
256,192,174000,1,4,0:0:0:0:
182,192,174000,1,0,0:0:0:0:
402,192,174000,1,0,0:0:0:0:
475,192,174176,1,4,0:0:0:0:
329,192,174176,1,0,0:0:0:0:
182,192,174352,1,0,0:0:0:0:
256,192,174352,1,0,0:0:0:0:
475,192,174529,1,4,0:0:0:0:
402,192,174529,1,0,0:0:0:0:
256,192,174705,1,0,0:0:0:0:
182,192,174705,1,0,0:0:0:0:
329,192,174882,1,0,0:0:0:0:
475,192,174882,1,4,0:0:0:0:
182,192,175058,1,0,0:0:0:0:
256,192,175058,1,0,0:0:0:0:
329,192,175235,1,4,0:0:0:0:
475,192,175235,1,0,0:0:0:0:
256,192,175411,1,4,0:0:0:0:
402,192,175411,1,0,0:0:0:0:
329,192,175588,1,4,0:0:0:0:
475,192,175588,1,0,0:0:0:0:
36,192,175764,1,0,0:0:0:0:
256,192,175764,1,0,0:0:0:0:
475,192,175941,1,0,0:0:0:0:
182,192,175941,1,4,0:0:0:0:
36,192,176117,1,4,0:0:0:0:
256,192,176117,1,0,0:0:0:0:
182,192,176294,1,4,0:0:0:0:
475,192,176294,1,0,0:0:0:0:
402,192,176470,1,4,0:0:0:0:
256,192,176470,1,0,0:0:0:0:
36,192,176647,1,4,0:0:0:0:
109,192,176647,1,0,0:0:0:0:
182,192,176823,1,4,0:0:0:0:
256,192,176823,1,0,0:0:0:0:
475,192,176823,1,0,0:0:0:0:
36,192,177000,1,4,0:0:0:0:
402,192,177000,1,0,0:0:0:0:
256,192,177176,1,0,0:0:0:0:
182,192,177176,1,0,0:0:0:0:
402,192,177352,1,0,0:0:0:0:
109,192,177352,1,4,0:0:0:0:
36,192,177529,1,4,0:0:0:0:
256,192,177529,1,0,0:0:0:0:
475,192,177705,1,4,0:0:0:0:
109,192,177705,1,0,0:0:0:0:
256,192,177882,1,0,0:0:0:0:
36,192,177882,1,4,0:0:0:0:
402,192,178058,1,4,0:0:0:0:
329,192,178058,1,0,0:0:0:0:
109,192,178235,1,4,0:0:0:0:
475,192,178235,1,0,0:0:0:0:
256,192,178235,1,0,0:0:0:0:
36,192,178411,1,4,0:0:0:0:
402,192,178411,1,0,0:0:0:0:
182,192,178588,1,4,0:0:0:0:
256,192,178588,1,0,0:0:0:0:
329,192,178764,1,4,0:0:0:0:
109,192,178764,1,0,0:0:0:0:
475,192,178941,1,4,0:0:0:0:
256,192,178941,1,0,0:0:0:0:
109,192,179117,1,0,0:0:0:0:
36,192,179117,1,4,0:0:0:0:
256,192,179294,1,4,0:0:0:0:
475,192,179294,1,0,0:0:0:0:
109,192,179470,1,4,0:0:0:0:
329,192,179470,1,0,0:0:0:0:
475,192,179647,1,4,0:0:0:0:
329,192,179647,1,0,0:0:0:0:
109,192,179735,1,4,0:0:0:0:
36,192,179735,1,0,0:0:0:0:
475,192,179823,1,4,0:0:0:0:
329,192,179823,1,0,0:0:0:0:
109,192,179911,1,4,0:0:0:0:
36,192,179911,1,0,0:0:0:0:
329,192,180000,1,0,0:0:0:0:
475,192,180000,1,4,0:0:0:0:
109,192,180088,1,4,0:0:0:0:
36,192,180088,1,0,0:0:0:0:
475,192,180176,1,4,0:0:0:0:
329,192,180176,1,0,0:0:0:0:
109,192,180264,1,4,0:0:0:0:
36,192,180264,1,0,0:0:0:0:
475,192,180352,1,4,0:0:0:0:
329,192,180352,1,0,0:0:0:0:
256,192,180441,1,4,0:0:0:0:
182,192,180529,1,4,0:0:0:0:
109,192,180617,1,4,0:0:0:0:
36,192,180705,1,0,0:0:0:0:
475,192,180705,1,0,0:0:0:0:
402,192,180750,1,0,0:0:0:0:
329,192,180794,1,0,0:0:0:0:
256,192,180838,1,0,0:0:0:0:
182,192,180882,1,0,0:0:0:0:
109,192,180926,1,0,0:0:0:0:
36,192,180970,1,0,0:0:0:0:
475,192,181014,1,0,0:0:0:0:
402,192,181058,1,4,0:0:0:0:
256,192,181058,1,0,0:0:0:0:
36,192,181235,128,4,181411:0:0:0:0:
475,192,181235,1,0,0:0:0:0:
182,192,181411,1,0,0:0:0:0:
256,192,181411,1,0,0:0:0:0:
475,192,181588,128,4,181764:0:0:0:0:
402,192,181588,1,0,0:0:0:0:
256,192,181764,1,0,0:0:0:0:
109,192,181764,1,0,0:0:0:0:
36,192,181764,1,0,0:0:0:0:
402,192,181941,128,4,182117:0:0:0:0:
182,192,181941,1,0,0:0:0:0:
36,192,182117,1,4,0:0:0:0:
256,192,182117,1,0,0:0:0:0:
402,192,182294,128,4,182470:0:0:0:0:
475,192,182294,1,0,0:0:0:0:
256,192,182470,1,4,0:0:0:0:
36,192,182470,1,0,0:0:0:0:
475,192,182647,128,4,182823:0:0:0:0:
329,192,182647,1,0,0:0:0:0:
256,192,182823,1,0,0:0:0:0:
182,192,182823,1,0,0:0:0:0:
36,192,183000,128,4,183176:0:0:0:0:
109,192,183000,1,0,0:0:0:0:
256,192,183176,1,0,0:0:0:0:
402,192,183176,1,0,0:0:0:0:
475,192,183352,128,4,183529:0:0:0:0:
329,192,183352,1,0,0:0:0:0:
256,192,183529,1,0,0:0:0:0:
36,192,183529,1,4,0:0:0:0:
109,192,183705,128,4,183882:0:0:0:0:
402,192,183705,1,0,0:0:0:0:
256,192,183882,1,0,0:0:0:0:
475,192,183882,1,4,0:0:0:0:
182,192,184058,128,4,184235:0:0:0:0:
402,192,184058,1,0,0:0:0:0:
256,192,184235,1,0,0:0:0:0:
36,192,184235,1,0,0:0:0:0:
182,192,184411,128,4,184588:0:0:0:0:
329,192,184411,1,0,0:0:0:0:
256,192,184588,1,0,0:0:0:0:
36,192,184588,1,0,0:0:0:0:
475,192,184764,128,4,184941:0:0:0:0:
329,192,184764,1,0,0:0:0:0:
36,192,184941,1,4,0:0:0:0:
256,192,184941,1,0,0:0:0:0:
109,192,185117,128,4,185294:0:0:0:0:
329,192,185117,1,0,0:0:0:0:
256,192,185294,1,4,0:0:0:0:
402,192,185294,1,0,0:0:0:0:
475,192,185470,128,4,186000:0:0:0:0:
402,192,185470,1,0,0:0:0:0:
256,192,185647,1,0,0:0:0:0:
36,192,185647,1,0,0:0:0:0:
109,192,185823,128,4,186000:0:0:0:0:
329,192,185823,1,0,0:0:0:0:
36,192,186000,1,0,0:0:0:0:
256,192,186000,1,0,0:0:0:0:
402,192,186000,1,0,0:0:0:0:
182,192,186176,1,4,0:0:0:0:
329,192,186176,1,0,0:0:0:0:
256,192,186352,1,4,0:0:0:0:
402,192,186352,1,0,0:0:0:0:
36,192,186352,1,0,0:0:0:0:
329,192,186441,1,4,0:0:0:0:
182,192,186441,1,0,0:0:0:0:
402,192,186529,1,4,0:0:0:0:
109,192,186529,1,0,0:0:0:0:
329,192,186617,1,4,0:0:0:0:
182,192,186617,1,0,0:0:0:0:
256,192,186705,1,4,0:0:0:0:
402,192,186705,1,4,1:0:0:0:
36,192,186705,1,0,0:0:0:0:
475,192,186882,128,0,187058:0:0:0:0:
329,192,186882,1,4,0:0:0:0:
256,192,187058,1,0,0:0:0:0:
109,192,187058,1,0,0:0:0:0:
402,192,187235,128,4,187411:0:0:0:0:
329,192,187235,1,0,0:0:0:0:
256,192,187411,1,0,0:0:0:0:
36,192,187411,1,0,0:0:0:0:
109,192,187588,128,4,187764:0:0:0:0:
475,192,187588,1,0,0:0:0:0:
256,192,187764,1,4,0:0:0:0:
182,192,187764,1,0,0:0:0:0:
402,192,187941,128,4,188117:0:0:0:0:
475,192,187941,1,0,0:0:0:0:
256,192,188117,1,4,0:0:0:0:
109,192,188117,1,0,0:0:0:0:
329,192,188294,128,0,188470:0:0:0:0:
475,192,188294,1,4,0:0:0:0:
256,192,188470,1,0,0:0:0:0:
36,192,188470,1,0,0:0:0:0:
109,192,188647,128,4,188823:0:0:0:0:
402,192,188647,1,0,0:0:0:0:
182,192,188823,1,0,0:0:0:0:
256,192,188823,1,0,0:0:0:0:
475,192,189000,128,4,189176:0:0:0:0:
329,192,189000,1,0,0:0:0:0:
256,192,189176,1,4,0:0:0:0:
36,192,189176,1,0,0:0:0:0:
475,192,189352,1,4,0:0:0:0:
329,192,189352,128,0,189529:0:0:0:0:
256,192,189529,1,4,0:0:0:0:
109,192,189529,1,0,0:0:0:0:
36,192,189705,128,0,189882:0:0:0:0:
402,192,189705,1,4,0:0:0:0:
256,192,189882,1,0,0:0:0:0:
475,192,189882,1,0,0:0:0:0:
329,192,190058,128,4,190235:0:0:0:0:
109,192,190058,1,0,0:0:0:0:
402,192,190235,1,0,0:0:0:0:
256,192,190235,1,0,0:0:0:0:
182,192,190411,128,4,190588:0:0:0:0:
475,192,190411,1,0,0:0:0:0:
109,192,190588,1,4,0:0:0:0:
256,192,190588,1,0,0:0:0:0:
36,192,190764,128,4,190941:0:0:0:0:
402,192,190764,1,0,0:0:0:0:
256,192,190941,1,0,0:0:0:0:
109,192,190941,1,4,0:0:0:0:
402,192,191117,128,4,191470:0:0:0:0:
182,192,191117,1,0,0:0:0:0:
256,192,191294,1,0,0:0:0:0:
36,192,191294,1,0,0:0:0:0:
329,192,191470,128,4,191647:0:0:0:0:
109,192,191470,1,0,0:0:0:0:
36,192,191647,1,0,0:0:0:0:
256,192,191647,1,0,0:0:0:0:
475,192,191647,1,4,0:0:0:0:
109,192,191735,1,0,0:0:0:0:
402,192,191735,1,4,0:0:0:0:
329,192,191823,1,4,0:0:0:0:
182,192,191823,1,0,0:0:0:0:
402,192,191911,1,4,0:0:0:0:
109,192,191911,1,0,0:0:0:0:
475,192,192000,1,4,0:0:0:0:
256,192,192000,1,0,0:0:0:0:
36,192,192000,1,0,0:0:0:0:
402,192,192088,1,4,0:0:0:0:
109,192,192088,1,0,0:0:0:0:
329,192,192176,1,4,0:0:0:0:
182,192,192176,1,0,0:0:0:0:
402,192,192264,1,4,0:0:0:0:
109,192,192264,1,0,0:0:0:0:
256,192,192352,1,4,1:0:0:0:
36,192,192352,1,0,0:0:0:0:
475,192,192352,1,4,0:0:0:0:
329,192,192529,128,0,192705:0:0:0:0:
109,192,192529,1,4,0:0:0:0:
475,192,192705,1,0,0:0:0:0:
256,192,192705,1,0,0:0:0:0:
402,192,192882,128,4,193058:0:0:0:0:
182,192,192882,1,0,0:0:0:0:
109,192,193058,1,0,0:0:0:0:
256,192,193058,1,0,0:0:0:0:
329,192,193235,128,4,193411:0:0:0:0:
36,192,193235,1,0,0:0:0:0:
256,192,193411,1,0,0:0:0:0:
402,192,193411,1,4,0:0:0:0:
109,192,193588,128,4,193764:0:0:0:0:
182,192,193588,1,0,0:0:0:0:
329,192,193764,1,4,0:0:0:0:
256,192,193764,1,0,0:0:0:0:
402,192,193941,128,0,194117:0:0:0:0:
475,192,193941,1,4,0:0:0:0:
256,192,194117,1,0,0:0:0:0:
182,192,194117,1,0,0:0:0:0:
329,192,194294,128,4,194470:0:0:0:0:
109,192,194294,1,0,0:0:0:0:
402,192,194470,1,0,0:0:0:0:
256,192,194470,1,0,0:0:0:0:
36,192,194647,128,4,194823:0:0:0:0:
475,192,194647,1,0,0:0:0:0:
329,192,194823,1,4,0:0:0:0:
256,192,194823,1,0,0:0:0:0:
182,192,195000,128,4,195176:0:0:0:0:
475,192,195000,1,0,0:0:0:0:
402,192,195176,1,4,0:0:0:0:
256,192,195176,1,0,0:0:0:0:
329,192,195352,128,4,195529:0:0:0:0:
109,192,195352,1,0,0:0:0:0:
402,192,195529,1,0,0:0:0:0:
256,192,195529,1,0,0:0:0:0:
182,192,195705,128,0,195882:0:0:0:0:
475,192,195705,1,4,0:0:0:0:
256,192,195882,1,0,0:0:0:0:
109,192,195882,1,0,0:0:0:0:
402,192,196058,128,0,196235:0:0:0:0:
36,192,196058,1,4,0:0:0:0:
256,192,196235,1,4,0:0:0:0:
109,192,196235,1,0,0:0:0:0:
329,192,196411,128,4,196588:0:0:0:0:
182,192,196411,1,0,0:0:0:0:
36,192,196588,1,4,0:0:0:0:
256,192,196588,1,0,0:0:0:0:
475,192,196764,128,0,196941:0:0:0:0:
109,192,196764,1,4,0:0:0:0:
402,192,196941,1,0,0:0:0:0:
256,192,196941,1,0,0:0:0:0:
36,192,197117,128,4,197647:0:0:0:0:
109,192,197117,1,0,0:0:0:0:
329,192,197294,1,0,0:0:0:0:
182,192,197294,1,0,0:0:0:0:
256,192,197294,1,0,0:0:0:0:
402,192,197470,1,4,0:0:0:0:
109,192,197470,128,0,197647:0:0:0:0:
182,192,197647,1,4,0:0:0:0:
329,192,197647,1,0,0:0:0:0:
256,192,197647,1,0,0:0:0:0:
36,192,197735,1,4,0:0:0:0:
475,192,197735,1,0,0:0:0:0:
182,192,197823,1,4,0:0:0:0:
329,192,197823,1,0,0:0:0:0:
109,192,197911,1,4,0:0:0:0:
402,192,197911,1,0,0:0:0:0:
182,192,198000,1,4,0:0:0:0:
256,192,198000,1,0,0:0:0:0:
329,192,198000,1,4,1:0:0:0:
475,192,198176,128,4,198352:0:0:0:0:
109,192,198176,1,0,0:0:0:0:
329,192,198352,1,0,0:0:0:0:
256,192,198352,1,0,0:0:0:0:
36,192,198529,128,4,198705:0:0:0:0:
402,192,198529,1,0,0:0:0:0:
256,192,198705,1,0,0:0:0:0:
109,192,198705,1,0,0:0:0:0:
402,192,198882,128,4,199058:0:0:0:0:
36,192,198882,1,0,0:0:0:0:
256,192,199058,1,4,0:0:0:0:
329,192,199058,1,0,0:0:0:0:
182,192,199235,128,4,199411:0:0:0:0:
475,192,199235,1,0,0:0:0:0:
109,192,199411,1,4,0:0:0:0:
256,192,199411,1,0,0:0:0:0:
475,192,199588,128,4,199764:0:0:0:0:
36,192,199588,1,0,0:0:0:0:
256,192,199764,1,0,0:0:0:0:
329,192,199764,1,0,0:0:0:0:
182,192,199941,128,4,200117:0:0:0:0:
36,192,199941,1,0,0:0:0:0:
402,192,200117,1,0,0:0:0:0:
256,192,200117,1,0,0:0:0:0:
36,192,200294,128,4,200470:0:0:0:0:
475,192,200294,1,0,0:0:0:0:
182,192,200470,1,4,0:0:0:0:
256,192,200470,1,0,0:0:0:0:
402,192,200647,128,4,200823:0:0:0:0:
329,192,200647,1,0,0:0:0:0:
256,192,200823,1,4,0:0:0:0:
36,192,200823,1,0,0:0:0:0:
475,192,201000,128,4,201705:0:0:0:0:
109,192,201000,1,0,0:0:0:0:
36,192,201176,1,0,0:0:0:0:
256,192,201176,1,0,0:0:0:0:
329,192,201352,128,4,202058:0:0:0:0:
402,192,201352,1,0,0:0:0:0:
109,192,201529,1,0,0:0:0:0:
256,192,201529,1,0,0:0:0:0:
182,192,201705,128,4,202235:0:0:0:0:
402,192,201705,1,0,0:0:0:0:
256,192,201882,1,4,0:0:0:0:
36,192,202058,128,0,202235:0:0:0:0:
109,192,202058,1,4,0:0:0:0:
329,192,202235,1,4,0:0:0:0:
402,192,202323,1,0,0:0:0:0:
329,192,202411,1,0,0:0:0:0:
256,192,202500,1,0,0:0:0:0:
329,192,202588,1,0,0:0:0:0:
402,192,202676,1,0,0:0:0:0:
329,192,202764,1,0,0:0:0:0:
256,192,202852,1,0,0:0:0:0:
182,192,202941,1,4,0:0:0:0:
109,192,203029,1,0,0:0:0:0:
182,192,203117,1,0,0:0:0:0:
109,192,203205,1,0,0:0:0:0:
36,192,203294,1,4,0:0:0:0:
109,192,203338,1,0,0:0:0:0:
182,192,203382,1,0,0:0:0:0:
256,192,203426,1,0,0:0:0:0:
329,192,203470,1,0,0:0:0:0:
402,192,203514,1,0,0:0:0:0:
475,192,203558,1,0,0:0:0:0:
36,192,203602,1,0,0:0:0:0:
109,192,203647,1,4,1:0:0:0:
182,192,203647,128,0,205058:0:0:0:0:
475,192,203647,1,0,0:0:0:0:
402,192,203735,1,0,0:0:0:0:
329,192,203823,1,0,0:0:0:0:
256,192,203911,1,0,0:0:0:0:
475,192,204000,1,0,0:0:0:0:
402,192,204088,1,0,0:0:0:0:
329,192,204176,1,0,0:0:0:0:
256,192,204264,1,0,0:0:0:0:
475,192,204352,1,0,0:0:0:0:
402,192,204441,1,0,0:0:0:0:
329,192,204529,1,0,0:0:0:0:
256,192,204617,1,0,0:0:0:0:
475,192,204705,1,0,0:0:0:0:
402,192,204794,1,0,0:0:0:0:
329,192,204882,1,0,0:0:0:0:
256,192,204970,1,0,0:0:0:0:
109,192,205058,128,0,206470:0:0:0:0:
402,192,205058,1,0,0:0:0:0:
329,192,205147,1,0,0:0:0:0:
256,192,205235,1,0,0:0:0:0:
182,192,205323,1,0,0:0:0:0:
402,192,205411,1,0,0:0:0:0:
329,192,205500,1,0,0:0:0:0:
256,192,205588,1,0,0:0:0:0:
182,192,205676,1,0,0:0:0:0:
402,192,205764,1,0,0:0:0:0:
329,192,205852,1,0,0:0:0:0:
256,192,205941,1,0,0:0:0:0:
182,192,206029,1,0,0:0:0:0:
402,192,206117,1,0,0:0:0:0:
329,192,206205,1,0,0:0:0:0:
256,192,206294,1,0,0:0:0:0:
182,192,206382,1,0,0:0:0:0:
36,192,206470,128,0,207882:0:0:0:0:
329,192,206470,1,0,0:0:0:0:
256,192,206558,1,0,0:0:0:0:
182,192,206647,1,0,0:0:0:0:
109,192,206735,1,0,0:0:0:0:
329,192,206823,1,0,0:0:0:0:
256,192,206911,1,0,0:0:0:0:
182,192,207000,1,0,0:0:0:0:
109,192,207088,1,0,0:0:0:0:
329,192,207176,1,0,0:0:0:0:
256,192,207264,1,0,0:0:0:0:
182,192,207352,1,0,0:0:0:0:
109,192,207441,1,0,0:0:0:0:
329,192,207529,1,0,0:0:0:0:
256,192,207617,1,0,0:0:0:0:
182,192,207705,1,0,0:0:0:0:
109,192,207794,1,0,0:0:0:0:
329,192,207882,1,0,0:0:0:0:
182,192,207970,1,0,0:0:0:0:
402,192,208058,1,0,0:0:0:0:
109,192,208147,1,0,0:0:0:0:
475,192,208235,1,0,0:0:0:0:
36,192,208323,1,0,0:0:0:0:
402,192,208411,1,0,0:0:0:0:
109,192,208500,1,0,0:0:0:0:
329,192,208588,1,0,0:0:0:0:
182,192,208676,1,0,0:0:0:0:
329,192,208764,1,0,0:0:0:0:
402,192,208852,1,0,0:0:0:0:
475,192,208941,1,0,0:0:0:0:
402,192,209029,1,0,0:0:0:0:
329,192,209117,1,0,0:0:0:0:
256,192,209205,1,0,0:0:0:0:
402,192,209294,1,4,1:0:0:0:
475,192,209294,128,4,210705:1:0:0:0:
329,192,209382,1,0,0:0:0:0:
256,192,209470,1,0,0:0:0:0:
182,192,209558,1,0,0:0:0:0:
402,192,209647,1,0,0:0:0:0:
329,192,209735,1,0,0:0:0:0:
256,192,209823,1,0,0:0:0:0:
182,192,209911,1,0,0:0:0:0:
402,192,210000,1,0,0:0:0:0:
329,192,210088,1,0,0:0:0:0:
256,192,210176,1,0,0:0:0:0:
182,192,210264,1,0,0:0:0:0:
402,192,210352,1,0,0:0:0:0:
329,192,210441,1,0,0:0:0:0:
256,192,210529,1,0,0:0:0:0:
182,192,210617,1,0,0:0:0:0:
402,192,210705,128,0,212117:0:0:0:0:
329,192,210705,1,0,0:0:0:0:
256,192,210794,1,0,0:0:0:0:
182,192,210882,1,0,0:0:0:0:
109,192,210970,1,0,0:0:0:0:
329,192,211058,1,0,0:0:0:0:
256,192,211147,1,0,0:0:0:0:
182,192,211235,1,0,0:0:0:0:
109,192,211323,1,0,0:0:0:0:
329,192,211411,1,0,0:0:0:0:
256,192,211500,1,0,0:0:0:0:
182,192,211588,1,0,0:0:0:0:
109,192,211676,1,0,0:0:0:0:
329,192,211764,1,0,0:0:0:0:
256,192,211852,1,0,0:0:0:0:
182,192,211941,1,0,0:0:0:0:
109,192,212029,1,0,0:0:0:0:
329,192,212117,128,0,213529:0:0:0:0:
256,192,212117,1,0,0:0:0:0:
182,192,212205,1,0,0:0:0:0:
109,192,212294,1,0,0:0:0:0:
36,192,212382,1,0,0:0:0:0:
256,192,212470,1,0,0:0:0:0:
182,192,212558,1,0,0:0:0:0:
109,192,212647,1,0,0:0:0:0:
36,192,212735,1,0,0:0:0:0:
256,192,212823,1,0,0:0:0:0:
182,192,212911,1,0,0:0:0:0:
109,192,213000,1,0,0:0:0:0:
36,192,213088,1,0,0:0:0:0:
256,192,213176,1,0,0:0:0:0:
182,192,213264,1,0,0:0:0:0:
109,192,213352,1,0,0:0:0:0:
36,192,213441,1,0,0:0:0:0:
109,192,213529,1,0,0:0:0:0:
256,192,213617,1,0,0:0:0:0:
182,192,213705,1,0,0:0:0:0:
329,192,213794,1,0,0:0:0:0:
256,192,213882,1,0,0:0:0:0:
402,192,213970,1,0,0:0:0:0:
329,192,214058,1,0,0:0:0:0:
475,192,214147,1,0,0:0:0:0:
329,192,214235,1,0,0:0:0:0:
402,192,214323,1,0,0:0:0:0:
256,192,214411,1,0,0:0:0:0:
329,192,214500,1,0,0:0:0:0:
182,192,214588,1,0,0:0:0:0:
256,192,214676,1,0,0:0:0:0:
109,192,214764,1,0,0:0:0:0:
182,192,214852,1,0,0:0:0:0:
36,192,214941,1,8,0:0:0:0:
256,192,214941,1,0,0:0:0:0:
329,192,215294,1,0,0:0:0:0:
402,192,215558,1,0,0:0:0:0:
256,192,215647,1,8,0:0:0:0:
256,192,215823,1,8,0:0:0:0:
475,192,215823,1,0,0:0:0:0:
329,192,216000,1,0,0:0:0:0:
182,192,216176,1,0,0:0:0:0:
256,192,216352,1,8,0:0:0:0:
36,192,216352,1,0,0:0:0:0:
475,192,216352,1,0,0:0:0:0:
329,192,216529,1,0,0:0:0:0:
109,192,216794,1,0,0:0:0:0:
109,192,216970,1,0,0:0:0:0:
256,192,217058,1,8,0:0:0:0:
182,192,217058,1,0,0:0:0:0:
256,192,217235,1,8,0:0:0:0:
36,192,217235,1,0,0:0:0:0:
182,192,217411,1,0,0:0:0:0:
329,192,217588,1,0,0:0:0:0:
402,192,217676,1,0,0:0:0:0:
256,192,217764,1,8,0:0:0:0:
475,192,217764,1,0,0:0:0:0:
109,192,217764,1,0,0:0:0:0:
256,192,218117,1,0,0:0:0:0:
329,192,218382,1,0,0:0:0:0:
256,192,218470,1,8,0:0:0:0:
256,192,218647,1,8,0:0:0:0:
402,192,218647,1,0,0:0:0:0:
256,192,218823,1,0,0:0:0:0:
36,192,219000,1,0,0:0:0:0:
182,192,219176,1,8,0:0:0:0:
402,192,219176,1,0,0:0:0:0:
256,192,219176,1,0,0:0:0:0:
475,192,219352,1,0,0:0:0:0:
36,192,219705,1,0,0:0:0:0:
256,192,219882,1,8,0:0:0:0:
256,192,220058,1,8,0:0:0:0:
109,192,220058,1,0,0:0:0:0:
182,192,220235,1,0,0:0:0:0:
402,192,220411,1,0,0:0:0:0:
329,192,220588,1,0,0:0:0:0:
256,192,220588,1,8,0:0:0:0:
182,192,220941,1,0,0:0:0:0:
109,192,221205,1,0,0:0:0:0:
256,192,221294,1,8,0:0:0:0:
256,192,221470,1,8,0:0:0:0:
475,192,221470,1,0,0:0:0:0:
329,192,221647,1,0,0:0:0:0:
475,192,221823,1,0,0:0:0:0:
256,192,222000,1,8,0:0:0:0:
329,192,222000,1,0,0:0:0:0:
36,192,222000,1,0,0:0:0:0:
475,192,222176,1,0,0:0:0:0:
182,192,222441,1,0,0:0:0:0:
329,192,222617,1,0,0:0:0:0:
256,192,222705,1,8,0:0:0:0:
256,192,222882,1,0,0:0:0:0:
329,192,222882,1,0,0:0:0:0:
109,192,223058,1,0,0:0:0:0:
475,192,223235,1,0,0:0:0:0:
36,192,223411,1,0,0:0:0:0:
109,192,223411,1,0,0:0:0:0:
182,192,223411,1,0,0:0:0:0:
109,192,223588,1,0,0:0:0:0:
182,192,223588,1,0,0:0:0:0:
256,192,223588,1,0,0:0:0:0:
182,192,223764,1,0,0:0:0:0:
256,192,223764,1,0,0:0:0:0:
329,192,223764,1,0,0:0:0:0:
256,192,223941,1,0,0:0:0:0:
329,192,223941,1,0,0:0:0:0:
402,192,223941,1,0,0:0:0:0:
475,192,224117,1,0,0:0:0:0:
402,192,224117,1,0,0:0:0:0:
329,192,224117,1,0,0:0:0:0:
402,192,224294,1,0,0:0:0:0:
329,192,224294,1,0,0:0:0:0:
256,192,224294,1,0,0:0:0:0:
329,192,224470,1,0,0:0:0:0:
256,192,224470,1,0,0:0:0:0:
182,192,224470,1,0,0:0:0:0:
109,192,224647,1,0,0:0:0:0:
182,192,224647,1,0,0:0:0:0:
256,192,224647,1,0,0:0:0:0:
182,192,224823,1,4,1:0:0:0:
109,192,224823,1,4,1:0:0:0:
36,192,224823,1,0,0:0:0:0:
402,192,225529,128,0,225882:0:0:0:0:
329,192,225882,128,0,226235:0:0:0:0:
256,192,226235,1,4,0:0:0:0:
36,192,226235,1,0,0:0:0:0:
475,192,226235,1,0,0:0:0:0:
182,192,226411,1,0,0:0:0:0:
402,192,226411,1,0,0:0:0:0:
475,192,226500,1,4,0:0:0:0:
109,192,226588,1,0,0:0:0:0:
256,192,226676,1,0,0:0:0:0:
36,192,226764,1,4,0:0:0:0:
329,192,226764,1,0,0:0:0:0:
402,192,226852,1,0,0:0:0:0:
475,192,226941,1,0,0:0:0:0:
182,192,226941,1,0,0:0:0:0:
256,192,226941,1,0,0:0:0:0:
402,192,227117,1,4,0:0:0:0:
36,192,227117,1,0,0:0:0:0:
109,192,227205,1,4,0:0:0:0:
256,192,227294,1,4,0:0:0:0:
475,192,227382,1,0,0:0:0:0:
402,192,227470,1,4,0:0:0:0:
182,192,227470,1,0,0:0:0:0:
36,192,227558,1,0,0:0:0:0:
475,192,227647,1,0,0:0:0:0:
109,192,227647,1,4,0:0:0:0:
256,192,227647,1,0,0:0:0:0:
182,192,227823,1,0,0:0:0:0:
402,192,227823,1,0,0:0:0:0:
329,192,227911,1,4,0:0:0:0:
256,192,228000,1,0,0:0:0:0:
36,192,228088,1,0,0:0:0:0:
182,192,228176,1,4,0:0:0:0:
475,192,228176,1,0,0:0:0:0:
329,192,228264,1,0,0:0:0:0:
475,192,228352,1,0,0:0:0:0:
109,192,228352,1,0,0:0:0:0:
256,192,228352,1,0,0:0:0:0:
329,192,228529,1,4,0:0:0:0:
182,192,228529,1,0,0:0:0:0:
109,192,228617,1,4,0:0:0:0:
36,192,228705,1,4,0:0:0:0:
475,192,228705,1,0,0:0:0:0:
256,192,228705,1,0,0:0:0:0:
402,192,228882,1,0,0:0:0:0:
182,192,228882,1,4,0:0:0:0:
329,192,228970,1,0,0:0:0:0:
256,192,229058,1,0,0:0:0:0:
475,192,229058,1,4,0:0:0:0:
109,192,229058,1,0,0:0:0:0:
182,192,229235,1,0,0:0:0:0:
402,192,229235,1,0,0:0:0:0:
36,192,229323,1,4,0:0:0:0:
256,192,229411,1,0,0:0:0:0:
475,192,229500,1,0,0:0:0:0:
402,192,229588,1,4,0:0:0:0:
36,192,229588,1,0,0:0:0:0:
109,192,229676,1,0,0:0:0:0:
475,192,229764,1,0,0:0:0:0:
182,192,229764,1,0,0:0:0:0:
256,192,229764,1,0,0:0:0:0:
36,192,229941,1,4,0:0:0:0:
402,192,229941,1,0,0:0:0:0:
329,192,230029,1,4,0:0:0:0:
256,192,230117,1,4,0:0:0:0:
182,192,230205,1,0,0:0:0:0:
329,192,230294,1,4,0:0:0:0:
36,192,230294,1,0,0:0:0:0:
402,192,230382,1,0,0:0:0:0:
109,192,230470,1,4,0:0:0:0:
256,192,230470,1,0,0:0:0:0:
475,192,230470,1,0,0:0:0:0:
329,192,230647,1,0,0:0:0:0:
36,192,230647,1,0,0:0:0:0:
182,192,230735,1,4,0:0:0:0:
256,192,230823,1,0,0:0:0:0:
329,192,230911,1,0,0:0:0:0:
475,192,231000,1,4,0:0:0:0:
109,192,231000,1,0,0:0:0:0:
36,192,231088,1,0,0:0:0:0:
256,192,231176,1,4,0:0:0:0:
182,192,231176,1,0,0:0:0:0:
475,192,231352,1,0,0:0:0:0:
109,192,231352,1,4,0:0:0:0:
329,192,231441,1,4,0:0:0:0:
182,192,231529,1,4,0:0:0:0:
256,192,231529,1,0,0:0:0:0:
402,192,231529,1,0,0:0:0:0:
182,192,231705,1,4,0:0:0:0:
329,192,231705,1,0,0:0:0:0:
109,192,231794,1,0,0:0:0:0:
475,192,231882,1,4,0:0:0:0:
256,192,231882,1,0,0:0:0:0:
36,192,231882,1,0,0:0:0:0:
402,192,232058,1,0,0:0:0:0:
109,192,232058,1,0,0:0:0:0:
475,192,232147,1,4,0:0:0:0:
256,192,232235,1,0,0:0:0:0:
182,192,232323,1,0,0:0:0:0:
402,192,232411,1,4,0:0:0:0:
36,192,232411,1,0,0:0:0:0:
475,192,232500,1,0,0:0:0:0:
182,192,232588,1,0,0:0:0:0:
329,192,232588,1,0,0:0:0:0:
256,192,232588,1,0,0:0:0:0:
475,192,232764,1,4,0:0:0:0:
109,192,232764,1,0,0:0:0:0:
36,192,232852,1,4,0:0:0:0:
256,192,232941,1,4,0:0:0:0:
475,192,233029,1,0,0:0:0:0:
182,192,233117,1,4,0:0:0:0:
329,192,233117,1,0,0:0:0:0:
109,192,233205,1,0,0:0:0:0:
256,192,233294,1,4,0:0:0:0:
36,192,233294,1,0,0:0:0:0:
402,192,233294,1,0,0:0:0:0:
109,192,233470,1,0,0:0:0:0:
475,192,233470,1,0,0:0:0:0:
402,192,233558,1,4,0:0:0:0:
256,192,233647,1,0,0:0:0:0:
36,192,233735,1,0,0:0:0:0:
182,192,233823,1,4,0:0:0:0:
402,192,233823,1,0,0:0:0:0:
329,192,233911,1,0,0:0:0:0:
256,192,234000,1,0,0:0:0:0:
475,192,234000,1,0,0:0:0:0:
182,192,234000,1,0,0:0:0:0:
36,192,234176,1,4,0:0:0:0:
402,192,234176,1,0,0:0:0:0:
109,192,234264,1,4,0:0:0:0:
182,192,234352,1,4,0:0:0:0:
256,192,234352,1,0,0:0:0:0:
402,192,234352,1,0,0:0:0:0:
36,192,234529,1,4,0:0:0:0:
475,192,234529,1,0,0:0:0:0:
329,192,234617,1,4,0:0:0:0:
475,192,234705,1,4,0:0:0:0:
256,192,234705,1,0,0:0:0:0:
182,192,234705,1,0,0:0:0:0:
402,192,234882,1,0,0:0:0:0:
109,192,234882,1,0,0:0:0:0:
36,192,234970,1,4,0:0:0:0:
256,192,235058,1,0,0:0:0:0:
329,192,235147,1,0,0:0:0:0:
182,192,235235,1,4,0:0:0:0:
475,192,235235,1,0,0:0:0:0:
109,192,235323,1,0,0:0:0:0:
36,192,235411,1,0,0:0:0:0:
256,192,235411,1,0,0:0:0:0:
402,192,235411,1,0,0:0:0:0:
329,192,235588,1,4,0:0:0:0:
36,192,235588,1,0,0:0:0:0:
402,192,235676,1,0,0:0:0:0:
256,192,235764,1,4,0:0:0:0:
109,192,235852,1,0,0:0:0:0:
182,192,235941,1,4,0:0:0:0:
329,192,235941,1,0,0:0:0:0:
402,192,236029,1,0,0:0:0:0:
109,192,236117,1,4,0:0:0:0:
256,192,236117,1,0,0:0:0:0:
329,192,236117,1,0,0:0:0:0:
109,192,236294,1,0,0:0:0:0:
402,192,236294,1,0,0:0:0:0:
36,192,236382,1,4,0:0:0:0:
256,192,236470,1,0,0:0:0:0:
475,192,236558,1,0,0:0:0:0:
329,192,236647,1,0,0:0:0:0:
182,192,236647,1,4,0:0:0:0:
36,192,236735,1,0,0:0:0:0:
329,192,236823,1,0,0:0:0:0:
256,192,236823,1,0,0:0:0:0:
182,192,236823,1,0,0:0:0:0:
36,192,237000,1,4,0:0:0:0:
475,192,237000,1,0,0:0:0:0:
182,192,237088,1,4,0:0:0:0:
256,192,237176,1,0,0:0:0:0:
109,192,237176,1,4,0:0:0:0:
402,192,237176,1,0,0:0:0:0:
329,192,237352,1,0,0:0:0:0:
182,192,237352,1,4,0:0:0:0:
402,192,237441,1,4,0:0:0:0:
182,192,237529,1,4,1:0:0:0:
256,192,237529,1,0,0:0:0:0:
475,192,237529,1,0,0:0:0:0:
329,192,237529,128,0,238941:0:0:0:0:
182,192,237705,1,0,0:0:0:0:
109,192,237705,1,0,0:0:0:0:
36,192,237794,1,4,0:0:0:0:
256,192,237882,1,0,0:0:0:0:
36,192,237970,1,0,0:0:0:0:
182,192,238058,1,4,0:0:0:0:
475,192,238058,1,0,0:0:0:0:
109,192,238147,1,0,0:0:0:0:
182,192,238235,1,4,0:0:0:0:
36,192,238235,1,0,0:0:0:0:
256,192,238235,1,0,0:0:0:0:
475,192,238411,1,0,0:0:0:0:
109,192,238411,1,4,0:0:0:0:
36,192,238500,1,4,0:0:0:0:
256,192,238588,1,4,0:0:0:0:
109,192,238676,1,4,0:0:0:0:
402,192,238764,1,0,0:0:0:0:
182,192,238764,1,4,0:0:0:0:
475,192,238852,1,4,0:0:0:0:
182,192,238941,128,4,240352:0:0:0:0:
256,192,238941,1,0,0:0:0:0:
402,192,238941,1,0,0:0:0:0:
36,192,238941,1,0,0:0:0:0:
329,192,239117,1,0,0:0:0:0:
475,192,239117,1,0,0:0:0:0:
36,192,239205,1,4,0:0:0:0:
256,192,239294,1,0,0:0:0:0:
402,192,239382,1,0,0:0:0:0:
329,192,239470,1,0,0:0:0:0:
36,192,239470,1,4,0:0:0:0:
475,192,239558,1,0,0:0:0:0:
256,192,239647,1,4,0:0:0:0:
402,192,239647,1,0,0:0:0:0:
329,192,239823,1,0,0:0:0:0:
475,192,239823,1,4,0:0:0:0:
402,192,239911,1,4,0:0:0:0:
36,192,240000,1,0,0:0:0:0:
256,192,240000,1,4,0:0:0:0:
329,192,240000,1,0,0:0:0:0:
475,192,240176,1,4,0:0:0:0:
329,192,240176,1,0,0:0:0:0:
402,192,240264,1,4,0:0:0:0:
36,192,240352,1,4,0:0:0:0:
475,192,240352,1,0,0:0:0:0:
329,192,240352,128,0,241764:0:0:0:0:
256,192,240352,1,0,0:0:0:0:
36,192,240529,1,0,0:0:0:0:
475,192,240529,1,0,0:0:0:0:
402,192,240617,1,4,0:0:0:0:
256,192,240705,1,0,0:0:0:0:
109,192,240794,1,0,0:0:0:0:
402,192,240882,1,4,0:0:0:0:
182,192,240882,1,0,0:0:0:0:
475,192,240970,1,0,0:0:0:0:
256,192,241058,1,0,0:0:0:0:
182,192,241058,1,0,0:0:0:0:
402,192,241058,1,0,0:0:0:0:
402,192,241235,1,4,0:0:0:0:
36,192,241235,1,0,0:0:0:0:
109,192,241323,1,4,0:0:0:0:
256,192,241411,1,4,0:0:0:0:
475,192,241500,1,4,0:0:0:0:
109,192,241588,1,4,0:0:0:0:
402,192,241588,1,0,0:0:0:0:
36,192,241676,1,4,0:0:0:0:
109,192,241764,1,4,0:0:0:0:
256,192,241764,1,0,0:0:0:0:
402,192,241764,1,0,0:0:0:0:
182,192,241764,128,0,243176:0:0:0:0:
36,192,241941,1,0,0:0:0:0:
329,192,241941,1,0,0:0:0:0:
475,192,242029,1,4,0:0:0:0:
256,192,242117,1,0,0:0:0:0:
109,192,242205,1,0,0:0:0:0:
475,192,242294,1,0,0:0:0:0:
36,192,242294,1,4,0:0:0:0:
329,192,242382,1,0,0:0:0:0:
402,192,242470,1,0,0:0:0:0:
256,192,242470,1,0,0:0:0:0:
36,192,242470,1,4,0:0:0:0:
329,192,242647,1,4,0:0:0:0:
109,192,242647,1,0,0:0:0:0:
36,192,242735,1,4,0:0:0:0:
256,192,242823,1,4,0:0:0:0:
109,192,242823,1,0,0:0:0:0:
329,192,242823,1,0,0:0:0:0:
36,192,243000,1,4,0:0:0:0:
402,192,243000,1,0,0:0:0:0:
475,192,243088,1,4,0:0:0:0:
256,192,243176,1,4,0:0:0:0:
36,192,243176,1,0,0:0:0:0:
402,192,243176,1,0,0:0:0:0:
329,192,243176,128,0,244588:0:0:0:0:
402,192,243352,1,0,0:0:0:0:
36,192,243352,1,0,0:0:0:0:
182,192,243441,1,4,0:0:0:0:
256,192,243529,1,0,0:0:0:0:
475,192,243617,1,0,0:0:0:0:
402,192,243705,1,0,0:0:0:0:
36,192,243705,1,4,0:0:0:0:
109,192,243794,1,0,0:0:0:0:
256,192,243882,1,0,0:0:0:0:
402,192,243882,1,0,0:0:0:0:
182,192,243882,1,0,0:0:0:0:
475,192,244058,1,0,0:0:0:0:
36,192,244058,1,4,0:0:0:0:
402,192,244147,1,4,0:0:0:0:
256,192,244235,1,4,0:0:0:0:
109,192,244323,1,4,0:0:0:0:
475,192,244411,1,0,0:0:0:0:
36,192,244411,1,4,0:0:0:0:
402,192,244500,1,4,0:0:0:0:
475,192,244588,1,4,0:0:0:0:
182,192,244588,128,0,246000:0:0:0:0:
36,192,244588,1,0,0:0:0:0:
256,192,244588,1,0,0:0:0:0:
36,192,244764,1,0,0:0:0:0:
475,192,244764,1,0,0:0:0:0:
109,192,244852,1,4,0:0:0:0:
256,192,244941,1,0,0:0:0:0:
329,192,245029,1,0,0:0:0:0:
109,192,245117,1,4,0:0:0:0:
402,192,245117,1,0,0:0:0:0:
36,192,245205,1,0,0:0:0:0:
475,192,245294,1,4,0:0:0:0:
256,192,245294,1,0,0:0:0:0:
329,192,245294,1,0,0:0:0:0:
402,192,245470,1,0,0:0:0:0:
475,192,245470,1,4,0:0:0:0:
329,192,245558,1,4,0:0:0:0:
402,192,245647,1,4,0:0:0:0:
256,192,245647,1,0,0:0:0:0:
109,192,245647,1,0,0:0:0:0:
36,192,245823,1,4,0:0:0:0:
329,192,245823,1,0,0:0:0:0:
109,192,245911,1,4,0:0:0:0:
36,192,246000,1,4,0:0:0:0:
256,192,246000,1,0,0:0:0:0:
475,192,246000,1,0,0:0:0:0:
402,192,246176,1,0,0:0:0:0:
109,192,246352,1,0,0:0:0:0:
182,192,246352,1,0,0:0:0:0:
256,192,246352,1,0,0:0:0:0:
329,192,246529,1,4,0:0:0:0:
475,192,246705,1,4,0:0:0:0:
256,192,246705,1,0,0:0:0:0:
36,192,246705,1,0,0:0:0:0:
182,192,246882,1,0,0:0:0:0:
402,192,247058,1,0,0:0:0:0:
329,192,247058,1,0,0:0:0:0:
256,192,247058,1,0,0:0:0:0:
182,192,247235,1,4,0:0:0:0:
36,192,247411,128,4,248823:0:0:0:0:
475,192,247411,128,4,248823:1:0:0:0:
402,192,247411,1,0,0:0:0:0:
109,192,247411,1,0,0:0:0:0:
182,192,247411,1,0,0:0:0:0:
109,192,248117,128,4,248823:1:0:0:0:
182,192,248117,128,4,248823:1:0:0:0:
402,192,248470,128,4,248823:1:0:0:0:
329,192,248470,128,4,248823:1:0:0:0:
256,192,248823,128,4,258705:1:0:0:0:
