osu file format v14

[General]
AudioFilename: audio.mp3
AudioLeadIn: 0
PreviewTime: 125818
Countdown: 1
SampleSet: Soft
StackLeniency: 0.2
Mode: 0
LetterboxInBreaks: 0
WidescreenStoryboard: 0

[Editor]
Bookmarks: 2175,15461,16854,29175,42890,56604,72033,78890,85747,99461,109747,113175,120033,126890,137175,140604,168033,181747,183461,210890,238318,293175,294890
DistanceSpacing: 0.3
BeatDivisor: 4
GridSize: 8
TimelineZoom: 1

[Metadata]
Title:Against, Perfect Cherry Blossom.
TitleUnicode:Against, Perfect Cherry Blossom.
Artist:Masayoshi Minoshima
ArtistUnicode:簑島正佳
Creator:Antares-
Version:Boundary of Life and Death
Source:東方妖々夢 ~ Perfect Cherry Blossom.
Tags:さくらさくら 〜 Japanize Dream alstroemeria records Double Counterpoint nachi
BeatmapID:1410073
BeatmapSetID:666233

[Difficulty]
HPDrainRate:4
CircleSize:3.8
OverallDifficulty:8.5
ApproachRate:9.4
SliderMultiplier:2.4
SliderTickRate:1

[Events]
//Background and Video events
0,0,"test2.jpg",0,0
//Break Periods
2,72233,78140
//Storyboard Layer 0 (Background)
//Storyboard Layer 1 (Fail)
//Storyboard Layer 2 (Pass)
//Storyboard Layer 3 (Foreground)
//Storyboard Sound Samples

[TimingPoints]
33,428.571428571429,4,2,0,40,1,0
33,-133.333333333333,4,2,0,40,0,0
11175,-200,4,2,0,40,0,0
11497,-200,4,2,0,5,0,0
11604,-200,4,2,0,40,0,0
12354,-200,4,2,0,5,0,0
12461,-200,4,2,0,40,0,0
13211,-200,4,2,0,5,0,0
13318,-200,4,2,0,40,0,0
14497,-200,4,2,0,5,0,0
14604,-200,4,2,0,40,0,0
15461,-133.333333333333,4,2,0,55,0,0
25747,-200,4,2,0,55,0,0
26068,-200,4,2,0,5,0,0
26175,-133.333333333333,4,2,0,55,0,0
26604,-200,4,2,0,55,0,0
26925,-200,4,2,0,5,0,0
27033,-133.333333333333,4,2,0,55,0,0
27675,-66.6666666666667,4,2,0,55,0,0
29068,-66.6666666666667,4,2,0,5,0,0
29175,-66.6666666666667,4,2,0,65,0,1
39461,-200,4,2,0,65,0,1
39890,-66.6666666666667,4,2,0,65,0,1
40318,-200,4,2,0,65,0,1
40747,-66.6666666666667,4,2,0,65,0,1
41711,-66.6666666666667,4,2,0,5,0,1
41818,-66.6666666666667,4,2,0,65,0,1
42033,-66.6666666666667,4,2,0,65,0,0
42247,-66.6666666666667,4,2,0,65,0,1
42461,-66.6666666666667,4,2,0,65,0,0
42675,-66.6666666666667,4,2,0,65,0,1
53175,-200,4,2,0,65,0,1
53604,-66.6666666666667,4,2,0,65,0,1
54033,-200,4,2,0,65,0,1
54461,-66.6666666666667,4,2,0,65,0,1
56604,-80,4,2,0,60,0,0
56925,-80,4,2,0,5,0,0
57033,-66.6666666666667,4,2,0,60,0,0
57890,-100,4,2,0,60,0,0
58104,-66.6666666666667,4,2,0,60,0,0
60033,-80,4,2,0,60,0,0
60354,-80,4,2,0,5,0,0
60461,-66.6666666666667,4,2,0,60,0,0
61318,-100,4,2,0,60,0,0
61533,-66.6666666666667,4,2,0,60,0,0
63461,-80,4,2,0,60,0,0
63783,-80,4,2,0,5,0,0
63890,-66.6666666666667,4,2,0,60,0,0
64747,-100,4,2,0,60,0,0
64961,-66.6666666666667,4,2,0,60,0,0
66890,-200,4,2,0,60,0,0
67211,-200,4,2,0,5,0,0
67318,-66.6666666666667,4,2,0,60,0,0
67747,-200,4,2,0,60,0,0
68068,-200,4,2,0,5,0,0
68175,-66.6666666666667,4,2,0,60,0,0
68604,-200,4,2,0,60,0,0
68925,-200,4,2,0,5,0,0
69033,-66.6666666666667,4,2,0,60,0,0
72033,-200,4,2,0,60,0,0
78890,-200,4,2,0,50,0,0
82961,-400,4,2,0,50,0,0
83390,-400,4,2,0,5,0,0
83604,-200,4,2,0,50,0,0
84675,-1000,4,2,0,50,0,0
85533,-1000,4,2,0,5,0,0
85747,-200,4,2,0,50,0,0
86068,-200,4,2,0,5,0,0
86175,-100,4,2,0,50,0,0
86390,-200,4,2,0,50,0,0
86711,-200,4,2,0,5,0,0
86818,-133.333333333333,4,2,0,50,0,0
87461,-200,4,2,0,50,0,0
87782,-200,4,2,0,5,0,0
87889,-100,4,2,0,50,0,0
88104,-200,4,2,0,50,0,0
88425,-200,4,2,0,5,0,0
88533,-133.333333333333,4,2,0,50,0,0
89175,-200,4,2,0,50,0,0
89497,-200,4,2,0,5,0,0
89604,-133.333333333333,4,2,0,50,0,0
89818,-200,4,2,0,50,0,0
90140,-200,4,2,0,5,0,0
90247,-133.333333333333,4,2,0,50,0,0
90890,-200,4,2,0,50,0,0
91211,-200,4,2,0,5,0,0
91318,-133.333333333333,4,2,0,50,0,0
91533,-200,4,2,0,50,0,0
91854,-200,4,2,0,5,0,0
91961,-200,4,2,0,50,0,0
92283,-200,4,2,0,5,0,0
92390,-100,4,2,0,50,0,0
94318,-200,4,2,0,50,0,0
94640,-200,4,2,0,5,0,0
94747,-200,4,2,0,50,0,0
95068,-200,4,2,0,5,0,0
95175,-200,4,2,0,50,0,0
95497,-200,4,2,0,5,0,0
95604,-200,4,2,0,50,0,0
95925,-200,4,2,0,5,0,0
96033,-100,4,2,0,50,0,0
97747,-66.6666666666667,4,2,0,50,0,0
99461,-133.333333333333,4,2,0,50,0,0
100318,-200,4,2,0,50,0,0
100640,-200,4,2,0,5,0,0
100747,-133.333333333333,4,2,0,50,0,0
101604,-200,4,2,0,50,0,0
101925,-200,4,2,0,5,0,0
102033,-133.333333333333,4,2,0,50,0,0
102461,-200,4,2,0,50,0,0
102783,-200,4,2,0,5,0,0
102890,-133.333333333333,4,2,0,50,0,0
103747,-200,4,2,0,50,0,0
104068,-200,4,2,0,5,0,0
104175,-133.333333333333,4,2,0,50,0,0
105033,-200,4,2,0,50,0,0
105354,-200,4,2,0,5,0,0
105461,-133.333333333333,4,2,0,50,0,0
105890,-200,4,2,0,50,0,0
106211,-200,4,2,0,5,0,0
106318,-133.333333333333,4,2,0,50,0,0
107175,-200,4,2,0,50,0,0
107497,-200,4,2,0,5,0,0
107604,-133.333333333333,4,2,0,50,0,0
108461,-200,4,2,0,50,0,0
108783,-200,4,2,0,5,0,0
108890,-66.6666666666667,4,2,0,50,0,0
109747,-200,4,2,0,50,0,0
110069,-200,4,2,0,5,0,0
110175,-66.6666666666667,4,2,0,50,0,0
110604,-200,4,2,0,50,0,0
110926,-200,4,2,0,5,0,0
111033,-66.6666666666667,4,2,0,50,0,0
111461,-200,4,2,0,50,0,0
111783,-200,4,2,0,5,0,0
111890,-66.6666666666667,4,2,0,50,0,0
112318,-200,4,2,0,50,0,0
112640,-200,4,2,0,5,0,0
112747,-66.6666666666667,4,2,0,50,0,0
113175,-133.333333333333,4,2,0,50,0,0
114033,-200,4,2,0,50,0,0
114355,-200,4,2,0,5,0,0
114462,-133.333333333333,4,2,0,50,0,0
126890,-50,4,2,0,50,0,1
148747,-100,4,2,0,50,0,1
148961,-50,4,2,0,50,0,1
150890,-151.515151515152,4,2,0,50,0,1
151318,-50,4,2,0,50,0,1
151747,-151.515151515152,4,2,0,50,0,1
152175,-50,4,2,0,50,0,1
153461,-50,4,2,0,50,0,0
154318,-66.6666666666667,4,2,0,50,0,0
154747,-50,4,2,0,50,0,0
155604,-66.6666666666667,4,2,0,50,0,0
155818,-50,4,2,0,50,0,0
157747,-66.6666666666667,4,2,0,50,0,0
158175,-50,4,2,0,50,0,0
161175,-66.6666666666667,4,2,0,50,0,0
238318,-50,4,2,0,50,0,1
265747,-66.6666666666667,4,2,0,50,0,0
294890,-1000,4,2,0,50,0,0
300033,-500,4,2,0,50,0,0

[Colours]
Combo1 : 255,128,128
Combo2 : 128,128,255
Combo3 : 255,128,192
Combo4 : 128,0,255
SliderBorder : 255,128,192

[HitObjects]
50,39,675,5,0,0:0:0:0:
126,78,890,1,0,0:0:0:0:
53,124,1104,1,0,0:0:0:0:
50,39,1318,1,0,0:0:0:0:
53,124,1533,1,0,0:0:0:0:
126,78,1747,6,0,B|154:126|138:170|98:200|98:200|143:234|206:197|206:197|251:174|311:191,1,360.000013732911
409,235,2818,5,0,0:0:0:0:
319,300,3033,1,0,0:0:0:0:
308,190,3247,1,0,0:0:0:0:
488,169,3461,5,0,0:0:0:0:
308,190,3675,1,0,0:0:0:0:
488,169,3890,1,0,0:0:0:0:
457,88,4104,1,0,0:0:0:0:
404,156,4318,1,0,0:0:0:0:
404,156,4533,5,0,0:0:0:0:
305,52,4747,1,0,0:0:0:0:
161,67,4961,1,0,0:0:0:0:
259,175,5175,6,0,B|220:165|165:192|165:192|120:164|71:176|71:176|57:220|80:268|80:268|100:305|77:355,1,360.000013732911
0,306,6247,5,0,0:0:0:0:
160,266,6461,1,0,0:0:0:0:
46,147,6675,1,0,0:0:0:0:
160,266,6890,5,0,0:0:0:0:
106,85,7104,1,0,0:0:0:0:
160,266,7318,1,0,0:0:0:0:
231,217,7533,1,0,0:0:0:0:
236,302,7747,1,0,0:0:0:0:
160,266,7961,5,0,0:0:0:0:
317,176,8175,1,0,0:0:0:0:
485,244,8390,1,0,0:0:0:0:
304,253,8604,6,0,P|239:161|394:184,1,360.000013732911
377,327,9675,5,0,0:0:0:0:
317,176,9890,1,0,0:0:0:0:
478,198,10104,1,0,0:0:0:0:
377,327,10318,5,0,0:0:0:0:
431,122,10533,1,0,0:0:0:0:
377,327,10747,1,0,0:0:0:0:
308,278,10961,1,0,0:0:0:0:
386,240,11175,6,0,P|435:258|464:315,1,90.0000034332277
377,327,11604,5,0,0:0:0:0:
465,155,11818,1,0,0:0:0:0:
274,232,12033,2,0,P|231:243|175:227,1,90
228,155,12461,5,0,0:0:0:0:
377,327,12675,1,0,0:0:0:0:
187,233,12890,2,0,P|137:220|95:231,1,90
139,308,13318,5,0,0:0:0:0:
271,82,13533,1,0,0:0:0:0:
84,378,13747,2,0,P|51:299|99:227,1,180
139,308,14604,5,0,0:0:0:0:
99,226,14818,1,0,0:0:0:0:
191,233,15033,1,0,0:0:0:0:
139,308,15247,1,0,0:0:0:0:
87,76,15461,5,0,0:0:0:0:
108,83,15568,1,0,0:0:0:0:
129,90,15675,1,0,0:0:0:0:
150,98,15782,1,0,0:0:0:0:
172,108,15890,2,0,L|157:48,3,45.0000017166138
222,214,16318,5,0,0:0:0:0:
200,221,16425,1,0,0:0:0:0:
179,228,16532,1,0,0:0:0:0:
158,236,16639,1,0,0:0:0:0:
137,246,16747,2,0,L|147:202,3,45.0000017166138
214,308,17175,5,0,0:0:0:0:
235,300,17282,1,0,0:0:0:0:
256,293,17389,1,0,0:0:0:0:
278,286,17496,1,0,0:0:0:0:
341,224,17604,1,0,0:0:0:0:
320,216,17711,1,0,0:0:0:0:
299,209,17818,1,0,0:0:0:0:
277,202,17925,1,0,0:0:0:0:
212,143,18033,5,0,0:0:0:0:
233,135,18140,1,0,0:0:0:0:
254,128,18247,1,0,0:0:0:0:
276,121,18354,1,0,0:0:0:0:
362,100,18461,2,0,L|353:144,1,45.0000017166138
437,152,18675,2,0,L|426:208,1,45.0000017166138
300,350,18890,5,0,0:0:0:0:
292,329,18997,1,0,0:0:0:0:
285,308,19104,1,0,0:0:0:0:
278,286,19211,1,0,0:0:0:0:
213,219,19318,1,0,0:0:0:0:
206,241,19425,1,0,0:0:0:0:
199,262,19532,1,0,0:0:0:0:
191,283,19639,1,0,0:0:0:0:
126,358,19747,5,0,0:0:0:0:
118,337,19854,1,0,0:0:0:0:
111,316,19961,1,0,0:0:0:0:
104,294,20068,1,0,0:0:0:0:
81,206,20175,2,0,L|147:215,1,45.0000017166138
133,130,20390,2,0,L|199:139,1,45.0000017166138
278,107,20604,5,0,0:0:0:0:
295,111,20711,1,0,0:0:0:0:
343,155,20818,1,0,0:0:0:0:
326,159,20925,1,0,0:0:0:0:
270,201,21033,5,0,0:0:0:0:
287,205,21140,1,0,0:0:0:0:
335,249,21247,1,0,0:0:0:0:
318,253,21354,1,0,0:0:0:0:
260,297,21461,5,0,0:0:0:0:
281,305,21568,1,0,0:0:0:0:
302,312,21675,1,0,0:0:0:0:
324,319,21782,1,0,0:0:0:0:
409,342,21890,2,0,L|395:273,1,45.0000017166138
485,294,22104,2,0,L|471:225,1,45.0000017166138
401,114,22318,5,0,0:0:0:0:
380,122,22425,1,0,0:0:0:0:
359,129,22532,1,0,0:0:0:0:
337,136,22639,1,0,0:0:0:0:
270,201,22746,1,0,0:0:0:0:
292,208,22853,1,0,0:0:0:0:
313,215,22960,1,0,0:0:0:0:
334,223,23067,1,0,0:0:0:0:
410,278,23175,5,0,0:0:0:0:
389,286,23282,1,0,0:0:0:0:
368,293,23389,1,0,0:0:0:0:
346,300,23496,1,0,0:0:0:0:
256,321,23604,2,0,L|261:256,1,45.0000017166138
177,284,23818,2,0,L|182:219,1,45.0000017166138
203,101,24033,5,0,0:0:0:0:
207,118,24140,1,0,0:0:0:0:
251,166,24247,1,0,0:0:0:0:
255,149,24354,1,0,0:0:0:0:
297,93,24462,5,0,0:0:0:0:
301,110,24569,1,0,0:0:0:0:
345,158,24676,1,0,0:0:0:0:
349,141,24783,1,0,0:0:0:0:
393,83,24890,5,0,0:0:0:0:
401,104,24997,1,0,0:0:0:0:
408,125,25104,1,0,0:0:0:0:
415,147,25211,1,0,0:0:0:0:
438,232,25319,2,0,L|369:218,1,45.0000017166138
390,308,25533,2,0,L|321:294,1,45.0000017166138
162,196,25747,6,0,P|171:152|161:108,1,90
36,136,26175,6,0,L|78:154,1,45.0000017166138
43,230,26390,2,0,L|84:247,1,45.0000017166138
262,309,26604,6,0,P|281:270|337:248,1,90
355,366,27033,6,0,L|340:324,1,45.0000017166138
424,308,27247,2,0,L|409:266,1,45.0000017166138
353,148,27461,5,0,0:0:0:0:
386,93,27568,1,0,0:0:0:0:
441,162,27675,2,0,L|339:145,1,90.0000034332277
205,71,27890,2,0,L|307:54,1,90.0000034332277
439,125,28104,2,0,L|347:148,1,90.0000034332277
464,98,28318,2,0,L|372:121,1,90.0000034332277
281,225,28533,2,0,L|373:248,1,90.0000034332277
495,194,28747,2,0,P|455:158|488:249,1,270.000010299683
427,81,29175,6,0,P|370:96|339:127,1,90.0000034332277
270,69,29390,2,0,P|260:139|282:177,1,90.0000034332277
333,268,29604,2,0,P|282:296|237:286,1,90.0000034332277
191,196,29818,2,0,P|135:183|79:212,1,90.0000034332277
101,340,30033,2,0,L|158:232,1,90.0000034332277
235,77,30247,5,0,0:0:0:0:
220,43,30354,1,0,0:0:0:0:
136,53,30461,1,0,0:0:0:0:
121,19,30568,1,0,0:0:0:0:
36,41,30675,1,0,0:0:0:0:
21,7,30782,1,0,0:0:0:0:
88,128,30890,6,0,P|134:143|194:119,1,90.0000034332277
344,86,31104,2,0,P|331:147|363:203,1,90.0000034332277
450,304,31318,1,0,0:0:0:0:
392,246,31425,1,0,0:0:0:0:
323,290,31533,1,0,0:0:0:0:
338,369,31640,1,0,0:0:0:0:
418,377,31747,2,0,P|472:386|516:358,1,90.0000034332277
376,149,31961,6,0,P|363:105|369:61,1,90.0000034332277
220,31,32175,2,0,L|297:98,1,90.0000034332277
407,222,32390,2,0,P|453:163|445:112,1,90.0000034332277
138,17,32604,5,0,0:0:0:0:
145,61,32711,1,0,0:0:0:0:
172,96,32818,1,0,0:0:0:0:
214,111,32925,1,0,0:0:0:0:
163,177,33033,5,0,0:0:0:0:
205,191,33140,1,0,0:0:0:0:
249,185,33247,1,0,0:0:0:0:
284,157,33354,1,0,0:0:0:0:
288,70,33461,6,0,P|355:110|360:163,1,90.0000034332277
390,268,33675,5,0,0:0:0:0:
404,234,33783,1,0,0:0:0:0:
280,296,33890,1,0,0:0:0:0:
294,262,33998,1,0,0:0:0:0:
171,321,34104,1,0,0:0:0:0:
185,287,34212,1,0,0:0:0:0:
284,157,34318,6,0,P|297:104|272:45,1,90.0000034332277
129,63,34533,2,0,P|159:94|202:107,1,90.0000034332277
400,77,34747,1,0,0:0:0:0:
477,98,34854,1,0,0:0:0:0:
486,178,34961,1,0,0:0:0:0:
410,206,35068,1,0,0:0:0:0:
355,146,35175,2,0,P|330:201|349:256,1,90.0000034332277
432,340,35390,6,0,P|366:328|322:365,1,90.0000034332277
251,193,35604,2,0,L|354:237,1,90.0000034332277
347,336,35818,2,0,P|299:356|237:340,1,90.0000034332277
98,277,36033,5,0,0:0:0:0:
67,243,36140,1,0,0:0:0:0:
65,198,36247,1,0,0:0:0:0:
85,157,36354,1,0,0:0:0:0:
145,213,36461,5,0,0:0:0:0:
163,172,36568,1,0,0:0:0:0:
201,149,36675,1,0,0:0:0:0:
246,144,36783,1,0,0:0:0:0:
230,228,36890,6,0,P|195:284|128:288,1,90.0000034332277
85,157,37104,5,0,0:0:0:0:
97,123,37211,1,0,0:0:0:0:
201,149,37318,1,0,0:0:0:0:
213,115,37425,1,0,0:0:0:0:
317,141,37533,1,0,0:0:0:0:
329,107,37640,1,0,0:0:0:0:
230,228,37747,6,0,P|182:231|145:210,1,90.0000034332277
301,28,37961,2,0,P|349:25|386:46,1,90.0000034332277
201,149,38175,2,0,L|296:100,1,90.0000034332277
384,44,38390,2,0,P|410:84|410:126,1,90.0000034332277
230,228,38604,2,0,P|203:187|203:145,1,90.0000034332277
175,165,38818,2,0,P|172:115|193:79,1,90.0000034332277
83,324,39033,6,0,L|128:225,1,90.0000034332277
192,309,39247,2,0,L|237:210,1,90.0000034332277
487,51,39461,6,0,P|439:69|394:52,1,90.0000034332277
100,37,39890,6,0,L|197:73,1,90.0000034332277
111,136,40104,2,0,L|208:172,1,90.0000034332277
464,361,40318,6,0,P|454:310|472:261,1,90.0000034332277
403,58,40747,6,0,L|361:154,1,90.0000034332277
300,71,40961,2,0,L|258:167,1,90.0000034332277
57,357,41175,6,0,B|-3:292|86:187|196:283|137:355|137:355|189:340|234:366|234:366|268:321|312:329,1,450.000017166138
380,369,41818,6,0,P|388:304|349:252,1,90.0000034332277
284,140,42033,1,4,0:0:0:0:
294,153,42247,6,0,P|359:170|418:146,1,90.0000034332277
493,68,42461,1,4,0:0:0:0:
480,57,42675,6,0,P|419:40|388:46,1,90.0000034332277
38,102,42890,5,4,0:0:0:0:
70,87,42997,1,0,0:0:0:0:
105,89,43104,1,0,0:0:0:0:
137,104,43211,1,0,0:0:0:0:
184,170,43318,5,0,0:0:0:0:
152,185,43425,1,0,0:0:0:0:
117,183,43532,1,0,0:0:0:0:
85,168,43639,1,0,0:0:0:0:
137,104,43747,6,0,P|189:89|245:113,1,90.0000034332277
344,93,43961,5,0,0:0:0:0:
356,59,44068,1,0,0:0:0:0:
396,178,44175,1,0,0:0:0:0:
408,144,44282,1,0,0:0:0:0:
438,276,44390,1,0,0:0:0:0:
450,242,44497,1,0,0:0:0:0:
337,267,44604,6,0,P|281:267|239:244,1,90.0000034332277
122,185,44818,1,0,0:0:0:0:
44,209,44925,1,0,0:0:0:0:
29,289,45033,1,0,0:0:0:0:
106,264,45140,1,0,0:0:0:0:
122,185,45247,1,0,0:0:0:0:
61,130,45354,1,0,0:0:0:0:
137,104,45461,6,0,P|185:87|240:101,1,90.0000034332277
413,218,45675,2,0,P|402:158|431:101,1,90.0000034332277
490,240,45890,2,0,P|472:277|423:299,1,90.0000034332277
409,131,46104,2,0,P|420:71|391:14,1,90.0000034332277
105,92,46318,5,0,0:0:0:0:
88,133,46425,1,0,0:0:0:0:
96,177,46533,1,0,0:0:0:0:
124,211,46640,1,0,0:0:0:0:
169,143,46747,5,0,0:0:0:0:
197,178,46854,1,0,0:0:0:0:
240,190,46961,1,0,0:0:0:0:
284,181,47068,1,0,0:0:0:0:
244,109,47175,6,0,P|322:105|360:143,1,90.0000034332277
419,314,47390,5,0,0:0:0:0:
431,280,47497,1,0,0:0:0:0:
304,334,47604,1,0,0:0:0:0:
316,300,47711,1,0,0:0:0:0:
189,354,47818,1,0,0:0:0:0:
201,320,47925,1,0,0:0:0:0:
245,220,48033,5,0,0:0:0:0:
273,144,48140,1,0,0:0:0:0:
231,74,48247,1,0,0:0:0:0:
151,57,48354,1,0,0:0:0:0:
175,134,48461,1,0,0:0:0:0:
231,74,48568,1,0,0:0:0:0:
203,1,48675,1,0,0:0:0:0:
151,57,48783,1,0,0:0:0:0:
175,134,48890,6,0,P|219:154|283:140,1,90.0000034332277
452,61,49104,2,0,P|463:113|495:144,1,90.0000034332277
404,0,49318,2,0,P|373:69|398:113,1,90.0000034332277
467,234,49533,2,0,P|410:222|382:232,1,90.0000034332277
173,280,49747,5,0,0:0:0:0:
135,254,49854,1,0,0:0:0:0:
117,212,49961,1,0,0:0:0:0:
120,167,50068,1,0,0:0:0:0:
196,200,50175,5,0,0:0:0:0:
201,155,50283,1,0,0:0:0:0:
230,121,50390,1,0,0:0:0:0:
273,108,50497,1,0,0:0:0:0:
277,191,50604,6,0,P|268:247|221:275,1,90.0000034332277
31,359,50818,5,0,0:0:0:0:
39,324,50925,1,0,0:0:0:0:
134,331,51033,1,0,0:0:0:0:
141,295,51140,1,0,0:0:0:0:
236,302,51247,1,0,0:0:0:0:
244,267,51354,1,0,0:0:0:0:
176,195,51461,5,0,0:0:0:0:
218,105,51568,1,0,0:0:0:0:
315,123,51675,1,0,0:0:0:0:
332,221,51783,1,0,0:0:0:0:
244,267,51890,2,0,P|158:276|127:249,1,90.0000034332277
291,36,52104,2,0,L|319:139,1,90.0000034332277
183,363,52318,2,0,L|159:276,1,90.0000034332277
155,348,52533,2,0,L|131:261,1,90.0000034332277
139,22,52747,6,0,L|115:108,1,90.0000034332277
199,108,52961,2,0,L|175:194,1,90.0000034332277
431,360,53175,6,0,P|442:302|489:272,1,90.0000034332277
399,25,53604,6,0,L|300:45,1,90
366,115,53818,2,0,L|267:135,1,90
31,285,54033,6,0,P|83:288|116:325,1,90
330,362,54461,6,0,L|306:275,1,90.0000034332277
399,294,54675,2,0,L|375:207,1,90.0000034332277
74,32,54890,6,0,B|117:12|156:33|191:88|138:147|77:125|77:125|32:138|11:95|11:95|-15:137|-3:185|-3:185|31:205|76:199|76:199|121:214|182:189|213:143,1,630.000024032594
278,77,55747,6,0,P|305:131|289:189,1,90.0000034332277
244,230,55961,1,0,0:0:0:0:
212,143,56068,1,0,0:0:0:0:
302,159,56175,6,0,P|336:213|324:267,1,90.0000034332277
282,312,56390,1,0,0:0:0:0:
244,230,56497,1,0,0:0:0:0:
335,237,56604,6,0,B|394:306|356:361|356:361|407:311|471:331,1,225
484,252,57033,1,0,0:0:0:0:
493,215,57140,1,0,0:0:0:0:
502,178,57247,1,0,0:0:0:0:
511,141,57354,1,0,0:0:0:0:
425,90,57461,2,0,L|395:211,1,90.0000034332277
264,324,57675,6,0,P|200:341|155:323,1,90.0000034332277
180,199,57890,2,0,L|210:252,1,60
178,335,58104,2,0,P|114:318|69:336,1,90.0000034332277
9,266,58318,5,0,0:0:0:0:
33,239,58425,1,0,0:0:0:0:
65,224,58533,1,0,0:0:0:0:
101,223,58640,1,0,0:0:0:0:
180,199,58747,5,0,0:0:0:0:
163,167,58854,1,0,0:0:0:0:
133,145,58962,1,0,0:0:0:0:
97,139,59069,1,0,0:0:0:0:
21,112,59175,6,0,P|48:73|99:59,1,90.0000034332277
226,92,59390,2,0,P|188:42|185:5,1,90.0000034332277
339,60,59604,2,0,L|304:169,1,90.0000034332277
433,32,59818,2,0,L|398:141,1,90.0000034332277
299,317,60033,6,0,P|203:310|282:358,1,225
362,366,60461,1,0,0:0:0:0:
375,332,60568,1,0,0:0:0:0:
374,296,60675,1,0,0:0:0:0:
356,264,60783,1,0,0:0:0:0:
397,153,60890,2,0,P|353:158|311:144,1,90.0000034332277
144,67,61104,6,0,P|156:136|132:185,1,90.0000034332277
32,161,61318,2,0,L|69:114,1,60
150,153,61533,2,0,P|136:195|142:239,1,90.0000034332277
210,348,61747,5,0,0:0:0:0:
243,334,61854,1,0,0:0:0:0:
278,335,61961,1,0,0:0:0:0:
309,352,62068,1,0,0:0:0:0:
390,358,62175,5,0,0:0:0:0:
385,321,62283,1,0,0:0:0:0:
364,291,62390,1,0,0:0:0:0:
332,274,62497,1,0,0:0:0:0:
259,238,62604,6,0,P|307:196|347:195,1,90.0000034332277
487,203,62818,2,0,P|439:142|445:107,1,90.0000034332277
385,10,63033,2,0,L|301:64,1,90.0000034332277
512,14,63247,2,0,L|428:68,1,90.0000034332277
254,158,63461,6,0,P|333:217|237:198,1,225
174,170,63890,1,0,0:0:0:0:
179,134,63997,1,0,0:0:0:0:
198,103,64104,1,0,0:0:0:0:
228,84,64211,1,0,0:0:0:0:
258,237,64318,2,0,L|146:285,1,90.0000034332277
20,282,64533,6,0,P|59:227|59:174,1,90.0000034332277
0,36,64747,2,0,L|8:103,1,60
62,206,64961,2,0,P|67:138|101:98,1,90.0000034332277
186,34,65175,5,0,0:0:0:0:
219,46,65283,1,0,0:0:0:0:
254,45,65390,1,0,0:0:0:0:
286,30,65497,1,0,0:0:0:0:
369,40,65604,5,0,0:0:0:0:
355,71,65712,1,0,0:0:0:0:
331,97,65819,1,0,0:0:0:0:
297,110,65926,1,0,0:0:0:0:
229,154,66033,6,0,P|294:192|340:179,1,90.0000034332277
445,77,66247,2,0,P|380:39|334:52,1,90.0000034332277
44,43,66461,6,0,L|8:145,1,90.0000034332277
146,0,66675,2,0,L|110:102,1,90.0000034332277
164,213,66890,6,0,L|193:128,1,90.0000034332277
61,328,67318,6,0,L|163:364,1,90.0000034332277
14,231,67532,2,0,L|116:267,1,90.0000034332277
248,242,67747,6,0,L|163:212,1,90.0000034332277
375,347,68175,6,0,L|411:245,1,90.0000034332277
279,384,68389,2,0,L|315:282,1,90.0000034332277
277,157,68604,6,0,L|247:241,1,90.0000034332277
279,384,69033,5,4,0:0:0:0:
380,381,69247,2,0,L|274:367,1,90.0000034332277
246,241,69461,5,4,0:0:0:0:
145,238,69675,2,0,L|251:224,1,90.0000034332277
302,126,69890,5,4,0:0:0:0:
403,123,70104,2,0,L|297:109,1,90.0000034332277
152,81,70318,5,4,0:0:0:0:
142,106,70425,1,0,0:0:0:0:
229,83,70533,2,0,P|213:31|151:6,1,90.0000034332277
62,86,70747,2,0,L|172:79,1,90.0000034332277
360,84,70961,5,0,0:0:0:0:
340,70,71068,1,0,0:0:0:0:
337,157,71175,2,0,P|417:137|430:102,1,90.0000034332277
398,2,71390,2,0,L|353:98,1,90.0000034332277
246,245,71604,5,8,0:0:0:0:
323,272,71711,1,0,0:0:0:0:
398,245,71818,1,8,0:0:0:0:
473,274,71925,1,0,0:0:0:0:
460,193,72033,5,4,0:0:0:0:
144,35,78890,6,0,L|131:103,1,60
196,154,79318,1,0,0:0:0:0:
225,80,79533,2,0,L|212:148,1,60
285,206,79961,1,0,0:0:0:0:
314,132,80176,2,0,L|301:200,1,60
115,109,80604,6,0,L|103:167,1,60
167,228,81032,1,0,0:0:0:0:
196,154,81247,2,0,L|184:212,1,60
256,280,81675,1,0,0:0:0:0:
285,206,81890,2,0,L|273:264,1,60
86,183,82318,6,0,L|74:241,1,60
138,302,82746,1,0,0:0:0:0:
155,286,82961,6,0,L|167:228,1,60
201,78,83604,1,0,0:0:0:0:
123,51,84033,5,0,0:0:0:0:
201,78,84247,1,0,0:0:0:0:
280,55,84461,1,0,0:0:0:0:
355,77,84675,6,0,P|358:46|355:29,1,48
294,124,85747,6,0,P|341:156|389:145,1,90
244,202,86175,2,0,P|193:224|171:271,1,60
252,282,86390,2,0,L|343:302,1,90
478,276,86818,5,0,0:0:0:0:
482,297,86925,1,0,0:0:0:0:
416,205,87033,1,0,0:0:0:0:
412,226,87140,1,0,0:0:0:0:
481,142,87247,1,0,0:0:0:0:
485,163,87354,1,0,0:0:0:0:
426,40,87461,6,0,L|403:127,1,90
308,58,87890,2,0,P|301:17|268:-19,1,60
233,49,88104,2,0,L|212:150,1,90
179,248,88533,5,0,0:0:0:0:
175,225,88640,1,0,0:0:0:0:
95,288,88747,1,0,0:0:0:0:
99,265,88854,1,0,0:0:0:0:
22,243,88961,1,0,0:0:0:0:
18,220,89068,1,0,0:0:0:0:
24,332,89175,6,0,P|86:371|127:363,1,90
192,305,89604,2,0,P|183:332|199:369,1,45.0000017166138
348,349,89818,2,0,P|305:332|254:342,1,90
418,305,90247,1,0,0:0:0:0:
428,285,90354,1,0,0:0:0:0:
405,206,90461,5,0,0:0:0:0:
444,239,90568,1,0,0:0:0:0:
495,221,90675,1,0,0:0:0:0:
509,164,90783,1,0,0:0:0:0:
441,130,90890,6,0,P|382:125|346:148,1,90
397,228,91318,1,0,0:0:0:0:
405,206,91425,1,0,0:0:0:0:
378,97,91533,2,0,P|324:122|304:160,1,90
163,253,91961,2,0,P|176:201|161:155,1,90
105,15,92390,2,0,P|81:47|82:89,1,60
154,73,92604,5,0,0:0:0:0:
182,65,92711,1,0,0:0:0:0:
211,68,92818,2,0,P|179:113|153:120,1,60
85,125,93033,1,0,0:0:0:0:
56,128,93140,2,0,P|88:173|114:179,1,60
176,197,93354,1,0,0:0:0:0:
205,200,93461,2,0,P|173:245|147:252,1,60
80,263,93675,1,0,0:0:0:0:
51,266,93783,1,0,0:0:0:0:
96,342,93890,5,0,0:0:0:0:
142,331,93997,1,0,0:0:0:0:
172,294,94104,1,0,0:0:0:0:
170,246,94211,1,0,0:0:0:0:
59,96,94318,6,0,L|32:185,1,90
240,357,94747,2,0,L|265:270,1,90
0,277,95175,2,0,L|89:303,1,90
371,201,95604,2,0,L|284:175,1,90
59,96,96033,5,0,0:0:0:0:
92,107,96140,1,0,0:0:0:0:
127,99,96247,2,0,P|98:64|57:62,1,60
119,184,96461,1,0,0:0:0:0:
194,147,96568,2,0,P|235:138|276:154,1,60
192,233,96783,1,0,0:0:0:0:
119,184,96890,2,0,P|78:175|37:191,1,60
120,265,97104,1,0,0:0:0:0:
184,313,97211,1,0,0:0:0:0:
192,233,97318,5,0,0:0:0:0:
254,279,97425,1,0,0:0:0:0:
332,273,97533,1,0,0:0:0:0:
383,214,97640,1,0,0:0:0:0:
306,198,97747,5,0,0:0:0:0:
332,273,97854,1,0,0:0:0:0:
382,214,97961,2,0,P|379:169|352:134,1,90.0000034332277
275,124,98175,1,0,0:0:0:0:
332,273,98283,2,0,P|383:292|434:273,1,90.0000034332277
460,220,98497,1,0,0:0:0:0:
306,198,98604,2,0,P|260:238|255:284,1,90.0000034332277
490,298,98818,2,0,P|488:254|460:220,1,90.0000034332277,0|0,0:0|0:0,2:0:0:0:
275,124,99033,5,0,0:0:0:0:
352,134,99140,1,0,0:0:0:0:
428,121,99247,1,0,0:0:0:0:
505,131,99354,1,0,0:0:0:0:
476,59,99461,5,0,0:0:0:0:
470,46,99568,1,0,0:0:0:0:
356,17,99675,1,0,0:0:0:0:
362,30,99782,1,0,0:0:0:0:
362,151,99890,5,0,0:0:0:0:
356,138,99997,1,0,0:0:0:0:
242,109,100104,1,0,0:0:0:0:
248,122,100211,1,0,0:0:0:0:
410,207,100318,6,0,P|437:161|430:121,1,90
362,30,100747,5,0,0:0:0:0:
351,38,100854,1,0,0:0:0:0:
351,159,100961,1,0,0:0:0:0:
362,151,101068,1,0,0:0:0:0:
158,86,101175,5,0,0:0:0:0:
159,144,101283,1,0,0:0:0:0:
200,186,101390,1,0,0:0:0:0:
258,182,101497,1,0,0:0:0:0:
206,24,101604,6,0,P|161:8|102:33,1,90
90,193,102033,5,0,0:0:0:0:
92,148,102140,1,0,0:0:0:0:
59,116,102247,1,0,0:0:0:0:
14,114,102354,1,0,0:0:0:0:
39,264,102461,6,0,L|150:287,1,90
256,217,102890,5,0,0:0:0:0:
250,204,102997,1,0,0:0:0:0:
127,282,103104,1,0,0:0:0:0:
132,294,103211,1,0,0:0:0:0:
332,287,103318,5,0,0:0:0:0:
318,286,103425,1,0,0:0:0:0:
200,371,103533,1,0,0:0:0:0:
213,371,103640,1,0,0:0:0:0:
397,243,103747,6,0,P|352:211|297:217,1,90
127,282,104175,5,0,0:0:0:0:
140,281,104282,1,0,0:0:0:0:
318,209,104390,1,0,0:0:0:0:
304,209,104497,1,0,0:0:0:0:
235,373,104604,5,0,0:0:0:0:
228,314,104711,1,0,0:0:0:0:
184,273,104818,1,0,0:0:0:0:
127,282,104925,1,0,0:0:0:0:
351,279,105033,6,0,P|385:251|393:185,1,90
295,60,105461,5,0,0:0:0:0:
337,75,105568,1,0,0:0:0:0:
377,56,105675,1,0,0:0:0:0:
386,11,105783,1,0,0:0:0:0:
225,1,105890,6,0,L|197:108,1,90
228,232,106318,5,0,0:0:0:0:
240,227,106425,1,0,0:0:0:0:
296,126,106533,1,0,0:0:0:0:
283,132,106640,1,0,0:0:0:0:
193,325,106747,5,0,0:0:0:0:
205,319,106854,1,0,0:0:0:0:
122,213,106962,1,0,0:0:0:0:
109,218,107069,1,0,0:0:0:0:
260,378,107175,6,0,P|282:343|273:276,1,90
263,139,107604,5,0,0:0:0:0:
260,152,107711,1,0,0:0:0:0:
387,110,107818,1,0,0:0:0:0:
390,96,107925,1,0,0:0:0:0:
144,47,108033,5,0,0:0:0:0:
87,31,108140,1,0,0:0:0:0:
37,62,108247,1,0,0:0:0:0:
27,119,108354,1,0,0:0:0:0:
203,100,108461,6,0,P|223:53|209:2,1,90
27,119,108890,5,0,0:0:0:0:
15,162,108997,1,0,0:0:0:0:
37,200,109104,1,0,0:0:0:0:
80,212,109211,1,0,0:0:0:0:
228,210,109318,5,0,0:0:0:0:
233,183,109425,1,0,0:0:0:0:
80,212,109533,1,0,0:0:0:0:
73,238,109640,1,0,0:0:0:0:
252,286,109747,6,0,P|306:234|304:186,1,90.0000034332277
254,39,110175,5,0,0:0:0:0:
201,101,110283,1,0,0:0:0:0:
252,163,110390,1,0,0:0:0:0:
330,144,110497,1,0,0:0:0:0:
254,39,110604,6,0,P|207:19|151:37,1,90.0000034332277
6,151,111033,6,0,P|27:95|16:43,1,90.0000034332277
106,145,111248,2,0,P|85:201|96:253,1,90.0000034332277
153,316,111461,6,0,P|204:295|258:306,1,90.0000034332277
396,347,111890,5,0,0:0:0:0:
461,300,111997,1,0,0:0:0:0:
436,222,112104,1,0,0:0:0:0:
355,217,112211,1,0,0:0:0:0:
396,347,112318,6,0,P|452:378|503:366,1,90.0000034332277
461,300,112747,5,0,0:0:0:0:
436,222,112854,1,0,0:0:0:0:
463,146,112961,1,0,0:0:0:0:
434,70,113068,1,0,0:0:0:0:
355,217,113175,5,0,0:0:0:0:
342,222,113283,1,0,0:0:0:0:
195,148,113390,1,0,0:0:0:0:
207,142,113498,1,0,0:0:0:0:
196,254,113604,5,0,0:0:0:0:
183,259,113712,1,0,0:0:0:0:
195,148,113818,1,0,0:0:0:0:
207,142,113926,1,0,0:0:0:0:
189,335,114033,6,0,P|134:318|109:272,1,90
