osu file format v14

[General]
AudioFilename: audio.mp3
AudioLeadIn: 0
PreviewTime: 92045
Countdown: 0
SampleSet: Soft
StackLeniency: 0.4
Mode: 0
LetterboxInBreaks: 0
WidescreenStoryboard: 1

[Editor]
Bookmarks: 7876,13676,29676,39276,82989,110159,128272
DistanceSpacing: 1
BeatDivisor: 4
GridSize: 32
TimelineZoom: 2.999998

[Metadata]
Title:BREAK OVER
TitleUnicode:BREAK OVER
Artist:Masayoshi Iimori
ArtistUnicode:Masayoshi Iimori
Creator:-PC
Version:Normal
Source:beatmania IIDX 24 SINOBUZ
Tags:festival sound bemani konami
BeatmapID:2017732
BeatmapSetID:921088

[Difficulty]
HPDrainRate:2
CircleSize:3
OverallDifficulty:4
ApproachRate:4
SliderMultiplier:1.35
SliderTickRate:1

[Events]
//Background and Video events
0,0,"breakover.png",0,0
//Break Periods
2,31075,81669
//Storyboard Layer 0 (Background)
//Storyboard Layer 1 (Fail)
//Storyboard Layer 2 (Pass)
//Storyboard Layer 3 (Foreground)
//Storyboard Sound Samples

[TimingPoints]
876,400,4,2,1,75,1,0
13276,-100,4,2,1,40,0,0
13676,-100,4,2,1,90,0,1
24876,-100,4,2,1,90,0,0
26476,-100,4,2,1,90,0,1
31276,-100,4,2,1,90,0,0
39276,-100,4,2,1,90,0,0
40476,-100,4,2,1,90,0,1
40876,-100,4,2,1,90,0,0
52876,-100,4,2,1,90,0,1
55276,-100,4,2,1,90,0,0
56076,-100,4,2,1,90,0,1
58076,-100,4,2,1,90,0,0
59276,-100,4,2,1,90,0,1
64376,-100,4,2,1,90,0,0
64876,566.037735849057,4,2,1,80,1,0
74498,-100,4,2,1,40,0,0
82423,-100,4,2,1,5,0,0
82989,-71.4285714285714,4,2,1,75,0,0
89781,-71.4285714285714,4,2,1,80,0,0
91479,-71.4285714285714,4,2,1,90,0,0
92045,-71.4285714285714,4,2,1,90,0,1
99970,-71.4285714285714,4,2,1,90,0,0
100041,-71.4285714285714,4,2,1,50,0,0
100253,-71.4285714285714,4,2,1,90,0,0
100324,-71.4285714285714,4,2,1,50,0,0
100536,-71.4285714285714,4,2,1,90,0,0
100607,-71.4285714285714,4,2,1,50,0,0
100819,-71.4285714285714,4,2,1,90,0,0
100890,-71.4285714285714,4,2,1,50,0,0
101102,-71.4285714285714,4,2,1,90,0,1
109026,-71.4285714285714,4,2,1,90,0,0
110159,-71.4285714285714,4,2,1,90,0,1
118649,-71.4285714285714,4,2,1,90,0,0

[Colours]
Combo1 : 0,232,156
Combo2 : 133,234,21
Combo3 : 10,102,205
Combo4 : 204,36,79

[HitObjects]
507,219,876,6,0,B|346:200|346:200|340:246,1,202.5
323,319,1676,2,0,B|265:310|265:310|246:322|246:322|186:312,1,135
41,254,2476,6,0,B|33:214|33:214|192:182,1,202.5
272,167,3276,1,0,0:0:0:0:
413,87,3676,1,0,0:0:0:0:
507,219,4076,6,0,B|346:200|346:200|340:246,1,202.5
323,319,4876,2,0,B|265:310|265:310|246:322|246:322|186:312,1,135
41,254,5676,6,0,B|33:214|33:214|192:182,1,202.5
272,167,6476,1,0,0:0:0:0:
464,313,7276,6,0,B|473:253|473:253|468:240|468:240|477:178,1,135
487,99,7876,1,0,0:0:0:0:
407,84,8076,2,0,L|269:107,1,135
168,230,8876,6,0,B|183:302|183:302|133:338,2,135
25,152,10076,2,0,L|40:79,1,67.5
55,6,10476,5,0,0:0:0:0:
149,141,10876,1,0,0:0:0:0:
266,29,11276,2,0,P|321:39|374:74,2,101.25
185,37,12076,5,0,0:0:0:0:
11,214,13676,6,0,B|86:222|86:222|100:223|99:236|99:236|98:249|111:250|111:250|194:259,1,202.5
271,233,14476,2,0,P|312:244|345:303,2,101.25
194,259,15276,5,0,0:0:0:0:
315,152,15676,1,0,0:0:0:0:
162,100,16076,2,0,P|127:75|118:8,2,101.25
243,103,16876,6,0,B|305:98|305:98|316:104|316:104|385:99,1,135
506,195,17676,2,0,P|516:240|485:292,2,101.25
429,167,18476,5,0,0:0:0:0:
357,312,18876,1,0,0:0:0:0:
212,241,19276,1,0,0:0:0:0:
510,366,20076,6,0,P|458:324|391:315,1,135
317,347,20676,2,0,P|243:360|173:362,1,135
102,351,21276,1,0,0:0:0:0:
14,214,21676,6,0,B|4:132|59:173|49:82,1,135
29,10,22276,1,0,0:0:0:0:
170,88,22676,2,0,P|221:82|252:38,2,101.25
29,10,23676,5,0,0:0:0:0:
65,82,23876,2,0,P|69:148|42:209,1,135
4,282,24476,2,0,P|41:340|101:321,1,135
492,190,26476,6,0,B|416:182|416:182|402:181|403:168|403:168|404:155|391:154|391:154|308:145,1,202.5
245,92,27276,2,0,P|199:99|106:131,1,135
36,107,27876,1,0,0:0:0:0:
1,180,28076,5,0,0:0:0:0:
148,246,28476,1,0,0:0:0:0:
17,340,28876,1,0,0:0:0:0:
258,317,29676,6,0,B|320:322|320:322|331:316|331:316|400:321,1,135
493,194,30476,2,0,P|477:135|482:43,1,135
304,265,82989,6,0,B|362:275|362:275|376:266|376:266|441:278,2,141.749995674133
211,246,84121,1,0,0:0:0:0:
337,181,84545,2,0,P|357:129|329:42,1,141.374993528366
293,24,85111,1,0,0:0:0:0:
246,34,85253,6,0,B|180:36|180:36|175:47|175:47|100:50,2,141.374993528366
341,29,86385,1,0,0:0:0:0:
441,129,86809,2,0,P|458:194|439:290,1,141.374993528366
384,337,87517,6,0,B|350:365|350:365|194:342,1,188.499991371155
138,278,88366,1,0,0:0:0:0:
47,304,88649,2,0,L|37:362,8,47.1249978427888
395,260,91479,6,0,L|380:163,1,94.4999971160889
308,105,92045,6,0,B|220:100|220:100|207:109|207:109|108:103,1,188.999994232178
27,95,92894,1,0,0:0:0:0:
8,187,93177,2,0,P|18:237|76:315,1,141.749995674133
