osu file format v14

[General]
AudioFilename: audio.mp3
AudioLeadIn: 0
PreviewTime: 92045
Countdown: 0
SampleSet: Soft
StackLeniency: 0.4
Mode: 0
LetterboxInBreaks: 0
WidescreenStoryboard: 1

[Editor]
Bookmarks: 13676,39276,82989,110159,128272
DistanceSpacing: 1
BeatDivisor: 4
GridSize: 32
TimelineZoom: 2.999998

[Metadata]
Title:BREAK OVER
TitleUnicode:BREAK OVER
Artist:Masayoshi Iimori
ArtistUnicode:Masayoshi Iimori
Creator:-PC
Version:Hard
Source:beatmania IIDX 24 SINOBUZ
Tags:festival sound bemani konami
BeatmapID:1938781
BeatmapSetID:921088

[Difficulty]
HPDrainRate:4
CircleSize:4
OverallDifficulty:5
ApproachRate:8
SliderMultiplier:1.53
SliderTickRate:1

[Events]
//Background and Video events
0,0,"breakover.png",0,0
//Break Periods
2,65076,73748
//Storyboard Layer 0 (Background)
//Storyboard Layer 1 (Fail)
//Storyboard Layer 2 (Pass)
//Storyboard Layer 3 (Foreground)
//Storyboard Sound Samples

[TimingPoints]
876,400,4,2,1,75,1,0
13276,-100,4,2,1,40,0,0
13676,-83.3333333333333,4,2,1,90,0,1
24876,-83.3333333333333,4,2,1,90,0,0
26476,-83.3333333333333,4,2,1,90,0,1
31276,-100,4,2,1,90,0,0
39276,-83.3333333333333,4,2,1,90,0,0
40476,-83.3333333333333,4,2,1,90,0,1
40876,-83.3333333333333,4,2,1,90,0,0
52876,-83.3333333333333,4,2,1,90,0,1
55276,-83.3333333333333,4,2,1,90,0,0
56076,-83.3333333333333,4,2,1,90,0,1
58076,-83.3333333333333,4,2,1,90,0,0
59276,-83.3333333333333,4,2,1,90,0,1
64376,-83.3333333333333,4,2,1,90,0,0
64876,566.037735849057,4,2,1,80,1,0
74498,-100,4,2,1,40,0,0
82423,-100,4,2,1,5,0,0
82989,-71.4285714285714,4,2,1,75,0,0
89781,-71.4285714285714,4,2,1,80,0,0
91479,-100,4,2,1,90,0,0
92045,-62.5,4,2,1,90,0,1
99970,-62.5,4,2,1,90,0,0
100041,-62.5,4,2,1,50,0,0
100253,-62.5,4,2,1,90,0,0
100324,-62.5,4,2,1,50,0,0
100536,-62.5,4,2,1,90,0,0
100607,-62.5,4,2,1,50,0,0
100819,-62.5,4,2,1,90,0,0
100890,-62.5,4,2,1,50,0,0
101102,-62.5,4,2,1,90,0,1
109026,-62.5,4,2,1,90,0,0
110159,-62.5,4,2,1,90,0,1
118649,-71.4285714285714,4,2,1,90,0,0

[Colours]
Combo1 : 0,232,156
Combo2 : 133,234,21
Combo3 : 10,102,205
Combo4 : 204,36,79

[HitObjects]
100,279,876,6,0,B|191:260|191:260|199:285,1,114.75,4|0,1:2|3:0,0:0:0:0:
201,307,1276,2,0,L|278:322,1,76.5,0|0,1:3|3:0,0:0:0:0:
324,381,1676,2,0,B|390:360|390:360|412:366|412:366|474:347,1,153,0|0,1:3|1:3,0:0:0:0:
482,274,2276,2,0,L|509:278,2,19.125,0|0|0,3:0|3:0|3:0,0:0:0:0:
455,269,2476,6,0,B|428:264|428:264|443:176,1,114.75,0|0,1:3|3:0,0:0:0:0:
445,151,2876,2,0,L|370:140,1,76.5,0|0,1:3|3:0,0:0:0:0:
303,178,3276,2,0,B|315:207|315:207|188:181,1,153,0|0,1:0|1:0,0:0:0:0:
121,166,3876,1,0,3:0:0:0:
100,279,4076,6,0,B|191:260|191:260|199:285,1,114.75,0|0,1:2|3:0,0:0:0:0:
201,307,4476,2,0,L|278:322,1,76.5,0|0,1:3|3:0,0:0:0:0:
324,381,4876,2,0,B|390:360|390:360|412:366|412:366|474:347,1,153,0|0,1:3|1:3,0:0:0:0:
482,274,5476,2,0,L|509:278,2,19.125,0|0|0,3:0|3:0|3:0,0:0:0:0:
455,269,5676,6,0,B|428:264|428:264|443:176,1,114.75,0|0,1:3|3:0,0:0:0:0:
445,151,6076,2,0,L|370:140,1,76.5,0|0,1:3|3:0,0:0:0:0:
316,194,6476,2,0,B|232:209|232:209|192:186|192:186|92:206,1,229.5,0|0,1:0|3:0,0:0:0:0:
5,277,7276,6,0,L|24:160,1,114.75,4|0,1:2|3:0,0:0:0:0:
28,137,7676,2,0,L|109:125,1,76.5,0|0,1:0|3:0,0:0:0:0:
167,83,8076,2,0,B|181:111|181:111|263:95,1,114.75,0|0,1:0|3:0,0:0:0:0:
289,89,8476,1,0,1:0:0:0:
362,69,8676,2,0,L|359:47,2,19.125,0|0|0,3:0|3:0|3:0,0:0:0:0:
365,95,8876,6,0,L|485:118,1,114.75,0|0,1:0|3:0,0:0:0:0:
503,124,9276,2,0,L|488:200,1,76.5,0|0,1:0|3:0,0:0:0:0:
442,260,9676,2,0,B|420:232|420:232|285:256,1,153,0|0,1:0|1:0,0:0:0:0:
229,269,10276,1,0,3:0:0:0:
127,215,10476,6,0,L|144:135,1,76.5,0|0,1:0|1:0,0:0:0:0:
248,185,10876,2,0,L|263:110,1,76.5,0|0,1:0|1:0,0:0:0:0:
189,22,11276,5,0,1:0:0:0:
174,26,11376,1,0,1:3:0:0:
159,30,11476,1,0,1:3:0:0:
144,34,11576,1,0,1:3:0:0:
129,38,11676,2,0,L|82:53,4,38.25,0|0|0|0|0,1:3|1:3|1:3|1:3|1:0,0:0:0:0:
512,134,13676,6,0,B|446:141|446:141|432:142|433:157|433:157|434:172|421:173|421:173|347:178,1,183.599994396973,4|8,1:0|1:2,0:0:0:0:
268,185,14276,1,0,0:0:0:0:
308,257,14476,2,0,P|275:316|214:307,1,137.69999579773,8|0,1:2|1:0,0:0:0:0:
203,281,14876,5,8,0:0:0:0:
70,318,15076,2,0,L|25:310,2,45.8999985992432,0|2|8,1:0|0:0|1:2,0:0:0:0:
150,339,15476,2,0,L|165:381,2,45.8999985992432,0|2|8,0:0|0:0|1:2,0:0:0:0:
128,259,15876,2,0,L|156:224,1,45.8999985992432,0|2,0:0|0:0,0:0:0:0:
178,205,16076,2,0,P|216:210|269:199,1,91.7999971984864,8|0,1:2|0:0,0:0:0:0:
295,202,16376,2,0,B|354:210|354:210|367:221|367:221|427:231,1,137.69999579773,2|0,1:2|1:0,0:0:0:0:
496,111,16876,6,0,L|504:58,3,45.8999985992432,8|2|2|2,1:2|0:2|0:2|0:2,0:0:0:0:
507,38,17276,5,8,1:2:0:0:
431,5,17476,1,0,0:0:0:0:
375,66,17676,2,0,P|324:94|271:43,1,137.69999579773,8|0,1:2|1:0,0:0:0:0:
269,19,18076,5,8,0:0:0:0:
144,77,18276,2,0,L|97:65,2,45.8999985992432,0|2|8,1:0|0:0|1:2,0:0:0:0:
193,143,18676,2,0,L|206:189,1,45.8999985992432,0|2,0:0|0:0,0:0:0:0:
216,213,18876,6,0,P|255:232|295:212,1,91.7999971984864,8|0,1:2|0:0,0:0:0:0:
306,187,19176,2,0,L|318:142,1,45.8999985992432,2|8,0:0|1:2,0:0:0:0:
368,77,19476,2,0,L|412:65,1,45.8999985992432,0|2,0:0|0:0,0:0:0:0:
452,55,19676,1,4,1:0:0:0:
512,255,20076,6,0,P|423:262|373:186,1,183.599994396973,2|2,1:3|1:3,0:0:0:0:
277,91,20676,2,0,P|299:155|298:224,1,137.69999579773,2|2,1:3|0:3,0:0:0:0:
280,245,21076,1,2,1:3:0:0:
382,285,21276,2,0,L|370:339,3,42.0750012840271,2|0|2|2,1:3|0:0|0:0|0:0,0:0:0:0:
357,359,21676,6,0,B|274:368|318:313|230:320,1,137.69999579773,2|2,1:3|1:3,0:0:0:0:
208,336,22076,1,2,1:3:0:0:
107,382,22276,2,0,P|131:315|136:249,1,137.69999579773,2|2,1:3|0:3,0:0:0:0:
131,222,22676,2,0,B|66:215|66:215|50:223|50:223|-9:216,2,137.69999579773,2|2|2,1:3|1:3|1:3,0:0:0:0:
319,80,23676,5,2,1:3:0:0:
247,151,23876,2,0,P|320:154|373:190,1,137.69999579773,2|2,1:3|0:3,0:0:0:0:
384,213,24276,1,2,1:3:0:0:
493,202,24476,2,0,L|501:150,3,45.8999985992432,2|0|2|2,1:3|0:0|0:0|0:0,0:0:0:0:
507,115,24876,5,4,2:2:0:0:
225,101,26476,6,0,B|291:96|291:96|305:94|306:109|306:109|308:124|321:123|321:123|395:115,1,183.599994396973,4|8,1:0|1:2,0:0:0:0:
473,101,27076,1,2,0:3:0:0:
502,178,27276,2,0,P|470:232|400:210,1,137.69999579773,8|2,0:2|1:3,0:0:0:0:
392,193,27676,5,8,1:2:0:0:
257,222,27876,2,0,L|266:277,2,45.8999985992432,2|2|8,0:3|0:0|1:2,0:0:0:0:
313,161,28276,2,0,L|356:125,2,45.8999985992432,0|2|8,0:0|0:3|1:2,0:0:0:0:
233,144,28676,6,0,L|180:124,1,45.8999985992432,2|2,0:3|0:0,0:0:0:0:
164,117,28876,2,0,P|115:151|76:160,1,91.7999971984864,8|0,1:2|0:0,0:0:0:0:
56,156,29176,1,2,0:3:0:0:
35,137,29276,2,0,L|45:84,2,45.8999985992432,0|0|2,3:2|0:0|3:2,0:0:0:0:
96,260,29676,6,0,L|102:313,3,45.8999985992432,8|2|2|2,1:2|0:2|0:2|0:3,0:0:0:0:
106,332,30076,5,8,1:2:0:0:
178,293,30276,1,2,0:3:0:0:
245,340,30476,1,8,1:2:0:0:
343,290,30676,2,0,L|394:296,1,45.8999985992432,0|2,0:0|0:3,0:1:0:0:
430,301,30876,1,8,1:2:0:0:
488,207,31076,2,0,L|437:213,1,45.8999985992432,2|0,0:3|3:0,0:1:0:0:
401,218,31276,6,0,B|387:155|387:155|394:139|394:139|379:67,3,153,10|10|10|10,1:2|0:2|0:2|0:2,0:0:0:0:
232,0,32876,6,0,L|221:91,1,76.5,8|0,1:2|0:0,0:0:0:0:
146,126,33276,2,0,L|101:120,1,38.25,8|0,0:0|0:0,0:0:0:0:
81,116,33476,2,0,L|89:198,1,76.5,0|8,1:0|0:0,0:0:0:0:
96,284,33876,2,0,L|53:276,2,38.25,0|0|8,0:0|0:0|1:2,0:0:0:0:
171,298,34276,1,0,0:0:0:0:
215,217,34476,6,0,L|296:204,1,76.5,8|0,1:2|0:0,0:0:0:0:
373,247,34876,2,0,L|382:287,1,38.25,8|0,0:2|0:0,0:0:0:0:
388,310,35076,2,0,L|309:294,1,76.5,0|8,1:0|0:2,0:0:0:0:
235,344,35476,2,0,L|242:390,2,38.25,0|0|8,0:0|0:0|1:2,0:0:0:0:
225,268,35876,1,0,0:0:0:0:
144,223,36076,6,0,L|161:143,1,76.5,8|8,1:2|0:2,0:0:0:0:
110,70,36476,2,0,L|120:34,1,38.25,8|0,0:2|0:0,0:0:0:0:
132,9,36676,2,0,L|211:25,1,76.5,8|8,1:2|0:2,0:0:0:0:
274,86,37076,2,0,L|236:96,2,38.25,8|0|8,0:2|0:0|1:2,0:0:0:0:
346,60,37476,1,8,0:2:0:0:
450,108,37676,5,2,1:2:0:0:
284,14,38076,1,2,0:2:0:0:
190,180,38476,1,2,0:2:0:0:
331,135,39276,5,0,1:0:0:0:
231,87,39676,2,0,P|258:149|255:217,1,137.69999579773,0|0,3:0|0:0,0:0:0:0:
235,254,40076,6,0,P|193:287|147:275,1,91.7999971984864,8|0,1:2|0:0,0:0:0:0:
143,269,40376,1,0,0:0:0:0:
136,251,40476,2,0,P|145:201|178:185,1,91.7999971984864,4|2,1:0|0:3,0:0:0:0:
309,173,40876,6,0,P|323:195|325:216,2,45.8999985992432,8|0|2,0:0|0:0|1:3,0:0:0:0:
369,286,41276,2,0,P|387:300|408:306,2,45.8999985992432,8|0|2,1:2|0:0|0:3,0:0:0:0:
493,320,41676,2,0,B|442:325|442:325|424:343|424:343|356:350,1,137.69999579773,8|0,0:2|0:0,0:0:0:0:
328,371,42076,2,0,P|286:383|247:360,1,91.7999971984864,8|2,1:2|0:3,0:0:0:0:
145,314,42476,6,0,L|90:305,3,45.8999985992432,0|0|0|0,1:0|3:0|3:0|3:0,0:0:0:0:
72,302,42876,2,0,P|47:263|45:218,1,91.7999971984864,0|0,3:0|3:0,0:0:0:0:
90,106,43276,5,8,0:0:0:0:
161,147,43476,1,0,0:0:0:0:
213,83,43676,2,0,L|203:35,2,45.8999985992432,4|0|2,1:0|0:0|0:3,0:0:0:0:
318,115,44076,6,0,P|344:161|324:205,1,91.7999971984864,8|2,0:0|1:3,0:0:0:0:
318,208,44376,1,0,0:0:0:0:
299,213,44476,2,0,P|251:196|240:161,1,91.7999971984864,8|2,1:2|0:3,0:0:0:0:
308,39,44876,2,0,B|363:47|363:47|378:69|378:69|432:78,1,137.69999579773,8|0,0:2|0:0,0:0:0:0:
473,86,45276,2,0,L|487:179,1,91.7999971984864,2|2,3:0|3:0,0:0:0:0:
436,351,46476,6,0,P|457:308|437:267,1,91.7999971984864,8|0,0:0|0:0,0:0:0:0:
422,266,46776,1,0,0:0:0:0:
405,274,46876,1,4,1:0:0:0:
326,350,47076,6,0,B|276:354|276:354|223:358|251:319|208:322|208:322|156:326,1,183.599994396973,2|2,0:3|1:3,0:0:0:0:
86,280,47676,1,2,1:3:0:0:
141,218,47876,2,0,L|134:169,1,45.8999985992432,2|0,0:2|0:0,0:0:0:0:
129,145,48076,6,0,P|180:131|194:89,1,91.7999971984864,8|2,0:0|0:2,0:0:0:0:
182,17,48476,2,0,B|267:25|267:25|276:34|276:34|363:44,2,183.599994396973,2|0|2,1:3|1:0|0:0,0:0:0:0:
99,8,49476,5,2,0:0:0:0:
43,69,49676,2,0,P|32:114|66:154,1,91.7999971984864,8|0,0:0|0:0,0:0:0:0:
74,152,49976,1,0,0:0:0:0:
91,147,50076,1,2,1:3:0:0:
187,93,50276,6,0,B|183:145|183:145|180:188|219:160|215:213|215:213|211:263,1,183.599994396973,0|2,0:0|1:3,0:0:0:0:
235,342,50876,1,2,1:3:0:0:
301,292,51076,2,0,L|349:299,1,45.8999985992432,2|0,0:2|0:0,0:0:0:0:
373,305,51276,6,0,P|423:289|438:250,1,91.7999971984864,8|2,0:0|0:0,0:0:0:0:
510,172,51676,2,0,B|419:166|419:166|409:174|409:174|325:168,1,183.599994396973,2|0,1:3|1:0,0:0:0:0:
329,168,52476,6,0,B|375:125|283:112|241:154,1,137.69999579773,0|0,0:0|0:0,0:0:0:0:
216,183,52876,6,0,P|171:187|132:162,1,91.7999971984864,12|2,1:2|0:3,0:0:0:0:
123,136,53176,2,0,L|132:83,1,45.8999985992432,0|12,0:0|1:2,0:0:0:0:
149,9,53476,1,2,0:3:0:0:
39,76,53676,6,0,P|26:58|23:34,2,45.8999985992432,12|0|2,1:2|0:0|0:3,0:0:0:0:
134,163,54076,2,0,P|157:165|180:161,2,45.8999985992432,12|0|2,1:2|0:0|0:3,0:0:0:0:
9,199,54476,2,0,B|13:240|13:240|10:246|10:246|17:294,1,91.7999971984864,12|2,1:2|0:3,0:0:0:0:
18,307,54776,1,12,1:2:0:0:
20,325,54876,1,0,0:0:0:0:
83,377,55076,1,12,1:2:0:0:
173,314,55276,6,0,L|181:268,7,45.8999985992432,0|0|0|0|2|0|2|2,1:0|0:0|0:0|0:0|3:2|3:0|3:2|3:2,0:0:0:0:
188,228,56076,5,12,1:2:0:0:
265,199,56276,1,2,0:3:0:0:
327,268,56476,1,12,1:2:0:0:
327,268,56576,1,0,0:0:0:0:
327,268,56676,2,0,P|369:278|412:257,1,91.7999971984864,2|12,0:3|1:2,0:0:0:0:
478,345,57076,1,2,0:3:0:0:
478,345,57176,1,0,0:0:0:0:
478,345,57276,2,0,P|507:313|510:265,1,91.7999971984864,12|2,1:2|0:3,0:0:0:0:
455,171,57676,6,0,L|448:122,1,45.8999985992432,12|0,1:2|0:0,0:0:0:0:
442,84,57876,1,2,0:3:0:0:
332,71,58076,2,0,L|326:26,4,45.8999985992432,2|0|2|0|2,3:0|0:0|3:0|0:0|0:0,0:0:0:0:
155,35,59276,6,0,P|108:24|80:63,1,91.7999971984864,12|0,1:2|0:0,0:0:0:0:
78,71,59576,1,0,0:0:0:0:
86,87,59676,1,12,1:2:0:0:
194,107,59876,2,0,B|230:104|230:104|266:101|245:131|285:128|285:128|323:125,1,137.69999579773,2|0,0:3|0:0,0:0:0:0:
362,123,60276,1,0,0:0:0:0:
297,212,60476,1,12,1:2:0:0:
380,284,60676,5,2,0:3:0:0:
380,284,60776,1,0,0:0:0:0:
380,284,60876,2,0,P|429:293|465:268,1,91.7999971984864,12|0,1:2|0:0,0:0:0:0:
487,164,61276,2,0,P|480:118|442:25,1,137.69999579773,12|0,1:2|3:0,0:0:0:0:
420,0,61676,6,0,L|324:9,1,91.7999971984864,12|8,1:2|0:0,0:0:0:0:
248,83,62076,1,12,1:2:0:0:
179,36,62276,1,8,0:2:0:0:
129,102,62476,2,0,P|119:147|146:187,1,91.7999971984864,12|8,1:2|0:0,0:0:0:0:
159,188,62776,1,0,0:0:0:0:
176,183,62876,1,12,1:2:0:0:
291,246,63076,2,0,B|256:243|256:243|218:241|239:271|199:268|199:268|161:265,1,137.69999579773,8|0,0:2|0:0,0:0:0:0:
123,262,63476,5,0,1:0:0:0:
30,347,63676,1,0,1:0:0:0:
0,225,63876,1,0,1:0:0:0:
62,288,64076,1,0,1:0:0:0:
62,288,64176,1,0,1:0:0:0:
62,288,64276,1,0,1:0:0:0:
62,288,64376,1,0,1:0:0:0:
32,98,64876,5,4,1:0:0:0:
256,192,74498,12,0,82423,0:0:0:0:
162,72,82989,6,0,B|152:108|152:108|26:81,2,160.649995097351,12|8|8,1:2|1:2|1:2,0:0:0:0:
280,156,84121,2,0,L|243:0,1,160.649995097351,8|8,1:2|1:2,0:0:0:0:
433,32,84970,1,8,1:2:0:0:
475,64,85111,1,8,1:2:0:0:
437,101,85253,6,0,B|424:159|424:159|435:171|435:171|416:271,2,160.649995097351,8|8|8,1:2|1:2|1:2,0:0:0:0:
298,139,86385,2,0,L|332:310,1,160.649995097351,8|8,1:2|1:2,0:0:0:0:
499,254,87234,2,0,L|505:225,3,26.7749991828919,8|0|0|0,1:2|1:0|1:0|1:0,0:0:0:0:
511,201,87517,5,8,1:2:0:0:
420,90,87800,1,0,1:0:0:0:
453,133,87942,1,8,1:2:0:0:
413,168,88083,2,0,P|354:169|309:133,1,107.099996731567,0|8,1:0|1:2,0:0:0:0:
170,73,88649,6,0,L|102:63,2,53.5499983657837,8|0|0,1:2|1:0|1:0,0:0:0:0:
248,52,89074,2,0,L|281:10,4,53.5499983657837,8|0|0|0|0,1:2|1:0|1:0|1:0|1:0,0:0:0:0:
226,129,89781,5,2,1:0:0:0:
512,99,91479,6,0,L|474:103,1,38.25,10|0,1:3|3:0,0:0:0:0:
403,113,91762,2,0,L|365:117,1,38.25,6|0,1:3|3:0,0:0:0:0:
308,165,92045,6,0,B|216:158|216:158|201:164|201:164|117:158,1,183.6,4|0,1:0|1:0,0:0:0:0:
52,153,92611,2,0,P|11:207|31:257,1,122.4,0|0,0:0|1:2,0:0:0:0:
152,331,93177,6,0,P|182:335|208:350,1,61.2,0|2,1:2|0:1,0:0:0:0:
237,372,93460,2,2,B|318:378|277:342|357:347,1,122.4,0|0,0:1|0:2,0:1:0:0:
426,360,93885,1,2,0:1:0:0:
447,290,94026,1,2,1:3:0:0:
290,183,94309,6,0,P|291:213|302:241,1,61.2,0|2,1:2|0:1,0:0:0:0:
330,265,94592,2,2,B|411:259|370:295|446:290,1,122.4,0|0,0:0|0:0,0:1:0:0:
500,240,95017,1,2,0:1:0:0:
470,172,95159,2,0,P|476:141|459:96,1,61.2,0|2,1:0|0:1,0:0:0:0:
413,64,95442,6,0,P|378:61|346:77,3,61.2,0|2|2|0,1:0|0:1|0:1|1:0,0:0:0:0:
302,123,96008,2,2,P|238:132|201:85,1,122.4,2|2,0:0|1:3,0:1:0:0:
222,22,96432,1,2,0:3:0:0:
130,31,96574,6,0,P|115:138|132:211,1,183.6,0|0,1:0|1:0,0:0:0:0:
156,280,97140,2,0,P|116:333|57:321,1,122.4,0|0,0:0|1:2,0:0:0:0:
9,192,97706,6,0,P|28:168|36:139,1,61.2,0|2,1:0|0:1,0:0:0:0:
34,102,97989,2,2,B|113:97|70:67|148:62,1,122.4,0|0,0:0|0:0,0:1:0:0:
215,85,98413,1,2,0:1:0:0:
250,20,98555,1,2,1:3:0:0:
119,157,98838,5,0,1:0:0:0:
178,199,98979,2,0,P|158:221|125:228,2,61.2,2|2|0,0:1|0:1|1:0,0:0:0:0:
248,177,99404,2,0,P|277:183|296:206,1,61.2,0|2,0:0|0:1,0:0:0:0:
362,239,99687,2,0,P|389:250|419:243,1,61.2,0|2,1:0|0:1,0:0:0:0:
492,233,99970,6,0,B|484:323|484:323|508:355,3,122.4,2|2|2|2,3:0|3:0|3:0|3:0,0:0:0:0:
440,175,101102,5,4,1:0:0:0:
366,272,101385,2,0,P|329:267|302:233,1,61.2,2|2,3:2|3:2,0:0:0:0:
302,216,101668,1,2,1:0:0:0:
183,245,101951,2,0,P|176:208|200:172,1,61.2,2|2,3:2|3:2,0:0:0:0:
217,166,102234,1,2,1:0:0:0:
153,63,102517,2,0,P|185:45|227:56,1,61.2,2|2,3:2|3:2,0:0:0:0:
238,71,102800,2,0,B|290:74|290:74|301:84|301:84|366:86,1,122.4,2|2,1:0|1:0,0:1:0:0:
479,165,103366,5,2,1:3:0:0:
429,54,103649,2,0,P|406:26|369:9,1,61.2,2|2,3:2|3:2,0:0:0:0:
346,11,103932,1,2,1:0:0:0:
373,130,104215,2,0,P|340:143|312:172,1,61.2,2|2,3:2|3:2,0:0:0:0:
306,195,104498,1,2,1:0:0:0:
428,206,104781,2,0,P|430:241|450:276,1,61.2,2|2,3:2|3:2,0:0:0:0:
469,290,105064,2,0,B|413:291|413:291|402:301|402:301|350:304,1,122.4,2|2,1:0|3:1,0:0:0:0:
167,320,105630,5,2,1:3:0:0:
277,265,105913,2,0,P|301:242|305:209,1,61.2,2|2,3:2|3:2,0:0:0:0:
300,179,106196,1,2,1:0:0:0:
421,168,106479,2,0,P|406:138|376:124,1,61.2,2|2,3:2|3:2,0:0:0:0:
346,119,106762,1,2,1:0:0:0:
374,20,107045,2,0,P|341:24|318:48,1,61.2,2|2,3:2|3:2,0:0:0:0:
304,58,107328,2,0,B|248:56|248:56|237:46|237:46|185:43,1,122.4,2|2,1:0|1:0,0:0:0:0:
21,45,107894,5,0,1:0:0:0:
160,127,108177,1,0,1:0:0:0:
20,207,108460,1,0,1:0:0:0:
21,45,108743,1,0,1:0:0:0:
67,126,109026,5,0,1:0:0:0:
312,29,110159,6,0,B|318:117|318:117|313:130|313:130|319:220,1,183.6,4|0,1:0|1:0,0:0:0:0:
267,264,110725,2,0,P|226:210|246:160,1,122.4,8|0,0:2|1:2,0:0:0:0:
388,146,111291,6,0,P|414:161|444:165,1,61.2,0|2,0:2|1:0,0:0:0:0:
481,163,111574,1,2,0:1:0:0:
418,30,111857,2,0,L|505:11,2,81.6,8|8|8,0:0|0:0|0:0,0:0:0:0:
339,88,112423,6,0,P|312:106|280:112,1,61.2,0|2,0:0|0:1,0:0:0:0:
247,114,112706,2,2,B|165:114|209:81|133:80,1,122.4,0|8,0:0|0:0,0:1:0:0:
65,111,113130,1,2,0:1:0:0:
64,184,113272,2,0,P|47:209|18:222,1,61.2,0|2,1:0|0:1,0:0:0:0:
0,293,113555,6,0,P|4:327|24:355,3,61.2,0|2|2|0,0:1|0:1|0:1|0:0,0:0:0:0:
82,383,114121,2,0,P|144:369|164:313,1,122.4,8|2,1:2|0:0,0:0:0:0:
144,248,114545,1,2,0:0:0:0:
235,238,114687,6,0,L|245:171,3,61.2,0|0|2|0,1:0|1:0|0:0|1:0,0:0:0:0:
267,107,115253,2,0,P|313:69|375:82,1,122.4,8|0,0:0|1:2,0:0:0:0:
466,191,115819,6,0,P|457:228|436:243,1,61.2,0|2,0:0|1:0,0:0:0:0:
407,259,116102,1,2,0:1:0:0:
264,225,116385,2,0,L|245:312,2,81.6,8|8|8,0:0|0:0|0:0,0:0:0:0:
326,149,116951,5,0,0:0:0:0:
267,107,117092,2,0,P|287:85|320:78,2,61.2,2|2|0,0:1|0:1|1:0,0:0:0:0:
197,129,117517,2,0,P|168:123|149:100,1,61.2,8|2,0:2|0:1,0:0:0:0:
83,67,117800,2,0,P|56:56|26:63,1,61.2,0|2,1:0|0:1,0:0:0:0:
21,136,118083,2,0,P|48:147|78:140,3,61.2,2|8|2|2,0:0|1:2|0:0|0:0,0:0:0:0:
146,200,118649,5,2,1:3:0:0:
343,116,119215,6,0,B|387:183|387:183|456:143,2,160.649995097351,4|8|8,1:0|0:2|1:2,0:0:0:0:
293,20,120347,1,0,1:0:0:0:
266,67,120489,1,8,0:2:0:0:
219,40,120630,1,8,1:2:0:0:
161,130,120913,1,0,1:0:0:0:
174,181,121055,2,0,B|183:234|183:234|129:253,1,107.099996731567,8|8,0:2|0:2,0:0:0:0:
82,268,121479,6,0,B|140:273|140:273|171:314|171:314|224:320,2,160.649995097351,8|8|8,1:2|0:2|1:2,0:0:0:0:
30,173,122611,1,0,1:0:0:0:
50,123,122753,1,8,0:2:0:0:
70,73,122894,1,8,1:2:0:0:
173,46,123177,5,0,1:0:0:0:
213,80,123319,2,0,B|255:73|255:73|267:47|267:47|303:40,1,107.099996731567,8|8,0:0|0:2,0:0:0:0:
354,31,123743,6,0,L|514:71,2,160.649995097351,8|8|8,1:2|1:2|1:2,0:0:0:0:
295,121,124876,1,0,1:2:0:0:
277,171,125017,1,8,1:2:0:0:
330,162,125159,1,8,1:2:0:0:
415,227,125442,1,0,1:0:0:0:
363,241,125583,2,0,L|238:263,1,107.099996731567,8|8,1:2|1:2,0:0:0:0:
203,261,126008,6,0,B|173:243|173:243|219:124,2,160.649995097351,8|8|8,1:2|1:2|1:2,0:0:0:0:
292,320,127140,1,0,1:0:0:0:
344,310,127281,1,8,1:2:0:0:
354,362,127423,1,8,1:2:0:0:
460,367,127706,1,0,1:0:0:0:
500,332,127847,2,0,B|513:318|513:318|462:232,1,107.099996731567,8|8,1:2|1:2,0:0:0:0:
482,190,128272,5,4,1:2:0:0:
