osu file format v14

[General]
AudioFilename: audio.mp3
AudioLeadIn: 0
PreviewTime: 92045
Countdown: 0
SampleSet: Soft
StackLeniency: 0
Mode: 0
LetterboxInBreaks: 0
WidescreenStoryboard: 1

[Editor]
Bookmarks: 13676,39276,82989,110159,128272
DistanceSpacing: 1
BeatDivisor: 4
GridSize: 16
TimelineZoom: 5.399996

[Metadata]
Title:BREAK OVER
TitleUnicode:BREAK OVER
Artist:Masayoshi Iimori
ArtistUnicode:Masayoshi Iimori
Creator:-PC
Version:Another
Source:beatmania IIDX 24 SINOBUZ
Tags:festival sound bemani konami
BeatmapID:1923476
BeatmapSetID:921088

[Difficulty]
HPDrainRate:5
CircleSize:5
OverallDifficulty:8
ApproachRate:9.5
SliderMultiplier:2.1
SliderTickRate:1

[Events]
//Background and Video events
0,0,"breakover.png",0,0
//Break Periods
2,65076,73973
//Storyboard Layer 0 (Background)
//Storyboard Layer 1 (Fail)
//Storyboard Layer 2 (Pass)
//Storyboard Layer 3 (Foreground)
//Storyboard Sound Samples

[TimingPoints]
876,400,4,2,1,75,1,0
7276,-83.3333333333333,4,2,1,75,0,0
13276,-500,4,2,1,40,0,0
13576,-500,4,2,1,5,0,0
13676,-50,4,2,1,90,0,1
14076,-166.666666666667,4,2,1,90,0,1
14476,-125,4,2,1,90,0,1
14876,-250,4,2,1,90,0,1
15026,-250,4,2,1,5,0,1
15076,-250,4,2,1,90,0,1
15426,-250,4,2,1,5,0,1
15476,-250,4,2,1,90,0,1
15826,-250,4,2,1,5,0,1
15876,-250,4,2,1,90,0,1
16226,-250,4,2,1,5,0,1
16276,-250,4,2,1,90,0,1
16476,-125,4,2,1,90,0,1
17276,-166.666666666667,4,2,1,90,0,1
17676,-125,4,2,1,90,0,1
18076,-250,4,2,1,90,0,1
18226,-250,4,2,1,5,0,1
18276,-250,4,2,1,90,0,1
18626,-250,4,2,1,5,0,1
18676,-250,4,2,1,90,0,1
19026,-250,4,2,1,5,0,1
19076,-250,4,2,1,90,0,1
19426,-250,4,2,1,5,0,1
19476,-250,4,2,1,90,0,1
19676,-250,4,2,1,90,0,0
20076,-55.5555555555556,4,2,1,90,0,1
20476,-125,4,2,1,90,0,1
20976,-333.333333333333,4,2,1,90,0,1
21076,-125,4,2,1,90,0,1
21676,-55.5555555555556,4,2,1,90,0,1
22076,-125,4,2,1,90,0,1
22576,-333.333333333333,4,2,1,90,0,1
22676,-125,4,2,1,90,0,1
23276,-55.5555555555556,4,2,1,90,0,1
23676,-125,4,2,1,90,0,1
24176,-333.333333333333,4,2,1,90,0,1
24276,-125,4,2,1,90,0,1
24876,-333.333333333333,4,2,1,90,0,0
24926,-333.333333333333,4,2,1,50,0,0
25276,-333.333333333333,4,2,1,90,0,0
25326,-333.333333333333,4,2,1,50,0,0
25676,-333.333333333333,4,2,1,90,0,0
25726,-333.333333333333,4,2,1,50,0,0
26076,-333.333333333333,4,2,1,90,0,0
26126,-333.333333333333,4,2,1,50,0,0
26476,-50,4,2,1,90,0,1
26876,-166.666666666667,4,2,1,90,0,1
27276,-125,4,2,1,90,0,1
27676,-250,4,2,1,90,0,1
27826,-250,4,2,1,5,0,1
27876,-250,4,2,1,90,0,1
28226,-250,4,2,1,5,0,1
28276,-250,4,2,1,90,0,1
28626,-250,4,2,1,5,0,1
28676,-250,4,2,1,90,0,1
29026,-250,4,2,1,5,0,1
29076,-250,4,2,1,90,0,1
30076,-166.666666666667,4,2,1,90,0,1
30476,-250,4,2,1,90,0,1
30626,-250,4,2,1,5,0,1
30676,-250,4,2,1,90,0,1
31026,-250,4,2,1,5,0,1
31076,-250,4,2,1,90,0,1
31276,-250,4,2,1,90,0,0
32676,-83.3333333333333,4,2,1,90,0,0
38876,-250,4,2,1,90,0,0
38926,-250,4,2,1,50,0,0
39276,-250,4,2,1,90,0,0
39676,-125,4,2,1,90,0,0
40276,-83.3333333333333,4,2,1,90,0,0
40476,-83.3333333333333,4,2,1,90,0,1
40876,-66.6666666666667,4,2,1,90,0,0
41276,-58.8235294117647,4,2,1,90,0,0
42076,-55.5555555555556,4,2,1,90,0,0
42476,-125,4,2,1,90,0,0
43276,-83.3333333333333,4,2,1,90,0,0
43676,-66.6666666666667,4,2,1,90,0,0
44276,-58.8235294117647,4,2,1,90,0,0
45276,-250,4,2,1,90,0,0
45326,-250,4,2,1,50,0,0
45476,-250,4,2,1,90,0,0
45526,-250,4,2,1,50,0,0
45676,-250,4,2,1,90,0,0
46476,-58.8235294117647,4,2,1,90,0,0
46876,-66.6666666666667,4,2,1,90,0,0
47876,-83.3333333333333,4,2,1,90,0,0
48776,-125,4,2,1,5,0,0
48876,-125,4,2,1,90,0,0
49176,-250,4,2,1,5,0,0
49276,-66.6666666666667,4,2,1,90,0,0
49676,-58.8235294117647,4,2,1,90,0,0
50076,-66.6666666666667,4,2,1,90,0,0
51076,-83.3333333333333,4,2,1,90,0,0
51976,-83.3333333333333,4,2,1,5,0,0
52076,-83.3333333333333,4,2,1,90,0,0
52476,-50,4,2,1,90,0,0
52776,-50,4,2,1,5,0,0
52876,-83.3333333333333,4,2,1,90,0,1
53676,-66.6666666666667,4,2,1,90,0,1
54076,-58.8235294117647,4,2,1,90,0,1
54676,-55.5555555555556,4,2,1,90,0,1
55276,-125,4,2,1,90,0,0
56076,-83.3333333333333,4,2,1,90,0,1
56476,-66.6666666666667,4,2,1,90,0,1
57076,-58.8235294117647,4,2,1,90,0,1
58076,-333.333333333333,4,2,1,90,0,0
58176,-333.333333333333,4,2,1,50,0,0
58276,-333.333333333333,4,2,1,90,0,0
58376,-333.333333333333,4,2,1,50,0,0
58476,-333.333333333333,4,2,1,90,0,0
59276,-58.8235294117647,4,2,1,90,0,1
59676,-66.6666666666667,4,2,1,90,0,1
59876,-58.8235294117647,4,2,1,90,0,1
60276,-66.6666666666667,4,2,1,90,0,1
60876,-83.3333333333333,4,2,1,90,0,1
61276,-58.8235294117647,4,2,1,90,0,1
62876,-66.6666666666667,4,2,1,90,0,1
63076,-58.8235294117647,4,2,1,90,0,1
64376,-58.8235294117647,4,2,1,90,0,0
64876,566.037735849057,4,2,1,80,1,0
74498,-100,4,2,1,40,0,0
82423,-100,4,2,1,5,0,0
82989,-71.4285714285714,4,2,1,75,0,0
89781,-166.666666666667,4,2,1,80,0,0
91479,-166.666666666667,4,2,1,90,0,0
92045,-41.6666666666667,4,2,1,90,0,1
92399,-41.6666666666667,4,2,1,5,0,1
92470,-41.6666666666667,4,2,1,90,0,1
92611,-50,4,2,1,90,0,1
92894,-62.5,4,2,1,90,0,1
93107,-62.5,4,2,1,5,0,1
93177,-100,4,2,1,90,0,1
94239,-100,4,2,1,5,0,1
94309,-100,4,2,1,90,0,1
96008,-50,4,2,1,90,0,1
96220,-50,4,2,1,5,0,1
96291,-62.5,4,2,1,90,0,1
96361,-62.5,4,2,1,5,0,1
96432,-62.5,4,2,1,90,0,1
96503,-62.5,4,2,1,5,0,1
96574,-50,4,2,1,90,0,1
97423,-62.5,4,2,1,90,0,1
97635,-62.5,4,2,1,5,0,1
97706,-100,4,2,1,90,0,1
98767,-100,4,2,1,5,0,1
98838,-100,4,2,1,90,0,1
99970,-125,4,2,1,90,0,0
100041,-125,4,2,1,50,0,0
100253,-125,4,2,1,90,0,0
100324,-125,4,2,1,50,0,0
100536,-125,4,2,1,90,0,0
100607,-125,4,2,1,50,0,0
100819,-125,4,2,1,90,0,0
100890,-125,4,2,1,50,0,0
101102,-62.5,4,2,1,90,0,1
101314,-62.5,4,2,1,5,0,1
101385,-83.3333333333333,4,2,1,90,0,1
101880,-83.3333333333333,4,2,1,5,0,1
101951,-83.3333333333333,4,2,1,90,0,1
102446,-83.3333333333333,4,2,1,5,0,1
102517,-83.3333333333333,4,2,1,90,0,1
102800,-50,4,2,1,90,0,1
103366,-62.5,4,2,1,90,0,1
103578,-62.5,4,2,1,5,0,1
103649,-83.3333333333333,4,2,1,90,0,1
104144,-83.3333333333333,4,2,1,5,0,1
104215,-83.3333333333333,4,2,1,90,0,1
104710,-83.3333333333333,4,2,1,5,0,1
104781,-83.3333333333333,4,2,1,90,0,1
105135,-83.3333333333333,4,2,1,5,0,1
105206,-83.3333333333333,4,2,1,90,0,1
105276,-83.3333333333333,4,2,1,5,0,1
105347,-83.3333333333333,4,2,1,90,0,1
105418,-83.3333333333333,4,2,1,5,0,1
105489,-83.3333333333333,4,2,1,90,0,1
105559,-83.3333333333333,4,2,1,5,0,1
105630,-62.5,4,2,1,90,0,1
105842,-62.5,4,2,1,5,0,1
105913,-83.3333333333333,4,2,1,90,0,1
106409,-83.3333333333333,4,2,1,5,0,1
106479,-83.3333333333333,4,2,1,90,0,1
106975,-83.3333333333333,4,2,1,5,0,1
107045,-83.3333333333333,4,2,1,90,0,1
107328,-50,4,2,1,90,0,1
109026,-50,4,2,1,90,0,0
109876,-370.37037037037,4,2,1,90,0,0
110088,-370.37037037037,4,2,1,5,0,0
110159,-41.6666666666667,4,2,1,90,0,1
110512,-41.6666666666667,4,2,1,5,0,1
110583,-50,4,2,1,90,0,1
111008,-62.5,4,2,1,90,0,1
111220,-62.5,4,2,1,5,0,1
111291,-100,4,2,1,90,0,1
111857,-50,4,2,1,90,0,1
112423,-100,4,2,1,90,0,1
114475,-100,4,2,1,5,0,1
114545,-100,4,2,1,90,0,1
114616,-100,4,2,1,5,0,1
114687,-50,4,2,1,90,0,1
115536,-62.5,4,2,1,90,0,1
115748,-62.5,4,2,1,5,0,1
115819,-100,4,2,1,90,0,1
116385,-50,4,2,1,90,0,1
116951,-100,4,2,1,90,0,1
118649,-100,4,2,1,90,0,0
119215,-62.5,4,2,1,90,0,0

[Colours]
Combo1 : 0,232,156
Combo2 : 133,234,21
Combo3 : 10,102,205
Combo4 : 204,36,79

[HitObjects]
476,66,876,6,0,B|352:86|352:86|360:126,1,157.5,4|0,1:2|3:0,0:0:0:0:
396,193,1276,2,0,L|285:176,1,105,0|0,1:3|3:0,0:0:0:0:
229,53,1676,6,0,L|71:91,1,157.5,0|0,1:3|3:0,0:0:0:0:
0,114,2076,1,0,1:3:0:0:
139,190,2276,2,0,L|142:161,3,26.25,0|0|0|0,3:0|3:0|3:0|3:0,0:0:0:0:
204,119,2476,6,0,B|223:243|223:243|268:234,1,157.5,0|0,1:3|3:0,0:0:0:0:
394,183,2876,2,0,L|290:170,1,105,0|0,1:3|3:0,0:0:0:0:
156,265,3276,1,0,1:0:0:0:
156,265,3376,1,0,3:0:0:0:
340,322,3576,1,0,3:0:0:0:
340,322,3676,1,0,1:0:0:0:
468,198,3876,1,0,3:0:0:0:
476,66,4076,6,0,B|352:86|352:86|360:126,1,157.5,0|0,1:2|3:0,0:0:0:0:
396,193,4476,2,0,L|285:176,1,105,0|0,1:3|3:0,0:0:0:0:
229,53,4876,6,0,L|71:91,1,157.5,0|0,1:3|3:0,0:0:0:0:
0,114,5276,1,0,1:3:0:0:
139,190,5476,2,0,L|142:161,3,26.25,0|0|0|0,3:0|3:0|3:0|3:0,0:0:0:0:
204,119,5676,6,0,B|223:243|223:243|268:234,1,157.5,0|0,1:3|3:0,0:0:0:0:
394,183,6076,2,0,L|290:170,1,105,0|0,1:3|3:0,0:0:0:0:
156,265,6476,1,0,1:0:0:0:
156,265,6576,1,0,3:0:0:0:
340,322,6776,1,0,3:0:0:0:
476,66,7076,5,0,3:0:0:0:
292,175,7276,6,0,B|346:182|346:182|356:192|356:192|420:200,1,125.999996154785,4|0,1:2|3:0,0:0:0:0:
477,233,7576,1,0,3:0:0:0:
477,233,7676,2,0,L|483:302,1,62.9999980773926,0|0,1:0|0:0,0:0:0:0:
469,154,7876,2,0,L|463:91,1,62.9999980773926,0|0,3:0|0:0,0:0:0:0:
365,12,8076,6,0,B|332:67|332:67|271:52,1,125.999996154785,0|0,1:0|3:0,0:0:0:0:
208,65,8376,1,0,3:0:0:0:
208,65,8476,2,0,L|136:48,1,62.9999980773926,0|0,1:0|0:0,0:0:0:0:
257,118,8676,2,0,L|262:150,3,31.4999990386963,0|0|0|0,3:0|3:0|3:0|3:0,0:0:0:0:
151,132,8876,6,0,B|53:150|53:150|61:185,1,125.999996154785,0|0,1:0|3:0,0:0:0:0:
81,255,9176,1,0,3:0:0:0:
81,255,9276,2,0,L|10:243,1,62.9999980773926,0|0,1:0|0:0,0:0:0:0:
158,271,9476,2,0,L|220:281,1,62.9999980773926,0|0,3:0|0:0,0:0:0:0:
314,374,9676,5,0,1:0:0:0:
373,342,9776,2,0,L|334:215,1,125.999996154785,0|0,3:0|3:2,0:0:0:0:
386,168,10076,2,0,L|448:182,1,62.9999980773926,0|0,1:0|0:0,0:0:0:0:
315,150,10276,2,0,L|253:136,1,62.9999980773926,0|0,3:0|0:0,0:0:0:0:
164,299,10476,6,0,P|189:280|220:281,1,62.9999980773926,0|0,1:0|0:0,0:0:0:0:
314,374,10676,2,0,P|288:355|257:356,1,62.9999980773926,0|0,1:0|3:0,0:0:0:0:
105,343,10876,2,0,P|89:319|94:280,1,62.9999980773926,0|0,1:0|0:0,0:0:0:0:
274,234,11076,2,0,P|290:258|285:297,1,62.9999980773926,0|0,1:0|0:0,0:0:0:0:
168,383,11276,5,0,1:0:0:0:
186,342,11376,1,0,1:3:0:0:
164,299,11476,1,0,1:3:0:0:
191,255,11576,1,0,1:3:0:0:
167,207,11676,1,0,1:3:0:0:
204,166,11776,1,0,1:3:0:0:
178,114,11876,1,0,1:3:0:0:
222,66,11976,1,0,1:3:0:0:
193,5,12076,5,0,1:0:0:0:
114,203,13276,6,0,L|111:240,1,31.5
22,299,13676,6,2,B|77:293|77:293|96:302|96:302|176:293|176:293|199:290|202:315|202:315|204:338|229:334|229:334|311:324,1,315,4|0,1:0|0:0,0:2:0:0:
466,292,14076,6,0,P|480:297|490:286,1,31.4999990386963,8|0,1:2|0:0,0:0:0:0:
478,223,14276,2,0,P|464:218|454:229,1,31.4999990386963
378,357,14476,6,0,B|385:299|385:299|382:295|382:295|390:229,1,126,8|0,1:2|1:0,0:1:0:0:
421,149,14876,6,2,L|424:115,1,31.5,8|0,0:0|0:0,0:1:0:0:
430,106,15076,1,0,1:0:0:0:
457,214,15176,1,2,0:0:0:0:
357,174,15276,2,2,L|330:152,1,31.5,8|0,1:2|0:0,0:1:0:0:
321,150,15476,1,0,0:0:0:0:
377,246,15576,1,2,0:0:0:0:
457,214,15676,6,2,L|472:182,1,31.5,8|0,1:2|0:0,0:1:0:0:
479,177,15876,1,0,0:0:0:0:
498,268,15976,1,2,0:0:0:0:
377,246,16076,2,2,L|344:234,1,31.5,8|0,1:2|0:0,0:1:0:0:
335,235,16276,1,0,0:0:0:0:
385,314,16376,1,2,1:2:0:0:
398,184,16476,6,2,L|378:138,2,42,8|0|0,0:0|2:0|1:0,0:1:0:0:
436,278,16776,1,2,0:0:0:0:
270,188,16876,5,8,1:2:0:0:
270,188,16976,1,2,0:2:0:0:
270,188,17076,1,2,0:2:0:0:
270,188,17176,1,2,0:2:0:0:
117,228,17276,6,0,P|112:242|123:252,1,31.4999990386963,8|0,1:2|0:0,0:0:0:0:
185,235,17476,2,0,P|190:221|179:211,1,31.4999990386963
77,139,17676,6,0,B|135:146|135:146|139:143|139:143|205:151,1,126,8|0,1:2|1:0,0:0:0:0:
290,117,18076,6,2,L|316:95,1,31.5,8|0,0:0|0:0,0:1:0:0:
326,92,18276,1,0,1:0:0:0:
269,188,18376,1,2,0:0:0:0:
190,156,18476,2,2,L|174:124,1,31.5,8|0,1:2|0:0,0:1:0:0:
168,119,18676,1,0,0:0:0:0:
149,211,18776,1,2,0:0:0:0:
262,256,18876,6,2,L|296:255,1,31.5,8|0,1:2|0:0,0:1:0:0:
305,260,19076,1,0,0:0:0:0:
274,329,19176,1,2,0:0:0:0:
149,211,19276,2,2,L|123:186,1,31.5,8|0,1:2|0:0,0:1:0:0:
116,183,19476,1,0,0:0:0:0:
90,255,19576,1,2,0:0:0:0:
214,214,19676,5,4,1:0:0:0:
512,298,20076,6,0,P|447:370|354:373,1,188.999994232178,2|0,1:3|0:0,0:0:0:0:
231,277,20376,1,0,0:0:0:0:
161,276,20476,6,0,P|166:301|165:329,1,42,2|0,1:3|0:0,0:0:0:0:
33,348,20676,2,0,P|23:329|18:308,1,42,2|0,1:3|0:0,0:0:0:0:
45,240,20976,6,0,L|40:252,1,7.87499975967408,2|0,0:3|0:0,0:0:0:0:
18,309,21076,2,0,P|23:330|33:349,1,42,2|0,1:3|0:0,0:0:0:0:
166,317,21276,2,0,P|165:296|161:276,1,42,2|0,1:3|0:0,0:0:0:0:
243,204,21476,1,2,0:0:0:0:
231,277,21576,1,2,0:0:0:0:
336,212,21676,6,0,B|320:111|425:170|405:53,1,188.999994232178,2|0,1:3|0:0,0:0:0:0:
240,37,21976,1,2,1:3:0:0:
203,112,22076,6,0,L|256:104,1,42,2|0,1:3|0:0,0:0:0:0:
72,124,22276,2,0,L|19:132,1,42,2|0,1:3|0:0,0:0:0:0:
5,62,22576,6,0,L|9:75,1,7.87499975967408,2|0,0:3|0:0,0:0:0:0:
30,130,22676,2,0,L|83:122,1,42,2|0,1:3|0:0,0:0:0:0:
244,106,22876,5,2,0:2:0:0:
203,112,22976,1,2,1:3:0:0:
244,106,23076,1,2,0:0:0:0:
203,112,23176,1,2,0:0:0:0:
314,79,23276,6,0,B|460:105|460:105|486:197|486:197|443:189,1,283.499991348267,2|0,1:3|0:0,0:0:0:0:
366,166,23676,6,0,B|376:187|376:187|370:214,1,42,2|0,1:3|0:0,0:0:0:0:
233,235,23876,2,0,B|223:214|223:214|229:187,1,42,2|0,1:3|0:0,0:0:0:0:
246,124,24176,6,0,L|243:136,1,7.87499975967408,2|0,0:3|0:0,0:0:0:0:
227,196,24276,2,0,B|223:215|223:215|233:236,1,42,2|0,1:3|0:0,0:0:0:0:
371,205,24477,2,0,B|376:187|376:187|366:166,1,42,2|0,1:3|0:0,0:0:0:0:
319,112,24676,1,2,0:0:0:0:
447,189,24776,1,2,0:0:0:0:
407,300,24876,6,0,L|409:307,3,7.87499975967408,4|0|0|0,2:2|3:0|3:0|3:0,3:0:0:0:
350,269,25276,2,0,L|348:277,3,7.87499975967408,2|0|0|0,2:3|3:0|3:0|3:0,3:0:0:0:
114,214,25676,6,0,L|116:206,3,7.87499975967408,2|0|0|0,2:3|3:0|3:0|3:0,3:0:0:0:
57,245,26076,2,0,L|55:238,3,7.87499975967408,2|0|0|0,2:3|3:0|3:0|3:0,3:0:0:0:
212,364,26476,6,2,B|206:294|206:294|204:267|233:265|233:265|262:263|262:263|290:261|287:235|287:235|281:175|281:175|270:158|270:158|266:110,1,315,4|2,1:0|0:3,0:2:0:0:
419,48,26876,6,0,P|424:34|413:24,1,31.4999990386963,8|0,1:2|0:0,0:0:0:0:
350,37,27076,2,0,P|345:51|356:61,1,31.4999990386963,2|0,0:3|0:0,0:0:0:0:
459,137,27276,6,0,B|401:130|401:130|397:133|397:133|331:125,1,126,8|2,0:2|1:3,0:1:0:0:
257,60,27676,6,2,L|253:26,1,31.5,8|0,1:2|0:0,0:1:0:0:
247,17,27876,1,2,0:3:0:0:
220,125,27976,1,2,0:0:0:0:
320,85,28076,2,2,L|346:63,1,31.5,8|0,1:2|0:0,0:1:0:0:
356,61,28276,1,0,0:0:0:0:
300,157,28376,1,2,0:3:0:0:
220,125,28476,6,2,L|204:93,1,31.5,8|0,1:2|0:0,0:1:0:0:
198,88,28676,1,2,0:3:0:0:
179,179,28776,1,2,0:0:0:0:
300,157,28876,2,2,L|332:145,1,31.5,8|0,1:2|0:0,0:1:0:0:
342,146,29076,1,0,0:0:0:0:
292,225,29176,1,2,0:3:0:0:
179,179,29276,6,0,L|148:188,1,21,0|0,3:2|0:0,0:0:0:0:
64,211,29476,2,0,L|85:205,1,21,2|0,3:2|0:2,0:2:0:0:
221,244,29676,5,8,1:2:0:0:
221,244,29776,1,2,0:2:0:0:
221,244,29876,1,2,0:2:0:0:
221,244,29976,1,2,0:3:0:0:
98,282,30076,6,0,P|87:292|92:307,1,31.4999990386963,8|0,1:2|0:0,0:0:0:0:
154,319,30276,2,0,P|165:309|160:294,1,31.4999990386963,2|0,0:3|0:0,0:0:0:0:
74,210,30476,6,2,L|42:208,1,31.5,8|0,1:2|0:0,0:1:0:0:
33,214,30676,1,0,0:0:0:0:
98,282,30776,1,2,0:3:0:0:
221,244,30876,2,2,L|253:251,1,31.5,8|0,1:2|0:0,0:1:0:0:
258,258,31076,1,2,0:3:0:0:
160,294,31176,1,0,3:0:0:0:
43,209,31276,5,10,1:2:0:0:
38,160,31376,1,0,0:0:0:0:
33,114,31476,1,2,0:0:0:0:
232,244,31676,5,10,0:2:0:0:
196,269,31776,1,0,0:0:0:0:
160,294,31876,1,2,0:2:0:0:
156,158,32076,5,10,0:2:0:0:
179,24,32276,1,2,0:2:0:0:
209,38,32376,1,0,0:0:0:0:
239,52,32476,1,10,0:2:0:0:
340,119,32676,6,0,L|396:91,1,62.9999980773926
492,44,32876,5,8,1:2:0:0:
415,159,33076,1,0,0:0:0:0:
478,190,33276,1,8,0:0:0:0:
478,190,33376,1,0,0:0:0:0:
345,268,33476,5,0,1:0:0:0:
443,256,33676,1,8,0:0:0:0:
455,354,33876,1,0,0:0:0:0:
455,354,33976,1,0,0:0:0:0:
278,289,34076,5,8,1:2:0:0:
324,193,34276,1,0,0:0:0:0:
332,352,34476,5,8,1:2:0:0:
167,325,34676,1,0,0:0:0:0:
125,384,34876,1,8,0:2:0:0:
125,384,34976,1,0,0:0:0:0:
41,211,35076,5,0,1:0:0:0:
145,254,35276,1,8,0:2:0:0:
189,150,35476,1,0,0:0:0:0:
189,150,35576,1,0,0:0:0:0:
263,296,35676,5,8,1:2:0:0:
258,126,35876,1,0,0:0:0:0:
194,310,36076,5,8,1:2:0:0:
415,241,36276,1,8,0:2:0:0:
398,159,36476,1,8,0:2:0:0:
398,159,36576,1,0,0:0:0:0:
483,287,36676,5,8,1:2:0:0:
505,114,36876,1,8,0:2:0:0:
332,92,37076,1,8,0:2:0:0:
332,92,37176,1,0,0:0:0:0:
512,35,37276,5,8,1:2:0:0:
302,167,37476,1,8,0:2:0:0:
92,1,37676,5,2,1:2:0:0:
92,1,38076,1,2,0:2:0:0:
92,1,38476,1,2,0:2:0:0:
57,60,38876,6,0,L|42:58,2,10.5,2|2|2,3:0|0:0|0:0,0:0:0:0:
168,81,39076,1,2,0:0:0:0:
168,81,39176,1,2,0:0:0:0:
13,141,39276,5,0,1:0:0:0:
13,141,39676,5,0,3:0:0:0:
56,185,39776,1,0,3:0:0:0:
122,174,39876,2,0,P|148:156|154:138,1,42,2|0,3:2|0:0,0:0:0:0:
126,23,40076,1,8,1:2:0:0:
219,140,40276,5,0,0:0:0:0:
273,88,40376,1,0,0:0:0:0:
344,113,40476,2,0,P|371:130|376:174,1,62.9999980773926,4|0,1:0|0:0,0:0:0:0:
325,208,40676,2,0,P|298:191|293:147,1,62.9999980773926,2|0,0:3|0:0,0:0:0:0:
427,40,40876,5,8,0:0:0:0:
495,113,40976,1,0,0:0:0:0:
490,213,41076,2,0,P|471:255|425:273,1,78.7500030040742,2|0,1:3|0:0,0:0:0:0:
320,286,41276,5,8,1:2:0:0:
228,207,41376,1,0,0:0:0:0:
112,243,41476,2,0,P|92:284|107:331,1,89.2500017023087,2|0,0:3|0:0,0:0:0:0:
236,353,41676,2,0,P|255:311|240:264,1,89.2500017023087,8|0,0:2|0:0,0:0:0:0:
108,130,41876,5,2,0:3:0:0:
103,131,41942,1,0,0:0:0:0:
98,132,42009,1,0,0:0:0:0:
93,133,42076,2,0,L|0:146,1,94.499997116089,8|0,1:2|0:0,0:0:0:0:
217,107,42276,2,0,L|310:93,1,94.499997116089,2|0,0:3|0:0,0:0:0:0:
492,230,42476,6,0,L|500:194,2,21,0|0|0,1:0|0:0|3:0,0:0:0:0:
472,297,42676,1,0,3:0:0:0:
398,252,42776,1,0,3:0:0:0:
322,295,42876,2,2,P|305:307|299:327,1,42,0|0,3:0|0:0,0:1:0:0:
380,363,43076,2,2,P|387:343|383:323,1,42,0|0,3:0|0:0,0:1:0:0:
135,355,43276,6,0,P|109:337|99:307,1,62.9999980773926,8|0,0:0|0:0,0:0:0:0:
154,265,43474,2,0,P|179:282|189:312,1,62.9999980773926,0|0,0:3|0:0,0:0:0:0:
0,171,43676,5,4,1:0:0:0:
77,106,43776,1,0,0:0:0:0:
172,139,43876,2,0,P|195:175|184:220,1,78.7500030040742,2|0,0:3|0:0,0:0:0:0:
89,242,44076,2,0,P|65:205|76:160,1,78.7500030040742,8|0,0:0|0:0,0:0:0:0:
165,67,44276,5,2,1:3:0:0:
286,65,44376,1,0,0:0:0:0:
359,162,44476,2,0,P|355:207|329:241,1,89.2500017023087,8|0,1:2|0:0,0:0:0:0:
202,189,44676,2,0,P|204:142|230:108,1,89.2500017023087,2|0,0:3|0:0,0:0:0:0:
414,58,44876,1,8,0:2:0:0:
419,59,44942,1,0,0:0:0:0:
424,60,45009,1,0,0:0:0:0:
429,61,45076,1,2,0:3:0:0:
209,33,45276,6,0,L|194:31,2,10.5,2|0|0,3:0|0:0|0:0,0:0:0:0:
149,75,45476,2,0,L|138:76,2,10.5,2|0|0,3:0|0:0|0:0,0:0:0:0:
10,14,45676,5,0,0:0:0:0:
10,14,45876,1,0,0:0:0:0:
10,14,46076,1,0,0:0:0:0:
6,222,46476,6,0,B|40:216|40:216|105:206|77:259|138:250|138:250|172:244,1,178.500003404617,8|0,0:0|0:0,0:0:0:0:
194,240,46742,1,0,0:0:0:0:
214,251,46809,1,0,0:0:0:0:
226,271,46876,6,0,P|259:272|282:237,1,78.7500030040742,4|0,1:0|0:0,0:0:0:0:
439,169,47076,2,0,B|325:155|325:155|310:170|310:170|200:154,1,236.250009012223,2|0,0:3|0:0,0:0:0:0:
133,93,47476,6,0,P|114:69|116:22,1,78.7500030040742,2|0,1:3|0:0,0:0:0:0:
229,4,47676,2,0,P|247:27|245:74,1,78.7500030040742,2|0,1:3|0:0,0:0:0:0:
57,169,47876,5,2,0:2:0:0:
52,168,47942,1,0,0:0:0:0:
47,167,48009,1,0,0:0:0:0:
42,166,48076,2,0,P|17:183|9:217,1,62.9999980773926,8|0,0:0|0:0,0:0:0:0:
136,351,48276,2,0,P|111:334|103:300,1,62.9999980773926,2|0,0:2|0:0,0:0:0:0:
234,218,48476,6,0,B|311:225|311:225|321:226|320:235|320:235|319:244|328:245|328:245|411:252,1,188.999994232178,2|0,1:3|0:0,0:0:0:0:
510,229,48876,6,0,P|489:212|417:262,1,126,0|0,1:0|0:0,0:0:0:0:
459,307,49276,6,0,P|457:350|423:377,1,78.7500030040742,2|0,0:0|0:0,0:0:0:0:
297,309,49476,2,0,P|298:265|332:238,1,78.7500030040742,2|0,0:0|0:0,0:0:0:0:
469,141,49676,6,0,B|436:145|436:145|375:154|403:101|338:111|338:111|304:117,1,178.500003404617,8|0,0:0|0:0,0:0:0:0:
280,123,49942,1,0,0:0:0:0:
266,142,50009,1,0,0:0:0:0:
269,169,50076,6,0,P|259:209|227:225,1,78.7500030040742,2|0,1:3|0:0,0:0:0:0:
175,349,50276,2,0,B|171:276|171:276|155:257|155:257|145:119,1,236.250009012223
92,68,50676,6,0,P|89:38|116:0,1,78.7500030040742,2|0,1:3|0:0,0:0:0:0:
237,60,50876,2,0,P|239:89|212:128,1,78.7500030040742,2|0,1:3|0:0,0:0:0:0:
50,126,51076,5,2,0:2:0:0:
45,125,51142,1,0,0:0:0:0:
40,124,51209,1,0,0:0:0:0:
35,123,51276,2,0,P|9:103|11:73,1,62.9999980773926,8|0,0:0|0:0,0:0:0:0:
125,175,51476,2,0,P|100:192|99:223,1,62.9999980773926,2|0,0:0|0:0,0:0:0:0:
275,259,51676,6,0,B|198:266|198:266|188:267|189:276|189:276|190:285|181:286|181:286|99:292,1,188.999994232178,2|0,1:3|0:0,0:0:0:0:
34,298,52076,1,0,1:0:0:0:
34,298,52476,6,0,B|-26:329|34:456|184:373|148:280|95:218,1,315
39,184,52876,5,12,1:2:0:0:
189,213,53076,1,2,0:3:0:0:
164,143,53176,1,0,0:0:0:0:
253,212,53276,2,0,P|280:230|310:228,1,62.9999980773926,12|0,1:2|0:0,0:0:0:0:
330,159,53476,2,0,P|304:141|271:141,1,62.9999980773926,2|0,0:3|0:0,0:0:0:0:
87,327,53676,5,12,1:2:0:0:
17,254,53776,1,0,0:0:0:0:
153,293,53876,2,0,P|190:300|229:289,1,78.7500030040742,2|0,0:3|0:0,0:0:0:0:
309,228,54076,5,12,1:2:0:0:
396,312,54176,1,0,0:0:0:0:
351,150,54276,2,0,P|341:113|366:58,1,89.2500017023087,2|0,0:3|0:0,0:0:0:0:
505,86,54476,2,0,P|515:123|490:178,1,89.2500017023087,12|0,1:2|0:0,0:0:0:0:
199,208,54676,5,2,0:3:0:0:
194,207,54742,1,4,1:2:0:0:
189,206,54809,1,0,0:0:0:0:
184,205,54876,2,0,L|91:192,1,94.499997116089
381,240,55076,2,0,L|474:254,1,94.499997116089,12|0,1:2|0:0,0:0:0:0:
248,364,55276,6,0,L|211:366,6,21,0|0|0|0|0|0|0,1:0|0:0|0:0|0:0|0:0|0:0|0:0,0:0:0:0:
307,335,55676,1,2,3:2:0:0:
253,273,55776,1,0,3:0:0:0:
295,194,55876,1,2,3:2:0:0:
235,123,55976,1,2,3:2:0:0:
295,25,56076,6,0,P|322:8|351:12,1,62.9999980773926,12|0,1:2|0:0,0:0:0:0:
371,115,56276,2,0,P|343:131|314:127,1,62.9999980773926,2|0,0:3|0:0,0:0:0:0:
165,50,56476,5,12,1:2:0:0:
235,123,56576,1,0,0:0:0:0:
100,80,56676,2,0,P|57:76|21:103,1,78.7500030040742,2|0,0:3|0:0,0:0:0:0:
50,230,56876,2,0,P|92:233|128:206,1,78.7500030040742,12|0,1:2|0:0,0:0:0:0:
242,43,57076,5,2,0:3:0:0:
158,130,57176,1,0,0:0:0:0:
317,73,57276,2,0,P|360:68|398:95,1,89.2500017023087,12|0,1:2|0:0,0:0:0:0:
358,260,57476,2,0,P|314:264|276:237,1,89.2500017023087,2|0,0:3|0:0,0:0:0:0:
111,14,57676,1,12,1:2:0:0:
110,10,57742,1,0,0:0:0:0:
109,5,57809,1,0,0:0:0:0:
108,0,57876,1,2,0:3:0:0:
78,234,58076,6,0,L|80:249,1,15.7499995193482,2|0,3:0|0:0,0:0:0:0:
18,280,58276,2,0,L|15:295,1,15.7499995193482,2|0,3:0|0:0,0:0:0:0:
0,362,58476,5,2,0:0:0:0:
0,362,58876,1,2,0:0:0:0:
345,317,59276,6,0,B|311:311|311:311|246:301|274:354|213:345|213:345|179:339,1,178.500003404617,12|0,1:2|0:0,0:0:0:0:
157,335,59542,1,2,0:3:0:0:
137,346,59609,1,0,0:0:0:0:
125,366,59676,6,0,P|92:367|69:332,1,78.7500030040742,12|0,1:2|0:0,0:0:0:0:
109,101,59876,2,0,B|119:175|119:175|108:186|108:186|119:272,1,178.500003404617,2|4,0:3|1:2,0:0:0:0:
264,129,60276,6,0,L|180:137,1,78.7500030040742,0|2,0:0|0:3,0:0:0:0:
12,154,60476,1,12,1:2:0:0:
215,281,60676,5,2,0:3:0:0:
216,276,60742,1,0,0:0:0:0:
217,271,60809,1,0,0:0:0:0:
218,266,60876,2,0,P|217:241|183:225,1,62.9999980773926,12|2,1:2|0:3,0:0:0:0:
109,101,61076,2,0,P|107:70|132:54,1,62.9999980773926,0|2,0:0|0:3,0:0:0:0:
351,168,61276,6,0,B|276:161|276:161|266:160|267:151|267:151|268:142|260:141|260:141|185:136,1,178.500003404617,12|2,1:2|0:3,0:0:0:0:
23,223,61576,1,0,3:0:0:0:
84,278,61676,6,0,L|109:102,1,178.500003404617,12|8,1:2|0:0,0:0:0:0:
313,337,62076,6,0,P|276:361|228:356,1,89.2500017023087,12|0,1:2|0:0,0:0:0:0:
214,260,62276,2,0,P|251:236|299:241,1,89.2500017023087,8|0,0:2|0:0,0:0:0:0:
421,351,62476,6,0,B|417:317|417:317|412:256|367:295|362:230|362:230|360:195,1,178.500003404617,12|8,1:2|0:0,0:0:0:0:
361,170,62742,1,0,0:0:0:0:
377,152,62809,1,0,0:0:0:0:
404,149,62876,6,0,P|440:130|449:95,1,78.7500030040742,12|0,1:2|0:0,0:0:0:0:
323,26,63076,2,0,B|397:36|397:36|408:25|408:25|494:36,1,178.500003404617,8|4,0:2|1:2,0:0:0:0:
434,222,63476,5,0,1:0:0:0:
434,222,63576,1,0,0:0:0:0:
493,178,63676,1,0,1:0:0:0:
493,178,63776,1,0,0:0:0:0:
501,251,63876,1,0,1:0:0:0:
501,251,63976,1,0,0:0:0:0:
476,218,64076,5,0,1:0:0:0:
467,317,64176,1,0,1:0:0:0:
354,329,64276,1,0,1:0:0:0:
325,233,64376,1,0,1:0:0:0:
404,270,64876,5,4,1:0:0:0:
256,192,74498,12,0,82423,0:0:0:0:
6,42,82989,6,0,B|124:64|124:64|118:95,1,146.999995513916,12|0,1:2|3:0,0:0:0:0:
61,198,83413,2,0,L|206:174,1,146.999995513916,8|0,1:2|3:0,0:0:0:0:
204,38,83838,2,0,L|188:113,1,73.4999977569581,8|0,1:2|0:0,0:0:0:0:
140,288,84121,6,0,B|118:259|118:259|228:272,1,146.999995513916,8|0,1:2|3:0,0:0:0:0:
333,327,84545,2,0,L|489:297,1,146.999995513916,8|0,1:2|3:0,0:0:0:0:
418,378,84970,1,8,1:2:0:0:
319,256,85111,1,8,1:2:0:0:
464,193,85253,6,0,L|492:49,1,146.999995513916,8|0,1:2|3:0,0:0:0:0:
329,111,85677,2,0,B|299:115|299:115|281:0,1,146.999995513916,8|0,1:2|3:0,0:0:0:0:
153,128,86102,2,0,L|232:119,1,73.4999977569581,8|0,1:2|0:0,0:0:0:0:
377,165,86385,6,0,B|399:194|399:194|289:181,1,146.999995513916,8|0,1:2|3:0,0:0:0:0:
175,228,86809,2,0,L|25:252,1,146.999995513916,8|0,1:2|3:0,0:0:0:0:
145,164,87234,2,0,L|153:123,3,36.749998878479,8|0|0|0,1:2|1:0|1:0|1:0,0:0:0:0:
243,223,87517,6,0,P|243:263|219:289,1,73.4999977569581,8|0,1:2|0:0,0:0:0:0:
117,303,87800,1,0,1:0:0:0:
303,287,87942,1,8,1:2:0:0:
441,373,88083,2,0,P|477:375|516:364,1,73.4999977569581,0|0,1:0|0:0,0:0:0:0:
335,380,88366,2,0,P|296:374|266:355,1,73.4999977569581,8|0,1:2|0:0,0:0:0:0:
64,352,88649,5,8,1:2:0:0:
204,384,88791,1,0,1:0:0:0:
204,384,88932,1,0,1:0:0:0:
333,200,89074,5,8,1:2:0:0:
193,232,89216,1,0,1:0:0:0:
193,232,89357,1,0,1:0:0:0:
343,281,89498,1,0,1:0:0:0:
435,153,89640,1,0,1:0:0:0:
345,56,89781,6,0,L|341:25,1,31.4999990386963,2|0,1:0|0:0,0:0:0:0:
345,56,90064,2,0,L|341:25,1,31.4999990386963,2|0,0:1|0:0,0:0:0:0:
345,56,90347,2,0,L|341:25,1,31.4999990386963,2|0,0:1|0:0,0:0:0:0:
345,56,90630,2,0,L|341:25,1,31.4999990386963,2|0,0:1|0:0,0:0:0:0:
345,56,90913,6,0,L|341:25,1,31.4999990386963,2|0,0:1|0:0,0:0:0:0:
442,6,91196,2,2,L|437:37,1,31.4999990386963,0|0,0:1|0:0,0:1:0:0:
421,114,91479,5,10,1:3:0:0:
266,52,91621,1,0,3:0:0:0:
221,211,91762,1,6,1:3:0:0:
339,94,91904,1,0,3:0:0:0:
469,243,92045,6,2,B|520:235|520:235|512:172|450:181|450:181|389:191|389:191|372:182|372:182|291:197,1,314.999990386963,4|0,1:0|0:0,0:2:0:0:
221,211,92470,1,0,1:0:0:0:
223,339,92611,6,2,P|270:302|272:256,1,105,0|0,0:0|0:0,0:2:0:0:
124,93,92894,2,2,B|130:142|130:142|139:148|139:148|147:215,1,126,0|0,1:2|0:0,0:2:0:0:
153,278,93177,5,0,1:2:0:0:
17,216,93319,1,2,0:1:0:0:
0,67,93460,2,2,L|52:75,1,52.5,0|0,0:1|1:0,0:1:0:0:
135,150,93743,5,0,0:2:0:0:
34,287,93885,1,2,0:1:0:0:
200,341,94026,2,2,L|113:359,1,78.75,2|0,1:3|0:0,0:1:0:0:
110,359,94309,5,0,1:2:0:0:
239,273,94451,1,2,0:1:0:0:
384,327,94592,2,2,L|378:381,1,52.5,0|0,0:0|1:0,0:1:0:0:
464,300,94876,5,0,0:0:0:0:
316,338,95017,1,2,0:1:0:0:
259,195,95159,1,0,1:0:0:0:
329,261,95300,1,2,0:1:0:0:
233,373,95442,5,0,1:0:0:0:
378,379,95583,1,2,0:1:0:0:
216,299,95725,1,2,0:1:0:0:
58,380,95866,1,0,1:0:0:0:
2,242,96008,6,2,P|4:170|21:85,1,157.5,2|0,0:0|0:0,0:1:0:0:
65,36,96291,6,2,P|84:42|80:64,1,42,2|0,1:3|0:0,0:1:0:0:
93,222,96432,2,0,P|73:223|66:204,1,42,2|0,0:3|0:0,0:0:0:0:
118,161,96574,6,0,P|163:170|220:198,2,105,0|0|0,1:0|0:0|0:0,0:0:0:0:
25,156,96998,1,0,1:0:0:0:
217,299,97140,2,2,P|168:289|157:240,1,105,0|0,0:0|0:0,0:2:0:0:
320,274,97423,2,2,B|384:266|384:266|390:257|390:257|440:251,1,126,0|0,1:2|0:0,0:2:0:0:
512,244,97706,5,0,1:0:0:0:
384,374,97847,1,2,0:1:0:0:
217,299,97989,2,2,L|222:241,1,52.5,0|0,0:0|1:0,0:1:0:0:
126,346,98272,5,0,0:0:0:0:
286,209,98413,1,2,0:1:0:0:
111,89,98555,2,2,L|124:172,1,78.75,2|0,1:3|0:0,0:1:0:0:
125,180,98838,5,0,1:0:0:0:
289,109,98979,1,2,0:1:0:0:
393,257,99121,1,2,0:1:0:0:
286,209,99262,1,0,1:0:0:0:
197,341,99404,5,0,0:0:0:0:
320,283,99545,1,2,0:1:0:0:
109,300,99687,1,0,1:0:0:0:
24,107,99828,1,2,0:1:0:0:
99,32,99970,6,0,L|94:52,2,21,2|0|0,3:0|3:0|3:0,0:0:0:0:
27,5,100253,2,0,L|31:25,2,21,2|0|0,3:0|3:0|3:0,0:0:0:0:
251,73,100536,6,0,L|255:52,2,21,2|0|0,3:0|3:0|3:0,0:0:0:0:
190,104,100819,2,0,L|185:83,2,21,2|0|0,3:0|3:0|3:0,0:0:0:0:
512,8,101102,6,0,L|384:23,1,126,4|0,1:0|0:0,0:0:0:0:
366,25,101385,5,2,3:2:0:0:
480,133,101526,1,2,3:2:0:0:
383,257,101668,2,2,P|337:240|321:199,1,94.499997116089,2|0,1:3|0:0,0:1:0:0:
329,190,101951,5,2,3:2:0:0:
261,331,102092,1,2,3:2:0:0:
112,279,102234,2,2,P|113:230|147:203,1,94.499997116089,2|0,1:3|0:0,0:1:0:0:
159,205,102517,5,2,3:2:0:0:
4,184,102658,1,2,3:2:0:0:
7,26,102800,2,2,P|53:12|97:42,1,105,2|0,1:3|0:0,0:1:0:0:
90,118,103083,2,2,P|40:131|0:101,1,105,2|0,1:3|0:0,0:1:0:0:
37,213,103366,6,0,L|53:339,1,126,2|0,1:3|0:0,0:0:0:0:
57,359,103649,5,2,3:2:0:0:
183,293,103791,1,2,3:2:0:0:
161,153,103932,2,2,P|133:120|81:120,1,94.499997116089,2|0,1:3|0:0,0:1:0:0:
75,127,104215,5,2,3:2:0:0:
176,226,104357,1,2,3:2:0:0:
303,162,104498,2,2,P|325:125|309:76,1,94.499997116089,2|0,1:3|0:0,0:1:0:0:
301,73,104781,5,2,3:2:0:0:
238,198,104923,1,2,3:2:0:0:
318,337,105064,6,2,P|335:348|350:341,1,31.4999990386963,2|0,1:3|0:0,0:1:0:0:
390,198,105206,2,2,P|371:199|363:215,1,31.4999990386963,0|0,0:0|0:0,0:1:0:0:
414,352,105347,2,2,P|430:340|428:324,1,31.4999990386963,0|0,3:0|0:0,0:1:0:0:
303,242,105489,2,2,P|299:261|311:274,1,31.4999990386963,0|0,0:0|0:0,0:1:0:0:
381,277,105630,6,0,L|369:146,1,126,2|0,1:3|0:0,0:0:0:0:
367,137,105913,5,2,3:2:0:0:
198,166,106055,1,2,3:2:0:0:
199,43,106196,2,2,P|244:50|276:84,1,94.499997116089,2|0,1:3|0:0,0:1:0:0:
276,97,106479,5,2,3:2:0:0:
251,266,106621,1,2,3:2:0:0:
136,228,106762,2,2,P|157:186|199:166,1,94.499997116089,2|0,1:3|0:0,0:1:0:0:
211,171,107045,5,2,3:2:0:0:
362,246,107187,1,2,3:2:0:0:
285,355,107328,2,2,P|252:322|253:261,1,105,2|0,1:3|0:0,0:1:0:0:
345,229,107611,2,2,P|379:266|379:318,1,105,2|0,1:3|0:0,0:1:0:0:
506,221,107894,5,0,1:0:0:0:
401,103,108036,1,2,3:2:0:0:
398,91,108107,1,0,3:0:0:0:
395,79,108177,1,0,1:0:0:0:
345,229,108319,1,2,3:2:0:0:
336,237,108390,1,0,3:0:0:0:
327,246,108460,1,0,1:0:0:0:
483,215,108602,1,2,3:2:0:0:
494,218,108673,1,0,3:0:0:0:
506,221,108743,1,0,1:0:0:0:
412,184,108885,1,2,3:2:0:0:
412,184,108956,1,0,3:0:0:0:
412,184,109026,1,0,1:0:0:0:
108,155,109876,6,0,L|106:134,1,21.262500519104
2,67,110159,6,2,B|78:71|78:71|93:61|93:61|153:65|153:65|213:69|179:17|244:21|244:21|296:24,1,314.999990386963,4|0,1:0|0:2,0:2:0:0:
361,27,110583,1,0,1:0:0:0:
280,186,110725,6,2,P|233:149|231:103,1,105,8|0,0:2|0:0,0:2:0:0:
512,90,111008,2,2,B|463:96|463:96|457:105|457:105|390:113,1,126,0|0,1:2|0:0,0:2:0:0:
328,125,111291,5,0,0:2:0:0:
238,246,111432,1,2,1:0:0:0:
311,373,111574,2,2,L|372:366,1,52.5,0|0,0:0|0:0,0:1:0:0:
497,361,111857,6,0,L|352:330,2,140,8|8|8,0:0|0:0|0:0,0:0:0:0:
385,193,112423,5,0,0:0:0:0:
399,277,112564,1,2,0:1:0:0:
310,288,112706,2,2,L|333:239,1,52.5,0|0,0:0|1:0,0:1:0:0:
392,119,112989,5,8,0:0:0:0:
479,236,113130,1,2,0:1:0:0:
360,331,113272,1,0,1:0:0:0:
409,213,113413,1,2,0:1:0:0:
500,305,113555,5,0,0:1:0:0:
332,240,113696,1,2,1:1:0:0:
206,372,113838,1,2,0:1:0:0:
156,321,113979,6,0,P|166:310|187:309,1,26.25,0|0,3:1|3:0,0:0:0:0:
263,322,114121,1,8,1:2:0:0:
75,370,114262,1,0,1:0:0:0:
5,239,114404,6,2,L|10:199,1,26.25,0|0,0:0|0:0,0:1:0:0:
16,146,114545,2,2,L|19:119,1,26.25,0|0,0:0|0:0,0:1:0:0:
78,73,114687,5,0,1:0:0:0:
78,73,114828,1,0,1:0:0:0:
119,140,114970,1,2,0:0:0:0:
189,110,115111,1,0,1:0:0:0:
294,207,115253,6,0,P|344:190|352:141,1,105,8|0,0:0|0:0,0:0:0:0:
177,180,115536,2,2,B|183:229|183:229|192:235|192:235|199:300,1,126,0|0,1:2|0:0,0:2:0:0:
211,366,115819,5,0,0:0:0:0:
96,216,115960,1,2,1:0:0:0:
162,38,116102,2,2,L|216:35,1,52.5,0|0,0:0|0:0,0:1:0:0:
358,53,116385,6,0,L|213:10,2,140,8|8|8,0:0|0:0|0:0,0:0:0:0:
505,38,116951,5,0,0:0:0:0:
415,19,117092,1,2,0:1:0:0:
394,110,117234,1,2,0:1:0:0:
450,74,117376,1,0,1:0:0:0:
300,15,117517,5,8,0:2:0:0:
395,215,117659,1,2,0:1:0:0:
208,330,117800,1,0,1:0:0:0:
358,297,117942,1,2,0:1:0:0:
338,146,118083,5,2,0:0:0:0:
302,349,118225,1,8,1:2:0:0:
96,378,118366,1,2,0:0:0:0:
5,192,118508,1,2,0:0:0:0:
185,255,118649,5,2,1:3:0:0:
185,255,119215,5,4,1:0:0:0:
185,255,119357,1,0,0:0:0:0:
250,267,119498,1,0,1:0:0:0:
296,219,119640,1,8,0:2:0:0:
296,219,119781,1,0,1:0:0:0:
342,171,119923,1,8,3:2:0:0:
407,183,120064,1,8,1:2:0:0:
407,183,120206,1,0,0:0:0:0:
472,195,120347,5,0,1:0:0:0:
409,168,120489,1,8,0:2:0:0:
386,103,120630,1,8,1:2:0:0:
386,103,120772,1,0,0:0:0:0:
363,38,120913,1,0,1:0:0:0:
300,11,121055,1,8,0:2:0:0:
237,39,121196,1,0,1:3:0:0:
215,104,121338,1,8,0:2:0:0:
242,167,121479,5,8,1:2:0:0:
242,167,121621,1,0,0:0:0:0:
175,157,121762,1,0,1:0:0:0:
162,223,121904,1,8,0:2:0:0:
162,223,122045,1,0,1:0:0:0:
95,213,122187,1,8,0:2:0:0:
85,280,122328,1,8,1:2:0:0:
85,280,122470,1,0,0:0:0:0:
75,347,122611,5,0,1:0:0:0:
138,325,122753,1,8,0:2:0:0:
199,351,122894,1,8,1:2:0:0:
199,351,123036,1,0,0:0:0:0:
260,377,123177,1,0,1:0:0:0:
318,344,123319,1,8,0:0:0:0:
327,277,123460,1,0,1:0:0:0:
279,228,123602,1,8,0:2:0:0:
210,235,123743,5,8,1:2:0:0:
210,235,123885,1,0,1:0:0:0:
224,161,124026,1,0,1:0:0:0:
153,133,124168,1,8,1:2:0:0:
153,133,124309,1,0,1:0:0:0:
82,105,124451,1,8,1:2:0:0:
68,179,124592,1,8,1:2:0:0:
68,179,124734,1,0,1:0:0:0:
54,253,124876,5,0,1:2:0:0:
81,182,125017,1,8,1:2:0:0:
19,136,125159,1,8,1:2:0:0:
19,136,125300,1,0,1:0:0:0:
43,64,125442,1,0,1:0:0:0:
119,64,125583,1,8,1:2:0:0:
142,136,125725,1,0,1:0:0:0:
217,136,125866,1,8,1:2:0:0:
240,64,126008,5,8,1:2:0:0:
240,64,126149,1,0,1:0:0:0:
321,84,126291,1,0,1:0:0:0:
338,165,126432,1,8,1:2:0:0:
338,165,126574,1,0,1:0:0:0:
355,246,126715,1,8,1:2:0:0:
436,266,126857,1,8,1:2:0:0:
436,266,126998,1,0,1:0:0:0:
511,226,127140,5,0,1:0:0:0:
494,229,127210,1,0,1:0:0:0:
477,232,127281,1,8,1:2:0:0:
460,235,127352,1,0,1:0:0:0:
443,238,127423,1,8,1:2:0:0:
426,241,127493,1,0,1:0:0:0:
409,244,127564,1,0,1:0:0:0:
392,247,127635,1,0,1:0:0:0:
375,250,127706,1,0,1:0:0:0:
358,253,127776,1,0,1:0:0:0:
341,256,127847,1,8,1:2:0:0:
324,259,127918,1,0,1:0:0:0:
307,262,127989,1,0,1:0:0:0:
290,265,128059,1,0,1:0:0:0:
273,268,128130,1,8,1:2:0:0:
256,271,128201,1,0,1:0:0:0:
281,294,128272,5,4,1:2:0:0:
