osu file format v14

[General]
AudioFilename: audio.mp3
AudioLeadIn: 0
PreviewTime: 50399
Countdown: 1
SampleSet: Soft
StackLeniency: 0.5
Mode: 0
LetterboxInBreaks: 0
WidescreenStoryboard: 0

[Editor]
Bookmarks: 23868,28555,35305,76555
DistanceSpacing: 1.3
BeatDivisor: 4
GridSize: 32
TimelineZoom: 2.1

[Metadata]
Title:Departure! (TV Size)
TitleUnicode:Departure! (TV Size)
Artist:Masatoshi Ono
ArtistUnicode:小野正利
Creator:Sassbjorn
Version:Insane
Source:Hunter X Hunter
Tags:
BeatmapID:1560436
BeatmapSetID:739550

[Difficulty]
HPDrainRate:6
CircleSize:4
OverallDifficulty:7
ApproachRate:9
SliderMultiplier:1.5
SliderTickRate:1

[Events]
//Background and Video events
0,0,"bg.png",0,0
//Break Periods
//Storyboard Layer 0 (Background)
//Storyboard Layer 1 (Fail)
//Storyboard Layer 2 (Pass)
//Storyboard Layer 3 (Foreground)
//Storyboard Sound Samples

[TimingPoints]
243,375,4,2,1,45,1,0
243,-142.857142857143,4,3,1,45,0,0
3243,-142.857142857143,4,2,1,50,0,0
6243,-100,4,2,1,50,0,0
15243,-95.2380952380952,4,2,1,52,0,0
15805,-90.9090909090909,4,2,1,54,0,0
16368,-86.9565217391304,4,3,1,45,0,0
16743,-86.9565217391304,4,3,1,48,0,0
17118,-86.9565217391304,4,3,1,51,0,0
17493,-86.9565217391304,4,3,1,54,0,0
17868,-86.9565217391304,4,3,1,57,0,0
18243,-86.9565217391304,4,1,1,60,0,0
24243,-100,4,3,1,50,0,0
36243,-90.9090909090909,4,1,1,55,0,0
45243,-83.3333333333333,4,1,1,60,0,0
51243,-80,4,1,1,65,0,1
61743,-90.9090909090909,4,2,1,56,0,0
62868,-80,4,1,1,60,0,0
63243,-80,4,1,1,65,0,1
72243,-90.9090909090909,4,3,1,62,0,0

[HitObjects]
251,310,243,6,0,P|205:333|157:315,1,104.999996795654,4|2,0:2|0:2,0:2:0:0:
394,274,992,2,0,P|370:228|388:180,1,104.999996795654,0|2,0:2|0:2,0:2:0:0:
192,85,1743,6,0,P|215:130|197:178,1,104.999996795654,0|2,0:2|0:2,0:2:0:0:
335,48,2491,2,0,P|380:24|428:42,1,104.999996795654,0|2,0:2|0:2,0:2:0:0:
151,258,3243,5,0,3:0:0:0:
379,281,3618,1,0,3:0:0:0:
285,69,3993,1,0,3:0:0:0:
256,335,4368,1,0,3:0:0:0:
163,125,4743,5,0,3:0:0:0:
395,148,5118,1,0,3:0:0:0:
81,151,5493,5,0,0:0:0:0:
163,264,5680,1,0,0:0:0:0:
163,125,5868,1,0,0:0:0:0:
81,238,6055,1,0,0:0:0:0:
214,195,6243,6,0,P|242:164|250:129,1,75,6|0,0:0|0:0,0:0:0:0:
81,151,6618,1,0,0:0:0:0:
213,53,6805,2,0,P|253:44|288:54,1,75,0|0,0:0|0:0,0:0:0:0:
355,164,7180,2,0,P|318:169|283:157,1,75,0|0,0:0|0:0,0:0:0:0:
379,64,7555,2,0,P|420:62|452:78,1,75
464,191,7930,1,0,0:0:0:0:
464,191,8024,1,0,0:0:0:0:
464,191,8118,2,0,L|458:265,1,75
278,360,8493,5,0,0:0:0:0:
360,247,8680,1,0,0:0:0:0:
226,290,8868,1,0,0:0:0:0:
360,334,9055,1,0,0:0:0:0:
278,221,9243,6,2,P|239:205|203:209,1,75
278,360,9618,1,0,0:0:0:0:
128,273,9805,2,0,P|105:237|104:201,1,75,0|0,0:0|0:0,0:0:0:0:
277,189,10180,2,0,P|245:206|208:207,1,75
159,103,10555,2,0,P|191:86|228:85,1,75,0|0,0:0|0:0,0:0:0:0:
340,108,10930,1,0,0:0:0:0:
340,108,11024,1,0,0:0:0:0:
340,108,11118,2,0,L|414:114,1,75,0|0,0:0|0:0,0:0:0:0:
330,277,11493,5,0,0:0:0:0:
261,154,11680,1,0,0:0:0:0:
244,293,11868,1,0,0:0:0:0:
340,190,12055,1,0,0:0:0:0:
204,217,12243,6,0,P|173:244|161:278,1,75,6|0,0:0|0:0,0:0:0:0:
330,277,12618,1,0,0:0:0:0:
191,359,12805,2,0,P|148:364|115:349,1,75,0|0,0:0|0:0,0:0:0:0:
132,202,13180,2,0,P|167:199|201:213,1,75,0|0,0:0|0:0,0:0:0:0:
53,273,13555,2,0,P|27:238|21:202,1,75,0|0,0:0|0:0,0:0:0:0:
77,113,13930,1,0,0:0:0:0:
77,113,14024,1,0,0:0:0:0:
77,113,14118,2,0,L|151:107,1,75,0|0,0:0|0:0,0:0:0:0:
190,285,14493,6,0,P|187:250|201:216,1,75,0|0,0:0|0:0,0:0:0:0:
304,109,14868,2,0,P|301:144|315:178,1,75,0|0,0:0|0:0,0:0:0:0:
445,310,15243,6,0,P|360:318|293:286,1,157.499995193482,2|0,0:0|0:0,0:0:0:0:
149,82,15805,2,0,P|234:74|306:110,1,165.000005035401,0|0,0:0|0:0,0:0:0:0:
215,199,16368,5,0,1:0:0:0:
215,199,16461,1,0,1:0:0:0:
215,199,16555,2,0,L|165:203,1,43.1250008225441,0|0,1:0|1:0,1:0:0:0:
61,285,16743,1,0,1:0:0:0:
61,285,16836,1,0,1:0:0:0:
61,285,16930,2,0,L|110:289,1,43.1250008225441,0|0,1:0|1:0,1:0:0:0:
208,347,17118,1,0,1:0:0:0:
208,347,17211,1,0,1:0:0:0:
208,347,17305,2,0,L|212:297,1,43.1250008225441,0|0,1:0|1:0,1:0:0:0:
302,208,17493,5,0,1:0:0:0:
302,208,17586,1,0,1:0:0:0:
302,208,17680,2,0,L|306:257,1,43.1250008225441,0|0,1:0|1:0,1:0:0:0:
350,352,17868,5,0,1:0:0:0:
384,327,17961,1,0,1:0:0:0:
410,292,18055,1,0,1:0:0:0:
423,251,18149,1,0,1:0:0:0:
421,208,18243,5,10,0:2:0:0:
310,92,18430,1,0,0:0:0:0:
309,211,18618,1,8,0:2:0:0:
429,92,18805,1,2,0:2:0:0:
374,24,18993,2,0,L|288:16,1,86.2500016450882,8|0,0:2|0:0,0:0:0:0:
218,63,19368,1,8,0:2:0:0:
106,261,19555,1,0,0:0:0:0:
106,261,19649,1,0,0:0:0:0:
106,261,19743,5,10,0:2:0:0:
268,210,19930,1,0,0:0:0:0:
211,316,20118,1,8,0:2:0:0:
161,154,20305,1,2,0:2:0:0:
224,92,20493,2,0,L|309:85,1,86.2500016450882,8|0,0:2|0:2,0:0:0:0:
383,138,20868,1,8,0:2:0:0:
480,259,21055,1,0,0:0:0:0:
480,259,21149,1,0,0:0:0:0:
480,259,21243,5,10,0:2:0:0:
383,138,21430,1,0,0:0:0:0:
370,245,21618,1,8,0:2:0:0:
489,152,21805,2,0,P|486:109|466:70,2,86.2500016450882,2|8|0,0:2|0:2|0:0,0:0:0:0:
370,245,22368,1,8,0:2:0:0:
313,117,22555,1,0,0:0:0:0:
370,245,22743,5,10,0:2:0:0:
231,231,22930,1,0,0:0:0:0:
370,245,23118,1,10,0:2:0:0:
174,103,23305,2,0,P|130:175|136:260,1,172.500003290176,4|0,0:0|0:0,0:0:0:0:
333,271,24055,1,0,0:0:0:0:
333,271,24149,1,0,0:0:0:0:
333,271,24243,6,0,L|249:263,1,75,0|0,1:0|0:0,0:0:0:0:
265,66,24618,1,8,0:2:0:0:
112,186,24805,2,0,P|125:225|170:257,1,75,0|0,1:0|1:0,0:0:0:0:
291,160,25180,2,0,P|250:151|200:174,1,75,0|8,0:0|0:2,0:0:0:0:
224,328,25555,6,0,P|251:297|256:242,2,75,0|0|0,0:0|1:0|0:0,0:0:0:0:
148,247,26118,2,0,L|140:156,1,75,8|0,0:2|0:0,0:0:0:0:
345,206,26493,2,0,P|363:243|355:298,1,75,0|0,1:0|0:0,0:0:0:0:
243,166,26868,2,0,P|235:125|257:75,1,75,8|0,0:2|0:0,0:0:0:0:
496,65,27243,6,0,P|422:66|356:99,1,150,0|8,1:0|0:2,0:0:0:0:
454,235,27805,2,0,P|459:194|432:146,1,75,0|0,0:0|1:0,0:0:0:0:
279,179,28180,2,0,P|312:204|367:204,1,75,0|8,0:0|0:2,0:0:0:0:
456,50,28555,1,0,0:0:0:0:
373,290,28743,5,0,1:0:0:0:
355,99,28931,1,0,0:0:0:0:
418,189,29118,1,8,0:2:0:0:
308,200,29305,2,0,L|233:193,2,75,0|0|0,0:0|1:0|0:0,0:0:0:0:
447,283,29868,2,0,L|373:290,1,75,8|0,0:2|0:0,0:0:0:0:
164,254,30243,5,0,1:0:0:0:
268,272,30430,1,0,0:0:0:0:
200,353,30618,1,8,2:0:0:0:
232,173,30805,2,0,P|249:135|276:98,2,75,0|0|0,0:0|1:0|0:0,0:0:0:0:
268,272,31368,1,8,0:2:0:0:
404,111,31555,6,0,P|398:73|384:38,1,75,0|0,0:0|1:0,0:0:0:0:
268,108,31930,1,0,0:0:0:0:
334,228,32118,2,0,P|344:264|346:302,1,75,8|0,0:2|0:0,0:0:0:0:
240,278,32493,1,0,1:0:0:0:
241,171,32680,2,0,L|244:130,2,37.5,0|0|8,0:0|0:0|0:2,0:0:0:0:
149,225,33055,1,0,0:0:0:0:
115,19,33243,5,0,1:0:0:0:
94,159,33431,1,0,0:0:0:0:
53,79,33618,1,8,2:0:0:0:
179,144,33805,2,0,P|223:138|262:113,1,75,0|0,0:0|1:0,0:0:0:0:
283,15,34180,1,0,0:0:0:0:
357,96,34368,1,8,0:2:0:0:
174,40,34555,6,0,P|136:43|103:60,1,75,0|0,0:0|1:0,0:0:0:0:
143,250,34930,1,0,0:0:0:0:
179,144,35118,1,8,0:1:0:0:
32,271,35305,1,2,0:1:0:0:
216,334,35493,6,0,P|253:334|300:309,1,75,0|0,1:0|0:0,0:0:0:0:
280,208,35868,1,0,0:0:0:0:
242,204,35961,1,0,0:0:0:0:
205,210,36055,1,0,0:0:0:0:
171,225,36149,1,0,0:0:0:0:
142,249,36243,6,0,L|132:359,1,82.5000025177003,0|0,0:0|2:0,0:0:0:0:
70,166,36618,2,0,L|79:55,1,82.5000025177003,0|0,0:0|2:0,0:0:0:0:
233,121,36993,6,0,L|242:231,1,82.5000025177003,0|0,0:0|2:0,0:0:0:0:
355,294,37368,1,0,0:0:0:0:
376,150,37555,1,0,2:0:0:0:
241,203,37743,6,0,L|231:313,1,82.5000025177003,0|0,0:0|2:0,0:0:0:0:
155,105,38118,2,0,L|145:-5,1,82.5000025177003,0|0,0:0|2:0,0:0:0:0:
31,220,38493,2,0,L|141:229,1,82.5000025177003,0|0,0:0|2:0,0:0:0:0:
241,203,38868,2,0,L|351:193,1,82.5000025177003,8|0,0:1|2:0,0:0:0:0:
491,370,39243,6,0,P|458:347|434:313,1,82.5000025177003,0|0,0:0|2:0,0:0:0:0:
437,198,39618,1,0,0:0:0:0:
320,310,39805,2,0,P|276:298|249:273,1,82.5000025177003,0|0,0:2|0:0,0:0:0:0:
292,92,40180,1,0,0:0:0:0:
323,195,40368,1,0,2:0:0:0:
141,153,40555,6,0,P|126:110|130:74,1,82.5000025177003,0|0,2:0|0:0,0:0:0:0:
242,191,40930,2,0,L|251:301,2,82.5000025177003,0|0|0,0:0|2:0|0:0,0:0:0:0:
265,23,41493,2,0,P|308:21|346:40,1,82.5000025177003,8|0,0:0|2:0,0:0:0:0:
474,168,41868,2,0,P|431:170|393:151,1,82.5000025177003,8|0,0:0|2:0,0:0:0:0:
185,148,42243,6,0,L|267:140,1,82.5000025177003,0|0,0:0|2:0,0:0:0:0:
217,265,42618,2,0,L|134:257,1,82.5000025177003,0|0,0:0|2:0,0:0:0:0:
350,245,42993,2,0,L|342:327,1,82.5000025177003,0|0,0:0|2:0,0:0:0:0:
217,265,43368,1,8,0:3:0:0:
267,140,43555,1,8,2:3:0:0:
350,245,43743,6,0,L|357:327,1,82.5000025177003,0|0,0:0|2:0,0:0:0:0:
400,120,44118,2,0,L|407:37,1,82.5000025177003,0|0,0:0|2:0,0:0:0:0:
204,58,44493,1,0,0:0:0:0:
245,149,44680,1,0,0:0:0:0:
304,68,44868,1,0,0:0:0:0:
153,146,45055,1,0,0:0:0:0:
153,146,45149,1,0,0:0:0:0:
153,146,45243,5,4,0:0:0:0:
286,240,45430,1,0,0:0:0:0:
165,259,45618,1,0,0:0:0:0:
304,68,45805,6,0,P|361:77|387:107,1,89.9999972534181,4|0,0:2|0:0,0:0:0:0:
298,184,46180,1,0,0:0:0:0:
200,120,46367,1,0,0:0:0:0:
396,248,46555,6,0,P|416:208|409:164,1,89.9999972534181,4|0,0:2|0:0,0:0:0:0:
298,184,46930,1,0,0:0:0:0:
292,301,47118,1,0,0:0:0:0:
304,67,47305,6,0,P|259:65|222:89,1,89.9999972534181,4|0,0:2|0:0,0:0:0:0:
179,202,47680,1,0,0:0:0:0:
298,184,47868,1,0,0:0:0:0:
103,107,48055,5,4,0:2:0:0:
103,107,48430,1,0,0:0:0:0:
255,297,48618,2,0,L|344:289,1,89.9999972534181,0|0,0:0|0:0,0:0:0:0:
500,202,48993,2,0,L|410:194,1,89.9999972534181,0|0,0:0|0:0,0:0:0:0:
235,75,49368,5,2,0:0:0:0:
255,297,49555,1,2,0:0:0:0:
255,297,49930,5,2,0:0:0:0:
52,203,50117,1,2,0:0:0:0:
175,125,50305,1,0,0:0:0:0:
175,125,50399,1,0,0:0:0:0:
175,125,50493,6,0,L|179:170,1,44.999998626709,0|0,0:0|0:0,0:0:0:0:
255,297,50680,2,0,L|259:252,1,44.999998626709,0|0,0:0|0:0,0:0:0:0:
335,125,50868,2,0,L|339:170,1,44.999998626709,0|0,0:0|0:0,0:0:0:0:
415,297,51055,2,0,L|419:252,1,44.999998626709,0|0,0:0|0:0,0:0:0:0:
441,118,51243,6,0,P|428:73|378:37,1,93.75,0|0,0:0|0:0,0:0:0:0:
243,38,51618,1,0,0:0:0:0:
313,170,51805,6,0,P|303:215|271:248,1,93.75,0|0,0:0|0:0,0:0:0:0:
84,154,52180,2,0,P|127:139|172:150,1,93.75,0|0,0:0|0:0,0:0:0:0:
185,361,52555,6,0,P|150:330|137:285,2,93.75
271,248,53118,2,0,L|279:154,1,93.75,0|0,0:0|0:0,0:0:0:0:
31,73,53493,1,0,0:0:0:0:
172,150,53680,1,0,0:0:0:0:
103,3,53868,1,0,0:0:0:0:
71,161,54055,1,0,0:0:0:0:
187,53,54243,6,0,P|232:68|264:111,1,93.75,0|0,0:0|0:0,0:0:0:0:
372,231,54618,1,0,0:0:0:0:
202,263,54805,2,0,P|203:309|229:347,1,93.75,0|0,0:0|0:0,0:0:0:0:
383,179,55180,2,0,P|342:157|295:160,1,93.75,0|0,0:0|0:0,0:0:0:0:
364,378,55555,6,0,P|403:353|423:311,2,93.75,0|0|0,0:0|0:0|0:0,0:0:0:0:
317,274,56118,2,0,L|308:180,1,93.75,0|0,0:0|0:0,0:0:0:0:
152,90,56493,1,0,0:0:0:0:
147,136,56586,1,0,0:0:0:0:
143,183,56680,1,0,0:0:0:0:
73,325,56868,1,0,0:0:0:0:
46,169,57055,1,0,0:0:0:0:
159,278,57243,6,0,P|214:250|236:216,1,93.75,0|0,0:0|0:0,0:0:0:0:
152,90,57618,1,0,0:0:0:0:
309,87,57805,2,0,P|348:111|372:151,1,93.75,0|0,0:0|0:0,0:0:0:0:
291,331,58180,2,0,P|292:285|314:244,1,93.75,0|0,0:0|0:0,0:0:0:0:
512,224,58555,6,0,P|471:245|425:246,2,93.75
372,151,59118,2,0,L|278:142,1,93.75,0|0,0:0|0:0,0:0:0:0:
213,356,59493,2,0,P|235:306|218:245,1,93.75,0|0,0:0|0:0,0:0:0:0:
163,77,59868,2,0,P|140:126|157:187,1,93.75
278,142,60243,6,0,P|357:185|378:295,1,187.5,4|0,0:0|0:0,0:0:0:0:
149,265,60805,2,0,P|104:256|70:226,2,93.75
357,181,61368,2,0,P|323:150|278:142,1,93.75
255,320,61743,6,0,P|294:322|316:290,1,82.5000025177003
174,181,62118,2,0,P|151:213|168:249,1,82.5000025177003
334,180,62493,2,0,P|316:144|277:141,1,82.5000025177003
255,320,62868,2,0,L|250:263,1,46.875
178,134,63055,2,0,L|173:180,1,46.875
101,320,63243,6,0,P|77:280|70:233,1,93.75
99,41,63618,1,0,0:0:0:0:
251,164,63805,2,0,P|228:204|191:233,1,93.75
239,30,64180,2,0,P|285:29|328:46,1,93.75
129,108,64555,6,0,P|105:68|99:21,1,93.75
99,21,65118,2,0,P|58:44|29:81,1,93.75
210,219,65493,2,0,P|218:173|209:127,1,93.75
30,244,65868,2,0,P|37:289|61:329,1,93.75
358,329,66243,5,0,0:0:0:0:
358,329,66618,1,0,0:0:0:0:
297,119,66805,2,0,P|251:109|208:126,1,93.75
404,204,67180,2,0,P|449:213|492:196,1,93.75
325,24,67555,6,0,P|232:0|145:50,1,187.5
155,211,68118,2,0,L|164:320,1,93.75
288,212,68493,2,0,L|297:102,1,93.75
421,213,68868,1,0,0:0:0:0:
411,258,68961,1,0,0:0:0:0:
386,297,69055,1,0,0:0:0:0:
348,324,69149,1,0,0:0:0:0:
302,334,69243,5,0,0:0:0:0:
302,334,69618,1,0,0:0:0:0:
155,211,69805,2,0,P|156:164|181:125,1,93.75
338,108,70180,2,0,P|336:154|311:193,1,93.75
55,249,70555,6,0,P|43:135|119:50,1,234.375
149,42,71118,1,0,0:0:0:0:
220,253,71305,1,0,0:0:0:0:
367,86,71493,2,0,P|332:57|287:44,1,93.75
135,137,71868,1,0,0:0:0:0:
279,121,72055,1,0,0:0:0:0:
220,253,72243,5,8,0:0:0:0:
353,67,72430,1,0,0:0:0:0:
139,137,72618,1,8,0:0:0:0:
353,208,72805,2,0,L|440:215,1,82.5000025177003,0|8,0:0|0:0,0:0:0:0:
282,112,73180,1,0,0:0:0:0:
352,326,73368,1,8,0:0:0:0:
423,112,73556,1,0,0:0:0:0:
284,300,73743,5,8,3:0:0:0:
282,112,73930,1,0,3:0:0:0:
393,261,74118,1,8,3:0:0:0:
214,207,74305,2,0,L|126:199,1,82.5000025177003,0|8,0:0|0:0,0:0:0:0:
282,112,74680,2,0,L|369:104,1,82.5000025177003,0|8,0:0|0:0,0:0:0:0:
210,34,75055,1,0,0:0:0:0:
214,207,75243,6,0,B|224:247|224:247|221:289,1,82.5000025177003
221,288,75524,1,0,0:0:0:0:
221,288,75618,1,0,0:0:0:0:
111,148,75805,6,0,B|101:108|101:108|103:65,1,82.5000025177003,0|8,0:0|0:0,0:0:0:0:
103,66,76086,1,0,0:0:0:0:
103,66,76180,1,0,0:0:0:0:
282,112,76367,1,0,0:0:0:0:
38,110,76555,2,0,P|109:228|183:112,1,330.000010070801,4|0,0:0|0:0,0:0:0:0:
