osu file format v14

[General]
AudioFilename: The Promise (Alpha Version).mp3
AudioLeadIn: 1500
PreviewTime: 30753
Countdown: 0
SampleSet: Soft
StackLeniency: 0.7
Mode: 0
LetterboxInBreaks: 0
WidescreenStoryboard: 1

[Editor]
Bookmarks: 753,8253,15753,45753
DistanceSpacing: 1.2
BeatDivisor: 4
GridSize: 4
TimelineZoom: 0.2999999

[Metadata]
Title:M1 No.2 title alpha Version
TitleUnicode:M1 No.2 title α Version
Artist:Masashi Hamauzu
ArtistUnicode:浜渦正志
Creator:dylansantosh
Version:Easy
Source:FINAL FANTASY XIII
Tags:FFXIII FF Square Enix Squenix Videogame Instrumental
BeatmapID:1144481
BeatmapSetID:385981

[Difficulty]
HPDrainRate:3
CircleSize:2.5
OverallDifficulty:4
ApproachRate:3.5
SliderMultiplier:1.6
SliderTickRate:2

[Events]
//Background and Video events
0,0,"687474703a2f2f7075752e73682f6e6b497a6f2f316132363935343533382e6a7067.jpg",0,0
//Break Periods
//Storyboard Layer 0 (Background)
//Storyboard Layer 1 (Fail)
//Storyboard Layer 2 (Pass)
//Storyboard Layer 3 (Foreground)
//Storyboard Layer 4 (Overlay)
//Storyboard Sound Samples

[TimingPoints]
753,937.5,4,2,0,15,1,0
15753,-100,4,2,0,30,0,0
30753,-100,4,2,0,60,0,0
45753,-100,4,2,0,75,0,0

[Colours]
Combo1 : 122,45,251
Combo2 : 6,149,234
Combo3 : 32,191,143
Combo4 : 146,149,81

[HitObjects]
109,172,753,6,0,L|204:199,1,80
277,221,1690,1,0,0:0:0:0:
367,252,2159,1,0,0:0:0:0:
459,277,2628,2,0,P|462:251|368:157,1,160
193,122,4503,6,0,P|232:150|294:150,1,80
266,59,5440,1,0,0:0:0:0:
174,28,5909,1,0,0:0:0:0:
81,1,6378,2,0,L|97:181,1,160
123,350,8253,6,0,L|177:270,1,80
224,206,9190,1,0,0:0:0:0:
299,265,9659,1,0,0:0:0:0:
248,346,10128,2,0,P|324:357|384:307,1,160
324,124,12003,6,0,P|354:188|379:205,1,80
455,185,12940,1,0,0:0:0:0:
460,89,13409,1,0,0:0:0:0:
375,43,13878,2,0,B|306:22|306:22|269:65|197:64,1,160
39,35,15753,5,0,0:0:0:0:
105,104,16221,1,0,0:0:0:0:
42,177,16690,1,0,0:0:0:0:
114,239,17159,1,0,0:0:0:0:
62,319,17628,2,0,P|138:331|206:266,1,160
266,101,19503,5,0,0:0:0:0:
325,176,19971,1,0,0:0:0:0:
416,148,20440,1,0,0:0:0:0:
416,51,20909,1,0,0:0:0:0:
323,24,21378,2,0,P|239:9|173:76,1,160
160,242,23253,5,0,0:0:0:0:
252,268,23721,1,0,0:0:0:0:
227,175,24190,1,0,0:0:0:0:
321,193,24659,1,0,0:0:0:0:
417,191,25128,2,0,B|457:199|494:194|494:194|482:238|499:288,1,160
310,327,27003,6,0,B|246:269|289:184|289:184|338:91|265:24,1,320
274,33,30753,6,0,B|217:37|189:95|189:95|151:36|44:35|10:110,1,320
79,283,33565,1,0,0:0:0:0:
134,361,34034,1,0,0:0:0:0:
173,273,34503,2,0,B|243:234|316:273|316:273|340:251|340:251|417:295|481:253,1,320
470,258,38253,6,0,B|414:182|414:182|452:71|452:71|379:98|321:56,1,320
166,2,41065,1,0,0:0:0:0:
218,82,41534,1,0,0:0:0:0:
272,161,42003,2,0,P|292:227|86:318,1,320
114,337,45753,6,0,B|187:284|265:325|265:325|339:369|413:310,1,320
483,131,48565,1,0,0:0:0:0:
387,126,49034,1,0,0:0:0:0:
312,186,49503,6,0,B|210:252|59:249|99:87|187:101|217:146,1,320
304,292,52315,1,0,0:0:0:0:
117,336,53253,6,0,B|83:267|109:203|109:203|92:168|92:168|125:95|79:29,1,320
15,212,56065,1,0,0:0:0:0:
199,158,57003,2,0,L|371:171,1,160
504,44,58878,5,0,0:0:0:0:
491,138,59346,1,0,0:0:0:0:
476,233,59815,1,4,0:0:0:0:
256,192,60049,12,0,64034,0:0:0:0:
