osu file format v14

[General]
AudioFilename: audio.mp3
AudioLeadIn: 0
PreviewTime: -1
Countdown: 1
SampleSet: None
StackLeniency: 0.7
Mode: 0
LetterboxInBreaks: 0
WidescreenStoryboard: 1

[Editor]
Bookmarks: 3187,7024,11908,23071,33536,39292,50978,61792,73304,83943,95629,106802,116395,122500,134360,157034,167674
DistanceSpacing: 1.2
BeatDivisor: 4
GridSize: 4
TimelineZoom: 1

[Metadata]
Title:Crimson Blitz ~ Battle Theme
TitleUnicode:Crimson Blitz ~ Battle Theme
Artist:Masashi Hamauzu
ArtistUnicode:Masashi Hamauzu
Creator:gamebrain1
Version:Anubys
Source:Lightning Returns: Final Fantasy XIII
Tags:
BeatmapID:1041132
BeatmapSetID:488344

[Difficulty]
HPDrainRate:6
CircleSize:6
OverallDifficulty:6
ApproachRate:6
SliderMultiplier:1.4
SliderTickRate:1

[Events]
//Background and Video events
0,0,"light.jpg",0,0
//Break Periods
//Storyboard Layer 0 (Background)
//Storyboard Layer 1 (Fail)
//Storyboard Layer 2 (Pass)
//Storyboard Layer 3 (Foreground)
//Storyboard Sound Samples

[TimingPoints]
930.307672829903,697.674418604651,4,1,0,66,1,0

[Colours]
Combo1 : 192,192,192
Combo2 : 128,0,64
Combo3 : 128,0,0
Combo4 : 64,128,128

[HitObjects]
100,100,920,5,0,0:0:0:0:
160,108,1104,1,0,0:0:0:0:
124,128,1279,2,0,P|148:80|224:216,1,350
396,64,3721,5,0,0:0:0:0:
424,148,4069,1,0,0:0:0:0:
408,164,4244,2,0,P|304:236|304:240,1,140
272,256,5116,2,0,L|276:304,1,35
324,312,5290,1,0,0:0:0:0:
356,340,5465,1,0,0:0:0:0:
392,320,5639,1,0,0:0:0:0:
436,272,5988,1,0,0:0:0:0:
396,164,6511,2,0,B|384:272|384:272|396:168,1,210
432,164,7732,1,0,0:0:0:0:
380,220,8081,2,0,P|220:268|248:140,1,350
348,212,10348,1,0,0:0:0:0:
372,252,10523,1,0,0:0:0:0:
344,276,10697,2,0,L|128:280,1,210
128,184,12093,6,0,L|224:64,1,140
384,72,13488,2,0,L|320:276,1,210
408,324,14883,2,0,B|396:172|264:200|384:68|448:396|196:164|344:112,1,315
232,44,16976,1,0,0:0:0:0:
68,84,17674,1,0,0:0:0:0:
92,120,17848,2,0,P|212:252|256:236,1,245
352,208,20290,1,0,0:0:0:0:
392,204,20465,2,0,B|460:108|332:80|204:208|452:308|76:192|392:40|136:104|212:288|40:224|164:48|292:64|316:64|368:64,1,525
404,68,23255,5,0,0:0:0:0:
392,104,23430,2,0,L|352:200,1,105
348,208,23953,2,0,L|264:340,1,140
252,332,24651,2,0,L|148:180,1,175
172,148,25697,1,0,0:0:0:0:
208,124,25872,1,0,0:0:0:0:
248,116,26046,2,0,B|372:104|344:216|168:240,1,280
316,152,28139,1,0,0:0:0:0:
388,200,28488,1,0,0:0:0:0:
380,284,28837,2,0,P|188:312|224:32,1,560
260,32,31802,2,0,L|408:52,1,140
388,92,32674,2,0,P|344:224|344:232,1,140
256,192,34418,12,0,36511,0:0:0:0:
256,192,37209,12,0,38604,0:0:0:0:
140,96,40000,6,0,L|280:96,1,140
292,136,40872,2,0,L|112:196,1,175
180,256,42093,1,0,0:0:0:0:
264,252,42441,1,0,0:0:0:0:
340,220,42790,2,0,P|424:144|288:116,1,315
232,228,44883,2,0,B|380:248|376:248,1,140
388,208,45755,2,0,B|416:108|240:116|200:136,1,245
256,192,48372,12,0,50465,0:0:0:0:
356,104,51162,6,0,B|208:176|208:176|380:92,1,350
440,148,53255,1,0,0:0:0:0:
400,220,53604,1,0,0:0:0:0:
328,264,53953,2,0,P|160:260|148:140,1,315
228,124,55872,2,0,P|368:128|280:320,1,420
256,192,59360,12,0,61627,0:0:0:0:
120,160,62325,6,0,P|152:128|240:144,1,140
216,180,63197,2,0,P|256:228|336:168,1,175
408,132,64418,1,0,0:0:0:0:
404,216,64767,1,0,0:0:0:0:
388,300,65116,2,0,P|240:284|292:152,1,315
396,176,67209,2,0,P|400:104|304:96,1,175
284,116,68255,2,0,P|204:112|220:244,1,245
340,236,70000,1,0,0:0:0:0:
444,104,70697,1,0,0:0:0:0:
328,56,71221,1,0,0:0:0:0:
204,76,71744,1,0,0:0:0:0:
156,192,72267,1,0,0:0:0:0:
204,260,72616,1,0,0:0:0:0:
284,280,72965,2,0,L|344:272,1,35
404,272,73488,6,0,L|388:128,1,140
348,116,74360,2,0,L|164:92,1,175
136,168,75581,2,0,L|180:228,1,70
236,284,76279,2,0,P|304:304|296:136,1,315
184,100,78372,2,0,P|148:180|160:272,1,175
196,280,79418,2,0,P|288:320|356:212,1,245
256,192,81511,12,0,83604,0:0:0:0:
336,96,84651,5,0,0:0:0:0:
296,100,84825,1,0,0:0:0:0:
296,100,85000,2,0,P|312:256|180:208,1,350
128,56,87441,5,0,0:0:0:0:
212,68,87790,1,0,0:0:0:0:
252,84,87965,2,0,P|344:128|328:176,1,140
336,232,89011,1,0,0:0:0:0:
312,268,89186,1,0,0:0:0:0:
280,292,89360,1,0,0:0:0:0:
200,264,89709,1,0,0:0:0:0:
240,188,90058,5,0,0:0:0:0:
280,192,90232,2,0,P|320:208|288:112,1,210
276,88,91453,1,0,0:0:0:0:
192,84,91802,2,0,P|156:152|336:292,1,350
432,224,94069,1,0,0:0:0:0:
424,184,94244,1,0,0:0:0:0:
404,148,94418,2,0,P|336:108|224:168,1,210
168,220,95814,6,0,P|92:232|76:160,1,140
208,88,97209,2,0,P|348:112|352:176,1,210
320,228,98604,2,0,P|256:292|216:144,1,315
324,96,100697,1,0,0:0:0:0:
160,68,101395,1,0,0:0:0:0:
132,100,101569,2,0,P|104:196|208:292,1,245
404,80,104011,1,0,0:0:0:0:
412,120,104186,2,0,B|416:200|356:200|352:252|432:264|348:288|248:248|280:192|284:116|228:132|188:184|144:36|32:180,1,525
56,212,106976,5,0,0:0:0:0:
92,232,107151,2,0,L|208:296,1,105
183,282,107674,2,0,P|268:288|308:252,1,140
308,252,108372,2,0,P|360:180|324:108,1,175
288,96,109418,1,0,0:0:0:0:
248,84,109593,1,0,0:0:0:0:
208,96,109767,2,0,P|128:160|188:304,1,280
356,300,111860,1,0,0:0:0:0:
312,228,112209,1,0,0:0:0:0:
256,192,112558,12,0,115348,0:0:0:0:
208,136,115523,6,0,B|76:192|76:192|204:136,1,280
256,192,118139,12,0,120232,0:0:0:0:
256,192,120930,12,0,122151,0:0:0:0:
72,64,123721,6,0,B|220:60|220:60|376:192,1,350
420,260,125814,1,0,0:0:0:0:
368,328,126162,1,0,0:0:0:0:
288,296,126511,2,0,P|204:320|192:144,1,315
292,92,128604,2,0,P|400:160|232:300,1,420
256,192,132093,12,0,134186,0:0:0:0:
164,208,134883,6,0,P|192:108|392:156,1,350
440,216,136976,1,0,0:0:0:0:
396,288,137325,1,0,0:0:0:0:
312,288,137674,2,0,P|204:280|208:104,1,315
284,88,139593,2,0,P|264:128|492:304,1,420
256,192,143081,12,0,145348,0:0:0:0:
152,88,146046,6,0,P|148:124|188:224,1,140
224,220,146918,2,0,P|256:192|216:72,1,175
152,108,148139,1,0,0:0:0:0:
96,172,148488,1,0,0:0:0:0:
136,244,148837,2,0,P|216:300|424:264,1,315
452,144,150930,2,0,P|364:112|280:108,1,175
240,108,151976,2,0,P|184:168|236:312,1,245
356,284,153721,5,0,0:0:0:0:
444,140,154418,1,0,0:0:0:0:
336,76,154941,1,0,0:0:0:0:
208,72,155465,1,0,0:0:0:0:
140,176,155988,1,0,0:0:0:0:
188,244,156337,1,0,0:0:0:0:
264,276,156686,1,0,0:0:0:0:
304,272,156860,1,0,0:0:0:0:
384,240,157209,6,0,P|432:160|408:136,1,140
376,116,158081,2,0,P|288:84|204:104,1,175
132,136,159302,2,0,L|88:208,1,70
168,236,160000,2,0,P|288:292|268:132,1,350
164,92,162267,2,0,L|108:264,1,175
144,284,163314,2,0,P|348:312|364:300,1,245
256,192,165407,12,0,167500,0:0:0:0:
256,196,168372,5,0,0:0:0:0:
296,184,168546,1,0,0:0:0:0:
296,184,168721,2,0,P|296:140|184:232,1,350
328,152,171162,5,0,0:0:0:0:
272,88,171511,1,0,0:0:0:0:
272,88,171686,2,0,L|120:144,1,140
160,172,172558,2,0,P|224:268|336:240,1,245
356,204,173953,2,0,P|372:128|256:112,1,210
232,128,175174,1,0,0:0:0:0:
148,132,175523,2,0,P|92:260|264:328,1,350
360,272,177790,1,0,0:0:0:0:
360,272,177965,2,0,L|416:64,1,210
316,148,179534,5,0,0:0:0:0:
256,192,179709,12,0,181627,0:0:0:0:
256,192,181976,5,0,0:0:0:0:
288,164,182151,1,0,0:0:0:0:
272,124,182325,2,0,P|232:128|208:224,1,140
276,172,183372,1,0,0:0:0:0:
248,204,183546,1,0,0:0:0:0:
220,172,183721,2,0,P|240:128|320:152,1,140
256,192,185116,12,0,190174,0:0:0:0:
