osu file format v14

[General]
AudioFilename: anthem.mp3
AudioLeadIn: 0
PreviewTime: 7666
Countdown: 0
SampleSet: None
StackLeniency: 0.7
Mode: 0
LetterboxInBreaks: 0
EpilepsyWarning: 1
WidescreenStoryboard: 1

[Editor]
Bookmarks: 5443,9888,14332,17666,20110,35221,35666,35888,36110,36999,38777,39221,39443,39666,40554,40999,41221,41443,42554,43221,46777,47443,47666,48332,50332,51221,51666,51888,52110,62777,64110,64554,64777,65221,65888,67666,73443,74777,82332,83221,83666,100110,100777,100999,101666,110777,113443,114332,116110,116554,116999
DistanceSpacing: 2
BeatDivisor: 4
GridSize: 4
TimelineZoom: 2.7

[Metadata]
Title:Akogare no Budoukai
TitleUnicode:あこがれの舞踏会
Artist:Masaru Yokoyama
ArtistUnicode:クラムボン
Creator:-NeBu-
Version:The Anthem of The Hearth
Source:心が叫びたがってるんだ。
Tags:Kokoro ga Sakebitagatterunda musical anime movie nebu refaller exkyu eclipselotus shiratoi eraser
BeatmapID:1418641
BeatmapSetID:481088

[Difficulty]
HPDrainRate:6.5
CircleSize:4.7
OverallDifficulty:8.3
ApproachRate:8.7
SliderMultiplier:1.7
SliderTickRate:1

[Events]
//Background and Video events
0,0,"theanthem.jpg",0,0
//Break Periods
//Storyboard Layer 0 (Background)
//Storyboard Layer 1 (Fail)
//Storyboard Layer 2 (Pass)
//Storyboard Layer 3 (Foreground)
Sprite,Foreground,Centre,"SB\Grey.png",320,240 M,0,6332,7221,306.674,-128.2192,310.1808,-127.5178 F,0,6332,7666,1 M,0,7221,7666,310.1808,-127.5178,316.4931,-477.5014
Sprite,Foreground,Centre,"SB\Grey.png",320,240 M,0,6332,7221,217.6,634.1699,220.4055,633.4686 F,0,6332,7666,1 M,0,7221,7666,220.4055,633.4686,220.4055,888.7673
Sprite,Foreground,Centre,"SB\Purple.png",320,240 M,0,5443,6332,-393.2931,256.8329 F,0,5443,7221,1 M,0,6332,6777,-393.2931,256.8329,-943.1671,258.2356
Sprite,Foreground,Centre,"SB\Purple.png",320,240 M,0,5443,6332,965.9617,266.652 F,0,5443,7221,1 M,0,6332,6777,965.9617,266.652,1517.94,284.1863
Sprite,Foreground,Centre,"SB\Red.png",320,240 M,0,4554,5443,279.3206,634.1699,280.7234,632.7671 F,0,4554,6332,1 M,0,5443,5888,280.7234,632.7671,281.4247,891.5726
Sprite,Foreground,Centre,"SB\Red.png",320,240 M,0,4554,5443,338.937,-128.9205,338.937,-128.2192 F,0,4554,6332,1 M,0,5443,5888,338.937,-128.2192,349.4575,-469.7863
Sprite,Foreground,Centre,"SB\Yellow.png",320,240 M,0,3666,4554,-394.6959,188.8,-393.9945,188.8 F,0,3666,5443,1 M,0,4554,4999,-393.9945,188.8,-935.452,195.8137
Sprite,Foreground,Centre,"SB\Yellow.png",320,240 M,0,3666,4554,966.663,193.0083,965.2603,193.7096 F,0,3666,5443,1 M,0,4554,4999,965.2603,193.7096,1513.732,272.9644
Sprite,Foreground,Centre,"SB\Pink.png",320,240 M,0,2777,3666,327.7151,-128.2192,327.0137,-126.8165 F,0,2777,4554,1 M,0,3666,4110,327.0137,-126.8165,328.4164,-472.5918
Sprite,Foreground,Centre,"SB\Pink.png",320,240 M,0,2777,3666,296.8548,634.1699,296.8548,632.7671 F,0,2777,4554,1 M,0,3666,4110,296.8548,632.7671,284.9315,883.1561
Sprite,Foreground,Centre,"SB\Brown.png",320,240 M,0,1888,2777,-393.9945,157.9397,-395.3973,157.9397 F,0,1888,3666,1 M,0,2777,3221,-395.3973,157.9397,-937.5562,150.2246
Sprite,Foreground,Centre,"SB\Brown.png",320,240 M,0,1888,2777,963.8575,171.9671,965.2603,172.6685 F,0,1888,3666,1 M,0,2777,3221,965.2603,172.6685,1515.134,185.9945
Sprite,Foreground,Centre,"SB\Green.png",320,240 M,0,999,1443,338.937,-129.6219,338.937,-127.5178 F,0,999,2332,1 M,0,1443,1888,338.937,-127.5178,324.2082,-126.8165 M,0,1888,2332,324.2082,-126.8165,344.548,-462.0713 F,0,2332,2777,1
Sprite,Foreground,Centre,"SB\Green.png",320,240 M,0,999,1888,363.485,635.5726,363.485,634.8712 F,0,999,2332,1 M,0,1888,2332,363.485,634.8712,364.1863,884.5589 F,0,2332,2777,1
Sprite,Foreground,Centre,"SB\Blue.png",320,240 M,0,332,999,-393.9946,173.3699,-391.8905,173.3699 F,0,332,1888,1 M,0,999,1443,-391.8905,173.3699,-930.5425,155.8356 F,0,1888,2332,1
Sprite,Foreground,Centre,"SB\Blue.png",320,240 M,0,332,999,967.3644,266.6521,965.9617,266.6521 F,0,332,1888,1 M,0,999,1443,965.9617,266.6521,1510.926,275.0685 F,0,1888,2332,1
Sprite,Foreground,Centre,"SB\Black.png",320,240 F,0,-1222,332,1 F,0,332,555,1,0
Sprite,Foreground,Centre,"theanthem.jpg",320,240 F,0,7666,8110,1,0 S,0,7666,8110,0.6423014,0.7895889
Sprite,Foreground,Centre,"theanthem.jpg",320,240 F,0,11221,11665,1,0 S,0,11221,11666,0.6423014,0.6703562
Sprite,Foreground,Centre,"theanthem.jpg",320,240 F,0,14777,15221,1,0 S,0,14777,15221,0.6423014,0.6633425
Sprite,Foreground,Centre,"theanthem.jpg",320,240 F,0,18332,18776,1,0 S,0,18332,18776,0.6423014,0.6633425
Sprite,Foreground,Centre,"theanthem.jpg",320,240 F,0,21888,22332,1,0 S,0,21888,22332,0.6423014,0.7825754
Sprite,Foreground,Centre,"theanthem.jpg",320,240 F,0,25443,25887,1,0 S,0,25443,25887,0.6423014,0.6633425
Sprite,Foreground,Centre,"theanthem.jpg",320,240 F,0,28999,29443,1,0 S,0,28999,29443,0.6423014,0.6633425
Sprite,Foreground,Centre,"theanthem.jpg",320,240 F,0,32554,32998,1,0 S,0,32554,32998,0.6423014,0.6633425
Sprite,Foreground,Centre,"theanthem.jpg",320,240 F,0,36110,36554,1,0 S,0,36110,36554,0.6423014,0.7825754
Sprite,Foreground,Centre,"theanthem.jpg",320,240 F,0,50332,50776,1,0 S,0,50332,50776,0.6423014,0.7825754
Sprite,Foreground,Centre,"theanthem.jpg",320,240 F,0,64554,64998,1,0 S,0,64554,64998,0.6423014,0.7825754
Sprite,Foreground,Centre,"theanthem.jpg",320,240 F,0,78777,79221,1,0 S,0,78777,79221,0.6423014,0.7825754
Sprite,Foreground,Centre,"theanthem.jpg",320,240 F,0,92999,93443,1,0 S,0,92999,93443,0.6423014,0.7825754
Sprite,Foreground,Centre,"theanthem.jpg",320,240 F,0,110777,111221,1,0 S,0,110777,111221,0.6423014,0.7825754
Sprite,Foreground,Centre,"theanthem.jpg",320,240 F,0,108999,109443,1,0 S,0,108999,109443,0.6423014,0.7825754
Sprite,Foreground,Centre,"theanthem.jpg",320,240 F,0,109888,110332,1,0 S,0,109888,110332,0.6423014,0.7825754
Sprite,Foreground,Centre,"theanthem.jpg",320,240 F,0,39666,40110,1,0 S,0,39666,40110,0.6423014,0.6633425
Sprite,Foreground,Centre,"theanthem.jpg",320,240 F,0,43221,43665,1,0 S,0,43221,43665,0.6423014,0.6633425
Sprite,Foreground,Centre,"theanthem.jpg",320,240 F,0,46777,47221,1,0 S,0,46777,47221,0.6423014,0.6633425
Sprite,Foreground,Centre,"theanthem.jpg",320,240 F,0,53888,54332,1,0 S,0,53888,54332,0.6423014,0.6633425
Sprite,Foreground,Centre,"theanthem.jpg",320,240 F,0,57443,57887,1,0 S,0,57443,57887,0.6423014,0.6633425
Sprite,Foreground,Centre,"theanthem.jpg",320,240 F,0,60999,61443,1,0 S,0,60999,61443,0.6423014,0.6633425
Sprite,Foreground,Centre,"theanthem.jpg",320,240 F,0,68110,68554,1,0 S,0,68110,68554,0.6423014,0.6633425
Sprite,Foreground,Centre,"theanthem.jpg",320,240 F,0,71666,72110,1,0 S,0,71666,72110,0.6423014,0.6633425
Sprite,Foreground,Centre,"theanthem.jpg",320,240 F,0,75221,75665,1,0 S,0,75221,75665,0.6423014,0.6633425
Sprite,Foreground,Centre,"theanthem.jpg",320,240 F,0,82332,82776,1,0 S,0,82332,82776,0.6423014,0.6633425
Sprite,Foreground,Centre,"theanthem.jpg",320,240 F,0,85888,86332,1,0 S,0,85888,86332,0.6423014,0.6633425
Sprite,Foreground,Centre,"theanthem.jpg",320,240 F,0,89443,89887,1,0 S,0,89443,89887,0.6423014,0.6633425
Sprite,Foreground,Centre,"theanthem.jpg",320,240 F,0,96554,96998,1,0 S,0,96554,96998,0.6423014,0.6633425
Sprite,Foreground,Centre,"theanthem.jpg",320,240 F,0,100110,100554,1,0 S,0,100110,100554,0.6423014,0.6633425
Sprite,Foreground,Centre,"theanthem.jpg",320,240 F,0,103666,104110,1,0 S,0,103666,104110,0.6423014,0.6633425
Sprite,Foreground,Centre,"theanthem.jpg",320,240 F,0,105443,105887,1,0 S,0,105443,105887,0.6423014,0.6633425
Sprite,Foreground,Centre,"theanthem.jpg",320,240 F,0,107221,107665,1,0 S,0,107221,107665,0.6423014,0.6633425
Sprite,Foreground,Centre,"theanthem.jpg",320,240 F,0,112554,112998,1,0 S,0,112554,112998,0.6423014,0.6633425
Sprite,Foreground,Centre,"theanthem.jpg",320,240 F,0,114332,114776,1,0 S,0,114332,114776,0.6423014,0.6633425
Sprite,Foreground,Centre,"SB\Cloud.png",320,240 S,0,7666,,2.830575 V,0,7666,,5,0.5932057 M,0,7666,116110,2479.518,88.5041,-1153.578,87.80274
Sprite,Foreground,Centre,"SB\Light.png",320,240 F,0,78666,78777,0,1 S,0,78777,,2.78148 P,0,78777,,H R,0,78777,79666,-1.809534,-2.595068 M,0,78777,85666,38.75068,47.82465,-26.84591,32.30399 F,0,78777,91221,1 R,0,79666,80554,-2.595068,-1.753425 R,0,80554,81443,-1.753425,-2.595068 R,0,81443,82332,-2.595068,-1.809534 R,0,82332,83221,-1.809534,-2.721315 R,0,83221,84110,-2.721315,-1.823562 R,0,84110,84999,-1.823562,-2.665206 R,0,84999,85777,-2.665206,-1.916374 M,0,85666,,-26.84591,32.30399,142.8856,397.7177 M,0,85666,85888,-26.84591,32.30399,34.17327,398.419 R,0,85777,85888,-1.916374,-4.432658 R,0,85888,86777,-4.432658,-3.562959 R,0,86777,87666,-3.562959,-4.432658 R,0,87666,88554,-4.432658,-3.506849 R,0,88554,89443,-3.506849,-4.488767 R,0,89443,90332,-4.488767,-3.464767 R,0,90332,91221,-3.464767,-4.404603
Sprite,Foreground,Centre,"SB\Light.png",320,240 F,0,78666,78777,0,1 S,0,78777,,2.78148 R,0,78777,79666,-1.809534,-2.595068 M,0,78777,85666,614.5753,374.663,632.4418,465.7506 F,0,78777,91221,1 R,0,79666,80554,-2.595068,-1.753425 R,0,80554,81443,-1.753425,-2.595068 R,0,81443,82332,-2.595068,-1.809534 R,0,82332,83221,-1.809534,-2.721315 R,0,83221,84110,-2.721315,-1.823562 R,0,84110,84999,-1.823562,-2.665206 R,0,84999,85777,-2.665206,-1.916374 M,0,85666,85755,632.4418,465.7506,701.5225,-364.5039 M,0,85755,85777,701.5225,-364.5039,505.1616,-415.7808 M,0,85777,85867,505.1616,-415.7808,605.3058,-73.32275 R,0,85777,85888,-1.916374,-4.432658 M,0,85867,85888,605.3058,-73.32275,620.8876,-86.83835 M,0,85888,85999,620.8876,-86.83835,606.8602,-61.58905 R,0,85888,86777,-4.432658,-3.562959 R,0,86777,87666,-3.562959,-4.432658 R,0,87666,88554,-4.432658,-3.506849 R,0,88554,89443,-3.506849,-4.488767 R,0,89443,90332,-4.488767,-3.464767 R,0,90332,91221,-3.464767,-4.404603
Sprite,Foreground,Centre,"SB\Black.png",320,240 F,0,48332,48554,0,1 S,0,48554,,1 F,0,48554,50221,1 F,0,50221,50332,1,0
Sprite,Foreground,Centre,"SB\Black.png",320,240 F,0,90999,91221,0,1 S,0,91221,,1 F,0,91221,92888,1 F,0,92888,92999,1,0
Sprite,Foreground,Centre,"SB\Light.png",320,240 F,0,110666,110777,0,1 M,0,110777,,-74.16987,463.0356 F,0,110777,,1 S,0,110777,,2.052055 R,0,110777,111221,-1.08011,-0.2665207 R,0,111221,111666,-0.2665207,-1.009972 R,0,111666,112110,-1.009972,-0.01402751 R,0,112110,112554,-0.01402751,-0.9959452 R,0,112554,112999,-0.9959452,-0.1122196 R,0,112999,113443,-0.1122196,-1.024001 R,0,113443,113888,-1.024001,0.05610891 R,0,113888,114332,0.05610891,-0.9538636 R,0,114332,114777,-0.9538636,-1.010895E-06 R,0,114777,115221,-1.010895E-06,-0.8977546 R,0,115221,115666,-0.8977546,0.0140264 R,0,115666,116110,0.0140264,-0.8696992
Sprite,Foreground,Centre,"SB\Light.png",320,240 F,0,110666,110777,0,1 F,0,110777,,1 S,0,110777,,2.052055 P,0,110777,,H P,0,110777,,V R,0,110777,111221,-1.08011,-0.2665207 M,0,110777,114332,635.6164,42.21375,637.0192,42.21375 R,0,111221,111666,-0.2665207,-1.009972 R,0,111666,112110,-1.009972,-0.01402751 R,0,112110,112554,-0.01402751,-0.9959452 R,0,112554,112999,-0.9959452,-0.1122196 R,0,112999,113443,-0.1122196,-1.024001 R,0,113443,113888,-1.024001,0.05610891 R,0,113888,114332,0.05610891,-0.9538636 R,0,114332,114777,-0.9538636,-1.010895E-06 R,0,114777,115221,-1.010895E-06,-0.8977546 R,0,115221,115666,-0.8977546,0.0140264 R,0,115666,116110,0.0140264,-0.8696992
Sprite,Foreground,Centre,"SB\Light.png",320,240 M,0,114332,,1102.027,205.6329 S,0,114332,,5 V,0,114332,,5,5 F,0,114332,114777,0,1 F,0,114777,116110,1
Sprite,Foreground,Centre,"SB\Brown.png",320,240 M,0,115888,116110,1516.537,253.326,965.9616,251.2219 F,0,115888,116332,1 M,0,116110,116332,965.9616,251.2219,965.2603,251.2219 F,0,116332,116999,1
Sprite,Foreground,Centre,"SB\Brown.png",320,240 M,0,115888,116110,-941.063,218.2575,-395.3972,202.8274 M,0,116110,116777,-395.3972,202.8274,-396.0986,202.126 F,0,116999,,1
Sprite,Foreground,Centre,"SB\Grey.png",320,240 M,0,116332,116554,358.5753,888.7671,340.3397,634.1699 F,0,116332,116999,1,0.9964932
Sprite,Foreground,Centre,"SB\Grey.png",320,240 M,0,116332,116554,280.7233,-469.085,283.5288,-126.8165 F,0,116999,,0.9964932
Sprite,Foreground,Centre,"SB\Black.png",320,240 M,0,116777,116999,-927.0356,865.6219,183.9342,251.2219 F,0,116777,118332,1 F,0,118332,119666,1
Sprite,Foreground,Centre,"SB\Black.png",320,240 M,0,116777,116999,1496.899,-443.8356,401.359,129.8849 F,0,116777,118332,1,0 F,0,117332,118332,0.7973882,0 F,0,118332,119666,0,1
Sprite,Foreground,Centre,"SB\Black.png",320,240 M,0,76999,,320,240 F,0,76999,78666,0,1 F,0,78666,78777,1,0
Sprite,Foreground,Centre,"SB\StoryboardBy.png",320,240 F,0,117332,117443,0,1 M,0,117443,,396.4493,476.3616 F,0,117443,118332,1 F,0,118332,119666,1
Sprite,Foreground,Centre,"SB\ThanksForPlaying.png",320,240 M,0,116999,,221.8082,254.7288 F,0,116999,117110,0,1 F,0,117110,118332,1 F,0,118332,119666,1
Sprite,Foreground,Centre,"SB\MapsetBy.png",320,240 M,0,117221,,446.9479,480.5699 S,0,117221,,1 F,0,117221,117332,0,1 F,0,117332,119666,1
//Storyboard Sound Samples

[TimingPoints]
555,444.444444444444,4,3,0,55,1,0
7666,-100,4,3,0,55,0,0
43221,-100,4,3,0,30,0,0
44110,-100,4,3,0,40,0,0
44999,-100,4,3,0,55,0,0
46777,-100,4,3,0,60,0,0
47666,-100,4,3,0,70,0,0
48554,-100,4,1,0,35,0,0
50332,-100,4,3,0,55,0,0
78777,-80,4,3,0,65,0,1
90999,-80,4,3,0,65,0,1
91221,-80,4,1,0,35,0,1
92999,-100,4,3,0,60,0,0
110777,-66.6666666666667,4,3,0,70,0,1
116999,-100,4,3,0,70,0,0

[Colours]
Combo1 : 242,242,242
Combo2 : 18,124,255
Combo3 : 112,112,143
SliderTrackOverride : 35,20,80

[HitObjects]
67,246,555,6,0,P|58:200|72:162,1,85,0|0,0:2|0:0,0:0:0:0:
134,208,999,2,0,P|160:169|196:152,1,85,0|0,0:2|0:0,0:0:0:0:
208,230,1443,2,0,P|254:221|292:235,1,85,0|0,0:2|0:0,0:0:0:0:
352,280,1888,1,0,0:0:0:0:
372,280,1999,1,0,0:0:0:0:
391,273,2110,1,2,2:0:0:0:
405,258,2221,1,0,0:0:0:0:
409,237,2332,6,0,L|400:152,1,85,0|0,0:0|2:0,0:0:0:0:
332,182,2777,2,0,L|265:128,1,85,0|0,0:0|0:0,0:0:0:0:
222,187,3221,2,0,L|137:196,1,85,0|2,0:0|2:0,0:0:0:0:
68,173,3666,1,0,0:0:0:0:
49,164,3777,1,0,0:0:0:0:
35,150,3888,1,2,2:0:0:0:
29,130,3999,1,0,0:0:0:0:
27,113,4110,6,0,P|32:67|61:33,1,85,0|0,0:2|0:0,0:0:0:0:
102,99,4554,2,0,P|139:71|180:68,1,85,0|0,0:2|0:0,0:0:0:0:
164,144,4998,2,0,P|210:151|241:177,1,85,0|0,0:2|0:0,0:0:0:0:
251,262,5443,1,2,0:2:0:0:
260,281,5554,1,0,0:0:0:0:
274,295,5665,1,0,0:0:0:0:
294,301,5776,1,0,0:0:0:0:
315,296,5887,6,0,L|400:280,1,85,0|0,0:0|0:0,0:0:0:0:
364,213,6332,2,0,L|412:141,1,85,0|0,0:0|2:0,0:0:0:0:
341,116,6777,2,0,L|325:31,1,85,2|0,0:2|0:0,0:0:0:0:
260,4,7221,1,2,0:2:0:0:
240,8,7332,1,0,0:0:0:0:
220,12,7443,1,0,0:0:0:0:
200,16,7554,1,0,0:0:0:0:
180,20,7666,5,4,0:2:0:0:
16,68,7888,1,0,2:0:0:0:
180,108,8110,1,0,0:0:0:0:
68,236,8332,1,0,2:0:0:0:
104,72,8554,1,0,0:0:0:0:
152,236,8777,1,2,2:0:0:0:
272,116,8999,2,0,L|356:128,1,85,0|2,0:0|2:0,0:0:0:0:
384,280,9443,2,0,L|300:292,1,85,0|0,0:0|0:0,0:0:0:0:
132,324,9888,5,0,0:0:0:0:
204,172,10110,1,0,0:0:0:0:
224,340,10332,1,0,0:0:0:0:
304,188,10554,1,2,2:0:0:0:
304,188,10666,1,2,2:0:0:0:
304,188,10777,2,0,L|400:176,1,85,0|2,0:0|2:0,0:0:0:0:
256,72,11221,5,0,0:0:0:0:
100,140,11443,1,0,2:0:0:0:
236,240,11666,1,0,0:0:0:0:
160,88,11888,1,0,2:0:0:0:
80,236,12110,2,0,P|72:279|90:320,1,85,0|2,0:0|2:0,0:0:0:0:
236,240,12554,2,0,P|246:196|232:156,1,85,0|2,0:0|2:0,0:0:0:0:
148,12,12999,5,0,0:0:0:0:
68,160,13221,1,0,0:0:0:0:
216,76,13443,1,0,0:0:0:0:
48,88,13666,1,0,0:0:0:0:
216,76,13888,1,0,0:0:0:0:
216,76,13999,1,0,0:0:0:0:
216,76,14110,1,2,2:0:0:0:
384,44,14332,1,0,0:0:0:0:
394,62,14443,1,0,2:0:0:0:
398,83,14554,1,2,2:0:0:0:
397,104,14665,1,0,0:0:0:0:
390,124,14776,5,0,0:0:0:0:
320,280,14999,1,0,0:0:0:0:
472,204,15221,2,0,L|484:292,1,85,0|0,0:0|2:0,0:0:0:0:
336,200,15666,1,0,0:0:0:0:
404,356,15888,1,0,0:0:0:0:
240,312,16110,2,0,L|152:308,1,85,0|2,0:0|2:0,0:0:0:0:
48,176,16554,5,0,0:0:0:0:
88,340,16777,1,0,2:0:0:0:
152,180,16999,1,0,0:0:0:0:
12,272,17221,1,2,2:0:0:0:
152,180,17443,2,0,L|248:172,1,85,0|2,0:0|2:0,0:0:0:0:
404,144,17888,1,0,0:0:0:0:
410,123,17999,1,0,0:0:0:0:
411,102,18110,1,2,2:0:0:0:
404,82,18221,1,0,0:0:0:0:
392,65,18332,5,0,0:0:0:0:
224,40,18554,1,0,2:0:0:0:
324,180,18777,2,0,L|336:272,1,85,0|0,0:0|0:0,0:0:0:0:
164,276,19221,1,0,0:0:0:0:
316,356,19443,1,2,2:0:0:0:
164,276,19666,2,0,P|143:234|147:196,1,85,0|2,0:0|2:0,0:0:0:0:
240,56,20110,5,0,0:0:0:0:
408,40,20332,1,0,2:0:0:0:
280,152,20554,1,0,0:0:0:0:
444,200,20777,1,0,2:0:0:0:
320,84,20999,1,2,0:2:0:0:
344,252,21221,1,0,0:0:0:0:
240,120,21443,1,2,0:2:0:0:
220,113,21554,1,0,0:0:0:0:
199,112,21665,1,0,0:0:0:0:
178,118,21776,1,0,0:0:0:0:
160,129,21887,5,4,0:2:0:0:
132,296,22110,1,0,2:0:0:0:
264,192,22332,1,0,0:0:0:0:
96,168,22554,1,0,2:0:0:0:
212,292,22777,2,0,L|300:284,1,85,0|2,0:0|2:0,0:0:0:0:
360,128,23221,1,0,0:0:0:0:
444,276,23443,1,2,2:0:0:0:
360,128,23666,2,0,L|272:148,1,85
248,316,24110,5,0,0:0:0:0:
136,188,24332,1,0,0:0:0:0:
300,232,24554,1,0,0:0:0:0:
140,288,24777,1,2,2:0:0:0:
232,148,24999,1,0,0:0:0:0:
248,316,25221,1,2,2:0:0:0:
136,188,25443,6,0,P|126:144|136:104,1,85,0|0,0:0|2:0,0:0:0:0:
280,24,25888,1,0,0:0:0:0:
356,180,26110,1,0,2:0:0:0:
280,24,26332,2,0,L|192:20,1,85,0|2,0:0|2:0,0:0:0:0:
248,184,26777,1,0,0:0:0:0:
408,128,26999,1,2,2:0:0:0:
328,280,27221,5,0,0:0:0:0:
324,112,27443,1,0,0:0:0:0:
244,264,27666,1,0,0:0:0:0:
148,124,27888,1,0,0:0:0:0:
72,276,28110,1,0,0:0:0:0:
84,292,28221,1,0,0:0:0:0:
101,306,28332,1,2,2:0:0:0:
120,314,28443,1,0,0:0:0:0:
140,316,28554,2,0,L|192:328,1,42.5,0|0,0:0|2:0,0:0:0:0:
258,342,28777,2,0,L|300:336,1,42.5,2|2,2:0|2:0,0:0:0:0:
364,284,28999,5,0,0:0:0:0:
460,144,29221,1,0,0:0:0:0:
300,196,29443,2,0,L|204:204,1,85,0|0,0:0|2:0,0:0:0:0:
384,204,29888,1,0,0:0:0:0:
300,56,30110,1,2,2:0:0:0:
143,133,30332,1,0,0:0:0:0:
129,149,30443,1,0,0:0:0:0:
120,168,30554,1,0,2:0:0:0:
115,189,30665,1,0,0:0:0:0:
114,210,30776,5,0,0:0:0:0:
260,296,30999,1,0,0:0:0:0:
308,132,31221,2,0,P|346:112|392:120,1,85,0|2,0:0|2:0,0:0:0:0:
472,264,31666,1,0,0:0:0:0:
492,96,31888,1,2,2:0:0:0:
404,240,32110,1,0,0:0:0:0:
382,242,32221,1,0,2:0:0:0:
361,244,32332,1,2,2:0:0:0:
340,246,32443,1,0,0:0:0:0:
319,248,32554,5,0,0:0:0:0:
152,208,32777,1,0,2:0:0:0:
268,84,32999,2,0,P|307:69|352:80,1,85
244,212,33443,1,0,0:0:0:0:
196,48,33666,1,2,2:0:0:0:
313,166,33888,2,0,P|326:206|317:250,1,85,0|2,0:0|2:0,0:0:0:0:
160,308,34332,5,0,0:0:0:0:
324,348,34554,1,0,2:0:0:0:
181,322,34777,5,0,0:0:0:0:
350,333,34999,1,2,2:0:0:0:
205,333,35221,5,8,0:0:0:0:
373,315,35443,1,0,0:0:0:0:
432,156,35666,1,4,0:0:0:0:
264,168,35888,1,0,0:0:0:0:
249,171,35999,1,0,0:0:0:0:
232,172,36110,6,0,L|144:164,1,85,4|0,0:2|0:0,0:0:0:0:
276,56,36554,1,0,0:0:0:0:
320,220,36777,1,0,0:0:0:0:
152,236,36999,2,0,P|112:228|81:190,1,85,0|2,0:0|2:0,0:0:0:0:
188,60,37443,1,0,0:0:0:0:
332,148,37666,1,2,2:0:0:0:
260,300,37888,5,0,0:0:0:0:
396,200,38110,1,0,2:0:0:0:
260,300,38332,2,0,L|168:310,1,85,0|0,0:0|2:0,0:0:0:0:
344,320,38777,1,0,0:0:0:0:
340,299,38888,1,0,0:0:0:0:
337,278,38999,1,2,2:0:0:0:
333,257,39110,1,0,0:0:0:0:
330,236,39221,1,0,0:0:0:0:
160,236,39443,1,2,2:0:0:0:
160,236,39554,1,0,0:0:0:0:
160,236,39666,6,0,L|168:152,1,85,0|0,0:0|0:0,0:0:0:0:
272,16,40110,1,0,0:0:0:0:
240,184,40332,1,0,2:0:0:0:
400,124,40554,1,0,0:0:0:0:
402,145,40665,1,0,0:0:0:0:
405,166,40776,1,2,2:0:0:0:
408,187,40887,1,0,0:0:0:0:
411,208,40998,1,0,0:0:0:0:
368,372,41221,1,2,2:0:0:0:
368,372,41332,1,0,2:0:0:0:
368,372,41443,5,0,0:0:0:0:
208,312,41666,1,0,0:0:0:0:
332,196,41888,1,0,0:0:0:0:
168,152,42110,1,0,0:0:0:0:
288,32,42332,1,0,0:0:0:0:
168,152,42554,1,2,2:0:0:0:
151,164,42665,1,0,0:0:0:0:
138,181,42776,1,0,0:0:0:0:
130,201,42887,1,0,0:0:0:0:
129,222,42998,1,2,2:0:0:0:
133,243,43109,1,0,0:0:0:0:
144,264,43221,6,0,L|232:284,1,85,0|0,0:0|0:0,0:0:0:0:
380,204,43666,1,0,0:0:0:0:
308,360,43888,1,0,0:0:0:0:
296,192,44110,2,0,L|312:104,1,85,0|0,0:0|0:0,0:0:0:0:
456,24,44554,1,0,0:0:0:0:
460,196,44777,1,2,2:0:0:0:
311,108,44999,5,0,0:0:0:0:
136,84,45221,1,0,0:0:0:0:
212,244,45443,1,0,0:0:0:0:
36,216,45666,1,0,0:0:0:0:
196,136,45888,1,0,0:0:0:0:
92,284,46110,1,2,2:0:0:0:
252,364,46332,1,0,0:0:0:0:
360,224,46554,1,2,2:0:0:0:
360,224,46666,1,0,0:0:0:0:
360,224,46777,6,0,L|372:128,1,85,0|0,0:0|2:0,0:0:0:0:
244,16,47221,1,0,0:0:0:0:
284,188,47443,1,0,2:0:0:0:
164,56,47666,2,0,L|68:44,1,85,0|2,0:0|2:0,0:0:0:0:
112,220,48110,1,0,0:0:0:0:
232,88,48332,1,0,0:0:0:0:
200,264,48554,5,4,0:2:0:0:
200,264,49888,2,0,L|292:260,1,85,4|0,2:3|0:0,0:0:0:0:
436,180,50332,5,4,0:2:0:0:
340,320,50554,1,0,0:0:0:0:
504,268,50777,1,0,0:0:0:0:
352,196,50999,2,0,L|344:148,1,42.5,2|0,2:0|0:0,0:0:0:0:
300,84,51221,1,0,0:0:0:0:
281,73,51332,1,0,2:0:0:0:
260,68,51443,1,2,2:0:0:0:
239,68,51554,1,2,2:0:0:0:
219,74,51665,1,0,0:0:0:0:
52,100,51888,1,2,2:0:0:0:
52,100,51999,1,0,0:0:0:0:
52,100,52110,5,0,0:0:0:0:
28,256,52332,1,0,2:0:0:0:
180,176,52554,1,0,0:0:0:0:
164,344,52777,1,0,2:0:0:0:
180,176,52999,1,0,0:0:0:0:
256,332,53221,1,2,2:0:0:0:
180,176,53443,1,0,0:0:0:0:
356,192,53666,1,2,2:0:0:0:
356,192,53777,1,0,0:0:0:0:
356,192,53888,6,0,L|368:100,1,85,0|0,0:0|0:0,0:0:0:0:
232,8,54332,1,0,0:0:0:0:
280,172,54554,1,2,2:0:0:0:
232,8,54777,1,0,0:0:0:0:
210,9,54888,1,0,0:0:0:0:
189,11,54999,1,2,2:0:0:0:
168,12,55110,1,2,2:0:0:0:
147,14,55221,1,0,0:0:0:0:
0,92,55443,1,2,2:0:0:0:
0,92,55554,1,0,2:0:0:0:
0,92,55666,5,0,0:0:0:0:
36,256,55888,1,2,2:0:0:0:
136,120,56110,1,0,0:0:0:0:
144,288,56332,1,0,0:0:0:0:
252,160,56554,1,0,0:0:0:0:
276,324,56777,1,2,2:0:0:0:
276,324,56888,1,2,2:0:0:0:
276,324,56999,1,0,0:0:0:0:
408,216,57221,1,2,2:0:0:0:
408,216,57332,1,0,0:0:0:0:
408,216,57443,6,0,L|400:120,1,85,0|0,0:0|0:0,0:0:0:0:
260,32,57888,1,0,0:0:0:0:
244,200,58110,1,2,2:0:0:0:
344,64,58332,2,0,L|428:52,1,85,0|0,0:0|0:0,0:0:0:0:
488,212,58777,1,0,0:0:0:0:
324,168,58999,1,0,2:0:0:0:
372,332,59221,5,0,0:0:0:0:
212,272,59443,1,2,2:0:0:0:
380,244,59666,1,0,0:0:0:0:
212,272,59888,1,2,2:0:0:0:
212,272,59999,1,0,0:0:0:0:
212,272,60110,5,0,0:0:0:0:
92,148,60332,1,0,2:0:0:0:
124,316,60554,1,0,0:0:0:0:
92,148,60777,1,2,2:0:0:0:
92,148,60888,1,0,0:0:0:0:
92,148,60999,5,0,0:0:0:0:
256,96,61221,1,0,2:0:0:0:
144,224,61443,1,0,0:0:0:0:
96,60,61666,1,2,2:0:0:0:
260,100,61888,1,0,0:0:0:0:
304,264,62110,1,0,0:0:0:0:
304,264,62221,1,0,0:0:0:0:
304,264,62332,1,0,0:0:0:0:
436,156,62554,1,0,0:0:0:0:
256,192,62777,12,2,64110,0:2:0:0:
291,65,64554,6,0,P|333:62|376:92,1,85,4|0,0:2|2:0,0:0:0:0:
316,244,64999,1,0,0:0:0:0:
464,160,65221,1,0,2:0:0:0:
296,144,65443,1,0,0:0:0:0:
376,296,65666,1,2,2:0:0:0:
228,208,65888,1,0,0:0:0:0:
252,376,66110,1,2,2:0:0:0:
252,376,66221,1,2,2:0:0:0:
252,376,66332,6,0,L|156:368,1,85,0|0,0:0|2:0,0:0:0:0:
92,216,66777,1,0,0:0:0:0:
168,368,66999,1,0,2:0:0:0:
204,204,67221,1,0,0:0:0:0:
84,324,67443,1,2,2:0:0:0:
204,204,67666,1,0,0:0:0:0:
223,197,67777,1,0,2:0:0:0:
245,197,67888,1,2,2:0:0:0:
264,204,67999,1,0,0:0:0:0:
284,216,68110,6,0,P|325:223|364:204,1,85,0|0,0:0|2:0,0:0:0:0:
296,48,68554,1,0,0:0:0:0:
428,160,68777,1,0,2:0:0:0:
264,120,68999,1,0,0:0:0:0:
236,288,69221,1,2,2:0:0:0:
236,288,69332,1,0,0:0:0:0:
236,288,69443,1,0,0:0:0:0:
68,260,69666,1,0,0:0:0:0:
68,260,69777,1,2,2:0:0:0:
68,260,69888,5,0,0:0:0:0:
128,100,70110,1,0,2:0:0:0:
148,268,70332,1,0,0:0:0:0:
216,112,70554,1,0,2:0:0:0:
316,248,70777,1,0,0:0:0:0:
337,245,70888,1,0,0:0:0:0:
358,243,70999,1,2,2:0:0:0:
379,241,71110,1,0,0:0:0:0:
400,239,71221,1,0,0:0:0:0:
496,100,71443,1,2,2:0:0:0:
496,100,71554,1,0,0:0:0:0:
496,100,71666,5,0,0:0:0:0:
344,24,71888,1,0,0:0:0:0:
424,176,72110,1,0,0:0:0:0:
344,24,72332,1,0,0:0:0:0:
272,180,72554,1,0,0:0:0:0:
424,100,72777,1,2,2:0:0:0:
260,60,72999,1,0,0:0:0:0:
204,224,73221,1,2,2:0:0:0:
204,224,73332,1,0,0:0:0:0:
204,224,73443,6,0,L|212:312,1,85,0|0,0:0|2:0,0:0:0:0:
100,180,73888,1,0,0:0:0:0:
48,340,74110,1,0,0:0:0:0:
100,180,74332,2,0,L|112:88,1,85,0|0,0:0|0:0,0:0:0:0:
264,24,74777,1,0,0:0:0:0:
284,18,74888,1,0,0:0:0:0:
305,18,74999,1,2,2:0:0:0:
325,26,75110,1,2,2:0:0:0:
344,40,75221,6,0,P|352:80|333:120,1,85,0|0,0:0|2:0,0:0:0:0:
468,228,75666,2,0,P|428:236|388:217,1,85,0|0,0:0|2:0,0:0:0:0:
268,340,76110,2,0,P|260:300|279:260,1,85,0|2,0:0|2:0,0:0:0:0:
152,144,76554,2,0,P|192:136|232:155,1,85,0|0,0:0|0:0,0:0:0:0:
277,260,76999,5,0,0:0:0:0:
246,262,77110,1,0,2:0:0:0:
216,265,77221,1,2,2:0:0:0:
186,268,77332,1,0,2:0:0:0:
156,271,77443,1,0,0:0:0:0:
125,274,77554,1,0,2:0:0:0:
95,277,77665,1,2,2:0:0:0:
65,279,77776,1,0,2:0:0:0:
84,304,77888,5,0,0:2:0:0:
95,277,77999,1,0,2:0:0:0:
92,248,78110,1,2,2:0:0:0:
76,225,78221,1,0,2:0:0:0:
50,214,78332,1,2,0:2:0:0:
39,188,78443,1,0,2:0:0:0:
41,159,78554,1,2,2:0:0:0:
58,136,78665,1,0,2:0:0:0:
85,128,78777,5,4,0:1:0:0:
292,80,78999,1,0,0:0:0:0:
168,252,79221,1,0,0:0:0:0:
220,48,79443,1,0,2:0:0:0:
168,252,79666,1,0,0:0:0:0:
348,136,79888,1,2,2:3:0:0:
372,132,79999,1,0,0:0:0:0:
392,128,80110,1,0,0:0:0:0:
312,324,80332,1,2,2:3:0:0:
288,320,80443,1,0,2:0:0:0:
268,316,80554,5,0,0:0:0:0:
176,124,80777,1,0,2:0:0:0:
184,336,80999,1,0,0:0:0:0:
92,144,81221,1,0,2:0:0:0:
68,140,81332,1,0,0:0:0:0:
48,136,81443,1,0,0:0:0:0:
244,52,81666,1,2,2:3:0:0:
136,236,81888,1,0,0:0:0:0:
348,236,82110,1,2,2:3:0:0:
368,240,82221,1,0,0:0:0:0:
392,244,82332,6,0,P|413:197|399:146,1,106.25,0|0,0:0|0:0,0:0:0:0:
228,16,82777,1,0,0:0:0:0:
272,224,82999,1,2,2:3:0:0:
228,16,83221,2,0,P|172:12|128:44,1,106.25,0|2,0:0|2:3,0:0:0:0:
188,244,83666,1,0,0:0:0:0:
296,60,83888,1,2,2:3:0:0:
104,152,84110,5,0,0:0:0:0:
312,192,84332,1,0,2:0:0:0:
104,236,84554,1,0,0:0:0:0:
312,272,84777,1,2,2:3:0:0:
172,112,84999,1,0,0:0:0:0:
244,312,85221,1,2,2:3:0:0:
384,152,85443,1,0,0:0:0:0:
244,312,85666,1,2,2:3:0:0:
224,316,85777,1,0,2:0:0:0:
204,320,85888,6,0,P|151:326|104:292,1,106.25,0|0,0:0|0:0,0:0:0:0:
180,100,86332,1,0,0:0:0:0:
308,272,86554,1,0,2:0:0:0:
100,224,86777,2,0,P|92:171|111:120,1,106.25,0|2,0:0|2:3,0:0:0:0:
316,80,87221,1,0,0:0:0:0:
236,276,87443,1,2,2:3:0:0:
208,64,87666,5,0,0:0:0:0:
400,152,87888,1,0,0:0:0:0:
196,216,88110,1,0,0:0:0:0:
392,300,88332,1,0,0:0:0:0:
433,86,88554,1,0,0:0:0:0:
407,79,88665,1,0,0:0:0:0:
381,81,88776,1,0,0:0:0:0:
357,92,88887,1,0,0:0:0:0:
338,111,88998,1,0,0:0:0:0:
240,208,89221,1,2,2:3:0:0:
220,212,89332,1,0,0:0:0:0:
196,216,89443,5,0,0:0:0:0:
4,124,89666,1,0,0:0:0:0:
124,300,89888,1,0,0:0:0:0:
4,124,90110,1,0,0:0:0:0:
216,104,90332,1,0,0:0:0:0:
32,208,90554,1,2,2:3:0:0:
160,36,90777,1,0,0:0:0:0:
232,236,90999,1,2,0:0:0:0:
256,240,91110,1,0,0:0:0:0:
276,244,91221,5,4,2:0:0:0:
276,244,92554,2,0,L|384:236,1,106.25,4|0,2:3|0:0,0:0:0:0:
228,164,92999,5,4,0:1:0:0:
184,324,93221,1,0,0:0:0:0:
124,164,93443,1,0,0:0:0:0:
80,328,93666,1,0,2:0:0:0:
124,164,93888,1,0,0:0:0:0:
268,72,94110,1,2,2:3:0:0:
268,72,94221,1,0,0:0:0:0:
268,72,94332,1,0,0:0:0:0:
276,240,94554,1,2,2:3:0:0:
356,92,94777,5,0,0:0:0:0:
440,240,94999,1,0,0:0:0:0:
296,332,95221,1,0,0:0:0:0:
380,184,95443,1,0,2:0:0:0:
456,336,95666,1,0,0:0:0:0:
380,184,95888,1,2,2:3:0:0:
296,332,96110,1,0,0:0:0:0:
274,333,96221,1,0,0:0:0:0:
253,335,96332,1,2,2:3:0:0:
232,336,96443,1,0,0:0:0:0:
208,336,96554,6,0,P|164:332|132:304,1,85,0|0,0:0|0:0,0:0:0:0:
160,140,96999,1,0,0:0:0:0:
288,252,97221,1,2,2:3:0:0:
160,140,97443,1,0,0:0:0:0:
138,138,97554,1,0,2:0:0:0:
117,136,97665,1,2,2:3:0:0:
96,135,97776,1,0,0:0:0:0:
75,133,97887,1,0,0:0:0:0:
232,64,98110,1,2,2:3:0:0:
232,64,98221,1,0,0:0:0:0:
232,64,98332,5,0,0:0:0:0:
400,44,98554,1,0,0:0:0:0:
232,64,98777,1,0,0:0:0:0:
400,44,98999,1,0,0:0:0:0:
232,64,99221,1,0,0:0:0:0:
380,148,99443,1,2,2:3:0:0:
380,148,99554,1,0,0:0:0:0:
380,148,99666,1,0,0:0:0:0:
224,216,99888,1,2,2:3:0:0:
224,216,99999,1,0,0:0:0:0:
224,216,100110,5,0,0:0:0:0:
388,252,100332,1,0,0:0:0:0:
272,376,100554,1,0,0:0:0:0:
312,212,100777,1,0,2:0:0:0:
312,212,100888,1,0,0:0:0:0:
312,212,100999,2,0,L|296:128,1,85,0|0,0:0|0:0,0:0:0:0:
152,40,101443,1,0,0:0:0:0:
320,56,101666,1,2,2:3:0:0:
152,40,101888,5,0,0:0:0:0:
188,208,102110,1,2,2:3:0:0:
68,88,102332,1,0,0:0:0:0:
112,252,102554,2,0,L|120:304,1,42.5,2|0,2:3|0:0,0:0:0:0:
188,340,102777,1,0,0:0:0:0:
209,341,102888,1,0,0:0:0:0:
230,343,102999,1,0,2:0:0:0:
251,345,103110,1,0,0:0:0:0:
272,347,103221,1,0,0:0:0:0:
436,296,103443,1,2,2:3:0:0:
436,296,103554,1,0,0:0:0:0:
436,296,103666,5,0,0:0:0:0:
384,136,103888,1,2,2:3:0:0:
348,300,104110,1,0,0:0:0:0:
244,164,104332,1,2,2:3:0:0:
408,204,104554,1,0,0:0:0:0:
426,194,104665,1,0,0:0:0:0:
441,179,104776,1,0,0:0:0:0:
451,160,104887,1,0,0:0:0:0:
455,139,104998,1,0,0:0:0:0:
328,24,105221,1,2,2:0:0:0:
328,24,105332,1,0,0:0:0:0:
328,24,105443,5,0,0:0:0:0:
160,44,105666,1,2,2:0:0:0:
308,124,105888,1,0,0:0:0:0:
309,145,105999,1,0,0:0:0:0:
311,166,106110,1,2,2:0:0:0:
313,187,106221,1,0,0:0:0:0:
315,208,106332,1,0,0:0:0:0:
204,336,106554,1,0,0:0:0:0:
180,338,106665,1,0,0:0:0:0:
157,330,106776,1,0,0:0:0:0:
140,315,106887,1,0,0:0:0:0:
129,294,106998,1,2,2:3:0:0:
128,270,107109,1,0,0:0:0:0:
135,248,107220,5,0,0:0:0:0:
196,88,107443,1,0,0:0:0:0:
315,208,107666,1,0,0:0:0:0:
196,88,107888,1,2,2:3:0:0:
173,86,107999,1,0,0:0:0:0:
150,84,108110,1,0,0:0:0:0:
127,83,108221,1,0,0:0:0:0:
104,81,108332,1,0,0:0:0:0:
81,80,108443,1,0,0:0:0:0:
58,78,108554,1,0,0:0:0:0:
216,16,108777,1,0,0:0:0:0:
216,16,108888,1,0,0:0:0:0:
216,16,108999,5,4,2:0:0:0:
216,16,109888,2,0,L|312:28,1,85,4|0,2:3|0:0,0:0:0:0:
468,64,110332,1,4,2:3:0:0:
470,85,110443,1,0,0:0:0:0:
473,106,110554,1,0,0:0:0:0:
475,127,110665,1,0,0:0:0:0:
478,148,110776,5,4,0:2:0:0:
288,320,110999,1,0,2:0:0:0:
336,68,111221,1,0,0:0:0:0:
396,316,111443,1,2,2:0:0:0:
188,168,111666,1,0,0:0:0:0:
416,52,111888,1,2,2:3:0:0:
420,76,111999,1,2,2:3:0:0:
424,100,112110,1,0,0:0:0:0:
468,352,112332,1,2,2:0:0:0:
308,152,112554,5,4,0:1:0:0:
180,372,112777,1,0,0:0:0:0:
376,208,112999,1,0,0:0:0:0:
132,136,113221,1,0,0:0:0:0:
376,208,113443,1,0,0:0:0:0:
132,280,113666,1,2,2:0:0:0:
104,284,113777,1,0,0:0:0:0:
76,288,113888,1,0,0:0:0:0:
216,76,114110,1,2,0:3:0:0:
244,80,114221,1,0,0:0:0:0:
272,84,114332,5,4,0:2:0:0:
496,204,114554,1,0,0:0:0:0:
240,216,114777,1,0,0:0:0:0:
464,340,114999,1,0,0:0:0:0:
436,88,115221,1,0,0:0:0:0:
364,332,115443,1,2,2:0:0:0:
204,132,115666,1,0,0:0:0:0:
440,224,115888,1,0,0:0:0:0:
204,316,116110,1,4,0:0:0:0:
509,172,116554,5,0,0:0:0:0:
469,145,116665,1,0,0:0:0:0:
422,143,116776,1,0,0:0:0:0:
381,166,116887,1,0,0:0:0:0:
357,207,116998,5,4,0:1:0:0:
