osu file format v14

[General]
AudioFilename: audio.mp3
AudioLeadIn: 0
PreviewTime: 111044
Countdown: 0
SampleSet: Soft
StackLeniency: 0.4
Mode: 0
LetterboxInBreaks: 0
WidescreenStoryboard: 0

[Editor]
DistanceSpacing: 1.3
BeatDivisor: 4
GridSize: 32
TimelineZoom: 3.799999

[Metadata]
Title:Love10 feat. Juunana
TitleUnicode:✧ Love10 ✧ feat. Juunana
Artist:MasaraP/masara & ran.
ArtistUnicode:まさらP/masara & ran。
Creator:handsome
Version:Insane
Source:
Tags:masara j1n7n wishimblack waifu wednesdays
BeatmapID:1053843
BeatmapSetID:494983

[Difficulty]
HPDrainRate:6
CircleSize:4
OverallDifficulty:8
ApproachRate:8.2
SliderMultiplier:1.4
SliderTickRate:1

[Events]
//Background and Video events
0,0,"love10.jpg",0,0
//Break Periods
2,67237,72505
//Storyboard Layer 0 (Background)
//Storyboard Layer 1 (Fail)
//Storyboard Layer 2 (Pass)
//Storyboard Layer 3 (Foreground)
//Storyboard Sound Samples

[TimingPoints]
1743,441.1764705882,4,2,0,40,1,0
22919,-100,4,2,0,40,0,0
27992,-166.6666666667,4,2,0,40,0,0
28434,-125,4,2,0,45,0,0
28875,-100,4,2,0,50,0,0
29316,-83.33333333333,4,2,0,55,0,0
29978,-83.33333333333,4,2,0,60,0,0
37037,-62.5,4,2,0,60,0,0
37698,-31.25,4,2,0,60,0,0
37919,-40,4,2,0,60,0,0
38360,-50,4,2,0,60,0,0
38801,-50,4,2,0,80,0,1
40566,-62.5,4,2,0,80,0,1
42331,-50,4,2,0,80,0,1
44095,-62.5,4,2,0,80,0,1
45860,-62.5,4,2,0,60,0,1
49390,-62.5,4,2,0,70,0,1
50272,-50,4,2,0,80,0,1
51154,-83.33333333333,4,2,0,85,0,1
51595,-62.5,4,2,0,90,0,1
52037,-50,4,2,0,95,0,1
52478,-41.66666666667,4,2,0,100,0,1
52919,-62.5,4,2,0,80,0,1
54684,-83.33333333333,4,2,0,80,0,1
55125,-62.5,4,2,0,80,0,1
55566,-50,4,2,0,80,0,1
56890,-62.5,4,2,0,80,0,1
67037,-62.5,4,2,0,80,0,0
74095,-166.6666666667,4,2,0,40,0,0
79610,-100,4,2,0,50,0,0
88213,-83.33333333333,4,2,0,50,0,0
95272,-500,4,2,0,30,0,0
105860,-100,4,2,0,40,0,0
107625,-62.5,4,2,0,50,0,0
108066,-50,4,2,0,60,0,0
108507,-35.71428571429,4,2,0,80,0,0
108948,-27.77777777778,4,2,0,80,0,0
111154,-50,4,2,0,80,0,1
116448,-62.5,4,2,0,80,0,1
118213,-62.5,4,2,0,60,0,1
121742,-62.5,4,2,0,70,0,1
122625,-50,4,2,0,80,0,1
123507,-50,4,2,0,90,0,1
125272,-62.5,4,2,0,80,0,1
127037,-83.33333333333,4,2,0,80,0,1
127478,-62.5,4,2,0,80,0,1
127919,-50,4,2,0,80,0,1
129242,-62.5,4,2,0,80,0,1
139390,-62.5,4,2,0,80,0,0

[Colours]
Combo1 : 240,240,240
Combo2 : 255,206,206
Combo3 : 210,215,255
Combo4 : 252,225,255
Combo5 : 225,241,255
Combo6 : 255,74,79
Combo7 : 240,240,240
Combo8 : 112,100,255

[HitObjects]
140,96,22919,6,0,P|91:75|26:73,2,105,6|2|2,0:1|0:1|0:1,0:0:0:0:
226,132,23801,6,0,L|307:123,1,70,4|0,0:3|0:0,0:0:0:0:
309,136,24132,2,0,L|390:127,1,70,4|0,0:3|0:0,0:0:0:0:
392,140,24463,1,4,0:3:0:0:
435,75,24684,6,0,L|464:191,2,105,6|2|2,0:1|0:1|0:1,0:0:0:0:
352,25,25566,6,0,P|308:37|286:76,1,70,4|0,0:3|0:0,0:0:0:0:
280,60,25897,2,0,P|268:104|291:142,1,70,4|0,0:3|0:0,0:0:0:0:
274,139,26228,1,4,0:3:0:0:
185,200,26448,70,0,L|106:194,1,70,4|0,1:0|0:0,0:0:0:0:
299,275,26890,2,0,L|379:282,1,70,0|0,1:0|0:0,0:0:0:0:
198,355,27331,2,0,L|119:348,2,70,0|0|0,1:0|1:0|1:0,0:0:0:0:
388,359,27992,6,0,P|379:336|375:301,1,41.99999871826,0|0,1:0|0:0,0:0:0:0:
468,238,28434,6,0,P|468:283|452:316,1,56,0|0,1:0|0:0,0:0:0:0:
313,237,28875,6,0,L|400:227,1,70,0|0,1:0|0:0,0:0:0:0:
512,156,29316,70,0,L|418:150,1,83.99999743652,0|0,1:0|0:0,0:0:0:0:
428,150,29757,1,0,0:0:0:0:
327,0,29978,6,0,P|364:59|355:115,1,125.9999961548,4|0,1:2|0:0,0:0:0:0:
356,112,30419,2,0,L|254:121,1,83.99999743652,0|0,1:0|0:0,0:0:0:0:
207,64,30860,1,0,1:0:0:0:
164,134,31081,1,0,1:0:0:0:
86,159,31301,1,0,1:0:0:0:
10,126,31522,1,0,1:0:0:0:
76,77,31742,5,4,1:2:0:0:
146,217,32184,1,4,1:2:0:0:
59,347,32625,1,4,1:2:0:0:
59,347,33066,6,0,L|159:337,1,83.99999743652,0|0,1:0|0:0,0:0:0:0:
225,371,33507,2,0,L|325:361,1,83.99999743652,0|0,1:0|0:0,0:0:0:0:
357,293,33948,1,0,1:0:0:0:
431,332,34169,1,0,1:0:0:0:
427,247,34390,70,0,P|375:258|317:202,1,125.9999961548,4|0,1:2|0:0,0:0:0:0:
347,128,34831,2,0,P|399:117|457:173,1,125.9999961548,4|0,1:2|0:0,0:0:0:0:
427,247,35272,5,4,1:2:0:0:
321,215,35492,1,4,1:2:0:0:
504,218,35713,5,4,1:2:0:0:
252,270,35934,1,4,1:2:0:0:
452,159,36154,5,2,0:0:0:0:
434,134,36265,1,2,0:0:0:0:
407,119,36375,1,2,0:0:0:0:
376,116,36485,1,2,0:0:0:0:
346,128,36595,2,0,L|286:134,3,41.99999871826,4|0|0|0,0:2|0:0|0:0|0:0,0:0:0:0:
230,82,37037,70,0,P|218:111|217:146,2,56,2|0|0,0:1|0:0|0:0,0:0:0:0:
114,109,37367,2,0,P|118:140|135:171,2,56,2|0|0,0:1|0:0|0:0,0:0:0:0:
26,189,37698,6,0,P|45:213|75:231,2,56,2|0|0,0:1|0:0|0:0,0:0:0:0:
105,349,37919,6,0,P|75:263|199:293,1,262.5,6|0,0:1|0:0,0:0:0:0:
226,361,38360,6,2,L|166:352,2,35
424,383,38581,70,0,P|434:340|404:264,1,105,4|0,0:2|0:0,1:0:0:0:
292,230,38801,54,0,P|365:212|360:97,1,210,6|0,1:0|0:0,0:0:0:0:
286,117,39242,1,4,1:2:0:0:
496,166,39463,2,0,L|418:170,1,70,0|0,1:0|0:0,0:0:0:0:
304,42,39684,6,0,P|239:17|163:124,1,210,6|0,1:0|0:0,0:0:0:0:
216,175,40125,2,0,B|202:328,1,140,4|0,1:2|0:0,0:0:0:0:
84,350,40566,101,2,1:0:0:0:
26,89,40787,1,0,1:0:0:0:
16,291,41007,5,2,1:0:0:0:
94,148,41228,1,0,1:0:0:0:
210,270,41448,102,0,L|78:262,1,112,4|0,1:2|0:0,0:0:0:0:
401,178,41890,2,0,L|533:186,1,112,4|0,1:2|0:0,0:0:0:0:
184,344,42331,6,0,B|229:359|288:333|287:266|287:266|290:298|319:319,1,210,6|0,1:0|0:0,0:0:0:0:
363,255,42772,2,0,P|374:184|267:163,1,140,4|0,1:2|0:0,0:0:0:0:
68,71,43213,102,4,B|113:55|172:82|171:149|171:149|174:117|203:96,1,210,6|0,1:0|0:0,1:2:0:0:
247,160,43654,2,0,P|258:231|151:252,1,140,4|0,1:2|0:0,0:0:0:0:
21,246,44095,6,0,L|147:229,1,112,4|0,1:2|0:0,0:0:0:0:
258,43,44537,2,0,L|384:60,1,112,4|0,1:2|0:0,0:0:0:0:
512,207,44978,101,2,1:0:0:0:
235,213,45198,1,0,1:0:0:0:
438,255,45419,5,2,1:0:0:0:
308,165,45640,1,0,1:0:0:0:
433,167,45860,102,0,P|494:259|498:370,2,224,4|4|0,1:0|1:2|1:0,0:0:0:0:
421,329,46963,1,0,1:0:0:0:
387,240,47184,6,0,B|346:308|261:275|261:275|297:219,1,168,4|0,1:0|0:0,0:0:0:0:
202,230,47625,2,0,P|185:287|214:333,1,112,4|0,1:2|0:0,0:0:0:0:
261,178,48066,102,0,B|220:110|135:143|135:143|171:199,1,168,4|0,1:0|0:0,0:0:0:0:
76,188,48507,2,0,P|59:131|88:85,1,112,4|0,1:2|0:0,0:0:0:0:
364,121,48948,5,0,1:0:0:0:
150,45,49169,1,0,1:0:0:0:
370,45,49390,102,0,P|439:104|419:173,1,168,6|0,1:0|0:0,0:0:0:0:
252,132,49831,2,0,L|373:120,1,112,4|0,1:2|0:0,0:0:0:0:
229,378,50272,6,0,P|281:276|208:226,1,210,6|0,1:0|0:0,0:0:0:0:
70,322,50713,2,0,L|231:301,1,140,4|0,1:2|0:0,0:0:0:0:
23,257,51154,101,4,1:2:0:0:
144,344,51375,2,0,L|128:412,1,41.99999871826,2|0,1:0|0:0,0:0:0:0:
58,174,51595,5,4,1:2:0:0:
221,249,51816,2,0,L|208:303,1,56,2|0,1:0|0:0,0:0:0:0:
93,91,52037,101,4,1:2:0:0:
301,140,52257,2,0,L|285:208,1,70,2|0,1:0|0:0,0:0:0:0:
128,8,52478,5,4,1:2:0:0:
384,17,52698,2,0,L|365:99,1,83.99999743652,2|0,1:0|0:0,0:0:0:0:
361,315,52919,6,0,P|418:258|499:270,1,167.9999948731,4|0,1:2|0:0,0:0:0:0:
404,384,53360,1,0,1:0:0:0:
296,360,53581,2,0,P|285:333|294:281,1,56,0|0,1:0|0:0,0:0:0:0:
241,237,53801,6,0,P|298:180|379:192,1,168,4|0,1:2|0:0,0:0:0:0:
284,306,54242,1,0,1:0:0:0:
176,282,54463,2,0,P|165:255|174:203,1,56,0|0,1:0|0:0,0:0:0:0:
193,78,54684,102,0,L|101:91,1,83.99999743652,2|0,1:0|0:0,0:0:0:0:
312,166,55125,2,0,L|196:157,1,112,2|0,1:0|0:0,0:0:0:0:
482,67,55566,2,0,L|316:89,1,140,2|0,1:0|0:0,0:0:0:0:
28,230,56007,5,0,1:0:0:0:
200,157,56228,1,0,1:0:0:0:
51,45,56448,1,4,1:2:0:0:
51,45,56890,102,0,P|66:128|132:101,1,168,6|0,1:0|0:0,0:0:0:0:
200,157,57331,2,0,L|321:142,1,112,4|0,1:2|0:0,0:0:0:0:
112,307,57772,2,0,L|-9:321,1,112,4|0,1:2|0:0,0:0:0:0:
243,304,58213,5,2,1:0:0:0:
142,218,58434,1,0,1:0:0:0:
186,366,58654,101,2,1:0:0:0:
199,156,58875,1,0,1:0:0:0:
326,310,59095,5,2,1:2:0:0:
388,255,59316,1,2,1:2:0:0:
394,172,59537,101,2,1:2:0:0:
339,110,59757,1,2,1:2:0:0:
214,297,59978,102,0,L|325:309,1,112,4|0,1:2|0:0,0:0:0:0:
40,380,60419,2,0,L|151:367,1,112,4|0,1:2|0:0,0:0:0:0:
398,346,60860,101,2,1:0:0:0:
274,234,61081,1,0,1:0:0:0:
458,283,61301,5,2,1:0:0:0:
214,297,61522,1,0,1:0:0:0:
436,198,61742,101,2,1:0:0:0:
264,361,61963,1,2,1:0:0:0:
208,130,62184,1,6,1:0:0:0:
79,334,62625,21,2,1:0:0:0:
127,184,62845,1,0,1:0:0:0:
155,380,63066,5,2,1:0:0:0:
51,138,63287,1,0,1:0:0:0:
3,291,63507,101,2,1:0:0:0:
313,336,63728,1,2,1:0:0:0:
198,45,63948,1,6,1:0:0:0:
493,257,64390,86,0,L|316:246,1,168,4|0,1:0|0:0,0:0:0:0:
228,171,64831,2,0,P|229:86|297:107,1,168,4|0,1:2|0:0,0:0:0:0:
307,172,65272,21,0,1:0:0:0:
135,279,65492,1,0,1:0:0:0:
128,76,65713,1,4,1:2:0:0:
455,323,66154,85,0,1:0:0:0:
455,323,66265,1,0,1:0:0:0:
455,323,66375,1,0,1:0:0:0:
382,128,66595,1,0,1:0:0:0:
250,289,66816,21,2,1:2:0:0:
306,267,66926,1,2,1:2:0:0:
362,246,67037,1,4,1:0:0:0:
470,139,74095,22,0,P|449:95|333:105,1,167.9999948731,4|0,0:1|1:0,0:0:0:0:
287,160,75419,2,0,L|298:191,2,20.99999935913
238,86,75860,6,0,B|151:125|163:45|65:96,1,167.9999948731,4|0,0:1|1:0,0:0:0:0:
121,159,77073,1,0,0:0:0:0:
87,251,77294,1,0,0:0:0:0:
87,251,77404,1,0,0:0:0:0:
139,326,77625,6,0,L|120:151,2,167.9999948731,4|0|0,0:1|1:0|0:0,0:0:0:0:
212,353,79610,6,0,P|198:271|143:253,1,140,0|0,1:0|0:0,0:0:0:0:
243,272,80272,2,0,L|389:272,1,140,0|0,1:0|0:0,0:0:0:0:
383,272,80934,1,0,0:0:0:0:
383,272,81154,1,0,0:0:0:0:
462,240,81375,69,0,0:0:0:0:
462,240,81485,1,0,0:0:0:0:
462,240,81595,2,0,L|467:159,1,70,2|0,0:0|0:0,0:0:0:0:
304,304,82037,2,0,L|299:385,1,70,2|0,1:2|0:0,0:0:0:0:
383,272,82478,1,2,0:0:0:0:
250,240,82698,5,2,0:0:0:0:
250,240,82809,1,0,0:0:0:0:
250,240,82919,2,0,P|295:221|340:233,1,70,2|0,0:0|0:0,0:0:0:0:
222,316,83360,2,0,P|177:335|132:323,1,70,2|0,0:0|0:0,0:0:0:0:
92,279,83801,2,0,L|94:129,1,140,2|0,1:2|0:0,0:0:0:0:
49,67,84463,5,0,0:0:0:0:
49,67,84573,1,0,0:0:0:0:
49,67,84684,2,0,L|140:54,1,70,2|0,0:0|0:0,0:0:0:0:
258,94,85125,2,0,L|167:107,1,70,2|0,0:0|0:0,0:0:0:0:
301,14,85566,2,0,P|293:73|349:132,1,140,2|0,1:2|0:0,0:0:0:0:
420,96,86228,5,0,0:0:0:0:
420,96,86338,1,0,0:0:0:0:
420,96,86448,1,2,0:2:0:0:
485,148,86669,1,2,0:2:0:0:
494,231,86890,1,2,0:2:0:0:
442,296,87110,1,2,0:2:0:0:
359,305,87331,69,2,1:2:0:0:
359,305,88213,2,0,L|369:337,4,20.99999935913
300,234,88544,1,0,0:0:0:0:
300,234,88654,6,0,L|184:226,1,83.99999743652,2|0,0:0|0:0,0:0:0:0:
376,184,89095,2,0,L|492:192,1,83.99999743652,2|0,1:2|0:0,0:0:0:0:
321,117,89537,1,0,0:0:0:0:
247,159,89757,5,0,0:0:0:0:
247,159,89867,1,0,0:0:0:0:
247,159,89978,2,0,P|236:104|248:71,1,83.99999743652,2|0,0:0|0:0,0:0:0:0:
145,181,90419,2,0,P|134:236|146:269,1,83.99999743652,2|0,0:0|0:0,0:0:0:0:
14,4,90860,2,0,P|62:64|34:162,1,167.9999948731,2|0,1:2|0:0,0:0:0:0:
190,335,91742,6,0,L|107:344,1,83.99999743652,2|0,0:0|0:0,0:0:0:0:
302,374,92184,2,0,L|403:364,1,83.99999743652,2|0,0:0|0:0,0:0:0:0:
277,262,92625,2,0,P|229:202|257:104,1,167.9999948731,2|0,1:2|0:0,0:0:0:0:
319,178,93287,1,2,0:0:0:0:
195,211,93507,69,0,0:0:0:0:
368,164,95272,6,0,P|404:164|427:157,3,56,4|0|0|0,0:1|0:0|0:0|0:0,0:0:0:0:
304,100,98801,6,0,P|267:99|244:106,3,56,4|0|0|0,0:1|0:0|0:0|0:0,0:0:0:0:
179,57,102331,5,8,0:3:0:0:
114,115,102772,1,8,0:3:0:0:
28,93,103213,69,4,0:3:0:0:
28,93,103544,5,4,0:3:0:0:
28,93,103875,5,4,0:3:0:0:
114,115,104095,5,8,0:3:0:0:
132,201,104537,1,8,0:3:0:0:
67,259,104978,69,4,0:3:0:0:
67,259,105309,5,4,0:3:0:0:
67,259,105640,5,4,0:3:0:0:
132,201,105860,6,2,L|166:207,4,23.33333333333
212,258,106301,2,2,L|246:252,4,23.33333333333
306,221,106742,70,2,L|340:227,10,23.33333333333
371,323,107625,6,2,P|381:306|385:277,4,37.33333333333
240,267,108066,6,2,P|228:247|227:207,4,46.66666666667
414,154,108507,6,2,P|424:129|424:88,6,48.99999850464
189,89,108948,70,2,P|176:56|174:9,6,62.99999807739
308,168,109390,5,2,0:1:0:0:
40,216,111154,38,0,P|43:113|149:139,1,210,6|0,1:0|0:0,0:0:0:0:
157,188,111595,1,4,1:2:0:0:
18,13,111816,2,0,L|30:84,1,70,0|0,1:0|0:0,0:0:0:0:
112,256,112037,6,0,P|115:359|221:333,1,210,6|0,1:0|0:0,0:0:0:0:
217,281,112478,2,0,L|366:265,1,140,4|0,1:2|0:0,0:0:0:0:
488,190,112919,101,2,1:0:0:0:
413,323,113140,1,0,1:0:0:0:
431,130,113360,5,2,1:0:0:0:
470,383,113581,1,0,1:0:0:0:
203,352,113801,101,2,1:0:0:0:
492,299,114022,1,0,1:0:0:0:
274,304,114242,2,0,L|425:324,1,140,2|0,1:0|0:0,0:0:0:0:
507,104,114684,6,0,B|471:121|431:89|431:89|457:154|411:202|335:204,1,210,6|0,1:0|0:0,0:0:0:0:
244,156,115125,2,0,P|294:109|360:122,1,140,4|0,1:2|0:0,0:0:0:0:
420,322,115566,102,0,B|384:305|344:337|344:337|370:272|324:224|248:222,1,210,6|0,1:0|0:0,0:0:0:0:
157,269,116007,2,0,P|207:316|273:303,1,140,4|0,1:2|0:0,0:0:0:0:
498,184,116448,6,0,L|386:193,1,112,4|0,1:2|0:0,0:0:0:0:
272,65,116890,2,0,L|160:55,1,112,4|0,1:2|0:0,0:0:0:0:
36,257,117331,101,2,1:0:0:0:
133,133,117551,1,0,1:0:0:0:
93,321,117772,5,2,1:0:0:0:
76,69,117992,1,0,1:0:0:0:
33,383,118213,102,0,P|138:349|248:367,2,224,4|4|0,1:0|1:2|1:0,0:0:0:0:
316,316,119316,1,0,1:0:0:0:
291,183,119537,6,0,B|283:250|221:272|221:272|193:246|173:198,1,168,4|0,1:0|0:0,0:0:0:0:
224,143,119978,2,0,P|283:107|349:132,1,112,4|0,1:2|0:0,0:0:0:0:
463,97,120419,102,0,B|455:30|393:8|393:8|365:34|345:82,1,168,4|0,1:0|0:0,0:0:0:0:
397,137,120860,2,0,P|456:173|522:148,1,112,4|0,1:2|0:0,0:0:0:0:
363,45,121301,2,0,P|304:9|238:34,1,112,0|0,1:0|0:0,0:0:0:0:
47,266,121742,6,0,P|111:313|182:276,1,168,6|0,1:0|0:0,0:0:0:0:
100,127,122184,2,0,L|126:290,1,112,4|0,1:2|0:0,0:0:0:0:
434,317,122625,102,0,P|345:355|290:275,1,210,6|0,1:0|0:0,0:0:0:0:
379,141,123066,2,0,L|365:302,1,140,4|0,1:2|0:0,0:0:0:0:
318,73,123507,5,2,1:0:0:0:
479,199,123728,1,0,1:0:0:0:
290,275,123948,1,2,1:0:0:0:
134,145,124390,101,2,1:0:0:0:
479,199,124610,1,0,1:0:0:0:
231,201,124831,5,2,1:0:0:0:
382,143,125051,1,0,1:0:0:0:
202,11,125272,6,0,P|267:46|264:154,1,168,4|0,1:0|0:0,0:0:0:0:
231,201,125713,1,4,1:2:0:0:
150,127,125934,2,0,P|171:109|197:97,1,56,0|0,1:0|0:0,0:0:0:0:
283,85,126154,6,0,P|348:120|345:228,1,168,4|0,1:0|0:0,0:0:0:0:
312,275,126595,1,4,1:2:0:0:
231,201,126816,2,0,P|252:182|277:170,1,56,0|0,1:0|0:0,0:0:0:0:
395,281,127037,102,0,P|436:278|469:253,1,83.99999743652,2|0,1:0|0:0,0:0:0:0:
165,329,127478,2,0,P|199:372|253:384,1,112,2|0,1:0|0:0,0:0:0:0:
69,115,127919,2,0,P|15:156|7:224,1,140,2|0,1:0|0:0,0:0:0:0:
240,303,128360,5,0,1:0:0:0:
254,119,128581,1,0,1:0:0:0:
87,198,128801,1,4,1:2:0:0:
87,198,129242,102,0,P|165:236|243:179,1,168,2|0,1:0|0:0,0:0:0:0:
254,119,129684,2,0,L|230:8,1,112,4|0,1:2|0:0,0:0:0:0:
408,265,130125,2,0,L|432:376,1,112,4|0,1:2|0:0,0:0:0:0:
481,228,130566,5,2,1:0:0:0:
293,192,130787,1,0,1:0:0:0:
506,150,131007,101,2,1:0:0:0:
268,270,131228,1,0,1:0:0:0:
468,78,131448,5,2,1:2:0:0:
390,53,131669,1,2,1:2:0:0:
317,90,131890,101,2,1:2:0:0:
292,168,132110,1,2,1:2:0:0:
476,189,132331,102,0,L|467:71,1,112,4|0,1:2|0:0,0:0:0:0:
344,357,132772,2,0,L|353:239,1,112,4|0,1:2|0:0,0:0:0:0:
298,64,133213,101,2,1:0:0:0:
403,137,133434,1,0,1:0:0:0:
234,124,133654,5,2,1:0:0:0:
467,77,133875,1,0,1:0:0:0:
178,184,134095,101,2,1:0:0:0:
352,245,134316,1,2,1:0:0:0:
212,365,134537,1,6,1:0:0:0:
325,157,134978,21,2,1:0:0:0:
416,304,135198,1,0,1:0:0:0:
389,97,135419,5,2,1:0:0:0:
352,364,135640,1,0,1:0:0:0:
459,151,135860,101,2,1:0:0:0:
207,65,136081,1,2,1:0:0:0:
259,327,136301,1,6,1:0:0:0:
23,173,136742,86,0,L|199:152,1,168,4|0,1:0|0:0,0:0:0:0:
346,243,137184,2,0,P|309:170|253:221,1,168,4|0,1:2|0:0,0:0:0:0:
183,235,137625,21,0,1:0:0:0:
336,139,137845,1,0,1:0:0:0:
342,320,138066,1,4,1:2:0:0:
239,35,138507,85,0,1:0:0:0:
239,35,138617,1,0,1:0:0:0:
239,35,138728,1,0,1:0:0:0:
183,235,138948,1,0,1:0:0:0:
37,86,139169,21,2,1:2:0:0:
95,103,139279,1,2,1:2:0:0:
153,119,139390,1,4,1:0:0:0:
