osu file format v14

[General]
AudioFilename: audio.mp3
AudioLeadIn: 0
PreviewTime: 7453
Countdown: 1
SampleSet: Soft
StackLeniency: 0.6
Mode: 0
LetterboxInBreaks: 0
WidescreenStoryboard: 1

[Editor]
DistanceSpacing: 1
BeatDivisor: 4
GridSize: 8
TimelineZoom: 1.3

[Metadata]
Title:Shinshu Hirahara Sono Ni
TitleUnicode:神州平原 其の二
Artist:Masami Ueda
ArtistUnicode:上田雅美
Creator:Doyak
Version:Easy
Source:大神
Tags:Ōkami Okami Original Soundtrack Capcom Clover Studio Playstation 2 3 Wii Shinshu Shinshuu Field Plains II Neoskylove
BeatmapID:1371077
BeatmapSetID:613438

[Difficulty]
HPDrainRate:2
CircleSize:3
OverallDifficulty:2
ApproachRate:3
SliderMultiplier:1
SliderTickRate:1

[Events]
//Background and Video events
0,0,"amaterasu_animal_butterfly_cherry_blossoms_chibiterasu_flowers_okami_petals_shiranui_wings_wolf_1920x1080.jpg",0,0
//Break Periods
//Storyboard Layer 0 (Background)
//Storyboard Layer 1 (Fail)
//Storyboard Layer 2 (Pass)
//Storyboard Layer 3 (Foreground)
//Storyboard Sound Samples

[TimingPoints]
7453,461.538461538462,4,2,1,60,1,0
10223,-100,4,2,1,40,0,0
10453,-100,4,2,1,50,0,0
10684,-100,4,2,1,60,0,0
21299,-100,4,2,1,70,0,0
21761,-100,4,2,1,80,0,0
22223,-100,4,2,1,90,0,0
22453,-100,4,2,1,70,0,0
25915,-100,4,2,1,50,0,0
26607,-100,4,2,1,60,0,0
27530,-100,4,2,1,70,0,0
28453,-100,4,2,1,80,0,0
28915,-100,4,2,1,50,0,0
29146,-100,4,2,1,60,0,0
29376,-100,4,2,1,70,0,0
32607,-100,4,2,1,50,0,0
32838,-100,4,2,1,60,0,0
33069,-100,4,2,1,70,0,0
35838,-100,4,2,1,80,0,0
36299,-100,4,2,1,70,0,0
36530,-100,4,2,1,80,0,0
36761,-100,4,2,1,90,0,0
36992,-100,4,2,1,90,0,0
37107,-100,4,2,1,60,0,0
40684,-100,4,2,1,65,0,0
44376,-100,4,2,1,70,0,0
48069,-100,4,2,1,75,0,0
51069,-100,4,2,1,50,0,0
51184,-100,4,2,1,60,0,0
51299,-100,4,2,1,70,0,0
51415,-100,4,2,1,75,0,0
51530,-100,4,2,1,80,0,0
51761,-100,4,2,1,90,0,0
64453,-100,4,2,1,40,0,0
64684,-100,4,2,1,45,0,0
64915,-100,4,2,1,50,0,0
65146,-100,4,2,1,55,0,0
65376,-100,4,2,1,60,0,0
65607,-100,4,2,1,70,0,0
65838,-100,4,2,1,80,0,0
66069,-100,4,2,1,90,0,0
66299,-100,4,2,1,100,0,0
66530,-100,4,2,1,100,0,0
66646,-100,4,2,1,60,0,0
73107,-100,4,2,1,45,0,0
73223,-100,4,2,1,50,0,0
73453,-100,4,2,1,60,0,0
73684,-100,4,2,1,70,0,0
77607,-100,4,2,1,75,0,0
79915,-100,4,2,1,80,0,0
80376,-100,4,2,1,85,0,0
80838,-100,4,2,1,90,0,0
81299,-100,4,2,1,100,0,0
81415,-100,4,2,1,80,0,0
94915,-100,4,2,1,40,0,0
95146,-100,4,2,1,60,0,0
95376,-100,4,2,1,90,0,0
95607,-100,4,2,1,95,0,0
95838,-100,4,2,1,100,0,0

[Colours]
Combo1 : 4,230,230
Combo2 : 19,251,118
Combo3 : 217,239,16
Combo4 : 139,139,139

[HitObjects]
206,311,7453,6,0,P|159:253|172:169,2,150,6|0|8,1:2|1:0|1:2,0:0:0:0:
306,311,9299,2,0,P|352:253|339:169,2,150,2|0|8,1:2|1:0|3:2,0:0:0:0:
256,223,11146,5,2,1:2:0:0:
264,123,11607,1,2,0:1:0:0:
214,35,12069,2,0,P|168:92|174:166,1,150,2|2,0:1|3:1,0:0:0:0:
191,213,12992,2,0,L|42:192,2,150,2|0|10,1:0|1:0|3:2,0:0:0:0:
269,151,14838,6,0,L|417:130,2,150,2|0|8,1:2|1:0|1:2,0:0:0:0:
286,249,16684,2,0,L|434:228,2,150,0|0|8,1:0|1:0|3:2,0:0:0:0:
242,339,18530,6,0,P|192:286|191:213,1,150,2|2,1:0|1:0,0:0:0:0:
160,173,19453,2,0,L|60:186,1,100,2|8,0:1|3:2,0:0:0:0:
48,87,20376,2,0,L|148:74,1,100,0|0,1:0|0:0,0:0:0:0:
223,11,21299,1,2,3:1:0:0:
239,110,21761,1,2,3:1:0:0:
160,173,22223,6,0,P|140:268|225:338,1,200,6|2,1:2|0:0,0:0:0:0:
234,238,23607,1,10,1:2:0:0:
254,140,24069,2,0,L|240:41,1,100,2|0,1:2|0:0,0:0:0:0:
339,30,24992,2,0,L|353:129,1,100,2|8,0:0|1:2,0:0:0:0:
442,176,25915,6,0,P|386:224|313:221,1,150,2|2,1:2|1:2,0:0:0:0:
266,202,26838,2,0,L|280:301,1,100,2|8,0:0|1:2,0:0:0:0:
188,340,27761,2,0,L|167:192,1,150,2|2,1:2|1:2,0:0:0:0:
182,143,28684,2,0,P|211:114|275:101,1,100,2|0,0:0|3:0,0:0:0:0:
353,152,29607,5,0,1:0:0:0:
353,253,30069,1,2,0:0:0:0:
295,335,30530,2,0,P|254:274|266:202,1,150,2|2,0:0|0:0,0:0:0:0:
294,160,31453,2,0,L|393:146,1,100,2|0,1:2|0:0,0:0:0:0:
376,47,32376,1,2,0:0:0:0:
276,61,32838,1,2,3:2:0:0:
201,126,33299,6,0,P|131:150|64:120,1,150,2|2,1:2|1:2,0:0:0:0:
29,85,34223,2,0,L|15:184,1,100,2|8,0:0|3:2,0:0:0:0:
84,255,35146,2,0,L|98:354,2,100,2|0|2,1:2|0:0|0:0,0:0:0:0:
111,158,36530,1,0,3:0:0:0:
180,230,36992,6,0,P|211:163|188:94,1,150,6|0,1:2|1:0,0:0:0:0:
223,58,37915,2,0,L|322:72,1,100,2|8,0:0|1:2,0:0:0:0:
421,83,38838,2,0,P|441:172|357:160,1,200,2|0,1:2|3:2,0:0:0:0:
322,72,40223,1,10,0:0:0:0:
223,85,40684,6,0,L|124:99,2,100,2|0|2,1:2|0:0|3:2,0:0:0:0:
283,164,42069,1,8,1:2:0:0:
238,252,42530,2,0,P|185:173|223:85,1,200,2|2,1:2|0:0,0:0:0:0:
322,72,43915,1,8,3:2:0:0:
381,151,44376,6,0,L|360:299,1,150,2|0,1:2|1:0,0:0:0:0:
320,329,45299,2,0,P|270:335|225:315,1,100,2|8,0:0|1:2,0:0:0:0:
187,223,46223,2,0,P|92:208|28:280,1,200,0|2,1:0|0:0,0:0:0:0:
126,300,47607,1,10,3:2:0:0:
225,315,48069,6,0,L|373:294,1,150,2|2,1:2|1:2,0:0:0:0:
403,254,48992,2,0,P|409:204|389:159,1,100,0|8,0:0|3:2,0:0:0:0:
296,121,49915,2,0,P|324:79|369:59,2,100,2|0|0,1:2|3:0|3:0,0:0:0:0:
305,220,51299,1,8,3:2:0:0:
214,178,51761,6,0,B|114:191|114:191|123:249,1,150,6|6,1:2|1:2,0:0:0:0:
237,336,53146,2,0,B|336:322|336:322|327:264,1,150,6|0,1:2|1:0,0:0:0:0:
322,222,54069,2,0,L|421:208,1,100,8|0,0:0|0:0,0:0:0:0:
482,128,54992,1,10,0:0:0:0:
399,71,55453,5,6,1:2:0:0:
249,92,56146,1,6,1:2:0:0:
99,113,56838,2,0,P|82:184|118:247,1,150,6|0,1:2|1:0,0:0:0:0:
164,269,57761,2,0,L|150:368,2,100,8|2|0,0:0|0:1|1:0,0:0:0:0:
180,170,59146,5,6,1:2:0:0:
330,191,59837,1,6,1:2:0:0:
480,212,60530,2,0,L|459:64,1,150,6|0,1:2|1:0,0:0:0:0:
419,32,61453,2,0,P|369:26|324:46,1,100,8|0,0:0|1:0,0:0:0:0:
256,118,62376,1,10,0:0:0:0:
188,45,62838,5,6,1:2:0:0:
118,178,63530,1,6,1:2:0:0:
48,311,64223,2,0,L|147:325,1,100,6|2,1:2|0:0,0:0:0:0:
233,274,65146,2,0,L|332:288,1,100,2|2,0:0|1:2,0:0:0:0:
431,301,66069,1,2,1:2:0:0:
392,208,66530,6,0,P|381:135|422:76,2,150,6|0|8,1:2|1:0|1:2,0:0:0:0:
332,288,68376,2,0,L|184:267,1,150,2|2,1:2|1:2,0:0:0:0:
148,230,69299,2,0,P|142:180|162:135,1,100,2|8,0:0|3:2,0:0:0:0:
227,59,70223,6,0,P|261:124|242:195,1,150,2|0,1:2|1:0,0:0:0:0:
273,233,71146,2,0,L|372:219,1,100,0|8,0:0|1:2,0:0:0:0:
471,205,72069,2,0,L|485:304,2,100,2|0|2,1:2|0:0|3:1,0:0:0:0:
456,106,73453,1,2,3:2:0:0:
356,119,73915,6,0,P|282:121|227:73,1,150,2|0,1:2|1:0,0:0:0:0:
218,24,74838,2,0,L|119:38,1,100,2|8,0:0|1:2,0:0:0:0:
60,119,75761,1,0,1:0:0:0:
94,212,76223,2,0,P|44:218|-1:198,2,100,2|2|10,0:0|0:0|1:2,0:0:0:0:
189,183,77607,6,0,L|203:282,1,100,2|2,1:2|0:0,0:0:0:0:
302,268,78530,2,0,L|288:169,1,100,0|8,0:0|1:2,0:0:0:0:
346,87,79453,2,0,P|300:67|251:73,1,100,2|2,0:0|0:0,0:0:0:0:
188,151,80376,1,2,0:0:0:0:
205,249,80838,1,2,0:0:0:0:
110,212,81299,6,0,L|11:226,2,100,6|2|2,1:2|0:0|0:0,0:0:0:0:
188,151,82684,1,10,1:2:0:0:
248,71,83146,2,0,P|285:133|270:205,1,150,2|2,1:2|1:2,0:0:0:0:
233,240,84068,2,0,L|247:339,1,100,2|10,0:0|1:2,0:0:0:0:
148,354,84992,5,2,1:2:0:0:
134,254,85453,2,0,L|35:268,2,100,2|0|8,0:0|0:0|1:2,0:0:0:0:
233,240,86837,2,0,P|239:190|219:145,1,100,2|2,1:2|0:0,0:0:0:0:
160,64,87761,1,2,0:1:0:0:
119,156,88223,1,10,1:2:0:0:
219,145,88684,6,0,L|318:131,1,100,2|2,1:2|0:0,0:0:0:0:
336,229,89607,2,0,L|237:243,1,100,2|8,0:0|1:2,0:0:0:0:
227,342,90530,2,0,L|375:321,1,150,2|2,1:2|1:2,0:0:0:0:
411,285,91453,2,0,P|429:238|422:189,1,100,2|10,0:0|1:2,0:0:0:0:
385,97,92376,5,2,1:2:0:0:
291,132,92838,2,0,P|283:83|302:37,2,100,2|2|8,0:0|0:0|1:2,0:0:0:0:
328,224,94223,2,0,L|229:210,1,100,2|0,1:2|0:0,0:0:0:0:
152,145,95146,1,2,0:0:0:0:
134,243,95607,1,2,0:0:0:0:
116,341,96069,5,6,0:0:0:0:
