osu file format v14

[General]
AudioFilename: audio.mp3
AudioLeadIn: 0
PreviewTime: 7453
Countdown: 1
SampleSet: Soft
StackLeniency: 0.6
Mode: 0
LetterboxInBreaks: 0
WidescreenStoryboard: 1

[Editor]
DistanceSpacing: 1.1
BeatDivisor: 4
GridSize: 8
TimelineZoom: 1.3

[Metadata]
Title:Shinshu Hirahara Sono Ni
TitleUnicode:神州平原 其の二
Artist:Masami Ueda
ArtistUnicode:上田雅美
Creator:Doyak
Version:Normal
Source:大神
Tags:Ōkami Okami Original Soundtrack Capcom Clover Studio Playstation 2 3 Wii Shinshu Shinshuu Field Plains II Neoskylove
BeatmapID:1370553
BeatmapSetID:613438

[Difficulty]
HPDrainRate:4
CircleSize:3.5
OverallDifficulty:4
ApproachRate:5
SliderMultiplier:1.3
SliderTickRate:1

[Events]
//Background and Video events
0,0,"amaterasu_animal_butterfly_cherry_blossoms_chibiterasu_flowers_okami_petals_shiranui_wings_wolf_1920x1080.jpg",0,0
//Break Periods
//Storyboard Layer 0 (Background)
//Storyboard Layer 1 (Fail)
//Storyboard Layer 2 (Pass)
//Storyboard Layer 3 (Foreground)
//Storyboard Sound Samples

[TimingPoints]
7453,461.538461538462,4,2,1,60,1,0
10223,-100,4,2,1,40,0,0
10453,-100,4,2,1,50,0,0
10684,-100,4,2,1,60,0,0
21299,-100,4,2,1,70,0,0
21761,-100,4,2,1,80,0,0
22223,-100,4,2,1,90,0,0
22453,-100,4,2,1,70,0,0
25915,-100,4,2,1,50,0,0
26607,-100,4,2,1,60,0,0
27530,-100,4,2,1,70,0,0
28453,-100,4,2,1,80,0,0
28915,-100,4,2,1,50,0,0
29146,-100,4,2,1,60,0,0
29376,-100,4,2,1,70,0,0
32607,-100,4,2,1,50,0,0
32838,-100,4,2,1,60,0,0
33069,-100,4,2,1,70,0,0
35838,-100,4,2,1,80,0,0
36299,-100,4,2,1,70,0,0
36530,-100,4,2,1,80,0,0
36761,-100,4,2,1,90,0,0
36992,-100,4,2,1,90,0,0
37107,-100,4,2,1,60,0,0
40684,-100,4,2,1,65,0,0
44376,-100,4,2,1,70,0,0
48069,-100,4,2,1,75,0,0
51069,-100,4,2,1,50,0,0
51184,-100,4,2,1,60,0,0
51299,-100,4,2,1,70,0,0
51415,-100,4,2,1,75,0,0
51530,-100,4,2,1,80,0,0
51761,-100,4,2,1,90,0,0
64453,-100,4,2,1,40,0,0
64684,-100,4,2,1,45,0,0
64915,-100,4,2,1,50,0,0
65146,-100,4,2,1,55,0,0
65376,-100,4,2,1,60,0,0
65607,-100,4,2,1,70,0,0
65838,-100,4,2,1,80,0,0
66069,-100,4,2,1,90,0,0
66299,-100,4,2,1,100,0,0
66530,-100,4,2,1,100,0,0
66646,-100,4,2,1,60,0,0
73107,-100,4,2,1,45,0,0
73223,-100,4,2,1,50,0,0
73453,-100,4,2,1,60,0,0
73684,-100,4,2,1,70,0,0
77607,-100,4,2,1,75,0,0
79915,-100,4,2,1,80,0,0
80376,-100,4,2,1,85,0,0
80838,-100,4,2,1,90,0,0
81299,-100,4,2,1,100,0,0
81415,-100,4,2,1,80,0,0
94915,-100,4,2,1,40,0,0
95146,-100,4,2,1,60,0,0
95376,-100,4,2,1,90,0,0
95607,-100,4,2,1,95,0,0
95838,-100,4,2,1,100,0,0

[Colours]
Combo1 : 4,230,230
Combo2 : 19,251,118
Combo3 : 217,239,16
Combo4 : 139,139,139

[HitObjects]
429,272,7453,6,0,L|300:253,1,130,6|0,1:2|0:0,0:0:0:0:
275,179,8146,2,0,L|146:197,1,130,0|0,1:0|0:0,0:0:0:0:
69,210,8838,1,8,1:2:0:0:
94,56,9299,2,0,L|222:74,1,130,2|0,1:2|0:0,0:0:0:0:
299,89,9992,1,0,1:0:0:0:
375,104,10223,2,0,L|384:39,2,65,2|0|8,3:2|3:0|3:2,0:0:0:0:
280,228,11146,5,2,1:2:0:0:
434,249,11607,1,2,0:1:0:0:
375,104,12069,2,0,P|318:71|245:77,1,130,2|8,0:1|0:2,0:0:0:0:
205,133,12761,1,2,3:1:0:0:
205,133,12992,2,0,L|76:114,1,130,2|0,1:0|0:0,0:0:0:0:
67,192,13684,2,0,L|195:210,1,130,0|0,1:0|0:0,0:0:0:0:
267,180,14376,1,10,3:2:0:0:
421,157,14838,6,0,P|422:221|390:276,1,130,2|0,1:2|0:0,0:0:0:0:
329,325,15530,2,0,L|200:306,1,130,0|0,1:0|0:0,0:0:0:0:
122,295,16223,1,8,1:2:0:0:
26,172,16684,2,0,P|81:139|145:141,1,130,0|0,1:0|0:0,0:0:0:0:
199,84,17376,1,0,1:0:0:0:
253,27,17607,2,0,L|317:36,2,65,2|0|8,0:1|0:0|3:2,0:0:0:0:
145,141,18530,6,0,L|163:269,1,130,2|0,1:0|0:0,0:0:0:0:
213,329,19223,1,2,1:0:0:0:
241,256,19453,2,0,L|231:191,2,65,2|0|8,0:1|3:0|3:2,0:0:0:0:
386,313,20376,2,0,L|376:377,2,65,0|0|0,1:0|0:0|0:0,0:0:0:0:
441,167,21299,2,0,L|376:157,1,65,2|0,3:1|3:0,0:0:0:0:
303,185,21761,2,0,L|238:175,1,65,2|0,3:1|3:2,0:0:0:0:
165,203,22223,5,6,1:2:0:0:
165,203,22453,2,0,P|171:135|224:98,1,130,2|2,0:2|1:2,0:0:0:0:
238,175,23146,1,2,0:0:0:0:
84,149,23607,1,10,1:2:0:0:
138,295,24069,2,0,L|203:285,1,65,2|0,1:2|0:0,0:0:0:0:
279,274,24530,1,2,0:0:0:0:
431,305,24992,2,0,P|436:241|406:184,1,130,2|10,0:0|1:2,0:0:0:0:
255,142,25915,6,0,L|273:14,1,130,2|0,1:2|0:0,0:0:0:0:
350,19,26607,1,2,1:2:0:0:
350,19,26838,2,0,L|332:147,1,130,2|8,0:0|1:2,0:0:0:0:
289,212,27530,1,2,0:0:0:0:
289,212,27761,2,0,P|220:211|179:162,1,130,2|0,1:2|0:0,0:0:0:0:
123,116,28453,1,2,1:2:0:0:
123,116,28684,2,0,L|58:126,2,65,2|0|0,0:0|3:0|3:0,0:0:0:0:
276,89,29607,6,0,L|266:24,2,65,0|2|2,1:0|0:0|0:0,0:0:0:0:
325,149,30299,1,2,1:2:0:0:
394,183,30530,2,0,P|398:120|354:75,1,130,2|8,0:0|1:2,0:0:0:0:
276,89,31223,1,2,0:0:0:0:
199,102,31453,1,2,1:2:0:0:
122,238,31915,2,0,L|57:228,1,65,2|2,0:0|1:2,0:0:0:0:
43,304,32376,2,0,L|171:322,1,130,2|2,0:0|3:2,0:0:0:0:
277,206,33299,6,0,P|333:176|397:181,1,130,2|0,1:2|0:0,0:0:0:0:
452,241,33992,1,2,1:2:0:0:
452,241,34223,2,0,P|449:305|413:358,1,130,2|8,0:0|3:2,0:0:0:0:
337,373,34915,1,2,0:0:0:0:
337,373,35146,2,0,P|282:338|255:280,1,130,2|0,1:2|0:0,0:0:0:0:
192,234,35838,1,2,1:2:0:0:
192,234,36069,2,0,L|127:244,2,65,2|0|0,0:0|3:0|0:0,0:0:0:0:
324,150,36992,6,0,L|342:278,1,130,6|0,1:2|0:0,0:0:0:0:
389,340,37684,1,0,1:0:0:0:
419,267,37915,2,0,L|401:139,1,130,2|8,0:0|1:2,0:0:0:0:
302,17,38838,2,0,B|202:0|214:70|114:49,1,195,2|0,1:2|3:0,0:0:0:0:
39,34,39761,1,0,3:2:0:0:
61,189,40223,2,0,L|71:254,1,65,10|0,0:0|0:0,0:0:0:0:
136,295,40684,6,0,P|189:258|253:255,1,130,2|0,1:2|0:0,0:0:0:0:
321,292,41376,1,0,1:0:0:0:
389,329,41607,2,0,L|454:319,2,65,2|0|8,3:2|3:0|1:2,0:0:0:0:
253,255,42530,2,0,P|269:168|321:221,1,195,2|0,1:2|1:0,0:0:0:0:
321,292,43453,1,2,0:0:0:0:
172,339,43915,2,0,L|107:329,1,65,8|0,3:2|3:0,0:0:0:0:
62,265,44376,6,0,P|152:237|231:288,1,195,2|0,1:2|1:0,0:0:0:0:
297,330,45299,2,0,L|362:320,2,65,2|0|8,0:0|0:0|1:2,0:0:0:0:
268,176,46223,1,0,1:0:0:0:
268,176,46453,2,0,L|396:158,1,130,0|0,0:0|1:0,0:0:0:0:
457,207,47146,2,0,P|474:146|440:92,1,130,2|10,0:0|3:2,0:0:0:0:
307,11,48069,6,0,L|179:29,1,130,2|0,1:2|0:0,0:0:0:0:
132,92,48761,1,2,1:2:0:0:
86,155,48992,2,0,L|21:145,2,65,0|0|8,0:0|3:0|3:2,0:0:0:0:
225,224,49915,2,0,L|290:214,2,65,2|0|0,1:2|3:0|3:0,0:0:0:0:
179,287,50607,2,0,P|146:232|164:172,1,130,0|8,3:0|3:2,0:0:0:0:
197,101,51299,2,0,L|187:36,1,65,8|8,3:2|3:2,0:0:0:0:
265,28,51761,6,0,B|274:93|274:93|349:80,1,130,6|2,1:2|0:0,0:0:0:0:
411,106,52453,2,0,B|402:171|402:171|327:158,1,130,6|2,1:2|0:0,0:0:0:0:
293,224,53146,2,0,P|349:295|294:367,1,195,6|0,1:2|1:0,0:0:0:0:
218,367,54069,2,0,P|162:295|218:224,1,195,8|0,0:0|1:0,0:0:0:0:
293,224,54992,1,10,0:0:0:0:
388,100,55453,6,0,L|453:90,2,65,6|0|2,1:2|0:0|0:0,0:0:0:0:
404,176,56146,2,0,L|469:166,2,65,6|0|2,1:2|0:0|0:0,0:0:0:0:
356,237,56838,2,0,L|228:219,1,130,6|0,1:2|0:0,0:0:0:0:
149,207,57530,1,0,1:0:0:0:
71,196,57761,1,8,0:0:0:0:
169,74,58223,2,0,L|234:84,2,65,2|0|0,0:1|1:0|1:0,0:0:0:0:
94,49,58915,1,2,1:2:0:0:
94,49,59146,6,0,L|29:59,2,65,6|0|2,1:2|0:0|0:0,0:0:0:0:
108,125,59838,2,0,L|43:135,2,65,6|0|2,1:2|0:0|0:0,0:0:0:0:
172,169,60530,2,0,L|190:297,1,130,6|0,1:2|0:0,0:0:0:0:
204,374,61223,1,0,1:0:0:0:
282,363,61453,1,8,0:0:0:0:
395,255,61915,1,0,1:0:0:0:
395,255,62146,2,0,L|460:265,2,65,10|10|2,0:0|0:0|0:0,0:0:0:0:
343,196,62838,6,0,L|353:131,2,65,6|0|2,1:2|0:0|0:0,0:0:0:0:
265,184,63530,2,0,L|275:119,2,65,6|0|2,1:2|0:0|0:0,0:0:0:0:
200,229,64223,2,0,P|172:139|223:60,1,195,6|2,1:2|0:0,0:0:0:0:
300,46,65146,1,2,0:0:0:0:
447,95,65607,2,0,L|457:160,1,65,2|2,1:2|1:2,0:0:0:0:
379,173,66069,2,0,L|389:238,1,65,2|2,1:2|1:2,0:0:0:0:
340,298,66530,6,0,P|281:274|218:284,1,130,6|0,1:2|0:0,0:0:0:0:
148,320,67223,2,0,L|130:192,1,130,0|0,1:0|0:0,0:0:0:0:
118,114,67915,1,8,1:2:0:0:
267,71,68376,2,0,L|249:199,1,130,2|0,1:2|0:0,0:0:0:0:
238,277,69069,1,2,1:2:0:0:
184,332,69299,2,0,P|244:353|300:324,1,130,2|8,0:0|3:2,0:0:0:0:
310,247,69992,1,2,3:2:0:0:
321,170,70223,6,0,L|127:197,1,195,2|0,1:2|1:0,0:0:0:0:
83,261,71146,2,0,P|50:206|67:145,1,130,0|8,0:0|1:2,0:0:0:0:
140,119,71838,1,2,0:0:0:0:
213,93,72069,2,0,L|204:27,2,65,2|0|0,1:2|0:0|0:0,0:0:0:0:
239,246,72992,2,0,L|304:237,1,65,2|0,3:1|3:0,0:0:0:0:
314,315,73453,2,0,L|379:306,1,65,0|0,3:0|3:0,0:0:0:0:
446,267,73915,6,0,P|432:179|331:170,1,195,2|0,1:2|1:0,0:0:0:0:
303,237,74838,2,0,L|285:365,1,130,2|8,0:0|1:2,0:0:0:0:
137,313,75761,2,0,L|72:322,2,65,0|2|2,1:0|0:0|0:0,0:0:0:0:
214,303,76453,1,2,1:2:0:0:
214,303,76684,2,0,L|196:175,1,130,2|10,0:0|1:2,0:0:0:0:
184,96,77376,1,2,0:0:0:0:
123,144,77607,6,0,L|58:153,2,65,2|2|2,1:2|0:0|0:0,0:0:0:0:
245,48,78530,2,0,L|373:66,1,130,0|8,0:0|1:2,0:0:0:0:
450,80,79223,1,2,0:0:0:0:
400,140,79453,2,0,L|391:205,1,65,2|2,0:0|0:0,0:0:0:0:
463,234,79915,2,0,L|454:299,1,65,2|2,0:0|0:0,0:0:0:0:
377,314,80376,2,0,L|368:379,2,65,2|2|2,0:0|0:0|0:0,0:0:0:0:
242,235,81299,5,6,1:2:0:0:
242,235,81529,2,0,L|251:300,1,65,2|2,0:0|0:0,0:0:0:0:
222,372,81992,1,2,1:2:0:0:
173,310,82223,2,0,L|155:182,1,130,2|10,0:0|1:2,0:0:0:0:
75,46,83146,1,2,1:2:0:0:
75,46,83377,2,0,P|134:20|197:31,1,130,2|2,0:0|1:2,0:0:0:0:
264,70,84069,2,0,L|392:52,1,130,2|10,0:0|1:2,0:0:0:0:
470,41,84761,1,2,0:0:0:0:
441,113,84992,6,0,L|450:178,2,65,2|2|2,1:2|0:0|0:0,0:0:0:0:
285,103,85915,2,0,L|303:231,1,130,0|8,0:0|1:2,0:0:0:0:
316,308,86607,1,2,0:0:0:0:
376,258,86838,2,0,L|441:249,2,65,2|2|2,1:2|0:0|0:0,0:0:0:0:
256,358,87761,2,0,L|191:349,1,65,2|0,0:1|0:0,0:0:0:0:
166,274,88223,2,0,L|101:265,1,65,10|0,1:2|0:0,0:0:0:0:
42,315,88684,6,0,P|24:253|58:199,1,130,2|2,1:2|0:0,0:0:0:0:
126,164,89376,1,2,1:2:0:0:
126,164,89607,2,0,L|108:36,1,130,2|8,0:0|1:2,0:0:0:0:
262,14,90530,2,0,L|280:142,1,130,2|0,1:2|0:0,0:0:0:0:
329,203,91223,1,2,1:2:0:0:
357,131,91453,2,0,L|348:66,2,65,2|0|10,0:0|0:0|1:2,0:0:0:0:
382,284,92376,6,0,L|447:275,2,65,2|2|2,1:2|0:0|0:0,0:0:0:0:
304,294,93069,1,2,1:2:0:0:
304,294,93299,2,0,L|322:166,1,130,2|8,0:0|1:2,0:0:0:0:
244,155,93992,1,2,0:0:0:0:
244,155,94222,2,0,L|226:283,1,130,2|0,1:2|0:0,0:0:0:0:
80,342,95146,2,0,L|89:277,1,65,2|2,0:0|0:0,0:0:0:0:
101,200,95607,2,0,L|110:135,1,65,2|2,0:0|0:0,0:0:0:0:
121,58,96069,5,6,0:0:0:0:
