osu file format v14

[General]
AudioFilename: audio.mp3
AudioLeadIn: 0
PreviewTime: 7453
Countdown: 1
SampleSet: Soft
StackLeniency: 0.6
Mode: 0
LetterboxInBreaks: 0
WidescreenStoryboard: 1

[Editor]
Bookmarks: 96069
DistanceSpacing: 1
BeatDivisor: 4
GridSize: 4
TimelineZoom: 1.6

[Metadata]
Title:Shinshu Hirahara Sono Ni
TitleUnicode:神州平原 其の二
Artist:Masami Ueda
ArtistUnicode:上田雅美
Creator:Doyak
Version:NeoSL's Hard
Source:大神
Tags:Ōkami Okami Original Soundtrack Capcom Clover Studio Playstation 2 3 Wii Shinshu Shinshuu Field Plains II Neoskylove
BeatmapID:1371423
BeatmapSetID:613438

[Difficulty]
HPDrainRate:5
CircleSize:4
OverallDifficulty:5.5
ApproachRate:7
SliderMultiplier:1.6
SliderTickRate:1

[Events]
//Background and Video events
0,0,"amaterasu_animal_butterfly_cherry_blossoms_chibiterasu_flowers_okami_petals_shiranui_wings_wolf_1920x1080.jpg",0,0
//Break Periods
//Storyboard Layer 0 (Background)
//Storyboard Layer 1 (Fail)
//Storyboard Layer 2 (Pass)
//Storyboard Layer 3 (Foreground)
//Storyboard Sound Samples

[TimingPoints]
7453,461.538461538462,4,2,1,60,1,0
10223,-100,4,2,1,40,0,0
10453,-100,4,2,1,50,0,0
10684,-100,4,2,1,60,0,0
21299,-100,4,2,1,70,0,0
21761,-100,4,2,1,80,0,0
22223,-100,4,2,1,90,0,0
22453,-100,4,2,1,70,0,0
25915,-100,4,2,1,50,0,0
26607,-100,4,2,1,60,0,0
27530,-100,4,2,1,70,0,0
28453,-100,4,2,1,80,0,0
28915,-100,4,2,1,50,0,0
29146,-100,4,2,1,60,0,0
29376,-100,4,2,1,70,0,0
32607,-100,4,2,1,50,0,0
32838,-100,4,2,1,60,0,0
33069,-100,4,2,1,70,0,0
35838,-100,4,2,1,80,0,0
36299,-100,4,2,1,70,0,0
36530,-100,4,2,1,80,0,0
36761,-100,4,2,1,90,0,0
36992,-100,4,2,1,90,0,0
37107,-100,4,2,1,60,0,0
40684,-100,4,2,1,65,0,0
44376,-100,4,2,1,70,0,0
48069,-100,4,2,1,75,0,0
51069,-100,4,2,1,50,0,0
51184,-100,4,2,1,60,0,0
51299,-100,4,2,1,70,0,0
51415,-100,4,2,1,75,0,0
51530,-100,4,2,1,80,0,0
51761,-100,4,2,1,90,0,0
64453,-100,4,2,1,40,0,0
64684,-100,4,2,1,45,0,0
64915,-100,4,2,1,50,0,0
65146,-100,4,2,1,55,0,0
65376,-100,4,2,1,60,0,0
65607,-100,4,2,1,70,0,0
65838,-100,4,2,1,80,0,0
66069,-100,4,2,1,90,0,0
66299,-100,4,2,1,100,0,0
66530,-100,4,2,1,100,0,0
66646,-100,4,2,1,60,0,0
73107,-100,4,2,1,45,0,0
73223,-100,4,2,1,50,0,0
73453,-100,4,2,1,60,0,0
73684,-100,4,2,1,70,0,0
77607,-100,4,2,1,75,0,0
79915,-100,4,2,1,80,0,0
80376,-100,4,2,1,85,0,0
80838,-100,4,2,1,90,0,0
81299,-100,4,2,1,100,0,0
81415,-100,4,2,1,80,0,0
94915,-100,4,2,1,40,0,0
95146,-100,4,2,1,60,0,0
95376,-100,4,2,1,90,0,0
95607,-100,4,2,1,95,0,0
95838,-100,4,2,1,100,0,0

[Colours]
Combo1 : 4,230,230
Combo2 : 19,251,118
Combo3 : 217,239,16
Combo4 : 139,139,139

[HitObjects]
120,59,7453,6,0,P|80:60|47:82,2,80,6|0|0,1:2|0:0|0:0,0:0:0:0:
178,111,8146,2,0,P|196:75|195:36,2,80,0|0|0,1:0|0:0|0:0,0:0:0:0:
103,136,8838,2,0,P|125:168|159:187,1,80,8|0,1:2|0:0,0:0:0:0:
240,191,9299,6,0,L|225:269,2,80,2|0|0,1:2|0:0|0:0,0:0:0:0:
297,135,9992,1,0,1:0:0:0:
373,116,10223,2,0,P|372:155|354:190,1,80,2|0,3:2|3:0,0:0:0:0:
319,263,10684,1,8,3:2:0:0:
319,263,10915,1,0,3:0:0:0:
246,229,11146,6,0,P|237:267|250:305,1,80,2|0,1:2|0:0,0:0:0:0:
322,338,11607,2,0,P|331:300|319:263,1,80,2|0,0:1|1:0,0:0:0:0:
246,229,12069,2,0,L|206:229,2,40,2|8|0,0:1|0:2|0:0,0:0:0:0:
265,151,12530,2,0,L|185:151,1,80,8|2,0:2|3:1,0:0:0:0:
129,208,12992,5,2,1:0:0:0:
129,208,13223,2,0,P|106:175|105:135,1,80,0|0,0:0|0:0,0:0:0:0:
83,58,13684,1,0,1:0:0:0:
83,58,13915,2,0,P|122:55|157:73,1,80,0|0,0:0|0:0,0:0:0:0:
185,151,14376,2,0,L|225:151,2,40,10|0|0,3:2|3:0|3:0,0:0:0:0:
128,207,14838,6,0,L|48:206,2,80,2|0|0,1:2|0:0|0:0,0:0:0:0:
143,284,15530,2,0,L|63:283,2,80,0|2|0,1:0|0:0|0:0,0:0:0:0:
219,307,16223,2,0,P|220:267|203:231,1,80,8|0,1:2|3:0,0:0:0:0:
128,207,16684,6,0,L|128:127,2,80,0|0|0,1:0|0:0|0:0,0:0:0:0:
207,195,17376,2,0,L|207:115,2,80,0|2|0,1:0|0:1|0:0,0:0:0:0:
286,183,18069,2,0,L|286:143,2,40,8|0|0,3:2|3:0|3:0,0:0:0:0:
334,248,18530,6,0,P|372:258|411:251,2,80,2|0|0,1:0|0:0|0:0,0:0:0:0:
286,183,19223,1,2,1:0:0:0:
270,297,19453,2,0,P|231:307|192:300,1,80,2|0,0:1|3:2,0:0:0:0:
156,283,19799,1,0,3:2:0:0:
156,283,19914,2,0,L|152:362,1,80,8|0,3:2|3:0,0:0:0:0:
83,249,20376,6,0,L|87:170,1,80,0|0,1:0|0:0,0:0:0:0:
89,88,20838,1,0,0:0:0:0:
155,131,21069,1,0,1:2:0:0:
158,134,21184,1,0,3:0:0:0:
161,137,21299,2,0,L|240:133,1,80,0|0,3:1|3:0,0:0:0:0:
321,125,21761,1,0,3:1:0:0:
321,125,21992,1,0,3:2:0:0:
290,276,22223,5,6,1:2:0:0:
290,276,22453,2,0,L|286:197,2,80,2|0|2,0:2|0:0|1:2,0:0:0:0:
340,338,23146,1,2,0:0:0:0:
183,311,23607,1,10,1:2:0:0:
118,359,23838,1,0,0:0:0:0:
135,248,24069,6,0,L|139:208,2,40,2|0|0,1:2|0:0|0:0,0:0:0:0:
70,294,24530,2,0,P|54:258|59:219,1,80,2|0,0:0|1:0,0:0:0:0:
139,208,24992,2,0,B|198:219|198:219|293:189,1,160,2|10,0:0|1:2,0:0:0:0:
330,172,25569,1,0,3:0:0:0:
330,172,25684,1,0,3:0:0:0:
389,118,25915,6,0,B|417:152|407:193|407:193|436:148|428:117,1,160,2|0,1:2|0:0,0:0:0:0:
409,40,26607,1,2,1:2:0:0:
409,40,26838,2,0,B|379:48|364:71|364:71|319:37|265:55,1,160,2|8,0:0|1:2,0:0:0:0:
190,81,27530,1,2,0:0:0:0:
190,81,27646,1,2,0:0:0:0:
190,81,27761,6,0,B|187:203|187:203|159:177,1,160,2|0,1:2|0:0,0:0:0:0:
111,241,28453,1,2,1:2:0:0:
111,241,28569,1,2,0:0:0:0:
111,241,28684,2,0,L|171:295,1,80,2|0,0:0|3:0,0:0:0:0:
250,300,29146,2,0,L|243:343,2,40,0|0|0,3:0|3:0|3:0,0:0:0:0:
355,256,29607,5,0,1:0:0:0:
401,321,29837,2,0,P|364:335|324:330,1,80,2|2,0:0|0:0,0:0:0:0:
250,300,30299,1,2,1:2:0:0:
280,225,30529,2,0,B|286:177|286:177|266:119|266:119|280:70,1,160,2|8,0:0|1:2,0:0:0:0:
204,40,31223,1,2,0:0:0:0:
93,83,31453,6,0,L|54:79,2,40,2|0|0,1:2|0:0|0:0,0:0:0:0:
127,156,31915,2,0,L|120:235,1,80,2|2,0:0|1:2,0:0:0:0:
67,295,32376,2,0,B|109:280|148:294|148:294|184:312|223:292,1,160,2|2,0:0|3:2,0:0:0:0:
279,236,33069,1,0,3:0:0:0:
322,335,33299,6,0,L|332:176,1,160,2|0,1:2|0:0,0:0:0:0:
379,111,33992,1,2,1:2:0:0:
379,111,34107,1,0,0:0:0:0:
378,111,34223,2,0,P|308:142|239:107,1,160,2|8,0:0|3:2,0:0:0:0:
173,62,34915,1,2,0:0:0:0:
173,62,35030,1,2,0:0:0:0:
173,62,35146,6,0,B|159:117|159:117|175:170|175:170|161:215,1,160,2|0,1:2|0:0,0:0:0:0:
99,267,35838,1,2,1:2:0:0:
157,320,36069,2,0,P|195:309|235:306,1,80,2|0,0:0|3:0,0:0:0:0:
268,328,36415,1,0,3:0:0:0:
268,328,36530,2,0,L|307:325,3,40,0|0|0|0,3:0|3:0|3:0|0:0,0:0:0:0:
348,325,36992,6,0,B|338:287|338:287|345:246,1,80,6|0,1:2|0:0,0:0:0:0:
373,171,37453,1,0,0:0:0:0:
316,114,37684,2,0,B|287:148|295:185|295:185|260:167|214:182,1,160,0|0,1:0|0:0,0:0:0:0:
148,227,38376,2,0,L|144:306,1,80,8|0,1:2|0:0,0:0:0:0:
37,262,38838,6,0,L|43:102,1,160,2|0,1:2|0:0,0:0:0:0:
102,47,39530,1,0,3:0:0:0:
102,47,39646,1,0,3:0:0:0:
102,47,39761,2,0,P|175:70|241:29,1,160,0|10,3:2|0:0,0:0:0:0:
351,144,40684,6,0,P|296:121|240:139,1,120,2|0,1:2|0:0,0:0:0:0:
214,170,41146,2,0,P|202:207|213:244,1,80,0|0,0:0|1:0,0:0:0:0:
289,271,41607,2,0,B|341:258|341:258|388:278|388:278|442:266,1,160,2|8,3:2|1:2,0:0:0:0:
308,354,42530,6,0,B|246:367|195:328|195:328|147:292|80:306,1,240,2|0,1:2|1:0,0:0:0:0:
25,248,43453,1,2,0:0:0:0:
92,102,43915,2,0,L|92:62,2,40,8|0|0,3:2|3:0|3:0,0:0:0:0:
200,152,44376,6,0,B|233:144|255:122|255:122|305:154|278:205,1,160,2|0,1:2|0:0,0:0:0:0:
210,247,45069,1,0,1:0:0:0:
214,326,45299,2,0,P|253:332|289:313,1,80,2|0,0:0|0:0,0:0:0:0:
356,356,45761,2,0,P|391:338|429:344,1,80,8|0,1:2|0:0,0:0:0:0:
484,284,46223,6,0,B|493:159|493:159|467:182,1,160,0|0,1:0|0:0,0:0:0:0:
394,215,46915,1,0,1:0:0:0:
319,182,47146,2,0,P|305:146|318:109,1,80,2|0,0:0|0:0,0:0:0:0:
378,55,47607,2,0,L|417:59,2,40,10|0|0,3:2|3:0|3:0,0:0:0:0:
246,74,48069,6,0,B|211:91|211:91|90:79,1,160,2|0,1:2|0:0,0:0:0:0:
36,138,48761,1,2,1:2:0:0:
71,209,48992,2,0,B|150:216,1,80,0|0,0:0|3:0,0:0:0:0:
178,186,49338,1,0,3:0:0:0:
178,186,49453,2,0,B|257:193,1,80,8|0,3:2|0:0,0:0:0:0:
348,133,49915,6,0,B|341:212,1,80,2|0,1:2|3:0,0:0:0:0:
321,247,50261,1,0,3:0:0:0:
321,247,50376,2,0,B|328:326,1,80,0|0,3:0|3:0,0:0:0:0:
255,360,50838,2,0,B|248:281,1,80,0|8,3:0|3:2,0:0:0:0:
206,207,51299,2,0,P|205:188|207:168,1,40,8|8,3:2|3:2,0:0:0:0:
226,132,51530,1,8,3:2:0:0:
341,212,51761,6,0,B|348:133,1,80,6|0,1:2|0:0,0:0:0:0:
355,52,52223,1,2,0:0:0:0:
226,132,52453,2,0,B|147:139,1,80,6|0,1:2|0:0,0:0:0:0:
66,146,52915,1,2,0:0:0:0:
72,298,53146,6,0,B|134:321|187:265|187:265|254:258|289:299,1,240,6|0,1:2|1:0,0:0:0:0:
346,354,54069,2,0,P|336:277|393:226,1,160,8|0,0:0|0:0,0:0:0:0:
473,235,54761,1,0,1:0:0:0:
440,127,54992,2,0,L|360:138,1,80,10|2,0:0|0:0,0:0:0:0:
210,165,55453,6,0,L|289:176,1,80,6|0,1:2|0:0,0:0:0:0:
360,138,55915,1,2,0:0:0:0:
244,73,56146,2,0,L|164:84,1,80,6|0,1:2|0:0,0:0:0:0:
96,42,56607,1,2,0:0:0:0:
1,131,56838,6,0,B|8:182|73:199|120:165|120:165|161:189|209:165,1,240,6|0,1:2|1:0,0:0:0:0:
276,121,57761,2,0,P|288:158|282:197,1,80,8|0,0:0|0:0,0:0:0:0:
261,275,58223,1,2,0:1:0:0:
338,254,58453,1,0,1:0:0:0:
394,310,58684,1,0,1:0:0:0:
485,161,58915,1,2,1:2:0:0:
485,161,59030,1,0,0:0:0:0:
485,161,59146,6,0,L|406:154,1,80,6|0,1:2|0:0,0:0:0:0:
337,112,59607,1,2,0:0:0:0:
199,65,59838,2,0,L|278:58,1,80,6|0,1:2|0:0,0:0:0:0:
337,112,60299,1,2,0:0:0:0:
199,65,60530,5,6,1:2:0:0:
143,123,60761,2,0,P|122:89|119:49,1,80,0|0,0:0|0:0,0:0:0:0:
199,65,61223,1,0,1:0:0:0:
222,141,61453,2,0,L|214:220,1,80,8|0,0:0|0:0,0:0:0:0:
203,300,61915,1,0,1:0:0:0:
197,379,62146,1,10,0:0:0:0:
197,379,62376,2,0,P|236:371|267:346,1,80,10|2,0:0|0:0,0:0:0:0:
214,220,62838,6,0,L|134:227,1,80,6|0,1:2|0:0,0:0:0:0:
54,235,63299,1,2,0:0:0:0:
206,139,63530,2,0,L|126:146,1,80,6|0,1:2|0:0,0:0:0:0:
46,154,63991,1,2,0:0:0:0:
198,58,64223,5,6,1:2:0:0:
305,97,64453,1,2,0:0:0:0:
305,97,64569,1,2,0:0:0:0:
305,97,64684,2,0,L|296:176,1,80,2|2,0:0|0:0,0:0:0:0:
278,255,65146,1,2,0:0:0:0:
278,255,65376,1,2,1:2:0:0:
353,227,65607,2,0,P|392:223|432:221,1,80,2|2,1:2|1:2,0:0:0:0:
278,255,66068,2,0,P|239:251|199:249,1,80,2|2,1:2|1:2,0:0:0:0:
162,267,66414,1,0,0:0:0:0:
162,267,66530,6,0,B|187:209|169:175|169:175|138:188|106:172,1,160,6|0,1:2|0:0,0:0:0:0:
57,110,67223,2,0,B|53:72|80:39|80:39|127:63|161:51,1,160,0|0,1:0|0:0,0:0:0:0:
233,19,67915,2,0,L|312:27,1,80,8|0,1:2|0:0,0:0:0:0:
383,134,68376,5,2,1:2:0:0:
383,134,68607,2,0,L|303:125,1,80,0|0,0:0|0:0,0:0:0:0:
251,186,69068,1,2,1:2:0:0:
251,186,69299,2,0,L|171:177,1,80,2|0,0:0|0:0,0:0:0:0:
117,237,69761,2,0,L|121:276,2,40,8|0|2,3:2|3:2|3:2,0:0:0:0:
236,276,70223,6,0,L|316:267,2,80,2|0|0,1:2|0:0|0:0,0:0:0:0:
198,346,70915,1,0,1:0:0:0:
277,353,71146,2,0,L|357:344,1,80,0|0,0:0|0:0,0:0:0:0:
425,301,71607,2,0,P|438:265|426:227,1,80,8|2,1:2|0:0,0:0:0:0:
327,149,72069,5,2,1:2:0:0:
327,149,72299,2,0,B|288:159|288:159|249:148,1,80,0|0,0:0|0:0,0:0:0:0:
246,68,72761,1,0,1:0:0:0:
246,68,72992,2,0,B|285:58|285:58|323:68,1,80,2|0,3:1|3:0,0:0:0:0:
395,104,73453,2,0,L|434:102,3,40,0|0|0|0,3:0|3:0|3:0|3:0,0:0:0:0:
473,111,73915,6,0,P|460:73|467:34,2,80,2|0|0,1:2|0:0|0:0,0:0:0:0:
464,190,74607,1,0,1:0:0:0:
464,190,74838,2,0,P|493:261|462:332,1,160,2|8,0:0|1:2,0:0:0:0:
391,370,75530,1,0,0:0:0:0:
343,242,75761,6,0,L|350:162,2,80,0|2|2,1:0|0:0|0:0,0:0:0:0:
314,316,76453,1,2,1:2:0:0:
263,252,76684,2,0,P|224:245|189:263,1,80,2|0,0:0|0:0,0:0:0:0:
161,338,77145,2,0,L|163:378,2,40,10|0|2,1:2|0:0|0:0,0:0:0:0:
27,298,77607,6,0,L|23:378,2,80,2|2|2,1:2|0:0|0:0,0:0:0:0:
90,248,78299,1,0,1:0:0:0:
15,217,78530,2,0,L|11:137,1,80,0|0,0:0|0:0,0:0:0:0:
8,96,78876,1,0,0:0:0:0:
8,96,78992,2,0,P|44:82|82:93,1,80,8|2,1:2|0:0,0:0:0:0:
179,154,79453,5,2,0:0:0:0:
179,154,79684,2,0,B|219:161|219:161|256:147,1,80,2|2,0:0|0:0,0:0:0:0:
253,66,80146,1,2,0:0:0:0:
253,66,80377,2,0,B|213:59|213:59|176:72,1,80,2|2,0:0|0:0,0:0:0:0:
179,154,80838,2,0,L|177:193,3,40,2|0|2|0,0:0|0:0|0:0|0:0,0:0:0:0:
163,231,81299,6,0,L|243:227,1,80,6|2,1:2|0:0,0:0:0:0:
270,258,81646,1,0,0:0:0:0:
270,258,81761,2,0,L|350:262,1,80,2|2,0:0|1:2,0:0:0:0:
390,192,82223,1,2,0:0:0:0:
458,234,82453,1,0,0:0:0:0:
461,237,82569,1,0,0:0:0:0:
465,240,82684,2,0,P|476:277|463:315,1,80,10|0,1:2|0:0,0:0:0:0:
285,285,83146,6,0,L|269:322,2,40,2|0|2,1:2|0:0|0:0,0:0:0:0:
153,193,83838,2,0,L|136:229,2,40,2|0|2,1:2|0:0|0:0,0:0:0:0:
159,113,84299,1,0,0:0:0:0:
225,68,84530,2,0,L|264:65,3,40,10|0|2|0,1:2|0:0|0:0|0:0,0:0:0:0:
303,75,84992,6,0,P|341:82|379:69,1,80,2|2,1:2|0:0,0:0:0:0:
416,55,85338,1,0,0:0:0:0:
416,55,85453,2,0,L|411:134,1,80,2|0,0:0|1:0,0:0:0:0:
354,191,85915,2,0,B|424:171|472:206|472:206|452:217|444:229,1,160,0|8,0:0|1:2,0:0:0:0:
415,304,86607,1,2,0:0:0:0:
342,269,86838,5,2,1:2:0:0:
277,316,87069,1,2,0:0:0:0:
277,316,87184,1,0,0:0:0:0:
277,316,87299,2,0,P|239:328|201:318,1,80,2|2,0:0|1:2,0:0:0:0:
142,263,87761,2,0,L|147:183,1,80,2|0,0:1|0:0,0:0:0:0:
222,210,88223,2,0,L|227:130,1,80,10|0,1:2|0:0,0:0:0:0:
181,47,88684,5,2,1:2:0:0:
124,103,88914,2,0,L|98:101,2,26.6666666666667,2|0|0,0:0|0:0|0:0,0:0:0:0:
135,128,89146,2,0,P|116:162|111:202,1,80,2|2,0:0|1:2,0:0:0:0:
176,248,89607,2,0,B|212:245|235:257|235:257|268:241|268:241|295:254|330:244,1,160,2|8,0:0|1:2,0:0:0:0:
400,208,90299,1,2,0:0:0:0:
400,208,90415,1,0,0:0:0:0:
400,208,90530,6,0,B|401:97|401:97|386:118|361:123,1,160,2|0,1:2|0:0,0:0:0:0:
297,74,91223,1,2,1:2:0:0:
271,149,91453,2,0,P|234:160|197:147,1,80,2|0,0:0|0:0,0:0:0:0:
130,103,91915,2,0,P|94:89|56:101,1,80,10|0,1:2|0:0,0:0:0:0:
48,228,92376,5,2,1:2:0:0:
34,306,92607,2,0,L|9:311,2,26.6666666666667,2|0|0,0:0|0:0|0:0,0:0:0:0:
57,320,92838,2,0,P|95:333|134:327,1,80,2|2,0:0|1:2,0:0:0:0:
202,284,93299,2,0,P|242:277|279:291,1,80,2|0,0:0|0:0,0:0:0:0:
311,314,93646,1,0,0:0:0:0:
311,314,93761,2,0,L|315:234,1,80,8|2,1:2|0:0,0:0:0:0:
323,121,94223,6,0,B|290:125|268:112|268:112|221:136|221:136|203:125|172:125,1,160,2|0,1:2|0:0,0:0:0:0:
112,177,94915,1,2,1:2:0:0:
141,251,95146,2,0,L|136:330,1,80,2|2,0:0|0:0,0:0:0:0:
221,254,95607,2,0,L|218:214,2,40,2|0|2,0:0|0:0|0:0,0:0:0:0:
344,337,96069,5,6,0:0:0:0:
