osu file format v14

[General]
AudioFilename: audio.mp3
AudioLeadIn: 0
PreviewTime: 7453
Countdown: 1
SampleSet: Soft
StackLeniency: 0.6
Mode: 0
LetterboxInBreaks: 0
WidescreenStoryboard: 0

[Editor]
DistanceSpacing: 1.1
BeatDivisor: 4
GridSize: 8
TimelineZoom: 2.5

[Metadata]
Title:Shinshu Hirahara Sono Ni
TitleUnicode:神州平原 其の二
Artist:Masami Ueda
ArtistUnicode:上田雅美
Creator:Doyak
Version:Insane
Source:大神
Tags:Ōkami Okami Original Soundtrack Capcom Clover Studio Playstation 2 3 Wii Shinshu Shinshuu Field Plains II Neoskylove
BeatmapID:1294254
BeatmapSetID:613438

[Difficulty]
HPDrainRate:6
CircleSize:4
OverallDifficulty:7.5
ApproachRate:8
SliderMultiplier:1.8
SliderTickRate:1

[Events]
//Background and Video events
0,0,"amaterasu_animal_butterfly_cherry_blossoms_chibiterasu_flowers_okami_petals_shiranui_wings_wolf_1920x1080.jpg",0,0
//Break Periods
//Storyboard Layer 0 (Background)
//Storyboard Layer 1 (Fail)
//Storyboard Layer 2 (Pass)
//Storyboard Layer 3 (Foreground)
//Storyboard Sound Samples

[TimingPoints]
7453.84380275617,461.538461538462,4,2,1,60,1,0
10223,-100,4,2,1,40,0,0
10453,-100,4,2,1,50,0,0
10684,-100,4,2,1,60,0,0
21299,-100,4,2,1,70,0,0
21761,-100,4,2,1,80,0,0
22223,-86.9565217391304,4,2,1,90,0,0
22453,-86.9565217391304,4,2,1,70,0,0
25915,-86.9565217391304,4,2,1,50,0,0
26607,-86.9565217391304,4,2,1,60,0,0
27530,-86.9565217391304,4,2,1,70,0,0
28453,-86.9565217391304,4,2,1,80,0,0
28915,-86.9565217391304,4,2,1,50,0,0
29146,-86.9565217391304,4,2,1,60,0,0
29376,-86.9565217391304,4,2,1,70,0,0
32607,-86.9565217391304,4,2,1,50,0,0
32838,-86.9565217391304,4,2,1,60,0,0
33069,-86.9565217391304,4,2,1,70,0,0
35838,-86.9565217391304,4,2,1,80,0,0
36299,-86.9565217391304,4,2,1,70,0,0
36530,-86.9565217391304,4,2,1,80,0,0
36761,-86.9565217391304,4,2,1,90,0,0
36992,-100,4,2,1,90,0,0
37107,-100,4,2,1,60,0,0
40684,-100,4,2,1,65,0,0
44376,-100,4,2,1,70,0,0
48069,-100,4,2,1,75,0,0
51069,-100,4,2,1,50,0,0
51184,-100,4,2,1,60,0,0
51299,-100,4,2,1,70,0,0
51415,-100,4,2,1,75,0,0
51530,-100,4,2,1,80,0,0
51761,-83.3333333333333,4,2,1,90,0,0
64453,-83.3333333333333,4,2,1,40,0,0
64684,-83.3333333333333,4,2,1,45,0,0
64915,-83.3333333333333,4,2,1,50,0,0
65146,-83.3333333333333,4,2,1,55,0,0
65376,-83.3333333333333,4,2,1,60,0,0
65607,-83.3333333333333,4,2,1,70,0,0
65838,-83.3333333333333,4,2,1,80,0,0
66069,-83.3333333333333,4,2,1,90,0,0
66299,-83.3333333333333,4,2,1,100,0,0
66530,-100,4,2,1,100,0,0
66646,-100,4,2,1,60,0,0
73107,-100,4,2,1,45,0,0
73223,-100,4,2,1,50,0,0
73453,-100,4,2,1,60,0,0
73684,-100,4,2,1,70,0,0
77607,-100,4,2,1,75,0,0
79915,-100,4,2,1,80,0,0
80376,-100,4,2,1,85,0,0
80838,-100,4,2,1,90,0,0
81299,-83.3333333333333,4,2,1,100,0,0
81415,-83.3333333333333,4,2,1,80,0,0
94915,-83.3333333333333,4,2,1,40,0,0
95146,-83.3333333333333,4,2,1,60,0,0
95376,-83.3333333333333,4,2,1,90,0,0
95607,-83.3333333333333,4,2,1,95,0,0
95838,-83.3333333333333,4,2,1,100,0,0

[Colours]
Combo1 : 4,230,230
Combo2 : 19,251,118
Combo3 : 217,239,16
Combo4 : 139,139,139

[HitObjects]
186,157,7453,5,6,1:2:0:0:
268,100,7684,2,0,L|280:189,1,90
296,287,8146,1,0,1:0:0:0:
186,157,8376,1,0,0:0:0:0:
186,157,8607,1,0,0:0:0:0:
362,131,8838,2,0,P|378:172|375:216,1,90,8|0,1:2|0:0,0:0:0:0:
335,287,9184,1,0,0:0:0:0:
335,287,9299,1,2,1:2:0:0:
280,189,9530,6,0,L|190:201,1,90
93,217,9992,1,0,1:0:0:0:
217,63,10223,2,0,L|223:107,1,45,2|0,3:2|3:0,0:0:0:0:
319,132,10453,2,0,L|312:176,1,45,0|0,3:0|3:0,0:0:0:0:
254,313,10684,1,8,3:2:0:0:
250,282,10799,1,0,3:0:0:0:
246,251,10915,1,0,3:0:0:0:
344,269,11146,5,2,1:2:0:0:
344,269,11376,1,0,0:0:0:0:
412,111,11607,2,0,P|415:66|399:24,1,90,2|0,0:1|1:0,0:0:0:0:
317,81,12069,1,2,0:1:0:0:
317,81,12184,1,8,0:2:0:0:
317,81,12299,2,0,L|329:171,1,90,0|8,0:0|0:2,0:0:0:0:
411,272,12761,1,2,3:1:0:0:
415,241,12876,1,0,3:2:0:0:
419,210,12992,1,2,1:0:0:0:
315,291,13223,6,0,L|225:279,1,90
259,372,13684,1,0,1:0:0:0:
281,197,13915,1,0,0:0:0:0:
281,197,14146,1,0,0:0:0:0:
126,256,14376,1,10,3:2:0:0:
130,287,14491,1,0,3:0:0:0:
134,318,14607,1,0,3:0:0:0:
113,157,14838,5,2,1:2:0:0:
18,187,15069,2,0,P|15:142|31:100,1,90
121,60,15531,1,0,1:0:0:0:
191,215,15761,2,0,L|281:203,1,90,2|0,0:0|0:0,0:0:0:0:
379,193,16223,1,8,1:2:0:0:
223,121,16453,1,0,3:0:0:0:
223,121,16569,1,0,3:0:0:0:
223,121,16684,1,0,1:0:0:0:
249,297,16915,6,0,P|293:300|335:284,1,90
280,203,17376,1,0,1:0:0:0:
113,220,17607,1,2,0:1:0:0:
249,297,17838,1,0,0:0:0:0:
223,121,18069,1,8,3:2:0:0:
219,90,18185,1,0,3:0:0:0:
215,59,18300,1,0,3:0:0:0:
396,71,18530,5,2,1:0:0:0:
334,223,18761,2,0,P|318:181|321:136,1,90
417,167,19223,1,2,1:0:0:0:
302,39,19453,2,0,L|257:45,1,45,2|0,0:1|0:0,0:0:0:0:
190,119,19684,1,0,3:0:0:0:
159,115,19799,1,0,3:0:0:0:
128,111,19915,1,8,3:2:0:0:
136,273,20146,1,0,3:0:0:0:
149,244,20261,1,0,3:0:0:0:
148,213,20376,1,0,1:0:0:0:
49,226,20607,5,0,0:0:0:0:
87,359,20838,1,0,0:0:0:0:
137,181,21069,1,0,1:2:0:0:
118,154,21184,1,0,3:0:0:0:
92,136,21299,1,2,3:1:0:0:
136,273,21530,5,0,3:0:0:0:
170,267,21645,1,0,3:0:0:0:
206,262,21761,1,2,3:1:0:0:
242,257,21876,1,0,3:0:0:0:
277,252,21991,1,0,3:2:0:0:
313,247,22107,1,0,3:0:0:0:
349,241,22223,1,6,1:2:0:0:
270,163,22453,6,0,P|241:257|310:348,1,207.000003948212,2|2,0:2|1:2,0:0:0:0:
383,148,23146,2,0,L|369:46,1,103.500001974106,2|0,0:0|0:0,0:0:0:0:
476,290,23607,2,0,L|490:187,1,103.500001974106,10|0,1:2|0:0,0:0:0:0:
276,111,24069,5,2,1:2:0:0:
240,116,24184,1,0,0:0:0:0:
204,121,24299,1,0,0:0:0:0:
375,287,24530,2,0,P|379:233|346:173,1,103.500001974106,2|0,0:0|1:0,0:0:0:0:
154,223,24992,2,0,P|150:274|170:322,1,103.500001974106,2|0,0:0|0:0,0:0:0:0:
264,256,25453,1,10,1:2:0:0:
264,256,25569,1,0,3:0:0:0:
264,256,25684,1,0,3:0:0:0:
191,115,25915,6,0,L|89:129,2,103.500001974106,2|0|0,1:2|0:0|0:0,0:0:0:0:
339,191,26607,1,2,1:2:0:0:
344,227,26723,1,2,0:0:0:0:
349,263,26838,2,0,L|400:255,2,51.7500009870529,2|8|0,0:0|0:0|0:0,0:0:0:0:
247,315,27299,1,8,1:2:0:0:
267,130,27530,5,2,0:0:0:0:
272,94,27645,1,2,0:0:0:0:
277,58,27761,2,0,L|379:72,2,103.500001974106,2|0|0,1:2|0:0|0:0,0:0:0:0:
92,153,28453,1,2,1:2:0:0:
97,189,28568,1,2,0:0:0:0:
102,225,28684,1,2,0:0:0:0:
151,328,28915,5,0,3:0:0:0:
181,307,29030,1,0,3:0:0:0:
202,280,29146,1,0,3:0:0:0:
214,246,29261,1,0,3:0:0:0:
214,210,29377,1,0,3:0:0:0:
204,176,29492,1,0,3:0:0:0:
184,146,29607,1,0,1:0:0:0:
102,225,29838,5,2,0:0:0:0:
292,257,30069,1,2,0:0:0:0:
226,77,30299,1,2,1:2:0:0:
212,339,30530,2,0,P|308:368|391:312,1,207.000003948212,2|8,0:0|1:2,0:0:0:0:
340,87,31223,1,2,0:0:0:0:
292,257,31453,5,2,1:2:0:0:
287,221,31568,1,0,0:0:0:0:
282,185,31683,1,0,0:0:0:0:
390,312,31915,1,2,0:0:0:0:
212,339,32146,1,2,1:2:0:0:
277,149,32376,1,2,0:0:0:0:
327,245,32607,1,0,3:0:0:0:
292,257,32723,1,0,3:0:0:0:
255,257,32838,2,0,L|204:249,1,51.7500009870529,2|0,3:2|3:0,0:0:0:0:
118,173,33069,2,0,L|67:181,1,51.7500009870529,0|0,3:0|3:0,0:0:0:0:
137,345,33299,6,0,L|239:359,2,103.500001974106,2|0|0,1:2|0:0|0:0,0:0:0:0:
118,173,33992,1,2,1:2:0:0:
123,137,34107,1,0,0:0:0:0:
128,101,34222,1,2,0:0:0:0:
256,151,34453,1,0,3:0:0:0:
256,151,34569,1,0,3:0:0:0:
256,151,34684,1,8,3:2:0:0:
394,173,34915,1,2,0:0:0:0:
389,137,35030,1,2,0:0:0:0:
384,101,35145,5,2,1:2:0:0:
256,151,35376,1,0,0:0:0:0:
128,101,35607,1,0,0:0:0:0:
256,289,35838,1,2,1:2:0:0:
256,13,36069,1,2,0:0:0:0:
182,256,36299,5,0,3:0:0:0:
179,306,36414,1,0,3:0:0:0:
207,349,36529,1,0,3:0:0:0:
255,365,36645,1,0,3:0:0:0:
303,349,36760,1,0,3:0:0:0:
331,307,36875,1,0,3:0:0:0:
328,256,36992,6,0,P|364:229|407:220,2,90,6|0|0,1:2|0:0|0:0,0:0:0:0:
403,320,37684,1,0,1:0:0:0:
501,252,37915,2,0,L|489:162,1,90,2|0,0:0|0:0,0:0:0:0:
422,15,38376,2,0,L|410:105,1,90,8|0,1:2|0:0,0:0:0:0:
328,256,38838,6,0,B|240:225|240:285|153:256,1,180,2|0,1:2|0:0,0:0:0:0:
190,118,39530,1,0,3:0:0:0:
194,149,39646,1,0,3:0:0:0:
198,180,39761,1,0,3:2:0:0:
282,329,39992,1,0,0:0:0:0:
282,329,40107,1,0,0:0:0:0:
282,329,40223,2,0,L|276:374,2,45,10|0|0,0:0|0:0|0:0,0:0:0:0:
331,147,40684,6,0,P|391:138|463:191,1,135,2|0,1:2|0:0,0:0:0:0:
479,252,41146,2,0,L|467:342,1,90,0|0,0:0|1:0,0:0:0:0:
374,235,41607,1,2,3:2:0:0:
374,235,41723,1,8,3:2:0:0:
374,235,41838,2,0,L|362:325,2,90,0|8|0,3:0|1:2|0:0,0:0:0:0:
400,31,42530,6,0,P|297:65|396:123,1,270,2|0,1:2|1:0,0:0:0:0:
478,92,43453,1,2,0:0:0:0:
374,235,43684,2,0,L|329:229,1,45
251,168,43915,1,8,3:2:0:0:
220,172,44030,1,0,3:0:0:0:
189,176,44146,1,0,3:0:0:0:
158,180,44261,1,0,3:0:0:0:
127,184,44376,6,0,P|109:224|109:269,2,90,2|0|0,1:2|0:0|0:0,0:0:0:0:
204,245,45069,1,0,1:0:0:0:
153,77,45299,1,2,0:0:0:0:
153,77,45530,1,0,0:0:0:0:
34,205,45761,1,8,1:2:0:0:
204,245,45992,1,0,0:0:0:0:
323,117,46223,5,0,1:0:0:0:
323,117,46453,2,0,L|413:129,1,90
510,146,46915,1,0,1:0:0:0:
428,306,47146,2,0,P|446:265|446:221,1,90,2|0,0:0|0:0,0:0:0:0:
428,4,47607,1,10,3:2:0:0:
424,35,47722,1,0,3:0:0:0:
420,66,47838,1,0,3:0:0:0:
416,97,47953,1,0,3:0:0:0:
412,128,48069,6,0,L|367:122,2,45,2|0|0,1:2|0:0|0:0,0:0:0:0:
510,146,48530,1,0,0:0:0:0:
306,200,48761,1,2,1:2:0:0:
256,47,48992,1,0,0:0:0:0:
207,200,49223,1,0,3:0:0:0:
207,200,49338,1,0,3:0:0:0:
207,200,49453,1,8,3:2:0:0:
336,105,49684,1,0,0:0:0:0:
176,105,49915,5,2,1:2:0:0:
256,280,50146,1,0,3:0:0:0:
256,280,50261,1,0,3:0:0:0:
256,280,50376,1,0,3:0:0:0:
336,105,50607,1,0,3:0:0:0:
176,105,50838,1,0,3:0:0:0:
323,206,51069,5,8,3:2:0:0:
366,200,51184,1,8,3:2:0:0:
409,193,51299,1,8,3:2:0:0:
452,186,51415,1,8,3:2:0:0:
494,179,51530,1,8,3:2:0:0:
305,143,51761,6,0,B|304:178|304:178|325:210|325:210|324:244,1,107.999996704102,6|0,1:2|0:0,0:0:0:0:
325,353,52223,1,0,0:0:0:0:
187,244,52453,6,0,B|186:210|186:210|207:178|207:178|207:143,1,107.999996704102,6|0,1:2|0:0,0:0:0:0:
207,34,52915,1,0,0:0:0:0:
241,302,53146,6,0,P|111:263|207:168,1,323.999990112305,6|0,1:2|1:0,0:0:0:0:
187,245,54069,2,0,P|127:168|198:89,1,215.999993408203,8|0,0:0|0:0,0:0:0:0:
368,150,54761,5,0,1:0:0:0:
205,167,54992,1,10,0:0:0:0:
302,297,55223,1,2,0:0:0:0:
276,76,55453,5,6,1:2:0:0:
359,67,55684,1,0,0:0:0:0:
442,58,55915,1,2,0:0:0:0:
377,233,56146,5,6,1:2:0:0:
368,150,56377,1,0,0:0:0:0:
359,67,56608,1,2,0:0:0:0:
303,325,56838,5,6,1:2:0:0:
377,233,57069,1,0,0:0:0:0:
377,233,57184,1,0,0:0:0:0:
377,233,57299,1,0,0:0:0:0:
469,307,57530,1,0,1:0:0:0:
368,150,57761,1,8,0:0:0:0:
386,316,57992,1,0,0:0:0:0:
202,168,58223,5,2,0:1:0:0:
377,233,58453,1,0,1:0:0:0:
211,251,58684,1,0,1:0:0:0:
276,76,58915,1,2,1:2:0:0:
303,325,59146,5,6,1:2:0:0:
220,334,59377,1,0,0:0:0:0:
137,343,59608,1,2,0:0:0:0:
202,168,59838,5,6,1:2:0:0:
211,251,60069,1,0,0:0:0:0:
220,334,60300,1,2,0:0:0:0:
276,76,60530,5,6,1:2:0:0:
202,168,60761,1,0,0:0:0:0:
110,94,60992,1,0,0:0:0:0:
285,159,61223,1,0,1:0:0:0:
119,177,61453,1,8,0:0:0:0:
119,177,61915,5,0,1:0:0:0:
184,3,62146,1,10,0:0:0:0:
285,159,62376,1,10,0:0:0:0:
110,94,62607,1,2,0:0:0:0:
137,343,62838,5,6,1:2:0:0:
211,251,63069,1,0,0:0:0:0:
285,159,63299,1,2,0:0:0:0:
303,325,63530,5,6,1:2:0:0:
211,251,63761,1,0,0:0:0:0:
119,177,63992,1,2,0:0:0:0:
220,334,64223,5,6,1:2:0:0:
294,242,64453,1,2,0:0:0:0:
294,242,64569,1,2,0:0:0:0:
294,242,64684,1,2,0:0:0:0:
386,316,64915,1,2,0:0:0:0:
211,251,65146,1,2,0:0:0:0:
376,232,65376,1,2,1:2:0:0:
182,169,65607,1,2,1:2:0:0:
380,146,65837,1,2,1:2:0:0:
137,96,66069,1,2,1:2:0:0:
398,64,66299,1,2,1:2:0:0:
303,325,66530,6,0,P|233:271|148:294,1,180,6|0,1:2|0:0,0:0:0:0:
57,322,67223,2,0,L|82:143,1,180,0|0,1:0|0:0,0:0:0:0:
163,17,67915,2,0,L|175:107,1,90,8|0,1:2|0:0,0:0:0:0:
276,234,68376,6,0,P|279:189|264:148,2,90,2|0|0,1:2|0:0|0:0,0:0:0:0:
181,204,69069,1,2,1:2:0:0:
347,92,69299,2,0,L|480:110,1,135,2|2,0:0|0:0,0:0:0:0:
473,184,69761,2,0,L|428:178,2,45,8|0|2,3:2|3:2|3:2,0:0:0:0:
365,331,70223,6,0,P|350:289|354:245,2,90,2|0|0,1:2|0:0|0:0,0:0:0:0:
448,275,70915,1,0,1:0:0:0:
334,147,71146,1,0,0:0:0:0:
334,147,71262,1,8,0:0:0:0:
334,147,71377,1,0,0:0:0:0:
281,310,71607,1,8,1:2:0:0:
448,275,71838,1,2,0:0:0:0:
260,214,72069,5,2,1:2:0:0:
186,278,72299,2,0,P|182:323|197:365,1,90
281,310,72761,1,0,1:0:0:0:
239,118,72992,2,0,L|194:124,1,45,2|0,3:1|3:0,0:0:0:0:
128,198,73223,2,0,L|83:192,1,45,0|0,3:0|3:0,0:0:0:0:
70,290,73454,1,0,3:0:0:0:
101,294,73569,1,0,3:0:0:0:
131,299,73685,1,0,3:0:0:0:
162,303,73800,1,0,3:0:0:0:
193,307,73915,6,0,P|238:307|278:288,2,90,2|0|0,1:2|0:0|0:0,0:0:0:0:
217,211,74607,1,0,1:0:0:0:
377,291,74838,2,0,L|467:279,1,90,2|0,0:0|0:0,0:0:0:0:
434,373,75299,1,8,1:2:0:0:
410,197,75530,1,0,0:0:0:0:
270,306,75761,5,0,1:0:0:0:
270,306,75992,2,0,L|180:318,1,90,2|2,0:0|0:0,0:0:0:0:
82,329,76453,1,2,1:2:0:0:
270,306,76684,2,0,P|284:263|280:219,1,90,2|0,0:0|0:0,0:0:0:0:
151,98,77146,1,10,1:2:0:0:
151,98,77376,1,2,0:0:0:0:
180,317,77607,5,2,1:2:0:0:
246,130,77838,1,2,0:0:0:0:
374,280,78069,1,2,0:0:0:0:
266,242,78299,2,0,L|236:246,2,30,0|0|0,1:0|0:0|0:0,0:0:0:0:
292,195,78530,2,0,L|382:207,1,90
458,219,78875,1,0,0:0:0:0:
458,219,78991,1,8,1:2:0:0:
395,64,79222,1,2,0:0:0:0:
292,195,79453,5,2,0:0:0:0:
266,29,79684,1,2,0:0:0:0:
212,207,79915,1,2,0:0:0:0:
186,29,80146,1,2,0:0:0:0:
132,219,80376,1,2,0:0:0:0:
106,29,80607,1,2,0:0:0:0:
52,231,80838,1,2,0:0:0:0:
26,29,81069,1,2,0:0:0:0:
279,112,81299,5,6,1:2:0:0:
261,229,81530,2,0,L|253:282,2,53.9999983520508,2|0|2,0:0|0:0|0:0,0:0:0:0:
279,112,81992,1,2,1:2:0:0:
372,186,82223,1,2,0:0:0:0:
168,155,82454,1,0,0:0:0:0:
160,112,82569,1,0,0:0:0:0:
168,70,82684,1,10,1:2:0:0:
279,112,82916,1,0,0:0:0:0:
192,270,83146,5,2,1:2:0:0:
149,263,83261,1,0,0:0:0:0:
106,257,83376,2,0,L|121:363,1,107.999996704102,2|0,0:0|0:0,0:0:0:0:
294,328,83838,1,2,1:2:0:0:
301,285,83953,1,0,0:0:0:0:
307,242,84069,1,2,0:0:0:0:
326,125,84299,1,0,0:0:0:0:
228,241,84530,1,10,1:2:0:0:
260,270,84645,1,0,0:0:0:0:
301,285,84760,1,2,0:0:0:0:
343,284,84876,1,0,0:0:0:0:
383,269,84991,1,2,1:2:0:0:
412,112,85223,5,2,0:0:0:0:
369,119,85338,1,0,0:0:0:0:
326,125,85453,2,0,L|311:19,1,107.999996704102,2|0,0:0|1:0,0:0:0:0:
214,84,85915,2,0,L|161:92,2,53.9999983520508,0|8|0,0:0|0:0|0:0,0:0:0:0:
326,125,86376,1,8,1:2:0:0:
234,201,86607,1,2,0:0:0:0:
310,18,86838,5,2,1:2:0:0:
421,58,87069,1,2,0:0:0:0:
428,101,87184,1,0,0:0:0:0:
434,144,87300,1,2,0:0:0:0:
453,262,87530,1,2,1:2:0:0:
263,233,87761,1,2,0:1:0:0:
316,126,87992,1,0,0:0:0:0:
453,262,88223,1,10,1:2:0:0:
434,144,88453,1,0,0:0:0:0:
346,316,88684,5,2,1:2:0:0:
229,297,88915,2,0,L|234:332,2,35.9999989013672,2|0|0,0:0|0:0|0:0,0:0:0:0:
186,266,89146,2,0,L|201:372,1,107.999996704102,2|2,0:0|1:2,0:0:0:0:
74,304,89607,2,0,L|89:198,1,107.999996704102,2|0,0:0|0:0,0:0:0:0:
107,79,90069,1,8,1:2:0:0:
199,152,90299,1,2,0:0:0:0:
242,145,90414,1,0,0:0:0:0:
285,139,90530,6,0,L|270:33,2,107.999996704102,2|0|0,1:2|0:0|0:0,0:0:0:0:
384,75,91223,1,2,1:2:0:0:
172,101,91453,1,2,0:0:0:0:
227,221,91684,1,0,0:0:0:0:
384,75,91915,1,10,1:2:0:0:
359,206,92146,1,0,0:0:0:0:
269,12,92376,5,2,1:2:0:0:
167,74,92607,2,0,L|132:79,2,35.9999989013672,2|0|0,0:0|0:0|0:0,0:0:0:0:
207,107,92838,2,0,L|101:122,1,107.999996704102,2|2,0:0|1:2,0:0:0:0:
168,219,93299,1,2,0:0:0:0:
285,199,93530,2,0,L|338:191,2,53.9999983520508,0|0|8,0:0|0:0|1:2,0:0:0:0:
168,219,93992,1,2,0:0:0:0:
305,316,94223,6,0,L|411:301,1,107.999996704102,2|0,1:2|0:0,0:0:0:0:
391,183,94684,2,0,L|285:198,1,107.999996704102,0|2,0:0|1:2,0:0:0:0:
194,276,95146,1,2,0:0:0:0:
263,80,95376,1,2,0:0:0:0:
305,316,95607,1,2,0:0:0:0:
173,158,95838,1,2,0:0:0:0:
465,170,96069,5,6,0:0:0:0:
