osu file format v14

[General]
AudioFilename: audio.mp3
AudioLeadIn: 0
PreviewTime: 144714
Countdown: 0
SampleSet: None
StackLeniency: 0.4
Mode: 0
LetterboxInBreaks: 0
WidescreenStoryboard: 0

[Editor]
Bookmarks: 2548,11120,26120,43263,60406,95763,111834,128977,146120,181477,198620,215763,235049,252191,270406,284602
DistanceSpacing: 0.7
BeatDivisor: 4
GridSize: 32
TimelineZoom: 2.799999

[Metadata]
Title:Long Hope Philia
TitleUnicode:ロングホープ・フィリア
Artist:Masaki Suda
ArtistUnicode:菅田将暉
Creator:Shortthu
Version:Friendship
Source:僕のヒーローアカデミア THE MOVIE ~2人の英雄
Tags:my boku no hero academia two futari no heroes amazarashi
BeatmapID:1768955
BeatmapSetID:845776

[Difficulty]
HPDrainRate:6
CircleSize:4
OverallDifficulty:7
ApproachRate:9.5
SliderMultiplier:1.6
SliderTickRate:1

[Events]
//Background and Video events
0,0,"Bakugou.Katsuki.full.2046439.jpg",0,0
//Break Periods
//Storyboard Layer 0 (Background)
//Storyboard Layer 1 (Fail)
//Storyboard Layer 2 (Pass)
//Storyboard Layer 3 (Foreground)
//Storyboard Sound Samples

[TimingPoints]
2566,267.857142857143,4,2,0,100,1,0
2566,-166.666666666667,4,2,0,60,0,0
6316,-133.333333333333,4,2,0,60,0,0
6851,-125,4,2,0,60,0,0
10601,-250,4,2,0,60,0,0
11137,-100,4,2,0,60,0,0
23458,-83.3333333333333,4,2,0,60,0,0
23726,-111.111111111111,4,2,0,60,0,0
25601,-142.857142857143,4,2,0,60,0,0
26137,-166.666666666667,4,2,0,40,0,0
41673,-142.857142857143,4,2,0,40,0,0
42208,-125,4,2,0,40,0,0
42744,-166.666666666667,4,2,0,40,0,0
43280,-100,4,2,0,60,0,0
51316,-166.666666666667,4,2,0,60,0,0
51851,-100,4,2,0,60,0,0
52253,-125,4,2,0,60,0,0
53994,-100,4,2,0,60,0,0
54396,-125,4,2,0,60,0,0
56137,-100,4,2,0,60,0,0
59217,-250,4,2,0,60,0,0
60423,-83.3333333333333,4,2,0,60,0,1
72476,-111.111111111111,4,2,0,60,0,1
72878,-125,4,2,0,60,0,1
73280,-90.9090909090909,4,2,0,60,0,1
77298,-90.9090909090909,4,2,0,60,0,0
77566,-90.9090909090909,4,2,0,60,0,1
94708,-100,4,2,0,60,0,0
146137,-100,4,2,0,60,0,1
163012,-100,4,2,0,60,0,0
163280,-100,4,2,0,60,0,1
180423,-100,4,2,0,60,0,0
235066,-100,4,2,0,60,0,1
235333,-100,4,2,0,60,0,0
243637,-100,4,2,0,60,0,1
251941,-100,4,2,0,60,0,0
252208,-100,4,2,0,60,0,1
269351,-100,4,2,0,60,0,0

[Colours]
Combo1 : 87,208,108
Combo2 : 235,198,86
Combo3 : 242,116,79
Combo4 : 106,182,210

[HitObjects]
256,192,423,12,0,2164,0:0:0:0:
110,275,2566,6,0,P|209:225|128:98,1,287.999991210938
127,188,3638,2,0,B|316:162|316:162|336:60,1,287.999991210938
250,80,4709,2,0,B|224:212|224:212|215:271|269:317|320:313,1,287.999991210938
317,220,5781,2,0,P|243:255|221:317,1,143.999995605469
314,314,6316,2,0,P|367:309|424:341,1,120.000004577637
465,150,6851,6,0,P|432:136|386:128,1,64
259,124,7120,1,0,0:0:0:0:
257,147,7388,1,0,0:0:0:0:
255,170,7656,1,0,0:0:0:0:
49,266,7924,38,0,P|82:280|128:288,1,64
256,269,8191,1,0,0:0:0:0:
258,292,8459,1,0,0:0:0:0:
260,315,8727,1,0,0:0:0:0:
102,362,8995,5,0,0:0:0:0:
175,251,9129,1,0,0:0:0:0:
187,364,9263,1,0,0:0:0:0:
86,244,9397,1,0,0:0:0:0:
260,315,9531,1,0,0:0:0:0:
25,309,9665,1,0,0:0:0:0:
135,138,9799,1,0,0:0:0:0:
175,251,9933,1,0,0:0:0:0:
175,251,10601,2,0,P|208:240|251:242,1,64
406,251,11138,38,0,P|429:206|425:160,1,80
316,59,11406,2,0,L|313:158,1,80
313,277,11674,1,0,0:0:0:0:
313,277,11808,1,0,0:0:0:0:
122,187,11941,2,0,P|179:182|216:162,1,80
49,129,12209,6,0,P|30:168|34:219,1,80
145,298,12477,2,0,P|200:292|245:310,1,80
359,369,12745,1,0,0:0:0:0:
359,369,12879,1,0,0:0:0:0:
444,236,13013,2,0,L|439:140,1,80
318,78,13281,38,0,L|313:157,1,80
180,199,13549,2,0,P|142:170|102:165,1,80
59,292,13816,1,0,0:0:0:0:
59,292,13950,1,0,0:0:0:0:
215,356,14084,2,0,L|219:263,1,80
373,228,14352,6,0,P|342:278|312:293,1,80
321,148,14620,2,0,P|369:134|423:146,1,80
475,257,14888,1,0,0:0:0:0:
475,257,15022,1,0,0:0:0:0:
237,197,15156,2,0,L|227:103,1,80
115,229,15424,38,0,L|106:308,1,80
279,348,15691,2,0,P|297:294|291:256,1,80
204,296,15959,1,0,0:0:0:0:
204,296,16093,1,0,0:0:0:0:
387,272,16227,2,0,P|375:217|354:192,1,80
184,91,16495,6,0,P|168:148|176:196,1,80
279,109,16763,1,0,0:0:0:0:
105,308,17031,1,0,0:0:0:0:
105,308,17165,1,0,0:0:0:0:
17,229,17299,2,0,P|65:193|104:192,1,80
242,331,17566,38,0,L|249:237,1,80
420,160,17834,1,0,0:0:0:0:
421,175,17968,1,0,0:0:0:0:
310,164,18102,1,0,0:0:0:0:
378,256,18236,1,0,0:0:0:0:
419,146,18370,2,0,L|414:67,1,80
194,176,18638,6,0,P|157:229|156:261,1,80
317,284,18906,2,0,P|276:255|224:254,1,80
121,340,19174,1,0,0:0:0:0:
121,340,19308,1,0,0:0:0:0:
75,164,19441,1,0,0:0:0:0:
247,250,19575,1,0,0:0:0:0:
247,250,19641,1,0,0:0:0:0:
247,250,19708,38,0,P|288:224|311:180,1,80
275,36,19977,2,0,P|244:84|257:146,1,80
361,108,20245,1,0,0:0:0:0:
157,98,20379,2,0,P|157:137|176:172,1,80
319,310,20647,1,0,0:0:0:0:
361,108,20781,6,0,L|478:102,1,80
438,237,21049,2,0,P|398:238|361:224,1,80
274,63,21316,2,0,L|275:153,1,80
281,303,21584,1,0,0:0:0:0:
73,191,21852,37,0,0:0:0:0:
244,207,21986,2,0,L|151:219,1,80
63,92,22254,1,0,0:0:0:0:
274,63,22388,1,0,0:0:0:0:
141,121,22522,2,0,L|220:131,1,80
399,230,22790,5,0,0:0:0:0:
383,112,22924,1,0,0:0:0:0:
290,212,23058,2,0,L|303:323,1,80
399,334,23325,1,0,0:0:0:0:
203,212,23459,2,0,L|216:323,1,95.9999970703126
99,191,23727,2,0,L|110:95,1,71.9999978027344
307,217,23995,37,0,0:0:0:0:
296,100,24129,1,0,0:0:0:0:
202,198,24263,1,0,0:0:0:0:
203,212,24531,1,0,0:0:0:0:
312,308,24799,5,0,0:0:0:0:
359,157,24933,1,0,0:0:0:0:
182,316,25334,5,0,0:0:0:0:
182,316,25602,2,0,P|136:304|71:315,1,111.999996582031
6,211,26138,6,0,P|44:192|110:197,1,95.9999970703126
193,213,26674,1,0,0:0:0:0:
298,106,26941,1,0,0:0:0:0:
345,197,27209,2,0,L|335:299,1,95.9999970703126
195,121,27745,2,0,P|199:79|239:27,1,95.9999970703126
419,130,28281,38,0,P|443:189|434:231,1,95.9999970703126
335,292,28816,2,0,P|282:294|240:326,1,95.9999970703126
107,245,29352,2,0,P|162:228|208:241,1,95.9999970703126
327,136,29888,2,0,L|337:206,1,47.9999985351563
243,92,30156,2,0,L|236:139,1,47.9999985351563
107,245,30424,6,0,L|102:128,1,95.9999970703126
222,49,30959,2,0,P|242:92|236:139,1,95.9999970703126
194,240,31495,1,0,0:0:0:0:
333,197,31763,2,0,P|320:246|342:306,1,95.9999970703126
417,351,32299,1,0,0:0:0:0:
473,149,32566,38,0,L|481:255,1,95.9999970703126
358,136,33101,2,0,L|365:40,1,95.9999970703126
462,66,33637,1,0,0:0:0:0:
315,218,33905,2,0,P|277:182|267:134,1,95.9999970703126
433,236,34307,2,0,L|429:283,2,47.9999985351563
358,135,34708,6,0,P|400:114|457:115,1,95.9999970703126
512,182,35244,1,0,0:0:0:0:
428,283,35512,2,0,L|325:291,1,95.9999970703126
232,296,36048,1,0,0:0:0:0:
191,210,36316,2,0,P|249:202|293:221,1,95.9999970703126
390,165,36851,38,0,L|397:58,1,95.9999970703126
288,41,37387,2,0,L|294:136,1,95.9999970703126
384,255,37923,2,0,P|434:245|472:203,1,95.9999970703126
390,165,38458,1,0,0:0:0:0:
294,285,38726,1,0,0:0:0:0:
206,142,38994,6,0,P|200:198|221:237,1,95.9999970703126
355,82,39530,2,0,L|252:69,2,95.9999970703126
466,97,40333,1,0,0:0:0:0:
362,233,40601,1,0,0:0:0:0:
323,153,40869,1,0,0:0:0:0:
113,233,41137,6,0,P|185:223|233:313,1,167.999994873047
158,295,41673,2,0,B|170:160|170:160|220:124,1,195.999994018555
255,187,42208,2,0,P|174:180|205:53,1,224
219,124,42744,2,0,L|41:124,1,167.999994873047
33,141,43280,6,0,P|22:191|34:227,1,80
117,281,43548,1,0,0:0:0:0:
149,280,43816,1,0,0:0:0:0:
181,279,44083,1,0,0:0:0:0:
252,96,44351,38,0,P|203:84|157:95,1,80
221,185,44619,2,0,L|310:182,1,80
427,80,44887,2,0,P|417:132|433:166,1,80
375,333,45155,2,0,P|385:281|369:247,1,80
91,160,45423,6,0,L|82:251,1,80
242,334,45691,1,0,0:0:0:0:
240,302,45958,1,0,0:0:0:0:
238,270,46226,1,0,0:0:0:0:
232,140,46494,38,0,P|191:177|156:182,1,80
77,93,46762,2,0,L|168:91,1,80
321,185,47030,2,0,L|325:278,1,80
240,302,47298,2,0,P|203:285|149:286,1,80
368,101,47566,6,0,P|410:146|418:186,1,80
242,116,47833,2,0,L|238:36,1,80
483,5,48101,2,0,L|487:98,1,80
324,263,48369,2,0,P|315:224|321:185,1,80
483,329,48637,38,0,L|388:334,1,80
226,239,48905,2,0,P|234:277|229:317,1,80
74,222,49173,2,0,L|65:126,1,80
60,52,49441,2,0,P|119:69|141:91,1,80
256,192,49708,6,0,L|258:88,1,80
348,33,49976,1,0,0:0:0:0:
379,36,50244,1,0,0:0:0:0:
410,37,50512,1,0,0:0:0:0:
490,234,50780,38,0,P|509:198|503:141,1,80
483,78,51048,1,0,0:0:0:0:
341,218,51316,2,0,L|343:277,1,47.9999985351563
337,127,51583,1,0,0:0:0:0:
309,357,51851,5,0,0:0:0:0:
179,171,51985,2,0,L|175:76,1,80
152,271,52253,1,0,0:0:0:0:
163,282,52387,2,0,L|166:349,1,64
43,277,52655,1,0,0:0:0:0:
36,290,52789,2,0,L|39:357,1,64
97,148,53057,37,0,0:0:0:0:
98,163,53191,2,0,P|80:109|101:55,1,95.9999970703126
111,53,53458,2,0,L|190:46,1,64
276,169,53726,2,0,L|212:174,1,64
371,53,53994,5,0,0:0:0:0:
406,253,54128,2,0,L|412:155,1,80
181,257,54396,1,0,0:0:0:0:
174,270,54530,2,0,L|177:337,1,64
290,251,54798,1,0,0:0:0:0:
301,262,54932,2,0,L|304:329,1,64
95,136,55199,37,0,0:0:0:0:
88,149,55333,2,0,L|91:216,1,64
255,94,55601,2,0,P|235:38|215:19,1,64
170,103,55869,2,0,L|173:170,1,64
359,217,56137,6,0,P|352:151|329:123,1,80
255,94,56405,1,0,0:0:0:0:
294,291,56539,2,0,P|331:313|383:315,1,80
455,269,56807,1,0,0:0:0:0:
184,173,56941,2,0,L|177:277,1,80
168,349,57208,37,0,0:0:0:0:
74,187,57342,2,0,L|68:107,1,80
183,62,57610,1,0,0:0:0:0:
345,140,57744,2,0,P|329:179|271:210,1,80
299,45,58012,2,0,L|397:36,1,80
454,285,58280,6,0,L|356:276,1,80
236,210,58548,2,0,P|245:248|241:287,1,80
135,242,58816,5,0,0:0:0:0:
332,170,58949,1,0,0:0:0:0:
93,147,59083,5,0,0:0:0:0:
374,277,59217,2,0,P|417:331|353:358,1,160
353,358,60423,6,0,L|339:262,1,95.9999970703126
282,185,60691,2,0,P|249:226|246:281,1,95.9999970703126
460,302,60958,1,0,0:0:0:0:
253,361,61092,1,0,0:0:0:0:
435,121,61226,2,0,L|421:216,1,95.9999970703126
170,139,61494,22,0,L|156:43,1,95.9999970703126
258,91,61762,2,0,P|341:94|363:80,1,95.9999970703126
303,10,62030,1,0,0:0:0:0:
282,185,62164,1,0,0:0:0:0:
435,121,62298,2,0,P|435:60|408:20,1,95.9999970703126
204,236,62566,38,0,B|242:271|242:271|309:279,1,95.9999970703126
372,220,62833,2,0,P|389:278|375:324,1,95.9999970703126
292,359,63101,1,0,0:0:0:0:
282,185,63235,1,0,0:0:0:0:
115,283,63369,2,0,P|104:236|117:191,1,95.9999970703126
408,51,63637,22,0,L|418:159,1,95.9999970703126
273,280,63905,2,0,L|281:184,1,95.9999970703126
296,23,64173,1,0,0:0:0:0:
355,201,64307,1,0,0:0:0:0:
146,118,64441,2,0,P|204:91|244:99,1,95.9999970703126
355,201,64708,6,0,B|364:147|364:147|406:105,1,95.9999970703126
438,252,64976,2,0,P|397:290|347:297,1,95.9999970703126
193,226,65244,1,0,0:0:0:0:
230,343,65378,1,0,0:0:0:0:
267,192,65512,2,0,L|258:88,1,95.9999970703126
79,215,65780,22,0,L|70:319,1,95.9999970703126
327,363,66048,2,0,P|323:307|295:269,1,95.9999970703126
230,343,66316,1,0,0:0:0:0:
408,303,66449,1,0,0:0:0:0:
267,192,66583,2,0,P|225:226|212:274,1,95.9999970703126
436,193,66851,38,0,B|446:141|446:141|432:84,1,95.9999970703126
321,40,67119,2,0,B|270:49|270:49|212:43,1,95.9999970703126
105,27,67387,1,0,0:0:0:0:
147,204,67521,1,0,0:0:0:0:
203,130,67655,2,0,P|156:111|108:119,1,95.9999970703126
87,301,67923,22,0,L|195:312,1,95.9999970703126
396,200,68191,2,0,L|300:209,1,95.9999970703126
139,221,68458,1,0,0:0:0:0:
310,309,68592,1,0,0:0:0:0:
284,68,68726,2,0,L|288:115,1,47.9999985351563
403,207,68860,1,0,0:0:0:0:
403,207,68927,1,0,0:0:0:0:
403,207,68994,6,0,L|391:77,1,95.9999970703126
186,112,69262,2,0,P|191:153|237:202,1,95.9999970703126
394,111,69530,1,0,0:0:0:0:
212,22,69664,1,0,0:0:0:0:
311,290,69798,2,0,L|313:183,1,95.9999970703126
135,270,70066,21,0,0:0:0:0:
122,255,70333,2,0,L|120:159,1,95.9999970703126
279,79,70601,1,0,0:0:0:0:
224,194,70735,1,0,0:0:0:0:
116,24,70869,2,0,L|233:21,1,95.9999970703126
384,145,71137,37,0,0:0:0:0:
403,137,71405,2,0,P|419:191|408:241,1,95.9999970703126
296,320,71673,1,0,0:0:0:0:
312,194,71807,1,0,0:0:0:0:
471,366,71941,2,0,P|485:313|468:259,1,95.9999970703126
180,356,72208,21,0,0:0:0:0:
160,172,72342,1,0,0:0:0:0:
112,243,72476,2,0,L|100:133,1,107.999996704102
98,106,72744,1,0,0:0:0:0:
229,268,72878,2,0,L|241:158,1,96
243,150,73146,1,0,0:0:0:0:
397,293,73280,6,0,P|398:246|365:190,1,88.000002685547
305,382,73548,2,0,L|414:373,1,88.000002685547
480,229,73816,1,0,0:0:0:0:
311,268,73949,1,0,0:0:0:0:
489,328,74083,2,0,L|490:223,1,88.000002685547
289,48,74351,22,0,B|280:94|280:94|291:152,1,88.000002685547
381,209,74619,2,0,B|390:163|390:163|379:105,1,88.000002685547
216,208,74887,1,0,0:0:0:0:
311,268,75021,1,0,0:0:0:0:
457,34,75155,2,0,L|475:120,1,88.000002685547
127,253,75423,38,0,P|119:202|130:162,1,88.000002685547
210,108,75691,1,0,0:0:0:0:
286,266,75824,2,0,L|302:169,1,88.000002685547
210,108,76092,1,0,0:0:0:0:
56,308,76226,2,0,B|37:265|37:265|38:208,1,88.000002685547
210,108,76494,21,0,0:0:0:0:
216,208,76628,1,0,0:0:0:0:
310,65,76762,2,0,P|282:26|246:5,1,88.000002685547
114,134,77030,2,0,L|120:236,1,88.000002685547
226,353,77298,2,0,L|221:296,1,44.0000013427735
224,215,77432,1,0,0:0:0:0:
224,215,77499,1,0,0:0:0:0:
224,215,77566,6,0,P|276:189|323:195,1,88.000002685547
