osu file format v14

[General]
AudioFilename: audio.mp3
AudioLeadIn: 0
PreviewTime: 102244
Countdown: 0
SampleSet: Soft
StackLeniency: 0.7
Mode: 0
LetterboxInBreaks: 0
WidescreenStoryboard: 0

[Editor]
Bookmarks: 12920,54920,78920,96920,102920
DistanceSpacing: 1
BeatDivisor: 4
GridSize: 32
TimelineZoom: 1

[Metadata]
Title:Daisuki Nanda
TitleUnicode:大好きなんだ
Artist:Masaki Gaillard (cv: Kiritani Hana)
ArtistUnicode:真咲・ガイヤール(cv: 桐谷華)
Creator:Asuka_-
Version:Normal
Source:天色*アイルノーツ
Tags:eroge character song sawasawa キャラクターソング cut ver Amairo Islenauts
BeatmapID:1281648
BeatmapSetID:603082

[Difficulty]
HPDrainRate:4
CircleSize:3.5
OverallDifficulty:4
ApproachRate:5
SliderMultiplier:1.1
SliderTickRate:1

[Events]
//Background and Video events
0,0,"BG.jpg",0,0
//Break Periods
//Storyboard Layer 0 (Background)
//Storyboard Layer 1 (Fail)
//Storyboard Layer 2 (Pass)
//Storyboard Layer 3 (Foreground)
//Storyboard Sound Samples

[TimingPoints]
901,375,4,2,1,60,1,0
901,-100,4,2,1,60,0,0
18901,-100,4,2,1,50,0,0
24338,-100,4,2,1,55,0,0
39901,-100,4,2,1,65,0,0
78901,-100,4,2,1,60,0,0
96901,-100,4,2,1,55,0,0
102901,-100,4,2,1,65,0,1
140401,-100,4,2,1,70,0,0

[Colours]
Combo1 : 242,182,0
Combo2 : 179,0,0
Combo3 : 237,255,74
Combo4 : 100,2,4

[HitObjects]
17,52,901,6,0,P|45:48|73:47,1,55,2|0,0:0|0:0,0:0:0:0:
117,205,1651,2,0,P|148:203|185:197,1,55,2|0,0:0|0:0,0:0:0:0:
239,47,2401,2,0,P|274:48|304:55,1,55,2|0,0:0|0:0,0:0:0:0:
338,152,2963,2,0,P|397:145|462:134,1,110,2|2,0:0|0:0,0:0:0:0:
497,114,3526,2,0,P|490:149|485:181,1,55,8|0,0:0|0:0,0:0:0:0:
478,222,3901,6,0,P|481:253|490:285,1,55,2|0,0:0|0:0,0:0:0:0:
334,339,4651,2,0,P|339:306|346:268,1,55,2|0,0:0|0:0,0:0:0:0:
187,228,5401,2,0,P|190:264|194:298,1,55,2|0,0:0|0:0,0:0:0:0:
95,336,5963,2,0,P|89:251|83:170,1,165,2|8,0:0|0:0,0:0:0:0:
104,63,6901,6,0,P|132:64|162:69,1,55,2|2,0:0|0:0,0:0:0:0:
270,189,7651,2,0,P|244:194|215:197,1,55,2|2,0:0|0:0,0:0:0:0:
316,66,8401,2,0,P|347:68|372:74,1,55,2|2,0:0|0:0,0:0:0:0:
463,131,8963,2,0,P|469:190|477:245,1,110,2|2,0:0|0:0,0:0:0:0:
477,295,9526,2,0,P|455:305|412:306,1,55,8|0,0:0|0:0,0:0:0:0:
380,274,9901,6,0,P|350:271|309:273,1,55,2|0,0:3|0:0,0:0:0:0:
284,309,10276,1,2,0:3:0:0:
185,259,10651,2,0,P|188:231|195:184,1,55,2|6,0:3|0:0,0:0:0:0:
209,152,11026,1,8,0:3:0:0:
245,111,11213,2,0,P|290:94|359:120,1,110,8|8,0:0|0:0,0:0:0:0:
385,151,11776,1,2,0:0:0:0:
407,201,11963,1,8,0:0:0:0:
398,310,12338,2,0,P|362:317|331:319,1,55,2|8,0:0|0:0,0:0:0:0:
235,326,12901,5,6,0:0:0:0:
147,258,13276,1,2,1:0:0:0:
54,317,13651,2,0,P|38:258|51:202,1,110,0|2,0:0|0:1,0:0:0:0:
75,163,14213,1,2,0:0:0:0:
116,127,14401,2,0,P|164:120|232:143,1,110,4|2,0:0|1:0,0:0:0:0:
266,169,14963,1,0,0:0:0:0:
373,198,15338,2,0,P|375:176|382:123,2,55,0|2|0,0:0|1:0|0:0,0:0:0:0:
403,243,15901,5,4,0:0:0:0:
347,337,16276,1,2,1:0:0:0:
241,303,16651,2,0,P|247:246|256:181,1,110,0|2,0:0|1:0,0:0:0:0:
279,144,17213,1,2,0:0:0:0:
271,89,17401,2,0,P|231:60|167:72,1,110,4|2,0:0|1:0,0:0:0:0:
133,105,17963,2,0,P|80:108|14:121,1,110,0|2,0:0|0:0,0:0:0:0:
0,168,18526,1,8,0:0:0:0:
107,212,18901,5,6,0:0:0:0:
57,309,19276,2,0,P|112:322|169:300,1,110,2|0,1:0|0:0,0:0:0:0:
254,250,20026,1,2,1:0:0:0:
297,216,20213,2,0,P|357:194|414:220,1,110,2|0,0:0|0:0,0:0:0:0:
446,235,20776,2,0,L|461:173,1,55,2|0,1:0|0:0,0:0:0:0:
504,150,21151,1,0,0:0:0:0:
455,51,21526,1,2,1:0:0:0:
368,118,21901,6,0,P|321:137|244:119,1,110,4|8,0:0|0:0,0:0:0:0:
191,46,22651,2,0,P|161:43|133:47,1,55,2|2,0:0|0:0,0:0:0:0:
86,67,23026,1,8,0:0:0:0:
44,102,23213,2,0,L|51:231,1,110,6|2,0:0|0:0,0:0:0:0:
74,261,23776,2,0,P|70:295|67:329,1,55,8|4,0:0|0:0,0:0:0:0:
177,302,24338,2,0,L|166:365,2,55,8|8|8,0:3|3:0|0:0,0:0:0:0:
165,248,24901,5,6,0:0:0:0:
227,157,25276,1,8,0:0:0:0:
169,63,25651,2,0,P|225:40|285:62,1,110,2|8,0:0|0:0,0:0:0:0:
320,75,26213,2,0,P|330:137|337:193,1,110,2|2,0:0|0:0,0:0:0:0:
368,227,26776,2,0,P|366:257|364:288,1,55,8|2,0:0|0:0,0:0:0:0:
275,346,27338,2,0,P|275:320|277:289,2,55,2|8|0,0:0|0:0|0:0,0:0:0:0:
230,379,27901,5,2,0:0:0:0:
130,331,28276,1,8,0:0:0:0:
206,252,28651,2,0,P|216:212|186:139,1,110,2|8,0:0|0:0,0:0:0:0:
147,121,29213,2,0,P|141:67|169:11,1,110,2|2,0:0|0:0,0:0:0:0:
218,8,29776,2,0,P|250:9|275:13,1,55,8|2,0:0|0:0,0:0:0:0:
324,30,30151,2,0,P|377:30|453:28,1,110,0|8,0:0|0:0,0:0:0:0:
512,98,30901,5,4,0:0:0:0:
415,150,31276,2,0,P|403:213|429:264,1,110,8|2,0:0|0:0,0:0:0:0:
490,337,32026,1,8,0:0:0:0:
441,362,32213,2,0,P|378:373|323:349,1,110,6|2,0:0|0:0,0:0:0:0:
289,329,32776,1,8,0:0:0:0:
241,302,32963,2,0,P|173:295|125:322,1,110,6|2,0:0|0:0,0:0:0:0:
95,347,33526,1,8,0:0:0:0:
14,273,33901,6,0,L|27:149,1,110,6|8,0:0|0:0,0:0:0:0:
51,115,34463,1,8,0:0:0:0:
115,25,34838,2,0,P|150:24|181:37,1,55,2|8,0:0|0:0,0:0:0:0:
212,63,35213,1,6,0:0:0:0:
265,159,35588,1,2,0:0:0:0:
295,204,35776,2,0,P|326:216|362:214,1,55,8|2,0:0|0:0,0:0:0:0:
402,212,36151,2,0,P|454:190|488:132,1,110,8|8,0:0|0:0,0:0:0:0:
469,37,36901,5,8,0:3:0:0:
369,83,37276,1,8,0:0:0:0:
213,30,37838,2,0,P|211:57|207:88,2,55,8|10|12,0:3|0:0|0:0,0:0:0:0:
38,308,39901,6,0,P|76:338|150:312,1,110,6|8,0:0|0:0,0:0:0:0:
223,265,40651,2,0,P|254:258|291:259,1,55,2|2,0:0|0:0,0:0:0:0:
325,282,41025,1,8,0:0:0:0:
368,315,41213,2,0,P|399:332|474:317,1,110,2|2,0:0|0:0,0:0:0:0:
502,275,41776,1,8,0:0:0:0:
510,220,41963,2,0,L|499:109,1,110,2|2,0:0|0:0,0:0:0:0:
469,63,42526,1,8,0:0:0:0:
400,149,42901,6,0,P|371:149|339:145,1,55,2|0,0:0|0:0,0:0:0:0:
308,104,43276,1,8,0:0:0:0:
275,59,43463,2,0,P|221:47|161:70,1,110,0|2,0:0|0:0,0:0:0:0:
123,92,44026,1,8,0:0:0:0:
37,161,44401,2,0,L|50:279,1,110,2|8,0:0|0:0,0:0:0:0:
67,322,44963,2,0,P|105:335|175:334,1,110,2|2,0:0|0:0,0:0:0:0:
219,302,45526,2,0,P|249:298|279:297,1,55,8|0,0:0|0:0,0:0:0:0:
320,325,45901,6,0,L|439:332,1,110,6|8,0:0|0:0,0:0:0:0:
478,232,46651,2,0,P|483:201|489:170,1,55,2|2,0:0|0:0,0:0:0:0:
502,125,47025,1,8,0:0:0:0:
483,72,47213,2,0,P|443:51|379:66,1,110,2|2,0:0|0:0,0:0:0:0:
342,102,47776,1,8,0:0:0:0:
303,133,47963,2,0,L|190:143,1,110,2|2,0:0|0:0,0:0:0:0:
148,109,48526,1,8,0:0:0:0:
53,53,48901,6,0,P|46:82|41:125,1,55,2|0,0:0|0:0,0:0:0:0:
68,156,49276,1,8,0:0:0:0:
105,195,49463,2,0,P|119:254|94:309,1,110,0|2,0:0|0:0,0:0:0:0:
66,341,50026,1,8,0:0:0:0:
172,370,50401,2,0,P|226:375|299:366,1,110,2|8,0:0|0:0,0:0:0:0:
335,361,50963,2,0,P|348:306|357:254,1,110,6|2,0:0|0:0,0:0:0:0:
346,199,51526,2,0,P|345:174|344:138,1,55,8|2,0:0|0:0,0:0:0:0:
256,192,51901,12,14,53401,0:0:0:0:
166,16,54526,5,8,0:0:0:0:
64,57,54901,2,0,L|74:183,1,110,6|8,0:0|0:0,0:0:0:0:
139,254,55651,1,2,0:0:0:0:
60,331,56026,1,8,0:0:0:0:
97,371,56213,2,0,P|142:385|205:356,1,110,0|0,0:0|0:0,0:0:0:0:
229,317,56776,1,8,0:0:0:0:
324,371,57151,1,2,0:0:0:0:
388,282,57526,1,8,0:0:0:0:
456,367,57901,5,2,0:0:0:0:
495,328,58088,2,0,P|502:304|502:269,1,55,0|8,0:0|0:0,0:0:0:0:
465,235,58463,2,0,P|459:168|462:110,1,110,0|2,0:0|0:0,0:0:0:0:
497,83,59026,1,8,0:0:0:0:
409,18,59401,2,0,P|351:2|297:36,1,110,8|8,0:3|0:0,0:0:0:0:
270,62,59963,2,0,P|218:84|158:66,1,110,8|8,0:3|0:3,0:0:0:0:
121,41,60526,1,10,0:0:0:0:
42,118,60901,6,0,L|32:233,1,110,6|8,0:0|0:0,0:0:0:0:
77,328,61651,1,2,0:0:0:0:
156,252,62026,1,8,0:0:0:0:
197,215,62213,2,0,P|252:200|303:223,1,110,0|0,0:0|0:0,0:0:0:0:
328,266,62776,1,8,0:0:0:0:
426,217,63151,1,2,0:0:0:0:
347,140,63526,1,8,0:0:0:0:
392,40,63901,6,0,P|334:28|280:57,1,110,2|8,0:0|0:0,0:0:0:0:
203,117,64651,2,0,L|212:232,1,110,2|8,0:0|0:0,0:0:0:0:
257,257,65213,1,2,0:0:0:0:
211,357,65588,2,0,P|264:370|328:337,1,110,2|6,0:0|0:0,0:0:0:0:
374,258,66338,2,0,P|383:230|386:191,1,55,2|8,0:0|0:0,0:0:0:0:
342,104,66901,6,0,P|291:110|225:111,1,110,6|8,0:0|0:0,0:0:0:0:
132,55,67651,1,2,0:0:0:0:
50,129,68026,1,8,0:0:0:0:
92,165,68213,2,0,P|108:217|77:273,1,110,0|0,0:0|0:0,0:0:0:0:
36,290,68776,1,8,0:0:0:0:
107,373,69151,1,2,0:0:0:0:
197,309,69526,1,8,0:0:0:0:
287,371,69901,5,2,0:0:0:0:
323,329,70088,2,0,P|330:304|324:264,1,55,0|8,0:0|0:0,0:0:0:0:
294,232,70463,2,0,P|289:184|296:116,1,110,0|2,0:0|0:0,0:0:0:0:
337,87,71026,1,8,0:0:0:0:
433,35,71401,2,0,P|449:95|433:144,1,110,8|8,3:0|0:0,0:0:0:0:
403,183,71963,2,0,P|389:228|410:294,1,110,8|8,0:3|0:3,0:0:0:0:
447,322,72526,1,10,0:0:0:0:
347,368,72901,6,0,L|233:373,1,110,6|8,0:0|0:0,0:0:0:0:
151,303,73651,1,2,0:0:0:0:
57,361,74026,1,8,0:0:0:0:
17,323,74213,2,0,P|-3:265|26:209,1,110,0|0,0:0|0:0,0:0:0:0:
58,188,74776,1,8,0:0:0:0:
154,241,75151,1,2,0:0:0:0:
240,173,75526,1,8,0:0:0:0:
301,264,75901,6,0,P|358:264|411:256,1,110,2|8,0:0|0:0,0:0:0:0:
500,317,76651,2,0,P|511:262|513:200,1,110,2|8,0:0|0:0,0:0:0:0:
497,155,77213,1,6,0:0:0:0:
439,61,77588,2,0,P|384:46|325:79,1,110,2|6,0:0|0:0,0:0:0:0:
252,129,78338,2,0,P|224:137|186:131,1,55,8|8,0:3|0:0,0:0:0:0:
99,86,78901,6,0,L|87:211,1,110,6|0,0:0|0:0,0:0:0:0:
35,291,79651,2,0,P|89:308|149:280,1,110,8|0,0:0|0:0,0:0:0:0:
212,209,80401,1,0,0:0:0:0:
280,295,80776,1,0,0:0:0:0:
359,219,81151,1,8,0:0:0:0:
429,303,81526,1,0,0:0:0:0:
502,221,81901,6,0,L|513:102,1,110,2|0,0:0|0:0,0:0:0:0:
441,26,82651,2,0,P|383:35|319:37,1,110,8|0,0:0|0:0,0:0:0:0:
251,113,83401,2,0,P|195:109|132:100,2,110,0|0|8,0:0|0:0|0:0,0:0:0:0:
339,178,84526,2,0,P|371:178|407:172,1,55,2|0,0:0|0:0,0:0:0:0:
443,150,84901,6,0,P|456:209|446:274,1,110,6|0,0:0|0:0,0:0:0:0:
373,336,85651,2,0,P|323:346|254:346,1,110,8|0,0:0|0:0,0:0:0:0:
172,310,86401,1,0,0:0:0:0:
264,251,86776,1,0,0:0:0:0:
180,179,87151,1,8,0:0:0:0:
273,121,87526,1,0,0:0:0:0:
192,46,87901,6,0,P|135:49|72:55,1,110,2|0,0:0|0:0,0:0:0:0:
12,139,88651,2,0,L|0:255,1,110,8|0,0:0|0:0,0:0:0:0:
103,209,89401,2,0,P|109:258|116:334,2,110,0|0|8,0:0|0:0|0:0,0:0:0:0:
209,236,90526,2,0,P|213:267|221:307,1,55,8|2,0:0|0:0,0:0:0:0:
249,335,90901,6,0,P|298:339|360:341,1,110,6|0,0:0|0:0,0:0:0:0:
464,309,91651,2,0,P|457:248|452:176,1,110,8|0,0:0|0:0,0:0:0:0:
437,90,92401,1,0,0:0:0:0:
348,155,92776,1,0,0:0:0:0:
309,51,93151,1,8,0:0:0:0:
220,116,93526,1,0,0:0:0:0:
129,52,93901,6,0,P|114:92|122:160,1,110,2|0,0:0|0:0,0:0:0:0:
178,252,94651,2,0,L|301:263,1,110,8|0,0:0|0:0,0:0:0:0:
392,294,95401,2,0,P|410:240|430:170,2,110,0|2|2,0:0|0:0|0:0,0:0:0:0:
308,366,96526,2,0,P|278:369|233:369,1,55,8|2,0:0|0:0,0:0:0:0:
199,359,96901,5,12,0:0:0:0:
105,300,97276,1,2,0:0:0:0:
7,351,97651,2,0,P|-5:300|12:247,1,110,0|8,0:0|0:0,0:0:0:0:
40,198,98213,1,0,0:0:0:0:
91,179,98401,2,0,P|125:187|204:193,1,110,12|2,0:0|0:0,0:0:0:0:
308,177,99151,2,0,P|324:158|340:126,1,55,0|2,0:0|0:0,0:0:0:0:
334,76,99526,2,0,P|325:50|309:18,1,55,8|0,0:0|0:0,0:0:0:0:
258,15,99901,6,0,P|200:21|130:24,1,110,12|8,0:0|0:0,0:0:0:0:
38,18,100651,2,0,L|29:75,1,55,8|8,0:0|0:0,0:0:0:0:
50,180,101213,2,0,P|112:177|174:170,1,110,12|2,0:0|0:0,0:0:0:0:
214,164,101776,2,0,L|224:225,1,55,8|8,0:0|0:0,0:0:0:0:
465,349,102901,5,6,0:0:0:0:
394,264,103276,1,8,0:0:0:0:
481,196,103651,2,0,P|495:143|459:90,1,110,2|8,0:0|0:0,0:0:0:0:
415,93,104213,2,0,P|366:104|293:110,1,110,6|2,0:0|0:0,0:0:0:0:
255,88,104776,2,0,P|251:114|248:146,1,55,8|2,0:0|0:0,0:0:0:0:
221,249,105338,1,2,0:0:0:0:
181,287,105526,2,0,P|153:295|119:295,1,55,8|2,0:0|0:0,0:0:0:0:
74,280,105901,5,6,0:0:0:0:
11,192,106276,1,8,0:0:0:0:
44,87,106651,2,0,P|96:66|164:77,1,110,2|8,0:0|0:0,0:0:0:0:
187,109,107213,2,0,P|234:121|303:109,1,110,6|2,0:0|0:0,0:0:0:0:
346,94,107776,1,8,0:0:0:0:
396,72,107963,2,0,P|389:125|382:187,1,110,2|2,0:0|0:0,0:0:0:0:
383,236,108526,1,8,0:0:0:0:
435,332,108901,5,6,0:0:0:0:
501,244,109276,2,0,P|508:189|513:125,1,110,8|2,0:0|0:0,0:0:0:0:
442,49,110026,1,8,0:0:0:0:
409,92,110213,2,0,P|351:110|288:95,1,110,6|2,0:0|0:0,0:0:0:0:
256,72,110776,2,0,P|229:67|179:67,1,55,8|0,0:0|0:0,0:0:0:0:
150,86,111151,1,2,0:0:0:0:
120,191,111526,1,8,0:0:0:0:
179,283,111901,6,0,P|132:302|55:284,1,110,6|8,0:0|0:0,0:0:0:0:
10,204,112651,2,0,P|10:178|18:144,1,55,2|2,0:0|0:0,0:0:0:0:
36,98,113026,1,8,0:0:0:0:
73,57,113213,2,0,P|126:39|181:64,1,110,6|8,0:0|3:0,0:0:0:0:
214,95,113776,2,0,P|211:126|207:163,1,55,8|8,0:0|3:0,0:0:0:0:
239,255,114338,2,0,P|215:249|173:252,2,55,8|8|8,0:3|0:0|0:3,0:0:0:0:
286,283,114901,5,6,0:0:0:0:
373,344,115276,1,8,0:0:0:0:
471,294,115651,2,0,P|492:240|470:180,1,110,2|8,0:0|0:0,0:0:0:0:
440,154,116213,2,0,P|388:160|317:161,1,110,6|2,0:0|0:0,0:0:0:0:
275,154,116776,2,0,P|272:179|272:214,1,55,8|2,0:0|0:0,0:0:0:0:
304,313,117338,1,2,0:0:0:0:
264,351,117526,2,0,P|235:358|193:349,1,55,8|0,0:0|0:0,0:0:0:0:
166,321,117901,5,6,0:0:0:0:
69,374,118276,1,8,0:0:0:0:
12,279,118651,2,0,P|7:233|2:164,1,110,2|8,0:0|0:0,0:0:0:0:
0,113,119213,2,0,P|45:81|108:102,1,110,4|2,0:0|0:0,0:0:0:0:
139,125,119776,2,0,P|168:129|198:126,1,55,8|2,0:0|0:0,0:0:0:0:
235,91,120151,2,0,P|297:82|356:91,1,110,0|8,0:0|0:0,0:0:0:0:
406,177,120901,5,6,0:0:0:0:
494,111,121276,2,0,L|508:225,1,110,8|2,0:0|0:0,0:0:0:0:
461,320,122026,1,8,0:0:0:0:
422,284,122213,2,0,P|358:268|307:302,1,110,6|2,0:0|0:0,0:0:0:0:
279,322,122776,1,8,0:0:0:0:
233,352,122963,2,0,P|180:366|126:352,1,110,6|2,0:0|0:0,0:0:0:0:
77,329,123526,1,8,0:3:0:0:
14,238,123901,6,0,L|27:114,1,110,6|8,0:0|0:0,0:0:0:0:
47,76,124463,1,8,0:0:0:0:
146,21,124838,2,0,P|151:45|155:78,1,55,2|8,0:0|0:0,0:0:0:0:
133,126,125213,1,6,0:0:0:0:
156,233,125588,1,2,0:0:0:0:
196,270,125776,2,0,P|224:280|270:275,1,55,8|8,0:0|0:0,0:0:0:0:
302,266,126151,2,0,P|329:253|383:186,1,110,2|8,0:0|0:0,0:0:0:0:
366,83,126901,5,6,0:0:0:0:
273,143,127276,1,6,0:0:0:0:
136,50,127838,2,0,P|134:77|130:108,2,55,6|8|2,0:0|0:0|0:0,0:0:0:0:
72,203,128776,6,0,P|119:226|180:205,1,110,12|0,0:0|0:0,0:0:0:0:
219,182,129338,2,0,P|246:178|282:186,1,55,2|8,0:0|0:0,0:0:0:0:
322,206,129713,2,0,P|379:226|437:202,1,110,6|2,0:0|0:0,0:0:0:0:
466,175,130276,1,8,0:0:0:0:
423,73,130651,2,0,P|371:57|307:83,1,110,0|8,0:0|0:0,0:0:0:0:
259,165,131401,5,6,0:0:0:0:
169,101,131776,1,8,0:0:0:0:
84,171,132151,2,0,P|77:223|73:289,1,110,2|8,0:0|0:0,0:0:0:0:
95,330,132713,2,0,P|134:355|210:337,1,110,6|2,0:0|0:0,0:0:0:0:
233,311,133276,2,0,P|263:311|309:322,1,55,8|2,0:0|0:0,0:0:0:0:
329,351,133651,1,0,0:0:0:0:
351,243,134026,1,8,0:0:0:0:
440,305,134401,6,0,P|465:257|450:197,1,110,6|8,0:0|0:0,0:0:0:0:
384,118,135151,2,0,P|330:128|259:128,1,110,2|8,0:0|0:0,0:0:0:0:
236,91,135713,2,0,P|177:87|118:77,1,110,6|2,0:0|0:0,0:0:0:0:
75,58,136276,2,0,P|73:87|70:126,1,55,8|0,0:0|0:0,0:0:0:0:
37,156,136651,1,2,0:0:0:0:
124,222,137026,1,8,0:0:0:0:
49,302,137401,5,6,0:0:0:0:
89,339,137588,2,0,P|135:347|199:314,1,110,8|2,0:0|0:0,0:0:0:0:
220,274,138151,2,0,L|240:158,1,110,8|8,0:0|0:0,0:0:0:0:
227,111,138713,1,6,0:0:0:0:
315,45,139088,1,2,0:0:0:0:
376,137,139463,1,6,0:0:0:0:
471,81,139838,2,0,P|479:140|487:209,1,110,2|8,0:0|0:0,0:0:0:0:
485,245,140401,5,6,0:0:0:0:
439,345,140776,1,12,0:0:0:0:
291,271,141338,2,0,L|283:334,2,55,8|8|4,0:0|0:0|0:0,0:0:0:0:
