osu file format v14

[General]
AudioFilename: audio.mp3
AudioLeadIn: 0
PreviewTime: 102244
Countdown: 0
SampleSet: Soft
StackLeniency: 0.7
Mode: 0
LetterboxInBreaks: 0
WidescreenStoryboard: 1

[Editor]
Bookmarks: 12920,39908,54904,78908,102920,128783
DistanceSpacing: 0.2
BeatDivisor: 4
GridSize: 4
TimelineZoom: 1.8

[Metadata]
Title:Daisuki Nanda
TitleUnicode:大好きなんだ
Artist:Masaki Gaillard (cv: Kiritani Hana)
ArtistUnicode:真咲・ガイヤール(cv: 桐谷華)
Creator:Asuka_-
Version:Insane
Source:天色*アイルノーツ
Tags:eroge character song sawasawa キャラクターソング cut ver Amairo Islenauts
BeatmapID:1273777
BeatmapSetID:603082

[Difficulty]
HPDrainRate:6
CircleSize:4
OverallDifficulty:8
ApproachRate:9
SliderMultiplier:1.7
SliderTickRate:1

[Events]
//Background and Video events
0,0,"BG.jpg",0,0
//Break Periods
//Storyboard Layer 0 (Background)
//Storyboard Layer 1 (Fail)
//Storyboard Layer 2 (Pass)
//Storyboard Layer 3 (Foreground)
//Storyboard Sound Samples

[TimingPoints]
901,375,4,2,1,60,1,0
901,-125,4,2,1,60,0,0
12338,-100,4,2,1,60,0,0
12901,-125,4,2,1,60,0,0
18901,-125,4,2,1,50,0,0
24338,-111.111111111111,4,2,1,60,0,0
24901,-111.111111111111,4,2,1,55,0,0
38776,-111.111111111111,4,2,1,70,0,0
39526,-111.111111111111,4,2,1,65,0,0
78901,-111.111111111111,4,2,1,60,0,0
96901,-111.111111111111,4,2,1,65,0,0
102901,-100,4,2,1,65,0,1
135713,-100,4,2,1,80,0,1
140401,-100,4,2,1,80,0,0

[Colours]
Combo1 : 242,182,0
Combo2 : 179,0,0
Combo3 : 237,255,74
Combo4 : 100,2,4

[HitObjects]
122,57,901,5,2,0:0:0:0:
122,57,1088,2,0,P|152:123|124:187,1,136,0|0,0:0|0:0,0:0:0:0:
19,273,1651,1,2,0:0:0:0:
19,273,1838,2,0,P|99:272|184:264,1,136
295,184,2401,5,2,0:0:0:0:
295,184,2588,2,0,P|290:226|283:273,1,68,0|2,0:0|0:3,0:0:0:0:
367,126,2963,2,0,P|321:97|230:125,1,136,2|2,0:0|0:0,0:0:0:0:
156,14,3526,2,0,P|146:55|138:103,1,68,8|0,0:0|0:0,0:0:0:0:
141,248,3901,5,2,0:0:0:0:
141,248,4088,2,0,P|197:212|266:234,1,136,0|0,0:0|0:0,0:0:0:0:
360,367,4651,1,2,0:0:0:0:
360,367,4838,2,0,P|365:299|375:206,1,136
473,106,5401,5,2,0:0:0:0:
473,106,5588,2,0,P|432:116|383:118,1,68,0|2,0:0|0:3,0:0:0:0:
303,42,5963,2,0,P|221:12|126:83,1,204,2|8,0:0|0:0,0:0:0:0:
31,235,6901,5,2,0:0:0:0:
31,235,7088,2,0,P|88:277|159:250,1,136,2|0,0:0|0:0,0:0:0:0:
279,110,7651,1,2,0:0:0:0:
279,110,7838,2,0,P|274:182|263:277,1,136,2|0,0:0|0:0,0:0:0:0:
404,320,8401,5,2,0:0:0:0:
404,320,8588,2,0,P|400:280|396:234,1,68,2|2,0:0|0:3,0:0:0:0:
491,97,8963,2,0,P|442:146|360:127,1,136,2|2,0:0|0:0,0:0:0:0:
281,42,9526,2,0,P|254:33|195:28,1,68,8|0,0:0|0:0,0:0:0:0:
76,87,9901,5,2,0:3:0:0:
76,87,10088,2,0,P|70:118|63:177,1,68,0|2,0:0|0:3,0:0:0:0:
88,280,10463,1,0,0:0:0:0:
201,210,10651,1,2,0:3:0:0:
263,341,10838,2,0,P|262:352|257:376,3,22.6666666666667,6|0|0|8,0:0|0:0|0:0|0:3,0:0:0:0:
406,203,11213,6,0,P|366:214|319:214,1,68,8|0,0:0|0:0,0:0:0:0:
221,85,11588,1,8,0:0:0:0:
354,132,11776,1,2,0:0:0:0:
199,267,11963,2,0,P|191:230|187:196,1,68,8|0,0:0|0:0,0:0:0:0:
316,13,12338,6,0,P|311:37|305:82,1,42.5,2|0,0:0|0:0,0:0:0:0:
445,150,12526,2,0,P|441:126|436:80,1,42.5,8|8,0:0|0:3,0:0:0:0:
322,225,12713,2,0,P|316:246|312:266,1,42.5,8|8,0:0|3:0,0:0:0:0:
443,364,12901,6,0,P|441:324|436:271,1,68,6|0,0:0|0:0,0:0:0:0:
362,138,13276,2,0,P|318:131|277:134,1,68,2|0,1:0|0:0,0:0:0:0:
142,197,13651,1,0,0:0:0:0:
248,231,13838,1,0,0:0:0:0:
211,133,14026,1,2,0:1:0:0:
83,294,14213,6,0,P|119:287|172:281,1,68,2|4,0:0|0:0,0:0:0:0:
309,297,14588,1,0,0:0:0:0:
212,359,14776,1,2,1:0:0:0:
389,347,14963,2,0,P|393:314|398:279,1,68
370,175,15338,1,0,0:0:0:0:
465,236,15526,1,2,1:0:0:0:
309,297,15713,1,0,0:0:0:0:
455,358,15901,6,0,P|415:354|375:342,1,68,4|0,0:0|0:0,0:0:0:0:
338,216,16276,2,0,P|303:216|264:226,1,68,2|0,1:0|0:0,0:0:0:0:
211,367,16651,1,0,0:0:0:0:
309,297,16838,1,0,0:0:0:0:
184,257,17026,1,2,1:0:0:0:
388,346,17213,6,0,P|398:305|400:252,1,68,2|4,0:0|0:0,0:0:0:0:
321,131,17588,1,0,0:0:0:0:
270,216,17776,1,2,1:0:0:0:
404,160,17963,1,0,0:0:0:0:
274,53,18151,2,0,P|243:42|205:42,1,68,0|2,0:0|0:0,0:0:0:0:
107,175,18526,2,0,P|150:173|186:163,1,68,8|0,0:0|0:0,0:0:0:0:
12,22,18901,6,0,P|6:55|2:108,1,68,6|0,0:0|0:0,0:0:0:0:
107,175,19276,2,0,P|102:222|93:263,1,68,2|0,1:0|0:0,0:0:0:0:
39,357,19651,1,0,0:0:0:0:
159,322,19838,1,0,0:0:0:0:
264,370,20026,1,2,1:0:0:0:
389,294,20213,6,0,P|383:328|378:363,2,68,2|4|0,0:0|0:0|0:0,0:0:0:0:
504,167,20776,2,0,P|471:177|430:181,1,68,2|0,1:0|0:0,0:0:0:0:
295,278,21151,2,0,P|264:277|214:263,1,68
79,324,21526,2,0,P|47:304|10:264,1,68,2|0,1:0|0:0,0:0:0:0:
117,155,21901,5,4,0:0:0:0:
225,268,22088,1,0,0:0:0:0:
265,145,22276,1,8,0:0:0:0:
101,244,22463,1,0,0:0:0:0:
126,55,22651,1,2,0:0:0:0:
186,197,22838,1,2,0:0:0:0:
34,128,23026,1,8,0:0:0:0:
230,275,23213,6,0,P|266:230|250:137,1,136,6|2,0:0|0:0,0:0:0:0:
235,117,23682,1,2,0:0:0:0:
184,92,23776,1,2,0:0:0:0:
132,95,23869,1,2,0:0:0:0:
92,129,23963,2,0,P|90:160|99:249,1,102,2|0,0:0|0:0,0:0:0:0:
81,331,24338,6,0,P|88:354|92:393,1,38.2499988327027,8|2,0:3|1:0,0:0:0:0:
232,305,24526,2,0,P|237:284|243:247,1,38.2499988327027,8|0,3:0|0:0,0:0:0:0:
353,371,24713,2,0,P|375:368|405:363,1,38.2499988327027,8|0,0:0|0:0,0:0:0:0:
504,291,24901,6,0,P|509:248|513:210,1,76.4999976654053,6|0,0:0|0:0,0:0:0:0:
389,58,25276,2,0,P|417:49|472:46,1,76.4999976654053,8|0,0:0|0:0,0:0:0:0:
248,142,25651,1,2,0:0:0:0:
309,34,25838,1,2,0:0:0:0:
375,190,26026,1,8,0:0:0:0:
196,65,26213,6,0,P|152:124|171:196,1,152.999995330811,2|2,0:0|0:0,0:0:0:0:
296,252,26776,1,8,0:0:0:0:
163,297,26963,1,2,0:0:0:0:
163,297,27057,1,0,0:0:0:0:
163,297,27151,1,0,0:0:0:0:
237,138,27338,1,2,0:0:0:0:
71,246,27526,2,0,P|77:205|87:146,1,76.4999976654053,8|0,0:0|0:0,0:0:0:0:
207,33,27901,5,2,0:0:0:0:
69,79,28088,1,0,0:0:0:0:
236,137,28276,1,8,0:0:0:0:
129,16,28463,1,0,0:0:0:0:
28,182,28651,1,2,0:0:0:0:
126,328,28838,1,2,0:0:0:0:
126,328,28932,1,0,0:0:0:0:
126,328,29026,1,8,0:0:0:0:
226,195,29213,6,0,P|221:237|216:297,1,76.4999976654053,2|0,0:0|0:0,0:0:0:0:
371,278,29588,1,2,0:0:0:0:
262,359,29776,1,8,0:0:0:0:
328,205,29963,1,2,0:0:0:0:
460,308,30151,2,0,P|455:262|450:223,1,76.4999976654053,0|2,0:0|0:0,0:0:0:0:
338,129,30526,2,0,P|332:164|326:216,1,76.4999976654053,8|0,0:0|0:0,0:0:0:0:
262,360,30901,5,4,0:0:0:0:
172,218,31088,1,0,0:0:0:0:
63,350,31276,2,0,P|103:361|141:358,1,76.4999976654053,8|0,0:0|0:0,0:0:0:0:
267,246,31651,1,2,0:0:0:0:
110,278,31838,1,2,0:0:0:0:
286,328,32026,1,8,0:0:0:0:
431,155,32213,6,0,P|346:110|288:139,1,152.999995330811,6|2,0:0|0:0,0:0:0:0:
270,159,32682,1,0,0:0:0:0:
270,159,32776,1,8,0:0:0:0:
394,297,32963,6,0,P|327:350|257:334,1,152.999995330811,6|2,0:0|0:0,0:0:0:0:
233,313,33432,1,0,0:0:0:0:
233,313,33526,1,8,0:0:0:0:
352,195,33713,1,8,0:3:0:0:
161,109,33901,5,6,0:0:0:0:
267,231,34088,1,2,0:0:0:0:
323,77,34276,1,8,0:0:0:0:
167,265,34463,2,0,P|169:220|179:167,1,76.4999976654053,8|2,0:0|0:0,0:0:0:0:
368,234,34838,5,2,0:0:0:0:
247,308,35026,1,8,0:0:0:0:
431,379,35213,2,0,P|436:342|444:303,1,76.4999976654053,6|0,0:0|0:0,0:0:0:0:
362,98,35588,5,2,0:0:0:0:
471,201,35776,1,8,0:0:0:0:
298,170,35963,1,2,0:0:0:0:
450,75,36151,1,8,0:0:0:0:
264,26,36338,1,2,0:0:0:0:
389,150,36526,1,8,0:0:0:0:
263,283,36713,1,2,0:0:0:0:
263,283,36807,1,0,0:0:0:0:
263,283,36901,5,8,0:3:0:0:
263,283,37276,1,8,0:0:0:0:
173,188,37463,2,0,P|175:170|176:156,3,25.4999992218018,2|2|2|2,0:3|0:3|0:3|0:3,0:0:0:0:
396,225,37838,5,8,0:3:0:0:
263,283,38026,1,10,0:0:0:0:
482,348,38213,1,12,0:0:0:0:
184,10,38776,5,2,0:1:0:0:
106,209,39057,1,2,0:0:0:0:
106,209,39150,1,8,0:0:0:0:
228,133,39338,1,8,0:3:0:0:
62,124,39526,1,2,0:1:0:0:
26,167,39619,1,2,0:1:0:0:
14,221,39713,1,10,0:3:0:0:
29,274,39807,1,2,0:1:0:0:
62,308,39901,6,0,P|121:326|199:259,1,152.999995330811,6|8,0:0|0:0,0:0:0:0:
118,71,40463,2,0,P|86:73|32:84,1,76.4999976654053,0|2,0:0|0:0,0:0:0:0:
258,122,40838,1,2,0:0:0:0:
142,187,41026,1,8,0:0:0:0:
251,324,41213,6,0,P|258:286|264:248,1,76.4999976654053,2|0,0:0|0:0,0:0:0:0:
258,122,41588,1,2,0:0:0:0:
362,187,41776,1,8,0:0:0:0:
465,38,41963,2,0,P|459:82|450:136,1,76.4999976654053,2|0,0:0|0:0,0:0:0:0:
498,215,42338,1,2,0:0:0:0:
371,77,42526,2,0,P|321:67|264:66,1,76.4999976654053,8|0,0:0|0:0,0:0:0:0:
143,87,42901,5,2,0:0:0:0:
225,191,43088,1,0,0:0:0:0:
58,121,43276,1,8,0:0:0:0:
212,31,43463,1,0,0:0:0:0:
89,211,43651,2,0,P|51:211|8:205,1,76.4999976654053,0|2,0:0|0:0,0:0:0:0:
237,112,44026,1,8,0:0:0:0:
179,296,44213,1,0,0:0:0:0:
285,213,44401,5,2,0:0:0:0:
98,363,44588,2,0,P|89:317|83:266,1,76.4999976654053,2|8,0:0|0:0,0:0:0:0:
201,62,44963,2,0,P|164:55|119:54,1,76.4999976654053,2|0,0:0|0:0,0:0:0:0:
296,172,45338,1,2,0:0:0:0:
296,172,45432,1,0,0:0:0:0:
296,172,45526,1,8,0:0:0:0:
405,36,45713,1,0,0:0:0:0:
405,36,45807,1,0,0:0:0:0:
405,36,45901,6,0,P|417:115|430:193,1,152.999995330811,6|8,0:0|0:0,0:0:0:0:
284,249,46463,2,0,P|294:189|304:147,1,76.4999976654053,0|2,0:0|0:0,0:0:0:0:
381,273,46838,1,2,0:0:0:0:
213,304,47026,1,8,0:0:0:0:
272,87,47213,6,0,P|307:87|355:98,1,76.4999976654053,2|0,0:0|0:0,0:0:0:0:
190,177,47588,1,2,0:0:0:0:
101,71,47776,1,8,0:0:0:0:
0,222,47963,2,0,P|5:184|11:146,1,76.4999976654053,2|0,0:0|0:0,0:0:0:0:
101,71,48338,1,2,0:0:0:0:
170,260,48526,2,0,P|125:270|81:268,1,76.4999976654053,8|0,0:0|0:0,0:0:0:0:
222,120,48901,5,2,0:0:0:0:
282,265,49088,1,0,0:0:0:0:
340,122,49276,1,8,0:0:0:0:
162,182,49463,1,0,0:0:0:0:
356,330,49651,2,0,P|368:289|374:255,1,76.4999976654053,0|2,0:0|0:0,0:0:0:0:
240,98,50026,1,8,0:0:0:0:
282,265,50213,1,0,0:0:0:0:
378,140,50401,5,2,0:0:0:0:
153,125,50588,2,0,P|160:87|168:50,1,76.4999976654053,2|8,0:0|0:0,0:0:0:0:
362,301,50963,2,0,P|357:262|350:210,1,76.4999976654053,6|0,0:0|0:0,0:0:0:0:
168,49,51338,1,2,0:0:0:0:
121,43,51432,1,2,0:0:0:0:
82,67,51526,1,8,0:0:0:0:
261,249,51713,1,2,0:0:0:0:
309,251,51807,1,2,0:0:0:0:
352,225,51901,5,12,0:0:0:0:
256,192,51994,12,2,53026,0:0:0:0:
217,270,53401,5,8,0:0:0:0:
293,87,53588,1,2,0:0:0:0:
413,249,53776,1,8,0:0:0:0:
499,119,53963,1,2,0:0:0:0:
337,172,54151,1,8,0:0:0:0:
512,232,54338,1,2,0:0:0:0:
306,276,54526,1,8,0:0:0:0:
435,196,54713,1,8,0:0:0:0:
384,353,54901,5,6,0:0:0:0:
466,280,55088,2,0,P|426:276|388:269,1,76.4999976654053,0|8,0:0|0:0,0:0:0:0:
336,193,55463,1,0,0:0:0:0:
433,77,55651,2,0,P|430:120|422:162,1,76.4999976654053,2|2,0:0|0:0,0:0:0:0:
336,193,56026,1,8,0:0:0:0:
251,79,56213,6,0,P|213:69|151:79,1,76.4999976654053,0|2,0:0|0:0,0:0:0:0:
98,129,56588,1,0,0:0:0:0:
187,245,56776,2,0,P|194:204|201:160,1,76.4999976654053,8|0,0:0|0:0,0:0:0:0:
99,317,57151,2,0,P|93:274|86:229,1,76.4999976654053,2|2,0:0|0:0,0:0:0:0:
250,340,57526,2,0,P|258:303|269:260,1,76.4999976654053,8|0,0:0|0:0,0:0:0:0:
388,148,57901,5,2,0:0:0:0:
284,180,58088,1,0,0:0:0:0:
395,272,58276,1,8,0:0:0:0:
250,340,58463,2,0,P|214:338|166:331,1,76.4999976654053,0|2,0:0|0:0,0:0:0:0:
49,291,58838,1,2,0:0:0:0:
97,146,59026,2,0,P|134:139|172:136,1,76.4999976654053,8|0,0:0|0:0,0:0:0:0:
333,232,59401,5,8,0:3:0:0:
260,81,59588,1,2,1:0:0:0:
200,226,59776,1,8,0:0:0:0:
350,130,59963,1,8,0:3:0:0:
416,279,60151,1,0,0:0:0:0:
279,180,60338,1,8,0:3:0:0:
456,133,60526,1,10,0:0:0:0:
322,40,60713,1,0,0:0:0:0:
321,257,60901,5,6,0:0:0:0:
139,123,61088,2,0,P|176:117|227:112,1,76.4999976654053,0|8,0:0|0:0,0:0:0:0:
66,215,61463,1,0,0:0:0:0:
140,340,61651,2,0,P|146:300|156:251,1,76.4999976654053,2|2,0:0|0:0,0:0:0:0:
224,196,62026,1,8,0:0:0:0:
279,324,62213,6,0,P|291:282|308:241,1,76.4999976654053,0|2,0:0|0:0,0:0:0:0:
410,156,62588,1,0,0:0:0:0:
508,136,62776,1,8,0:0:0:0:
414,258,62963,1,0,0:0:0:0:
340,76,63151,2,0,P|383:66|416:63,1,76.4999976654053,2|2,0:0|0:0,0:0:0:0:
258,233,63526,2,0,P|221:233|171:224,1,76.4999976654053,8|0,0:0|0:0,0:0:0:0:
129,98,63901,5,2,0:0:0:0:
223,149,64088,1,0,0:0:0:0:
89,282,64276,2,0,P|84:244|82:205,1,76.4999976654053,8|0,0:0|0:0,0:0:0:0:
215,50,64651,1,2,0:0:0:0:
129,98,64838,1,2,0:0:0:0:
259,184,65026,1,8,0:0:0:0:
89,282,65213,6,0,P|46:230|66:142,1,152.999995330811,2|2,0:0|0:0,0:0:0:0:
85,121,65682,1,0,0:0:0:0:
85,121,65776,1,8,0:0:0:0:
212,271,65963,2,0,P|292:279|380:282,1,152.999995330811,6|2,0:0|0:0,0:0:0:0:
490,172,66526,1,8,0:0:0:0:
376,55,66713,1,0,1:0:0:0:
378,75,66807,1,0,1:0:0:0:
381,92,66901,5,6,0:0:0:0:
257,159,67088,2,0,P|217:155|179:148,1,76.4999976654053,0|8,0:0|0:0,0:0:0:0:
108,64,67463,1,0,0:0:0:0:
18,211,67651,2,0,P|20:172|26:135,1,76.4999976654053,2|2,0:0|0:0,0:0:0:0:
108,64,68026,1,8,0:0:0:0:
198,228,68213,6,0,P|154:235|104:234,1,76.4999976654053,0|2,0:0|0:0,0:0:0:0:
268,139,68588,1,0,0:0:0:0:
346,293,68776,2,0,P|353:252|360:208,1,76.4999976654053,8|0,0:0|0:0,0:0:0:0:
467,183,69151,2,0,P|472:220|478:258,1,76.4999976654053,2|2,0:0|0:0,0:0:0:0:
389,117,69526,2,0,P|397:80|408:37,1,76.4999976654053,8|0,0:0|0:0,0:0:0:0:
480,101,69901,5,2,0:0:0:0:
307,144,70088,1,0,0:0:0:0:
437,200,70276,1,8,0:0:0:0:
333,55,70463,2,0,P|290:57|246:66,1,76.4999976654053,0|2,0:0|0:0,0:0:0:0:
142,129,70838,1,2,0:0:0:0:
265,270,71026,2,0,P|301:268|343:262,1,76.4999976654053,8|0,0:0|0:0,0:0:0:0:
120,235,71401,5,8,3:0:0:0:
285,176,71588,1,2,0:0:0:0:
180,299,71776,1,8,0:0:0:0:
142,129,71963,1,8,0:3:0:0:
316,85,72151,1,0,0:0:0:0:
198,209,72338,1,8,0:3:0:0:
104,46,72526,1,10,0:0:0:0:
0,208,72713,1,0,0:0:0:0:
179,108,72901,5,6,0:0:0:0:
221,302,73088,2,0,P|258:306|308:307,1,76.4999976654053,0|8,0:0|0:0,0:0:0:0:
450,273,73463,1,0,0:0:0:0:
402,98,73651,2,0,P|394:135|389:173,1,76.4999976654053,2|2,0:0|0:0,0:0:0:0:
450,273,74026,1,8,0:0:0:0:
311,117,74213,6,0,P|270:111|218:113,1,76.4999976654053,0|2,0:0|0:0,0:0:0:0:
121,230,74588,1,0,0:0:0:0:
268,189,74776,1,8,0:0:0:0:
153,93,74963,1,0,0:0:0:0:
243,277,75151,2,0,P|281:275|321:266,1,76.4999976654053,2|2,0:0|0:0,0:0:0:0:
103,361,75526,2,0,P|64:358|19:350,1,76.4999976654053,8|0,0:0|0:0,0:0:0:0:
106,158,75901,5,2,0:0:0:0:
25,259,76088,1,0,0:0:0:0:
77,67,76276,2,0,P|118:69|156:79,1,76.4999976654053,8|0,0:0|0:0,0:0:0:0:
296,177,76651,1,2,0:0:0:0:
244,47,76838,1,2,0:0:0:0:
178,198,77026,1,8,0:0:0:0:
420,235,77213,6,0,P|462:156|416:85,1,152.999995330811,6|2,0:0|0:0,0:0:0:0:
407,68,77682,1,0,0:0:0:0:
407,68,77776,1,8,0:0:0:0:
292,242,77963,2,0,P|215:248|124:252,1,152.999995330811,6|8,0:0|0:3,0:0:0:0:
86,240,78432,1,0,0:0:0:0:
43,216,78526,1,8,0:0:0:0:
24,177,78619,1,0,0:0:0:0:
25,125,78713,1,8,0:3:0:0:
51,86,78807,1,0,0:0:0:0:
91,58,78901,5,6,0:0:0:0:
169,115,79088,1,0,0:0:0:0:
244,52,79276,1,0,0:0:0:0:
321,114,79463,1,2,0:0:0:0:
421,33,79651,2,0,P|413:79|410:127,1,76.4999976654053,8|0,0:0|0:0,0:0:0:0:
445,190,80026,1,0,0:0:0:0:
493,347,80213,6,0,P|497:310|493:254,1,76.4999976654053,2|0,0:0|0:0,0:0:0:0:
445,190,80588,1,0,0:0:0:0:
378,266,80776,1,0,0:0:0:0:
301,200,80963,1,2,0:0:0:0:
216,278,81151,2,0,P|211:240|205:194,1,76.4999976654053,8|0,0:0|0:0,0:0:0:0:
318,83,81526,2,0,P|282:95|234:103,1,76.4999976654053
75,114,81901,6,0,P|116:117|153:126,2,76.4999976654053,2|0|0,0:0|0:0|0:0,0:0:0:0:
104,207,82463,1,2,0:0:0:0:
229,177,82651,2,0,P|238:142|243:81,1,76.4999976654053,8|0,0:0|0:0,0:0:0:0:
345,21,83026,2,0,P|348:58|356:109,1,76.4999976654053,0|2,0:0|0:0,0:0:0:0:
444,178,83401,6,0,P|451:139|457:89,2,76.4999976654053,0|0|0,0:0|0:0|0:0,0:0:0:0:
381,252,83963,1,0,0:0:0:0:
439,339,84151,2,0,P|401:350|354:351,1,76.4999976654053,8|0,0:0|0:0,0:0:0:0:
281,286,84526,2,0,P|245:277|196:281,1,76.4999976654053,2|2,0:0|0:0,0:0:0:0:
116,353,84901,5,6,0:0:0:0:
23,278,85088,1,0,0:0:0:0:
123,208,85276,1,0,0:0:0:0:
30,127,85463,1,2,0:0:0:0:
120,33,85651,2,0,P|161:36|205:49,1,76.4999976654053,8|0,0:0|0:0,0:0:0:0:
263,133,86026,1,0,0:0:0:0:
379,21,86213,6,0,P|370:64|364:118,1,76.4999976654053,2|0,0:0|0:0,0:0:0:0:
365,233,86588,1,0,0:0:0:0:
263,133,86776,1,0,0:0:0:0:
193,244,86963,1,2,0:0:0:0:
127,116,87151,2,0,P|129:72|141:10,1,76.4999976654053,8|0,0:0|0:0,0:0:0:0:
69,245,87526,2,0,P|73:282|81:333,1,76.4999976654053
249,183,87901,6,0,P|288:189|346:203,2,76.4999976654053,2|0|0,0:0|0:0|0:0,0:0:0:0:
145,276,88463,1,2,0:0:0:0:
32,208,88651,2,0,P|27:165|23:122,1,76.4999976654053,8|0,0:0|0:0,0:0:0:0:
149,37,89026,2,0,P|143:80|136:123,1,76.4999976654053,0|2,0:0|0:0,0:0:0:0:
255,207,89401,6,0,P|247:166|241:119,2,76.4999976654053
353,258,89963,1,0,0:0:0:0:
455,150,90151,2,0,P|405:154|370:162,1,76.4999976654053,8|2,0:0|0:0,0:0:0:0:
278,322,90526,2,0,P|238:325|183:313,1,76.4999976654053,8|2,0:0|0:0,0:0:0:0:
83,295,90901,5,6,0:0:0:0:
6,210,91088,1,0,0:0:0:0:
28,97,91276,1,0,0:0:0:0:
116,26,91463,1,2,0:0:0:0:
230,11,91651,2,0,P|256:14|327:26,1,76.4999976654053,8|0,0:0|0:0,0:0:0:0:
410,72,92026,1,0,0:0:0:0:
317,225,92213,6,0,P|321:166|330:120,1,76.4999976654053,2|0,0:0|0:0,0:0:0:0:
410,72,92588,1,0,0:0:0:0:
492,144,92776,1,0,0:0:0:0:
498,254,92963,1,2,0:0:0:0:
425,333,93151,2,0,P|387:345|349:345,1,76.4999976654053,8|0,0:0|0:0,0:0:0:0:
241,306,93526,2,0,P|247:270|252:220,1,76.4999976654053
131,356,93901,6,0,P|126:316|123:258,2,76.4999976654053,2|0|0,0:0|0:0|0:0,0:0:0:0:
19,239,94463,2,0,P|28:204|42:149,1,76.4999976654053,2|8,0:0|0:0,0:0:0:0:
136,45,94838,2,0,P|139:82|143:132,1,76.4999976654053
244,202,95213,1,2,0:0:0:0:
320,76,95401,6,0,P|281:80|230:91,1,76.4999976654053,0|2,0:0|0:0,0:0:0:0:
393,161,95776,1,2,0:0:0:0:
506,36,95963,2,0,P|499:90|496:128,1,76.4999976654053,8|2,0:0|0:0,0:0:0:0:
450,298,96338,1,2,0:0:0:0:
393,158,96526,1,8,0:0:0:0:
327,269,96713,1,2,0:0:0:0:
285,93,96901,5,12,0:0:0:0:
204,180,97088,1,0,0:0:0:0:
107,40,97276,2,0,P|103:84|99:125,1,76.4999976654053,2|8,0:0|0:0,0:0:0:0:
133,278,97651,1,0,0:0:0:0:
208,174,97838,1,2,0:0:0:0:
56,219,98026,1,8,0:0:0:0:
180,91,98213,6,0,P|219:90|256:97,1,76.4999976654053,0|12,0:0|0:0,0:0:0:0:
404,159,98588,1,0,0:0:0:0:
270,199,98776,1,2,0:0:0:0:
427,250,98963,1,8,0:0:0:0:
349,93,99151,1,0,0:0:0:0:
272,288,99338,1,2,0:0:0:0:
177,75,99526,1,8,0:0:0:0:
106,315,99713,1,0,0:0:0:0:
23,44,99901,5,12,0:0:0:0:
457,315,100276,5,8,0:0:0:0:
279,101,100651,5,8,0:0:0:0:
246,282,100838,1,8,0:0:0:0:
44,210,101213,6,0,P|98:202|145:197,1,76.4999976654053,12|0,0:0|0:0,0:0:0:0:
361,169,101588,5,2,0:0:0:0:
211,94,101776,1,8,0:0:0:0:
397,34,101963,1,8,0:0:0:0:
389,27,102338,5,8,3:0:0:0:
493,107,102526,1,8,0:0:0:0:
298,132,102713,1,8,0:0:0:0:
392,271,102901,6,0,P|400:230|409:173,1,85,6|0,0:0|0:0,0:0:0:0:
347,368,103276,2,0,P|387:375|444:357,1,85,8|0,0:0|0:0,0:0:0:0:
412,97,103651,1,2,0:0:0:0:
318,219,103838,1,2,0:0:0:0:
496,175,104026,1,8,0:0:0:0:
361,19,104213,6,0,P|317:21|256:30,1,85,6|0,0:0|0:0,0:0:0:0:
169,157,104588,1,2,0:0:0:0:
169,157,104682,1,0,0:0:0:0:
169,157,104776,1,8,0:0:0:0:
62,61,104963,2,0,P|56:98|49:157,1,85,2|0,0:0|0:0,0:0:0:0:
206,328,105338,1,2,0:0:0:0:
136,253,105526,1,8,0:0:0:0:
38,355,105713,1,2,0:0:0:0:
308,300,105901,6,0,P|301:347|291:394,1,85,6|0,0:0|0:0,0:0:0:0:
215,77,106276,2,0,P|218:114|231:178,1,85,8|0,0:0|0:0,0:0:0:0:
395,242,106651,1,2,0:0:0:0:
302,111,106838,1,2,0:0:0:0:
185,255,107026,1,8,0:0:0:0:
436,317,107213,6,0,P|480:236|429:168,1,170,6|2,0:0|0:0,0:0:0:0:
445,177,107682,1,0,0:0:0:0:
445,177,107776,1,8,0:0:0:0:
286,88,107963,1,2,0:0:0:0:
395,242,108151,1,0,0:0:0:0:
207,278,108338,1,2,0:0:0:0:
358,153,108526,1,8,0:0:0:0:
200,53,108713,1,8,0:0:0:0:
346,325,108901,6,0,P|382:330|452:331,1,85,6|0,0:0|0:0,0:0:0:0:
249,207,109276,1,8,0:0:0:0:
147,327,109463,1,0,0:0:0:0:
83,168,109651,1,2,0:0:0:0:
244,343,109838,1,2,0:0:0:0:
356,163,110026,1,8,0:0:0:0:
147,327,110213,6,0,P|222:321|331:307,1,170,6|2,0:0|0:0,0:0:0:0:
424,187,110776,1,8,0:0:0:0:
309,73,110963,1,0,0:0:0:0:
491,263,111151,2,0,P|503:222|509:165,1,85,2|2,0:0|0:0,0:0:0:0:
508,180,111432,1,0,0:0:0:0:
508,180,111526,1,8,0:0:0:0:
402,306,111713,1,0,0:0:0:0:
287,154,111901,5,6,0:0:0:0:
199,308,112088,1,0,0:0:0:0:
382,211,112276,1,8,0:0:0:0:
194,135,112463,1,0,0:0:0:0:
378,58,112651,1,2,0:0:0:0:
303,282,112838,1,2,0:0:0:0:
488,164,113026,1,8,0:0:0:0:
237,12,113213,6,0,P|179:78|203:161,1,170,6|8,0:0|3:0,0:0:0:0:
226,191,113682,1,0,0:0:0:0:
271,210,113776,1,8,0:0:0:0:
323,208,113869,1,0,0:0:0:0:
362,189,113963,1,8,3:0:0:0:
492,358,114338,6,0,P|498:340|504:307,1,42.5,8|0,0:3|0:0,0:0:0:0:
362,189,114526,2,0,P|367:215|368:256,1,42.5,8|0,0:0|0:0,0:0:0:0:
221,284,114713,2,0,P|185:278|149:262,1,42.5,8|0,0:3|0:0,0:0:0:0:
25,189,114901,6,0,P|22:216|14:287,1,85,6|0,0:0|0:0,0:0:0:0:
185,360,115276,2,0,P|182:312|176:256,1,85,8|0,0:0|0:0,0:0:0:0:
127,89,115651,1,2,0:0:0:0:
271,164,115838,1,2,0:0:0:0:
96,243,116026,1,8,0:0:0:0:
226,84,116213,6,0,P|322:84|357:158,1,170,6|2,0:0|0:0,0:0:0:0:
299,310,116776,1,8,0:0:0:0:
431,203,116963,1,2,0:0:0:0:
431,203,117057,1,0,0:0:0:0:
431,203,117151,1,0,0:0:0:0:
261,231,117338,1,2,0:0:0:0:
402,383,117526,2,0,P|408:342|420:272,1,85,8|0,0:0|0:0,0:0:0:0:
384,77,117901,5,6,0:0:0:0:
507,167,118088,1,0,0:0:0:0:
328,185,118276,1,8,0:0:0:0:
475,88,118463,1,0,0:0:0:0:
296,16,118651,1,2,0:0:0:0:
428,202,118838,1,2,0:0:0:0:
428,202,118932,1,0,0:0:0:0:
428,202,119026,1,8,0:0:0:0:
211,98,119213,6,0,P|206:140|201:208,1,85,4|0,0:0|0:0,0:0:0:0:
259,343,119588,1,2,0:0:0:0:
328,204,119776,1,8,0:0:0:0:
175,289,119963,1,2,0:0:0:0:
49,219,120151,2,0,P|42:177|40:135,1,85,0|2,0:0|0:0,0:0:0:0:
255,37,120526,2,0,P|261:79|263:122,1,85,8|0,0:0|0:0,0:0:0:0:
226,286,120901,5,6,0:0:0:0:
362,168,121088,1,0,0:0:0:0:
428,340,121276,2,0,P|382:339|339:331,1,85,8|0,0:0|0:0,0:0:0:0:
159,197,121651,1,2,0:0:0:0:
294,98,121838,1,2,0:0:0:0:
226,286,122026,1,8,0:0:0:0:
83,87,122213,6,0,P|24:138|40:236,1,170,6|2,0:0|0:0,0:0:0:0:
84,285,122682,1,0,0:0:0:0:
84,285,122776,1,8,0:0:0:0:
363,142,122963,6,0,P|264:122|219:174,1,170,6|2,0:0|0:0,0:0:0:0:
208,247,123432,1,0,0:0:0:0:
208,247,123526,1,8,0:3:0:0:
387,302,123713,1,8,0:0:0:0:
256,315,123901,5,6,0:0:0:0:
417,211,124088,1,2,0:0:0:0:
256,118,124276,1,8,0:0:0:0:
486,273,124463,2,0,P|499:235|504:171,1,85,8|2,0:0|0:0,0:0:0:0:
177,182,124838,5,2,0:0:0:0:
361,83,125026,1,8,0:0:0:0:
93,126,125213,2,0,P|83:162|77:232,1,85,6|0,0:0|0:0,0:0:0:0:
272,337,125588,5,2,0:0:0:0:
177,182,125776,1,8,0:0:0:0:
384,263,125963,1,8,0:0:0:0:
253,107,126151,1,2,0:0:0:0:
487,208,126338,1,2,0:0:0:0:
352,42,126526,1,8,0:0:0:0:
263,235,126713,1,2,0:0:0:0:
263,235,126807,1,0,0:0:0:0:
263,235,126901,5,6,0:0:0:0:
263,235,127276,1,6,0:0:0:0:
415,317,127463,2,0,L|448:318,3,28.3333333333333,8|0|0|0,0:3|0:0|0:0|0:0,0:0:0:0:
250,117,127838,5,6,0:0:0:0:
433,215,128026,1,8,0:0:0:0:
174,284,128213,1,2,0:0:0:0:
60,46,128588,5,2,0:0:0:0:
60,46,128682,1,0,0:0:0:0:
60,46,128776,2,0,P|54:132|45:218,1,170,12|0,0:0|0:0,0:0:0:0:
70,362,129338,1,2,0:0:0:0:
70,362,129432,1,0,0:0:0:0:
70,362,129526,1,8,0:0:0:0:
167,242,129713,1,2,0:0:0:0:
248,375,129901,6,0,P|286:379|363:381,1,85,0|2,0:0|0:0,0:0:0:0:
356,372,130182,1,0,0:0:0:0:
356,372,130276,1,8,0:0:0:0:
438,251,130463,1,2,0:0:0:0:
337,132,130651,1,0,0:0:0:0:
469,327,130838,2,0,P|521:251|487:185,1,170,2|2,0:0|0:0,0:0:0:0:
315,55,131401,5,6,0:0:0:0:
375,194,131588,1,0,0:0:0:0:
443,48,131776,1,8,0:0:0:0:
272,144,131963,1,0,0:0:0:0:
376,310,132151,1,2,0:0:0:0:
455,135,132338,1,2,0:0:0:0:
275,232,132526,1,8,0:0:0:0:
453,376,132713,6,0,P|369:339|289:373,1,170,6|2,0:0|0:0,0:0:0:0:
282,378,133182,1,0,0:0:0:0:
282,378,133276,1,8,0:0:0:0:
163,293,133463,1,2,0:0:0:0:
334,213,133650,1,0,0:0:0:0:
155,143,133838,1,2,0:0:0:0:
364,296,134026,1,8,0:0:0:0:
128,380,134213,1,8,0:0:0:0:
27,155,134401,5,6,0:0:0:0:
136,225,134588,2,0,P|150:170|158:115,1,85,0|8,0:0|0:0,0:0:0:0:
118,21,134963,1,0,0:0:0:0:
292,121,135151,1,2,0:0:0:0:
136,225,135338,1,2,0:0:0:0:
136,225,135432,1,0,0:0:0:0:
136,225,135526,1,8,0:0:0:0:
368,384,135713,6,0,P|421:329|390:223,1,170,6|2,0:0|0:0,0:0:0:0:
303,144,136276,1,8,0:0:0:0:
447,91,136463,1,0,0:0:0:0:
309,239,136651,1,2,0:0:0:0:
222,19,136838,2,0,P|210:68|203:125,1,85,2|8,0:0|0:0,0:0:0:0:
252,300,137213,1,0,0:0:0:0:
352,148,137401,1,6,0:0:0:0:
175,266,137588,6,0,P|276:215|324:249,1,170,8|2,0:0|0:0,0:0:0:0:
386,366,138151,1,8,0:0:0:0:
470,207,138338,1,2,0:0:0:0:
470,207,138432,1,0,0:0:0:0:
470,207,138526,1,8,0:0:0:0:
288,370,138713,2,0,P|243:367|176:353,1,85,6|0,0:0|0:0,0:0:0:0:
51,191,139088,5,2,0:0:0:0:
56,230,139182,1,0,0:0:0:0:
62,269,139276,1,8,0:0:0:0:
70,305,139369,1,0,0:0:0:0:
76,345,139463,1,6,0:0:0:0:
193,43,139838,5,2,0:0:0:0:
189,84,139932,1,0,0:0:0:0:
184,128,140026,1,8,0:0:0:0:
179,176,140119,1,0,0:0:0:0:
175,221,140213,1,8,0:0:0:0:
169,267,140307,1,0,0:0:0:0:
163,314,140401,5,6,0:0:0:0:
450,100,140776,1,12,0:0:0:0:
372,293,140963,2,0,P|376:276|382:258,3,28.3333333333333,8|0|0|2,0:3|0:0|0:0|0:0,0:0:0:0:
251,141,141338,5,8,0:0:0:0:
288,363,141526,1,8,0:0:0:0:
57,266,141713,1,4,0:0:0:0:
