osu file format v14

[General]
AudioFilename: audio.mp3
AudioLeadIn: 0
PreviewTime: 102244
Countdown: 0
SampleSet: Soft
StackLeniency: 0.7
Mode: 0
LetterboxInBreaks: 0
WidescreenStoryboard: 0

[Editor]
Bookmarks: 12920,54920,78920,96920,102920,128795
DistanceSpacing: 1
BeatDivisor: 4
GridSize: 32
TimelineZoom: 1

[Metadata]
Title:Daisuki Nanda
TitleUnicode:大好きなんだ
Artist:Masaki Gaillard (cv: Kiritani Hana)
ArtistUnicode:真咲・ガイヤール(cv: 桐谷華)
Creator:Asuka_-
Version:Easy
Source:天色*アイルノーツ
Tags:eroge character song sawasawa キャラクターソング cut ver Amairo Islenauts
BeatmapID:1274849
BeatmapSetID:603082

[Difficulty]
HPDrainRate:2
CircleSize:3
OverallDifficulty:2
ApproachRate:3
SliderMultiplier:0.9
SliderTickRate:1

[Events]
//Background and Video events
0,0,"BG.jpg",0,0
//Break Periods
//Storyboard Layer 0 (Background)
//Storyboard Layer 1 (Fail)
//Storyboard Layer 2 (Pass)
//Storyboard Layer 3 (Foreground)
//Storyboard Sound Samples

[TimingPoints]
900,-100,4,2,1,60,0,0
901,375,4,2,1,60,1,0
18900,-100,4,2,1,50,0,0
24900,-100,4,2,1,55,0,0
39900,-100,4,2,1,65,0,0
78900,-100,4,2,1,60,0,0
96900,-100,4,2,1,55,0,0
102901,-100,4,2,1,65,0,1
140401,-100,4,2,1,80,0,0

[Colours]
Combo1 : 242,182,0
Combo2 : 179,0,0
Combo3 : 237,255,74
Combo4 : 100,2,4

[HitObjects]
333,89,901,6,0,B|440:66|440:66|512:89,2,180,2|2|2,0:0|0:0|0:0,0:0:0:0:
258,201,2963,2,0,P|192:225|125:203,1,135,2|8,0:0|0:0,0:0:0:0:
48,172,3901,6,0,B|32:280|32:280|46:357,2,180,2|2|2,0:0|0:0|0:0,0:0:0:0:
109,51,5963,2,0,P|169:28|245:47,1,135,2|8,0:0|0:0,0:0:0:0:
312,91,6901,6,0,B|432:66|432:66|503:80,2,180,2|2|2,0:0|0:0|0:0,0:0:0:0:
193,155,8963,2,0,P|169:218|199:291,1,135,2|8,0:0|0:0,0:0:0:0:
239,355,9901,6,0,B|355:373|355:373|416:354,1,180,2|2,0:3|0:3,0:0:0:0:
466,229,11213,2,0,B|486:144|486:144|486:89|443:48,1,180,8|8,0:0|0:0,0:0:0:0:
324,18,12526,1,8,0:0:0:0:
244,59,12901,6,0,P|250:140|257:244,1,180,6|0,0:0|0:0,0:0:0:0:
327,294,14026,1,2,0:1:0:0:
278,369,14401,2,0,P|232:377|178:376,1,89.9999999999999,4|2,0:0|1:0,0:0:0:0:
154,294,15151,2,0,P|105:294|57:308,1,89.9999999999999,0|2,0:0|1:0,0:0:0:0:
3,370,15901,6,0,L|15:186,1,180,4|0,0:0|0:0,0:0:0:0:
52,108,17026,1,2,1:0:0:0:
115,44,17401,2,0,P|163:42|220:50,1,89.9999999999999,4|2,0:0|1:0,0:0:0:0:
265,113,18151,2,0,P|313:113|368:105,1,89.9999999999999,0|8,0:0|0:0,0:0:0:0:
439,75,18901,6,0,B|490:129|467:198|467:198|412:230,2,180,6|0|4,0:0|0:0|0:0,0:0:0:0:
359,31,20776,1,2,1:0:0:0:
286,84,21151,2,0,P|247:94|186:90,1,89.9999999999999,0|2,0:0|1:0,0:0:0:0:
115,55,21901,6,0,L|101:158,1,89.9999999999999,4|8,0:0|0:0,0:0:0:0:
37,205,22651,2,0,P|90:233|162:212,1,135,2|6,0:0|0:0,0:0:0:0:
299,204,24901,6,0,P|286:156|289:100,1,89.9999999999999,6|8,0:0|0:0,0:0:0:0:
342,45,25651,2,0,P|296:28|249:35,1,89.9999999999999,2|8,0:0|0:0,0:0:0:0:
174,71,26401,1,0,0:0:0:0:
95,27,26776,1,8,0:0:0:0:
15,71,27151,2,0,P|7:116|3:171,1,89.9999999999999,0|8,0:0|0:0,0:0:0:0:
22,248,27901,6,0,P|70:237|113:245,1,89.9999999999999,2|8,0:0|0:0,0:0:0:0:
182,295,28651,2,0,P|230:302|273:289,1,89.9999999999999,2|8,0:0|0:0,0:0:0:0:
351,254,29401,1,0,0:0:0:0:
430,296,29776,1,8,0:0:0:0:
504,245,30151,2,0,P|509:203|511:149,1,89.9999999999999,0|8,0:0|0:0,0:0:0:0:
492,67,30901,6,0,P|443:84|387:78,1,89.9999999999999,4|8,0:0|0:0,0:0:0:0:
328,35,31651,2,0,P|257:29|192:57,1,135,2|6,0:0|0:0,0:0:0:0:
123,100,32588,1,2,0:0:0:0:
67,170,32963,2,0,L|83:320,1,135,6|8,0:0|0:0,0:0:0:0:
148,364,33901,6,0,P|238:376|305:316,1,180,6|2,0:0|0:0,0:0:0:0:
425,376,35213,2,0,P|437:330|453:236,1,135,6|8,0:0|0:0,0:0:0:0:
463,154,36151,2,0,P|455:103|443:64,1,90,8|8,0:0|0:0,0:0:0:0:
374,9,36901,5,8,0:3:0:0:
328,86,37276,1,8,0:0:0:0:
204,37,37838,2,0,L|193:141,1,89.9999999999999,8|12,0:3|0:0,0:0:0:0:
49,37,39901,6,0,P|61:128|69:230,1,180,6|2,0:0|0:0,0:0:0:0:
31,298,41026,1,8,0:0:0:0:
93,362,41401,2,0,P|128:368|191:372,1,89.9999999999999,0|8,0:0|0:0,0:0:0:0:
254,318,42151,2,0,P|298:313|345:309,1,89.9999999999999,0|8,0:0|0:0,0:0:0:0:
408,372,42901,6,0,P|437:312|365:221,1,180,2|2,0:0|0:0,0:0:0:0:
305,173,44026,1,8,0:0:0:0:
378,120,44401,1,0,0:0:0:0:
283,24,44963,2,0,P|229:33|135:42,1,135,0|8,0:0|0:0,0:0:0:0:
59,30,45901,6,0,P|15:93|52:195,1,180,6|2,0:0|0:0,0:0:0:0:
100,254,47026,1,8,0:0:0:0:
175,302,47401,2,0,P|221:302|274:291,1,89.9999999999999,0|8,0:0|0:0,0:0:0:0:
353,304,48151,2,0,P|360:261|366:213,1,89.9999999999999,0|8,0:0|0:0,0:0:0:0:
301,152,48901,6,0,P|384:122|450:177,1,180,2|2,0:0|0:0,0:0:0:0:
454,265,50026,1,8,0:0:0:0:
410,343,50401,1,2,0:0:0:0:
280,308,50963,2,0,P|214:291|147:317,1,135,6|8,0:0|0:0,0:0:0:0:
256,192,51901,12,14,53401,0:0:0:0:
71,36,54901,6,0,P|64:85|60:139,1,89.9999999999999,6|8,0:0|0:0,0:0:0:0:
137,173,55651,2,0,P|141:216|146:271,1,89.9999999999999,2|8,0:0|0:0,0:0:0:0:
82,327,56401,2,0,P|172:278|251:307,1,180,2|2,0:0|0:0,0:0:0:0:
312,354,57526,1,8,0:0:0:0:
391,312,57901,6,0,P|405:261|411:215,1,89.9999999999999,2|8,0:0|0:0,0:0:0:0:
487,178,58651,2,0,P|480:143|454:92,1,89.9999999999999,2|8,0:0|0:0,0:0:0:0:
373,57,59401,2,0,L|279:67,2,89.9999999999999,8|8|0,0:3|0:0|0:0,0:0:0:0:
455,94,60526,1,10,0:0:0:0:
511,164,60901,6,0,P|505:206|496:264,1,89.9999999999999,6|8,0:0|0:0,0:0:0:0:
466,337,61651,2,0,P|415:346|358:334,1,89.9999999999999,2|8,0:0|0:0,0:0:0:0:
309,280,62401,2,0,P|208:253|148:293,1,180,2|2,0:0|0:0,0:0:0:0:
86,354,63526,1,8,0:0:0:0:
18,294,63901,6,0,P|19:232|28:186,1,89.9999999999999,2|8,0:0|0:0,0:0:0:0:
4,116,64651,2,0,P|64:128|143:140,1,135,2|2,0:0|0:0,0:0:0:0:
225,120,65588,1,2,0:0:0:0:
299,69,65963,2,0,P|348:31|433:52,1,135,6|8,0:0|0:0,0:0:0:0:
485,98,66901,6,0,P|481:148|474:201,1,89.9999999999999,6|8,0:0|0:0,0:0:0:0:
387,204,67651,2,0,P|391:247|397:304,1,89.9999999999999,2|8,0:0|0:0,0:0:0:0:
470,343,68401,2,0,P|387:304|296:347,1,180,2|2,0:0|0:0,0:0:0:0:
227,371,69526,1,8,0:0:0:0:
147,329,69901,6,0,P|140:287|130:238,1,89.9999999999999,2|8,0:0|0:0,0:0:0:0:
200,183,70651,2,0,P|208:132|215:74,1,89.9999999999999,2|8,0:0|0:0,0:0:0:0:
141,39,71401,2,0,L|47:49,2,89.9999999999999,8|8|0,0:3|0:0|0:0,0:0:0:0:
212,93,72526,1,10,0:0:0:0:
276,157,72901,6,0,P|322:155|375:149,1,89.9999999999999,6|8,0:0|0:0,0:0:0:0:
374,240,73651,2,0,P|330:245|270:249,1,89.9999999999999,2|8,0:0|0:0,0:0:0:0:
300,336,74401,2,0,P|377:352|464:285,1,180,2|2,0:0|0:0,0:0:0:0:
500,219,75526,1,8,0:0:0:0:
481,130,75901,6,0,P|456:82|425:49,1,89.9999999999999,2|8,0:0|0:0,0:0:0:0:
345,36,76651,2,0,P|269:51|194:50,1,135,2|6,0:0|0:0,0:0:0:0:
125,25,77588,1,2,0:0:0:0:
39,54,77963,2,0,P|41:101|46:188,1,135,6|8,0:0|0:0,0:0:0:0:
68,276,78901,6,0,P|165:281|255:290,1,180,6|8,0:0|0:0,0:0:0:0:
404,376,80401,1,2,0:0:0:0:
499,223,81151,1,8,0:0:0:0:
428,57,81901,6,0,P|346:11|263:42,1,180,2|8,0:0|0:0,0:0:0:0:
205,204,83401,1,0,0:0:0:0:
125,39,84151,1,8,0:0:0:0:
6,174,84901,6,0,P|11:264|15:361,1,180,6|8,0:0|0:0,0:0:0:0:
177,276,86401,1,2,0:0:0:0:
324,378,87151,1,8,0:0:0:0:
478,285,87901,6,0,P|521:202|469:122,1,180,2|8,0:0|0:0,0:0:0:0:
324,47,89401,1,0,0:0:0:0:
179,154,90151,1,8,0:0:0:0:
17,74,90901,6,0,B|25:163|26:161|32:253,1,180,6|8,0:0|0:0,0:0:0:0:
178,358,92401,1,0,0:0:0:0:
316,242,93151,1,8,0:0:0:0:
196,107,93901,6,0,P|239:52|350:71,1,180,2|8,0:0|0:0,0:0:0:0:
441,210,95401,1,0,0:0:0:0:
280,290,96151,1,2,0:0:0:0:
117,367,96901,6,0,P|114:322|108:278,1,89.9999999999999,12|2,0:0|0:0,0:0:0:0:
51,207,97651,2,0,P|57:159|69:105,1,89.9999999999999,0|8,0:0|0:0,0:0:0:0:
115,43,98401,2,0,P|171:38|213:51,1,90,12|2,0:0|0:0,0:0:0:0:
274,101,99151,2,0,P|322:105|372:89,1,90,0|8,0:0|0:0,0:0:0:0:
449,73,99901,6,0,P|445:117|439:170,1,89.9999999999999,12|8,0:0|0:0,0:0:0:0:
499,229,100651,2,0,P|423:248|372:216,1,135,8|12,0:0|0:0,0:0:0:0:
289,200,101588,2,0,P|293:242|295:300,1,89.9999999999999,2|8,0:0|0:0,0:0:0:0:
72,250,102901,6,0,P|79:208|89:160,1,90,6|8,0:0|0:0,0:0:0:0:
36,88,103651,2,0,P|71:74|132:81,1,89.9999999999999,2|8,0:0|0:0,0:0:0:0:
184,143,104401,1,0,0:0:0:0:
268,113,104776,1,8,0:0:0:0:
332,176,105151,2,0,P|379:190|424:185,1,89.9999999999999,0|8,0:0|0:0,0:0:0:0:
442,99,105901,6,0,P|396:86|350:92,1,89.9999999999999,6|8,0:0|0:0,0:0:0:0:
268,113,106651,2,0,P|230:129|166:122,1,89.9999999999999,2|8,0:0|0:0,0:0:0:0:
126,56,107401,1,0,0:0:0:0:
40,84,107776,1,8,0:0:0:0:
11,169,108151,2,0,P|8:214|17:271,1,89.9999999999999,0|8,0:0|0:0,0:0:0:0:
73,325,108901,6,0,B|107:367|187:358|187:358|230:322,2,180,6|2|0,0:0|0:0|0:0,0:0:0:0:
13,258,110776,1,8,0:0:0:0:
52,176,111151,2,0,P|98:157|147:164,1,89.9999999999999,2|8,0:0|0:0,0:0:0:0:
215,204,111901,6,0,P|259:218|312:213,1,89.9999999999999,6|8,0:0|0:0,0:0:0:0:
364,150,112651,1,2,0:0:0:0:
471,68,113213,2,0,P|514:128|481:226,1,180,6|8,0:0|3:0,0:0:0:0:
373,300,114526,1,8,0:0:0:0:
310,235,114901,6,0,P|266:226|221:240,1,89.9999999999999,6|8,0:0|0:0,0:0:0:0:
165,307,115651,2,0,P|119:313|64:302,1,89.9999999999999,2|8,0:0|0:0,0:0:0:0:
8,248,116401,1,0,0:0:0:0:
53,170,116776,1,8,0:0:0:0:
4,93,117151,2,0,P|55:79|106:92,1,89.9999999999999,0|8,0:0|0:0,0:0:0:0:
165,135,117901,6,0,P|176:184|183:233,1,89.9999999999999,6|8,0:0|0:0,0:0:0:0:
135,301,118651,2,0,P|181:314|227:302,1,89.9999999999999,2|8,0:0|0:0,0:0:0:0:
297,256,119401,1,0,0:0:0:0:
374,301,119776,1,8,0:0:0:0:
454,260,120151,2,0,P|466:218|476:165,1,89.9999999999999,0|8,0:0|0:0,0:0:0:0:
444,87,120901,5,6,0:0:0:0:
364,129,121276,1,8,0:0:0:0:
294,71,121651,2,0,P|231:53|163:93,1,135,2|6,0:0|0:0,0:0:0:0:
104,142,122588,1,2,0:0:0:0:
19,110,122963,2,0,P|25:177|32:244,1,135,6|8,0:0|0:3,0:0:0:0:
60,329,123901,6,0,P|120:357|212:302,1,180,6|2,0:0|0:0,0:0:0:0:
275,184,125213,2,0,P|329:197|412:235,1,135,6|8,0:0|0:0,0:0:0:0:
490,241,126151,2,0,P|500:192|507:143,1,89.9999999999999,2|8,0:0|0:0,0:0:0:0:
473,68,126901,5,6,0:0:0:0:
400,121,127276,1,6,0:0:0:0:
274,170,127838,2,0,P|280:125|287:71,1,89.9999999999999,6|2,0:0|0:0,0:0:0:0:
162,33,128776,6,0,P|169:120|174:218,1,180,12|8,0:0|0:0,0:0:0:0:
122,286,129901,2,0,P|166:302|216:293,1,89.9999999999999,0|8,0:0|0:0,0:0:0:0:
264,225,130651,2,0,P|308:210|362:218,1,89.9999999999999,0|8,0:0|0:0,0:0:0:0:
423,266,131401,6,0,L|441:170,1,89.9999999999999,6|8,0:0|0:0,0:0:0:0:
419,89,132151,2,0,P|351:97|283:99,1,135,2|6,0:0|0:0,0:0:0:0:
156,56,133276,1,8,0:0:0:0:
88,113,133651,2,0,P|80:148|72:204,1,89.9999999999999,0|8,0:0|0:0,0:0:0:0:
89,290,134401,6,0,P|147:323|251:270,1,180,6|2,0:0|0:0,0:0:0:0:
304,214,135526,1,8,0:0:0:0:
241,148,135901,2,0,P|235:98|249:44,1,89.9999999999999,0|8,0:0|0:0,0:0:0:0:
320,14,136651,2,0,P|365:17|416:24,1,89.9999999999999,2|8,0:0|0:0,0:0:0:0:
482,75,137401,6,0,P|490:100|486:177,1,89.9999999999999,6|8,0:0|0:0,0:0:0:0:
464,250,138151,2,0,P|408:255|323:257,1,135,8|6,0:0|0:0,0:0:0:0:
247,218,139088,2,0,P|202:213|151:212,1,89.9999999999999,2|6,0:0|0:0,0:0:0:0:
41,282,140026,1,8,0:0:0:0:
80,363,140401,6,0,P|123:360|176:353,1,89.9999999999999,6|12,0:0|0:0,0:0:0:0:
277,272,141338,2,0,P|319:275|374:281,1,89.9999999999999,8|4,0:0|0:0,0:0:0:0:
