osu file format v14

[General]
AudioFilename: audio.mp3
AudioLeadIn: 0
PreviewTime: 56769
Countdown: 0
SampleSet: Soft
StackLeniency: 0.4
Mode: 0
LetterboxInBreaks: 0
WidescreenStoryboard: 0

[Editor]
DistanceSpacing: 0.2
BeatDivisor: 4
GridSize: 16
TimelineZoom: 2.2

[Metadata]
Title:Frostbite (Cut Ver.)
TitleUnicode:Frostbite (Cut Ver.)
Artist:Masahiro "Godspeed" Aoki
ArtistUnicode:征洋 “Godspeed” 青木
Creator:Niva
Version:kuyusu's Expert
Source:
Tags:osu! featured artist fa mappers' guild mpg monthly beatmapping contest mbc vivix veiled kuyusu rock metal instrumental
BeatmapID:3081403
BeatmapSetID:1501511

[Difficulty]
HPDrainRate:5.5
CircleSize:7
OverallDifficulty:9
ApproachRate:9
SliderMultiplier:1.4
SliderTickRate:0.5

[Events]
//Background and Video events
0,0,"bg_kuyusu.jpg",0,0
//Break Periods
//Storyboard Layer 0 (Background)
//Storyboard Layer 1 (Fail)
//Storyboard Layer 2 (Pass)
//Storyboard Layer 3 (Foreground)
//Storyboard Layer 4 (Overlay)
//Storyboard Sound Samples

[TimingPoints]
43,319.148936170213,5,2,1,60,1,0
43,-133.333333333333,5,2,1,60,0,0
840,319.148936170213,5,2,1,60,1,0
840,-133.333333333333,5,2,1,45,0,0
1638,319.148936170213,4,2,1,45,1,0
1638,-133.333333333333,4,2,1,45,0,0
2755,319.148936170213,4,2,1,45,1,0
2755,-133.333333333333,4,2,1,45,0,0
3872,319.148936170213,5,2,1,45,1,0
3872,-133.333333333333,4,2,1,45,0,0
4669,319.148936170213,5,2,1,45,1,0
4669,-133.333333333333,4,2,1,45,0,0
5467,319.148936170213,4,2,1,45,1,0
5467,-133.333333333333,4,2,1,45,0,0
6584,319.148936170213,5,2,1,65,1,0
8021,319.148936170213,5,2,1,65,1,0
8021,-125,5,2,1,65,0,0
8818,319.148936170213,5,2,1,65,1,0
8818,-125,5,2,1,65,0,0
9616,319.148936170213,4,2,1,65,1,0
9616,-125,5,2,1,65,0,0
10733,319.148936170213,4,2,1,65,1,0
10733,-125,5,2,1,65,0,0
11850,319.148936170213,5,2,1,65,1,0
11850,-125,5,2,1,65,0,0
12647,319.148936170213,5,2,1,65,1,0
12647,-125,5,2,1,65,0,0
13445,319.148936170213,4,2,1,65,1,0
13445,-125,5,2,1,65,0,0
14562,319.148936170213,4,2,1,65,1,0
15838,-100,4,2,1,55,0,0
21104,319.148936170213,4,2,1,55,1,0
21104,-166.666666666667,4,2,1,55,0,0
31316,-142.857142857143,4,2,1,60,0,0
41530,319.148936170213,3,2,1,65,1,0
41530,-125,3,2,1,65,0,0
49189,-100,3,2,1,85,0,0
56849,319.148936170213,4,2,1,85,1,0
58125,-100,4,2,1,80,0,0
58763,-100,4,2,2,80,0,0
58843,-100,4,2,1,80,0,0
59402,-100,4,2,2,80,0,0
59482,-100,4,2,1,80,0,0
60040,-100,4,2,2,80,0,0
60120,-100,4,2,1,80,0,0
60359,-166.666666666667,4,2,1,80,0,0
60678,-100,4,2,2,80,0,0
60758,-100,4,2,1,80,0,0
61317,-100,4,2,2,80,0,0
61397,-100,4,2,1,80,0,0
61955,-100,4,2,2,80,0,0
62035,-100,4,2,1,80,0,0
62593,-100,4,2,2,80,0,0
62673,-100,4,2,1,80,0,0
62912,-166.666666666667,4,2,1,80,0,0
63231,-100,4,2,1,80,0,0
63870,-100,4,2,2,80,0,0
63950,-100,4,2,1,80,0,0
64508,-100,4,2,2,80,0,0
64588,-100,4,2,1,80,0,0
65146,-100,4,2,2,80,0,0
65226,-100,4,2,1,80,0,0
65785,-100,4,2,2,80,0,0
65865,-100,4,2,1,80,0,0
66423,-100,4,2,2,80,0,0
66503,-100,4,2,1,80,0,0
67061,-100,4,2,2,80,0,0
67141,-100,4,2,1,80,0,0
68976,-100,4,2,2,80,0,0
69056,-100,4,2,1,80,0,0
69614,-100,4,2,2,80,0,0
69694,-100,4,2,1,80,0,0
70253,-100,4,2,2,80,0,0
70333,-100,4,2,1,80,0,0
70572,-166.666666666667,4,2,1,80,0,0
70891,-100,4,2,2,80,0,0
70971,-100,4,2,1,80,0,0
71529,-100,4,2,2,80,0,0
71609,-100,4,2,1,80,0,0
72168,-100,4,2,2,80,0,0
72248,-100,4,2,1,80,0,0
72806,-100,4,2,2,80,0,0
72886,-100,4,2,1,80,0,0
78551,-111.111111111111,4,2,1,75,0,0
86210,-111.111111111111,4,2,1,75,0,1
86290,-111.111111111111,4,2,1,75,0,0
86370,-111.111111111111,4,2,1,75,0,1
86450,-111.111111111111,4,2,1,75,0,0
86529,-111.111111111111,4,2,1,75,0,1
86609,-111.111111111111,4,2,1,75,0,0
86689,-111.111111111111,4,2,1,75,0,1
86769,-111.111111111111,4,2,1,75,0,0
86849,-111.111111111111,4,2,1,75,0,1
86928,-111.111111111111,4,2,1,75,0,0
87008,-111.111111111111,4,2,1,75,0,1
87088,-111.111111111111,4,2,1,75,0,0
87168,-111.111111111111,4,2,1,75,0,1
87247,-111.111111111111,4,2,1,75,0,0
87327,-111.111111111111,4,2,1,75,0,1
87407,-111.111111111111,4,2,1,75,0,0
88763,-117.647058823529,4,2,1,70,0,0
89561,319.148936170213,4,2,1,70,1,0
89561,-117.647058823529,4,2,1,70,0,0
90359,319.148936170213,4,2,1,70,1,0
90359,-117.647058823529,4,2,1,70,0,0
91476,319.148936170213,4,2,1,70,1,0
91476,-117.647058823529,4,2,1,70,0,0
92593,319.148936170213,4,2,1,70,1,0
92593,-117.647058823529,4,2,1,70,0,0
93391,319.148936170213,4,2,1,70,1,0
93391,-117.647058823529,4,2,1,70,0,0
94189,319.148936170213,4,2,1,70,1,0
94189,-117.647058823529,4,2,1,70,0,0
95306,319.148936170213,5,2,1,70,1,0
96742,319.148936170213,4,2,1,45,1,0
96742,-133.333333333333,4,2,1,45,0,0
97540,319.148936170213,4,2,1,45,1,0
97540,-133.333333333333,4,2,1,45,0,0
98338,319.148936170213,4,2,1,45,1,0
98338,-133.333333333333,4,2,1,45,0,0
99455,319.148936170213,4,2,1,45,1,0
99455,-133.333333333333,4,2,1,45,0,0
100572,319.148936170213,4,2,1,45,1,0
100572,-133.333333333333,4,2,1,45,0,0
101370,319.148936170213,4,2,1,45,1,0
101370,-133.333333333333,4,2,1,45,0,0
102168,319.148936170213,4,2,1,45,1,0
102168,-133.333333333333,4,2,1,45,0,0
103285,319.148936170213,5,2,2,45,1,0
103285,-133.333333333333,4,2,2,45,0,0
103364,-133.333333333333,4,2,1,45,0,0
103763,-133.333333333333,4,2,2,45,0,0
103843,-133.333333333333,4,2,1,45,0,0
104242,-133.333333333333,4,2,2,45,0,0
104322,-133.333333333333,4,2,1,45,0,0

[Colours]
Combo1 : 86,199,205
Combo2 : 43,88,164

[HitObjects]
62,107,43,6,0,B|43:88|43:88|49:63,1,52.5000020027161,2|0,0:0|0:0,0:0:0:0:
96,50,362,2,0,B|115:69|115:69|108:93,2,52.5000020027161
109,101,840,6,0,L|163:85,1,52.5000020027161,2|0,0:0|0:0,0:0:0:0:
212,98,1159,5,0,0:0:0:0:
166,79,1318,1,0,0:0:0:0:
204,48,1478,1,0,0:0:0:0:
317,81,1638,6,0,B|326:55|326:55|309:37,1,52.5000020027161,2|0,0:0|0:0,0:0:0:0:
260,45,1957,2,0,B|252:70|252:70|270:89,2,52.5000020027161
297,128,2435,5,2,0:0:0:0:
303,130,2595,1,2,0:0:0:0:
374,75,2755,5,2,0:0:0:0:
410,114,2914,2,0,B|429:96|429:96|422:70,2,52.5000020027161
420,62,3393,5,2,0:0:0:0:
362,126,3552,1,2,0:0:0:0:
447,145,3712,1,2,0:0:0:0:
407,230,3872,6,0,B|397:206|397:206|415:185,1,52.5000020027161,2|0,0:0|0:0,0:0:0:0:
462,197,4191,2,0,B|471:220|471:220|453:241,2,52.5000020027161
406,237,4669,6,0,L|350:225,1,52.5000020027161,2|0,0:0|0:0,0:0:0:0:
315,194,4988,5,0,0:0:0:0:
350,231,5147,1,0,0:0:0:0:
303,244,5307,1,0,0:0:0:0:
220,213,5467,6,0,L|212:162,1,52.5000020027161,2|0,0:0|0:0,0:0:0:0:
259,154,5786,2,0,L|268:206,2,52.5000020027161
217,220,6264,5,2,0:0:0:0:
210,218,6424,1,2,0:0:0:0:
175,125,6584,6,0,B|141:118|141:118|119:145,1,70,6|2,1:2|1:2,0:0:0:0:
162,178,6823,1,0,1:0:0:0:
162,178,6903,1,2,1:2:0:0:
80,109,7062,6,0,B|56:134|56:134|69:167,1,70,6|2,1:2|1:2,0:0:0:0:
112,199,7301,1,0,1:0:0:0:
112,199,7381,1,2,1:2:0:0:
18,183,7541,6,0,B|28:215|28:215|63:220,1,70,6|10,1:2|0:0,0:0:0:0:
106,250,7780,5,0,1:0:0:0:
103,277,7859,1,2,1:2:0:0:
100,305,7939,1,0,1:0:0:0:
71,345,8021,6,0,B|79:333|79:333|147:321,1,84,6|0,1:2|0:0,0:0:0:0:
174,361,8340,2,0,B|202:362|202:362|195:334,2,56,8|0|0,0:0|3:0|3:0,0:0:0:0:
236,273,8818,6,0,L|233:300,1,28,2|0,1:2|0:0,0:0:0:0:
282,278,8977,2,0,L|278:305,1,28,8|0,0:0|0:0,0:0:0:0:
364,330,9137,5,0,3:0:0:0:
316,338,9296,1,0,3:0:0:0:
412,322,9456,1,0,3:0:0:0:
322,352,9616,6,0,B|336:257,1,84,10|0,0:0|0:0,0:0:0:0:
353,223,9935,2,0,B|346:196|346:196|330:220,2,56,0|0|8,3:0|3:0|0:0,0:0:0:0:
381,264,10413,5,2,3:2:0:0:
291,248,10573,1,2,3:2:0:0:
239,297,10733,6,0,B|240:284|240:284|251:275,1,28,2|0,1:2|0:0,0:0:0:0:
295,296,10892,2,0,B|294:309|294:309|284:319,1,28,8|0,0:0|0:0,0:0:0:0:
249,270,11052,5,0,3:0:0:0:
247,263,11211,1,0,3:0:0:0:
291,248,11371,5,2,1:2:0:0:
244,345,11530,1,10,0:0:0:0:
198,268,11690,5,10,0:0:0:0:
177,272,11769,1,8,0:0:0:0:
140,305,11850,6,0,B|154:294|154:294|141:230,1,84,6|0,1:2|0:0,0:0:0:0:
95,252,12169,2,0,B|78:282|78:282|101:277,2,56,8|0|0,0:0|3:0|3:0,0:0:0:0:
183,168,12647,6,0,L|176:195,1,28,2|0,1:2|0:0,0:0:0:0:
136,156,12806,2,0,L|129:183,1,28,8|0,0:0|0:0,0:0:0:0:
227,135,12966,5,0,3:0:0:0:
233,183,13125,1,0,3:0:0:0:
221,87,13285,1,0,3:0:0:0:
237,190,13445,6,0,B|254:173|254:173|326:166,1,84,10|0,0:0|0:0,0:0:0:0:
357,148,13764,2,0,B|362:119|362:119|332:126,2,56,0|0|8,3:0|3:0|0:0,0:0:0:0:
288,123,14242,5,2,3:2:0:0:
354,196,14402,1,2,1:2:0:0:
258,260,14562,6,0,B|246:239|246:239|308:224|308:224|306:245,1,105,14|0,0:0|0:0,0:0:0:0:
297,289,14881,1,0,1:0:0:0:
223,295,15040,6,0,P|294:267|358:251,1,140,14|8,0:0|0:0,0:0:0:0:
395,283,15439,1,8,0:0:0:0:
395,283,15519,1,2,1:2:0:0:
439,262,15679,1,0,1:0:0:0:
502,384,15838,6,0,L|514:347,1,35,6|0,1:0|0:0,0:0:0:0:
502,384,18072,1,4,0:3:0:0:
502,384,18391,1,8,0:3:0:0:
502,384,19030,1,4,0:3:0:0:
420,345,20625,5,8,0:0:0:0:
455,317,20705,1,8,0:0:0:0:
488,327,20785,1,8,0:3:0:0:
498,347,20865,1,8,0:3:0:0:
490,366,20944,1,4,0:3:0:0:
480,366,21024,1,4,0:3:0:0:
468,383,21104,6,0,L|489:232,1,146.999995513916,6|0,1:2|0:0,0:0:0:0:
492,243,21742,2,0,L|451:253,1,41.9999987182618,8|0,0:0|0:0,0:0:0:0:
430,299,22061,2,0,L|409:293,2,20.9999993591309,2|2|2,0:0|0:0|1:2,0:0:0:0:
380,250,22380,6,0,B|402:241|402:241|423:161|423:161|450:148,1,125.999996154785,2|0,3:2|1:0,0:0:0:0:
465,198,23018,1,8,0:0:0:0:
503,136,23178,5,2,3:2:0:0:
503,136,23258,1,0,3:0:0:0:
503,136,23338,2,0,L|497:158,1,20.9999993591309,2|0,3:2|0:0,0:0:0:0:
447,148,23497,2,0,L|451:127,1,20.9999993591309,2|0,1:2|0:0,0:0:0:0:
504,67,23657,6,0,B|478:85|478:85|448:78,1,62.9999980773926,2|0,0:0|0:0,0:0:0:0:
446,70,23976,2,0,L|459:8,1,62.9999980773926,2|0,1:2|0:0,0:0:0:0:
466,12,24295,1,10,0:0:0:0:
408,104,24455,6,0,L|343:115,1,62.9999980773926,0|0,3:0|0:0,0:0:0:0:
338,110,24774,2,0,L|380:102,1,41.9999987182618,0|0,1:0|3:0,0:0:0:0:
407,49,25093,5,2,3:2:0:0:
368,22,25252,1,2,0:0:0:0:
320,32,25412,1,2,1:2:0:0:
297,74,25572,1,10,0:0:0:0:
259,105,25731,1,2,0:0:0:0:
194,77,25891,6,0,B|180:60|180:60|192:36,1,41.9999987182618,10|0,0:3|3:0,0:0:0:0:
226,9,26130,5,2,3:2:0:0:
226,9,26210,2,0,L|201:156,1,146.999995513916,6|0,1:2|0:0,0:0:0:0:
209,147,26848,2,0,L|168:140,1,41.9999987182618,8|0,0:0|3:0,0:0:0:0:
108,91,27167,6,0,L|103:70,1,20.9999993591309,2|0,3:2|0:0,0:0:0:0:
61,103,27327,2,0,L|56:82,1,20.9999993591309,2|0,1:2|0:0,0:0:0:0:
157,90,27486,6,0,B|125:101|125:101|118:133|118:133|79:146,1,104.999996795654,2|0,0:0|0:0,0:0:0:0:
86,151,27965,2,0,L|79:192,1,41.9999987182618,2|8,1:2|0:0,0:0:0:0:
66,239,28284,6,0,L|46:230,1,20.9999993591309,2|0,1:2|0:0,0:0:0:0:
73,260,28444,2,0,L|76:286,1,20.9999993591309,2|0,3:2|0:0,0:0:0:0:
88,243,28604,2,0,L|109:227,1,20.9999993591309,2|0,3:2|0:0,0:0:0:0:
140,270,28763,5,2,1:2:0:0:
140,270,28923,1,2,0:0:0:0:
128,276,29082,6,0,L|152:286,1,20.9999993591309,2|0,3:2|0:0,0:0:0:0:
79,192,29242,2,0,L|75:165,1,20.9999993591309,2|0,1:2|0:0,0:0:0:0:
30,276,29401,2,0,L|9:292,1,20.9999993591309,10|0,0:0|0:0,0:0:0:0:
40,279,29561,5,8,0:3:0:0:
73,198,29721,5,2,3:2:0:0:
126,267,29880,5,4,0:3:0:0:
92,312,30040,5,8,0:0:0:0:
92,312,30199,2,0,B|75:325|75:325|84:343,1,41.9999987182618,0|0,1:0|0:0,0:0:0:0:
130,352,30518,2,0,B|146:338|146:338|137:320,1,41.9999987182618,0|0,1:0|0:0,0:0:0:0:
176,378,30838,6,0,L|205:370,1,20.9999993591309,8|8,0:0|0:0,0:0:0:0:
238,307,30997,5,10,0:3:0:0:
252,302,31077,1,10,0:3:0:0:
282,313,31157,1,6,0:3:0:0:
293,356,31236,1,6,0:3:0:0:
346,368,31316,6,0,B|340:348|340:348|193:326|193:326|184:300,1,195.999994018555,6|0,1:2|3:0,0:0:0:0:
183,237,32114,1,0,1:0:0:0:
183,237,32274,2,0,B|172:242|172:242|176:254,1,24.4999992523194,10|0,0:0|0:0,0:0:0:0:
223,270,32433,2,0,B|234:265|234:265|230:253,1,24.4999992523194,2|0,3:2|0:0,0:0:0:0:
138,286,32593,6,0,B|125:276|125:276|61:291,1,73.4999977569581,2|0,0:0|0:0,0:0:0:0:
59,295,32912,2,0,B|67:319|67:319|88:308,2,48.9999985046387,8|0|0,0:0|3:0|1:0,0:0:0:0:
125,359,33391,6,0,L|101:353,1,24.4999992523194,2|0,1:2|0:0,0:0:0:0:
14,356,33550,2,0,L|20:332,1,24.4999992523194,10|0,0:0|0:0,0:0:0:0:
17,245,33710,2,0,L|41:251,1,24.4999992523194,2|0,0:0|0:0,0:0:0:0:
87,239,33869,6,0,L|76:166,1,73.4999977569581,2|0,1:2|0:0,0:0:0:0:
68,162,34189,2,0,L|43:164,1,24.4999992523194,10|0,0:0|0:0,0:0:0:0:
10,198,34348,2,0,L|20:125,1,73.4999977569581,2|0,0:0|0:0,0:0:0:0:
31,117,34667,6,0,L|26:92,1,24.4999992523194,2|0,1:2|0:0,0:0:0:0:
110,23,34827,2,0,L|114:47,1,24.4999992523194,10|0,0:0|0:0,0:0:0:0:
43,47,34986,6,0,B|56:50|56:50|85:91|85:91|96:93,1,73.4999977569581,2|0,3:2|0:0,0:0:0:0:
103,95,35306,5,2,1:2:0:0:
148,112,35465,1,10,0:0:0:0:
191,91,35625,1,2,3:2:0:0:
202,45,35784,1,2,1:2:0:0:
199,42,35864,1,0,3:0:0:0:
198,45,35944,1,2,1:2:0:0:
235,10,36104,1,10,0:0:0:0:
285,25,36263,5,2,3:2:0:0:
278,43,36342,1,8,0:0:0:0:
240,76,36423,6,0,B|249:61|249:61|390:42,1,146.999995513916,6|0,1:2|3:0,0:0:0:0:
424,17,37061,6,0,L|402:5,1,24.4999992523194,2|0,3:2|0:0,0:0:0:0:
412,85,37221,2,0,L|388:92,1,24.4999992523194,2|0,1:2|0:0,0:0:0:0:
451,141,37380,2,0,L|439:162,1,24.4999992523194,10|0,0:0|0:0,0:0:0:0:
464,66,37540,5,2,0:0:0:0:
464,66,37619,1,0,3:0:0:0:
464,66,37699,2,0,L|484:222,1,146.999995513916,0|0,1:0|3:0,0:0:0:0:
451,255,38338,6,0,B|439:250|439:250|436:229,1,24.4999992523194,2|0,3:2|0:0,0:0:0:0:
512,260,38497,2,0,B|513:272|513:272|496:285,1,24.4999992523194,2|0,1:2|0:0,0:0:0:0:
486,205,38657,2,0,B|496:197|496:197|516:205,1,24.4999992523194,10|0,0:0|0:0,0:0:0:0:
465,315,38816,6,0,B|448:309|448:309|398:347|398:347|381:341,1,97.9999970092774,2|2,0:0|0:0,0:0:0:0:
463,368,39295,5,10,0:0:0:0:
463,368,39375,1,8,0:0:0:0:
381,290,39614,5,2,1:2:0:0:
286,353,39854,5,0,1:0:0:0:
286,353,39933,1,2,1:2:0:0:
330,384,40093,6,0,L|335:359,1,24.4999992523194,2|0,0:0|1:0,0:0:0:0:
338,312,40252,2,0,B|323:292|323:292|320:318,1,48.9999985046387,10|10,0:0|0:0,0:0:0:0:
313,311,40492,5,8,0:0:0:0:
293,306,40571,1,10,0:3:0:0:
274,301,40651,1,8,0:3:0:0:
255,297,40731,2,0,L|248:327,1,24.4999992523194,6|0,0:3|3:0,0:0:0:0:
193,374,40891,5,10,0:0:0:0:
205,331,40971,1,8,0:0:0:0:
191,302,41050,1,10,0:3:0:0:
166,300,41130,1,8,0:3:0:0:
155,316,41210,1,6,0:3:0:0:
158,322,41290,1,6,0:3:0:0:
133,362,41369,5,10,0:0:0:0:
115,365,41449,1,10,0:0:0:0:
70,384,41530,6,0,B|93:362|93:362|74:243,1,140,6|0,1:2|0:0,0:0:0:0:
67,251,42008,2,0,B|42:270|42:270|60:289,2,56,2|2|2,1:2|3:2|1:2,0:0:0:0:
164,311,42487,6,0,B|187:293|187:293|157:297,1,56,14|2,0:0|0:0,0:0:0:0:
113,285,42806,2,0,L|98:367,1,84,2|0,3:2|0:0,0:0:0:0:
103,378,43125,2,0,B|115:362|115:362|159:356,1,56,2|2,3:2|3:2,0:0:0:0:
211,291,43444,6,0,L|214:321,1,28,6|0,1:2|0:0,0:0:0:0:
257,287,43604,2,0,L|260:317,1,28,10|0,0:0|0:0,0:0:0:0:
170,250,43764,6,0,B|180:262|180:262|310:283,1,140,2|0,1:2|0:0,0:0:0:0:
314,278,44242,5,2,1:2:0:0:
387,205,44402,2,0,B|402:207|402:207|390:215,1,28,14|0,0:0|0:0,0:0:0:0:
337,195,44561,5,2,3:2:0:0:
350,241,44721,1,2,3:2:0:0:
363,287,44881,1,10,0:3:0:0:
407,261,45040,6,0,L|432:248,1,28,10|0,0:0|0:0,0:0:0:0:
294,224,45200,2,0,L|265:240,1,28,10|0,0:3|0:0,0:0:0:0:
235,284,45359,5,6,1:2:0:0:
234,279,45439,1,0,3:0:0:0:
238,278,45519,1,2,3:2:0:0:
241,278,45599,1,0,3:0:0:0:
242,283,45678,1,10,0:0:0:0:
239,286,45758,1,0,3:0:0:0:
273,320,45838,5,6,1:2:0:0:
268,298,45918,1,0,3:0:0:0:
262,276,45997,1,2,3:2:0:0:
257,254,46077,1,0,3:0:0:0:
251,233,46157,1,2,1:2:0:0:
245,211,46236,1,0,3:0:0:0:
282,177,46317,6,0,B|274:166|274:166|289:89,1,84,14|0,0:1|0:0,0:0:0:0:
296,91,46636,6,0,B|306:101|306:101|302:114,1,28,10|0,0:0|0:0,0:0:0:0:
252,143,46795,2,0,B|242:133|242:133|245:119,1,28,10|0,0:0|0:0,0:0:0:0:
342,140,46955,6,0,B|338:153|338:153|324:156,1,28,10|0,0:0|0:0,0:0:0:0:
206,94,47115,2,0,B|209:80|209:80|223:77,1,28,10|0,0:0|0:0,0:0:0:0:
288,10,47274,5,6,1:0:0:0:
256,3,47354,1,2,3:2:0:0:
241,28,47434,1,10,0:0:0:0:
264,54,47514,1,2,3:2:0:0:
291,39,47593,2,0,B|290:26|290:26|275:13,1,28,6|2,1:0|3:2,0:0:0:0:
194,40,47753,5,2,3:2:0:0:
194,40,47833,1,0,3:0:0:0:
194,40,47912,2,0,B|181:38|181:38|165:51,1,28,2|0,3:2|0:0,0:0:0:0:
118,47,48072,2,0,B|116:59|116:59|129:75,1,28,2|0,1:2|0:0,0:0:0:0:
200,88,48232,5,10,0:0:0:0:
95,137,48391,1,10,0:0:0:0:
116,128,48471,1,8,0:0:0:0:
98,114,48551,1,10,0:0:0:0:
186,191,48710,1,10,0:0:0:0:
169,135,48870,5,8,0:0:0:0:
174,136,48950,1,8,0:0:0:0:
173,141,49030,1,8,0:3:0:0:
168,140,49110,1,8,0:3:0:0:
132,180,49189,6,0,B|136:198|136:198|126:184,1,35,6|0,1:2|0:0,0:0:0:0:
73,184,49349,2,0,B|63:199|63:199|66:183,1,35,2|0,0:0|0:0,0:0:0:0:
28,145,49508,2,0,B|10:148|10:148|23:139,1,35,10|0,0:0|0:0,0:0:0:0:
113,129,49668,6,0,B|118:158|118:158|75:159|75:159|46:129|46:129|70:108,1,140,6|2,1:0|1:2,0:0:0:0:
65,112,50067,1,0,1:0:0:0:
23,139,50147,6,0,B|10:148|10:148|28:145,1,35,6|0,1:2|0:0,0:0:0:0:
66,183,50306,2,0,B|63:199|63:199|73:184,1,35,10|0,0:0|0:0,0:0:0:0:
126,184,50466,2,0,B|136:198|136:198|132:180,1,35,10|0,0:0|0:0,0:0:0:0:
5,197,50625,6,0,B|10:173|10:173|56:214|56:214|119:218|119:218|98:241,1,175,6|0,1:0|1:0,0:0:0:0:
61,263,51104,6,0,B|66:280|66:280|83:280,1,35,10|0,0:0|0:0,0:0:0:0:
168,328,51264,2,0,B|180:315|180:315|172:299,1,35,10|0,0:0|0:0,0:0:0:0:
96,327,51423,6,0,B|113:331|113:331|122:316,1,35,10|0,0:0|0:0,0:0:0:0:
205,265,51583,2,0,B|200:248|200:248|182:247,1,35,10|0,0:0|0:0,0:0:0:0:
135,269,51742,5,10,0:0:0:0:
275,301,51902,1,2,1:2:0:0:
275,301,51981,1,0,1:0:0:0:
243,340,52061,6,0,B|225:332|225:332|226:315,1,35,2|0,1:2|1:0,0:0:0:0:
323,307,52221,2,0,B|325:325|325:325|310:333,1,35,2|0,1:2|1:0,0:0:0:0:
254,254,52380,2,0,B|268:242|268:242|283:251,1,35,10|8,0:3|0:3,0:0:0:0:
375,311,52540,5,10,0:3:0:0:
402,303,52619,1,8,0:3:0:0:
429,296,52699,1,4,0:3:0:0:
456,289,52779,1,4,0:3:0:0:
500,319,52859,6,0,L|506:285,1,35,6|4,0:3|0:3,0:0:0:0:
408,183,53019,6,0,B|392:190|392:190|404:177,1,35,6|0,1:2|0:0,0:0:0:0:
438,229,53178,2,0,B|431:245|431:245|431:227,1,35,2|0,0:0|0:0,0:0:0:0:
486,198,53338,2,0,B|492:214|492:214|480:201,1,35,10|0,0:0|0:0,0:0:0:0:
456,149,53498,6,0,B|418:172|418:172|441:209|441:209|479:186|479:186|464:161,1,140,6|2,1:0|1:2,0:0:0:0:
475,180,53897,1,0,1:0:0:0:
431,227,53976,6,0,B|431:245|431:245|438:229,1,35,6|0,1:2|0:0,0:0:0:0:
480,201,54136,2,0,B|492:214|492:214|486:198,1,35,10|0,0:0|0:0,0:0:0:0:
404,177,54296,2,0,B|392:190|392:190|408:183,1,35,10|0,0:0|0:0,0:0:0:0:
488,243,54455,6,0,B|492:233|492:233|424:270|424:270|381:207|381:207|381:227,1,175,6|0,1:0|0:0,0:0:0:0:
360,260,54934,6,0,L|318:268,1,35,10|0,0:0|0:0,0:0:0:0:
249,195,55093,2,0,L|214:201,1,35,2|0,3:2|0:0,0:0:0:0:
291,232,55253,5,2,1:2:0:0:
293,226,55333,1,0,1:0:0:0:
287,224,55412,1,2,1:2:0:0:
285,230,55492,1,0,0:0:0:0:
268,278,55572,6,0,B|250:275|250:275|246:258,1,35,10|0,0:0|1:0,0:0:0:0:
313,180,55732,2,0,B|330:182|330:182|334:199,1,35,2|0,1:2|1:0,0:0:0:0:
272,118,55891,5,2,1:2:0:0:
273,107,55971,1,0,1:0:0:0:
257,121,56051,5,2,1:2:0:0:
264,127,56131,1,0,1:0:0:0:
260,107,56210,5,10,0:3:0:0:
250,109,56290,1,8,0:3:0:0:
207,152,56370,5,6,0:3:0:0:
234,146,56449,1,4,0:3:0:0:
261,141,56529,1,4,0:3:0:0:
289,135,56609,1,4,0:3:0:0:
333,116,56689,6,0,B|350:122|350:122|337:133,1,35,6|0,1:0|0:0,0:0:0:0:
90,48,58125,6,2,B|103:23|103:23|52:31|52:31|41:79|41:79|96:112|96:112|136:70,1,245,6|0,1:2|0:0,0:1:0:0:
160,22,58763,2,0,B|148:19|148:19|152:32|152:32|160:24,1,35,2|0,3:2|0:0,0:0:0:0:
3,106,58923,6,0,P|101:71|204:48,1,210,0|2,1:0|0:0,0:0:0:0:
271,23,59561,5,0,1:0:0:0:
271,23,59641,1,0,3:0:0:0:
271,23,59721,2,0,B|239:30|239:30|225:64|225:64|246:92,1,105,10|0,0:0|0:0,0:0:0:0:
290,68,60040,5,2,1:2:0:0:
294,89,60120,1,0,1:0:0:0:
297,110,60200,1,0,1:0:0:0:
301,131,60279,1,0,1:0:0:0:
254,160,60359,6,0,B|244:164|244:164|237:148|237:148|253:141|253:141|260:156,1,62.9999980773926,10|0,0:0|1:0,0:0:0:0:
272,229,60678,6,2,B|248:204|248:204|283:124|283:124|341:188|341:188|324:221,1,245,2|0,1:2|0:0,0:1:0:0:
306,283,61317,2,0,B|306:264|306:264|298:282,1,35,2|0,3:2|0:0,0:0:0:0:
202,237,61476,6,0,P|296:239|378:250,1,175,0|0,1:0|0:0,0:0:0:0:
423,248,61955,2,0,B|429:243|429:243|451:260|451:260|428:270|428:270|421:265,1,70,2|0,3:2|1:0,0:0:0:0:
501,172,62274,6,0,B|461:154|461:154|441:194|441:194|455:202,1,105,10|0,0:0|0:0,0:0:0:0:
501,222,62593,5,2,1:2:0:0:
503,243,62672,1,0,1:0:0:0:
506,264,62752,1,0,1:0:0:0:
509,285,62832,1,0,1:0:0:0:
480,324,62912,6,0,B|476:335|476:335|452:309|452:309|470:303,1,62.9999980773926,14|8,0:1|0:0,0:0:0:0:
511,374,63231,6,0,B|493:351|493:351|418:341,1,105,2|0,1:2|1:0,0:0:0:0:
411,346,63551,1,12,0:1:0:0:
350,279,63710,2,0,B|349:261|349:261|341:280,1,35,2|0,0:0|0:0,0:0:0:0:
316,368,63870,6,0,B|287:356|287:356|275:314|275:314|292:290,1,105,2|0,3:2|0:0,0:0:0:0:
340,287,64189,2,0,B|367:311|367:311|356:342,1,70,2|12,0:0|0:1,0:0:0:0:
287,280,64508,6,0,B|268:295|268:295|188:280,1,105,2|0,3:2|0:0,0:0:0:0:
184,271,64827,1,12,0:1:0:0:
156,359,64987,2,0,B|161:376|161:376|147:361,1,35,2|0,0:0|0:0,0:0:0:0:
82,276,65146,6,0,B|59:324|59:324|98:357,1,105,2|0,1:2|0:0,0:0:0:0:
147,355,65466,2,0,L|128:240,1,105,10|0,0:0|0:0,0:0:0:0:
104,201,65785,5,2,1:2:0:0:
104,207,65864,1,0,3:0:0:0:
108,204,65944,1,0,3:0:0:0:
100,204,66024,1,0,1:0:0:0:
45,184,66104,6,0,B|52:234|52:234|99:208,1,105,12|0,0:1|0:0,0:0:0:0:
91,154,66423,1,2,3:2:0:0:
158,207,66583,6,0,B|164:192|164:192|201:188|201:188|184:218|184:218|165:220,1,105,0|0,1:0|1:0,0:0:0:0:
157,219,66902,1,8,0:0:0:0:
154,143,67061,6,0,B|140:134|140:134|130:64,1,70,2|0,1:2|3:0,0:0:0:0:
141,73,67301,1,0,1:0:0:0:
106,35,67380,6,0,B|118:53|118:53|200:66,1,105,14|0,0:1|0:0,0:0:0:0:
242,42,67700,5,10,0:3:0:0:
211,75,67779,1,8,0:3:0:0:
235,115,67859,1,8,0:3:0:0:
281,102,67939,1,8,0:3:0:0:
290,57,68019,5,6,0:3:0:0:
286,58,68099,1,4,0:3:0:0:
285,54,68179,1,4,0:3:0:0:
288,54,68259,1,4,0:3:0:0:
327,113,68338,6,2,B|299:92|299:92|311:64|311:64|379:76|379:76|379:133|379:133|352:162|352:162|335:159,1,245,6|0,1:2|0:0,0:1:0:0:
283,157,68976,2,0,B|278:148|278:148|286:143|286:143|291:152|291:152|283:157,1,35,2|0,3:2|0:0,0:0:0:0:
439,113,69136,6,0,P|338:140|244:191,1,210,0|2,1:0|3:2,0:0:0:0:
261,248,69774,5,0,1:0:0:0:
197,171,69934,2,0,B|220:178|220:178|241:235|241:235|264:242,1,105,10|0,0:0|0:0,0:0:0:0:
306,213,70253,5,2,1:2:0:0:
309,217,70333,1,0,3:0:0:0:
311,213,70412,1,0,3:0:0:0:
305,218,70492,1,0,1:0:0:0:
327,262,70572,6,0,B|312:234|312:234|313:266,1,62.9999980773926,10|8,0:0|0:0,0:0:0:0:
370,315,70891,6,2,B|345:308|345:308|345:272|345:272|386:259,1,105,2|0,1:2|1:0,0:1:0:0:
428,286,71210,2,0,B|416:302|416:302|417:316,1,35,8|0,0:0|0:0,0:0:0:0:
377,377,71370,6,2,P|397:292|395:205,1,175,2|0,0:0|0:0,0:1:0:0:
383,156,71849,2,0,B|383:147|383:147|363:132|363:132|359:160|359:160|367:162,1,70,2|8,0:0|0:0,0:0:0:0:
511,191,72168,6,0,B|525:165|525:165|513:123|513:123|481:109,1,105,2|0,3:2|0:0,0:0:0:0:
444,139,72487,2,0,B|433:174|433:174|461:191,1,70,10|0,0:0|3:0,0:0:0:0:
475,106,72806,6,0,B|452:117|452:117|358:92,1,105,2|0,1:2|1:0,0:0:0:0:
337,67,73125,2,0,B|302:65|302:65|331:88,1,70,10|0,0:0|1:0,0:0:0:0:
327,93,73364,1,0,1:0:0:0:
346,136,73444,6,0,L|373:31,1,105,6|0,1:2|0:0,0:0:0:0:
366,25,73763,1,8,0:0:0:0:
279,108,73923,6,2,B|218:128|218:128|224:91|224:91|202:46|202:46|260:59,2,210,2|2|0,0:0|0:0|1:0,0:1:0:0:
292,21,75040,2,0,B|316:21|316:21|306:77,1,70,8|0,0:0|0:0,0:0:0:0:
270,161,75359,6,0,B|267:184|267:184|288:209|288:209|293:184,1,70,0|0,1:0|3:0,0:0:0:0:
320,158,75599,1,0,1:0:0:0:
320,158,75678,2,0,L|206:189,1,105,8|0,0:0|3:0,0:0:0:0:
165,213,75997,5,2,1:2:0:0:
168,192,76076,1,0,1:0:0:0:
171,171,76156,1,0,1:0:0:0:
174,150,76236,1,0,1:0:0:0:
220,130,76317,6,0,B|232:123|232:123|233:101|233:101|214:114|214:114|216:127,1,70,10|2,0:0|3:2,0:0:0:0:
108,92,76636,5,2,1:2:0:0:
111,113,76716,1,0,1:0:0:0:
114,134,76796,1,2,1:2:0:0:
117,155,76875,1,0,1:0:0:0:
114,203,76955,6,0,B|97:207|97:207|86:193,1,35,10|0,0:0|0:0,0:0:0:0:
44,168,77114,2,0,B|49:151|49:151|66:148,1,35,10|8,0:0|0:0,0:0:0:0:
161,101,77274,5,2,1:2:0:0:
180,93,77354,1,0,1:0:0:0:
192,76,77434,1,2,1:2:0:0:
191,55,77513,1,0,1:0:0:0:
147,20,77593,6,0,L|140:54,1,35,10|0,0:0|0:0,0:0:0:0:
100,10,77753,2,0,L|93:44,1,35,2|0,1:2|1:0,0:0:0:0:
9,45,77912,5,10,0:3:0:0:
50,23,77991,1,8,0:3:0:0:
84,53,78071,1,8,0:3:0:0:
62,96,78151,1,8,0:3:0:0:
16,95,78231,5,4,0:3:0:0:
17,91,78311,1,4,0:3:0:0:
14,90,78391,1,4,0:3:0:0:
12,93,78471,1,4,0:3:0:0:
61,109,78551,6,0,B|55:126|55:126|68:177,2,62.9999980773926,6|2|2,1:2|0:0|1:2,0:0:0:0:
77,176,79029,2,0,B|89:160|89:160|174:138,1,94.499997116089,2|0,1:2|0:0,0:0:0:0:
157,145,79349,5,2,1:2:0:0:
108,132,79508,1,2,0:0:0:0:
143,95,79668,1,2,1:2:0:0:
145,199,79827,6,0,B|136:211|136:211|120:204,1,31.4999990386963,2|0,0:0|0:0,0:0:0:0:
93,243,79987,2,0,B|78:241|78:241|76:224,1,31.4999990386963,2|0,1:2|0:0,0:0:0:0:
140,259,80146,6,0,L|129:353,1,94.499997116089,2|0,1:2|0:0,0:0:0:0:
84,377,80466,2,0,B|58:360|58:360|79:332,2,62.9999980773926,6|2|2,1:0|0:0|1:2,0:0:0:0:
85,333,80944,1,2,1:2:0:0:
185,295,81104,5,2,0:0:0:0:
232,304,81263,1,2,1:2:0:0:
279,313,81423,1,2,0:0:0:0:
344,288,81583,6,0,B|354:275|354:275|340:279,1,31.4999990386963,2|0,1:2|0:0,0:0:0:0:
329,295,81742,2,0,B|335:310|335:310|338:296,1,31.4999990386963,6|0,1:0|0:0,0:0:0:0:
330,278,81902,2,0,B|313:275|313:275|324:285,1,31.4999990386963,2|0,0:0|0:0,0:0:0:0:
355,354,82061,5,2,1:2:0:0:
386,316,82221,1,2,0:0:0:0:
402,362,82380,1,2,1:2:0:0:
440,245,82540,6,0,B|448:263|448:263|433:316,2,62.9999980773926,2|2|2,1:2|0:0|1:2,0:0:0:0:
441,316,83019,6,0,B|457:322|457:322|467:312,1,31.4999990386963,14|0,0:1|0:0,0:0:0:0:
511,293,83178,2,0,B|508:276|508:276|494:271,1,31.4999990386963,2|0,0:0|0:0,0:0:0:0:
394,268,83338,6,0,B|382:255|382:255|388:241,1,31.4999990386963,2|0,1:2|0:0,0:0:0:0:
390,193,83497,2,0,B|406:189|406:189|415:201,1,31.4999990386963,2|0,0:0|0:0,0:0:0:0:
488,217,83657,5,6,1:2:0:0:
488,217,83737,1,0,3:0:0:0:
491,210,83817,5,2,3:2:0:0:
488,205,83897,1,0,3:0:0:0:
481,207,83976,1,2,1:2:0:0:
481,214,84056,1,0,3:0:0:0:
451,166,84136,6,0,B|460:157|460:157|451:107,1,62.9999980773926,2|14,1:2|0:1,0:0:0:0:
490,1,84455,6,0,B|475:-1|475:-1|466:11,1,31.4999990386963,2|0,1:2|0:0,0:0:0:0:
492,78,84614,2,0,B|503:66|503:66|497:52,1,31.4999990386963,2|0,0:0|0:0,0:0:0:0:
426,41,84774,2,0,B|431:56|431:56|447:58,1,31.4999990386963,2|0,1:2|0:0,0:0:0:0:
400,98,84934,5,2,1:2:0:0:
363,72,85013,1,2,3:2:0:0:
331,75,85093,1,2,3:2:0:0:
315,85,85173,1,2,3:2:0:0:
305,130,85253,5,2,1:2:0:0:
307,135,85333,1,0,3:0:0:0:
303,134,85412,1,2,3:2:0:0:
309,132,85492,1,0,3:0:0:0:
363,137,85572,6,0,B|348:119|348:119|235:105,1,125.999996154785,14|0,0:1|3:0,0:0:0:0:
148,20,86051,6,0,L|187:16,1,31.4999990386963,0|0,1:0|0:0,0:0:0:0:
222,38,86210,5,6,3:1:0:0:
202,58,86290,1,2,3:2:0:0:
206,74,86370,1,10,0:0:0:0:
199,82,86450,1,2,3:2:0:0:
172,122,86529,5,6,1:0:0:0:
199,137,86609,1,2,3:2:0:0:
204,158,86689,1,2,1:2:0:0:
217,163,86769,1,2,3:2:0:0:
264,155,86849,5,14,0:1:0:0:
276,183,86928,1,2,3:2:0:0:
262,200,87008,1,2,1:2:0:0:
267,211,87088,1,2,3:2:0:0:
300,244,87168,5,6,3:1:0:0:
273,262,87247,1,2,3:2:0:0:
273,282,87327,1,2,1:2:0:0:
262,289,87407,1,2,3:2:0:0:
270,350,87487,6,0,B|262:339|262:339|214:332,1,62.9999980773926,10|2,0:0|0:0,0:0:0:0:
175,360,87726,1,10,0:0:0:0:
175,360,87806,2,0,B|152:337|152:337|169:311,1,62.9999980773926,2|2,1:2|1:0,0:0:0:0:
163,227,88125,5,10,0:3:0:0:
139,265,88204,1,8,0:3:0:0:
169,301,88284,1,10,0:3:0:0:
212,280,88364,1,8,0:3:0:0:
213,234,88444,5,6,0:3:0:0:
210,235,88524,1,4,0:3:0:0:
208,232,88604,1,6,0:3:0:0:
211,231,88684,1,4,0:3:0:0:
291,244,88763,6,2,P|195:262|46:310,1,238.00000453949,6|12,1:2|0:1,0:1:0:0:
17,213,89561,6,0,L|9:241,1,29.7500005674362,2|0,1:2|0:0,0:0:0:0:
62,226,89720,2,0,L|54:254,1,29.7500005674362,0|0,3:0|0:0,0:0:0:0:
151,185,89880,5,0,3:0:0:0:
104,192,90039,1,4,3:1:0:0:
197,177,90199,1,0,3:0:0:0:
45,172,90359,6,2,P|162:193|277:222,1,238.00000453949,2|0,1:2|3:0,0:1:0:0:
357,189,91156,5,2,3:2:0:0:
326,227,91316,1,6,3:1:0:0:
341,301,91476,6,0,B|348:287|348:287|345:274,1,29.7500005674362,2|0,1:2|0:0,0:0:0:0:
296,265,91635,2,0,B|289:278|289:278|293:292,1,29.7500005674362,0|0,3:0|0:0,0:0:0:0:
349,270,91795,5,0,3:0:0:0:
352,265,91954,1,12,0:1:0:0:
326,227,92114,5,2,1:2:0:0:
308,340,92273,1,2,3:2:0:0:
391,316,92433,5,10,0:0:0:0:
414,320,92513,1,8,0:0:0:0:
450,355,92593,6,2,P|399:247|372:131,1,238.00000453949,6|8,1:2|0:0,0:1:0:0:
425,29,93391,6,0,L|431:0,1,29.7500005674362,2|0,1:2|0:0,0:0:0:0:
470,39,93550,2,0,L|476:10,1,29.7500005674362,0|0,3:0|0:0,0:0:0:0:
386,83,93710,5,0,3:0:0:0:
337,90,93869,1,4,3:1:0:0:
435,76,94029,1,0,3:0:0:0:
333,105,94189,6,0,B|325:91|325:91|247:74,1,89.2500017023087,2|0,1:2|0:0,0:0:0:0:
207,77,94508,2,0,B|186:52|186:52|215:49,2,59.5000011348725,12|0|0,0:1|3:0|3:0,0:0:0:0:
254,25,94986,5,2,3:2:0:0:
229,120,95146,1,2,3:2:0:0:
139,52,95306,6,0,B|105:93|105:93|140:136,1,105,6|0,1:2|0:0,0:0:0:0:
184,147,95625,1,8,0:0:0:0:
78,140,95784,6,0,B|96:189|96:189|151:181,1,105,6|0,1:2|0:0,0:0:0:0:
184,147,96103,1,8,0:0:0:0:
172,93,96263,6,0,L|154:232,1,140,6|0,1:2|1:0,0:0:0:0:
84,354,96742,6,0,B|92:330|92:330|75:311,1,52.5000020027161,6|0,1:2|1:0,0:0:0:0:
28,322,97061,2,0,B|21:347|21:347|39:367,2,52.5000020027161
92,363,97540,6,0,L|148:351,1,52.5000020027161,2|0,0:0|0:0,0:0:0:0:
192,377,97859,5,0,0:0:0:0:
148,356,98018,1,0,0:0:0:0:
188,328,98178,1,0,0:0:0:0:
284,353,98338,6,0,L|292:301,1,52.5000020027161,2|0,0:0|0:0,0:0:0:0:
245,295,98657,2,0,L|237:347,2,52.5000020027161
290,363,99135,5,2,0:0:0:0:
297,362,99295,1,2,0:0:0:0:
355,312,99455,5,2,0:0:0:0:
395,345,99614,2,0,B|414:325|414:325|406:300,2,52.5000020027161
402,297,100093,5,2,0:0:0:0:
346,360,100252,1,2,0:0:0:0:
432,379,100412,1,2,0:0:0:0:
455,250,100572,6,0,L|461:302,1,52.5000020027161,2|0,0:0|0:0,0:0:0:0:
509,297,100891,2,0,L|502:244,2,52.5000020027161
450,240,101370,6,0,L|394:231,1,52.5000020027161,2|0,0:0|0:0,0:0:0:0:
350,251,101689,5,0,0:0:0:0:
390,223,101848,1,0,0:0:0:0:
345,201,102008,1,0,0:0:0:0:
237,241,102168,6,0,B|228:217|228:217|246:197,1,52.5000020027161,2|0,0:0|0:0,0:0:0:0:
294,211,102487,2,0,B|301:235|301:235|283:255,2,52.5000020027161
256,293,102965,5,2,0:0:0:0:
251,289,103125,1,2,0:0:0:0:
195,214,103285,5,2,0:0:0:0:
118,265,103444,1,2,0:0:0:0:
202,305,103604,1,2,0:0:0:0:
130,275,103763,5,2,0:0:0:0:
205,289,103923,1,2,0:0:0:0:
179,219,104082,1,2,0:0:0:0:
196,273,104242,5,2,0:0:0:0:
169,233,104402,1,2,0:0:0:0:
148,277,104561,1,2,0:0:0:0:
