osu file format v14

[General]
AudioFilename: audio.mp3
AudioLeadIn: 0
PreviewTime: 56769
Countdown: 0
SampleSet: Soft
StackLeniency: 0.4
Mode: 0
LetterboxInBreaks: 0
WidescreenStoryboard: 1

[Editor]
Bookmarks: 52540
DistanceSpacing: 0.3
BeatDivisor: 4
GridSize: 32
TimelineZoom: 1.6

[Metadata]
Title:Frostbite (Cut Ver.)
TitleUnicode:Frostbite (Cut Ver.)
Artist:Masahiro "Godspeed" Aoki
ArtistUnicode:征洋 “Godspeed” 青木
Creator:Niva
Version:Insane
Source:
Tags:osu! featured artist fa mappers' guild mpg monthly beatmapping contest mbc vivix veiled kuyusu rock metal instrumental
BeatmapID:3169427
BeatmapSetID:1501511

[Difficulty]
HPDrainRate:5
CircleSize:4.5
OverallDifficulty:7
ApproachRate:8
SliderMultiplier:1.4
SliderTickRate:1

[Events]
//Background and Video events
0,0,"bgDarkerPurple.jpg",0,0
//Break Periods
//Storyboard Layer 0 (Background)
Sprite,Background,Centre,"bgDarkerPurple.jpg",320,240 F,0,0,107070,1 S,0,0,107070,0.445
Sprite,Background,Centre,"bgDarkerPurpleDesaturated.jpg",320,240 F,0,0,6584,1 S,0,0,6903,0.445 F,0,6584,6903,1,0
Sprite,Background,Centre,"bgDarkerPurpleDesaturated.jpg",320,240 F,0,15838,16157,0,1 S,0,15838,21423,0.445 F,0,16157,21104,1 F,0,21104,21423,1,0
Sprite,Background,Centre,"bgDarkerPurpleDesaturated.jpg",320,240 F,0,56849,57168,0,1 S,0,56849,58125,0.445 F,0,57168,58125,1
Sprite,Background,Centre,"bgChorus.jpg",320,240 F,0,58125,58444,0,1 S,0,58125,89083,0.445 F,0,58444,88723,1 F,0,88723,89093,1,0
Sprite,Background,Centre,"bgDarkerPurpleDesaturated.jpg",320,240 F,0,96742,97061,0,1 S,0,96742,107070,0.445 F,0,97061,107070,1
Sprite,Background,Centre,"black.jpg",320,240 F,1,103285,103763,0,0.33 S,0,103285,107070,22.22 F,1,103763,104242,0.33,0.66 F,1,104242,104561,0.66,1 F,0,104561,107070,1
//Storyboard Layer 1 (Fail)
//Storyboard Layer 2 (Pass)
//Storyboard Layer 3 (Foreground)
Sprite,Foreground,Centre,"black.jpg",320,240 F,0,0,681,1,0 S,0,0,681,22.22
//Storyboard Layer 4 (Overlay)
//Storyboard Sound Samples

[TimingPoints]
43,319.148936170213,5,2,7,60,1,0
43,-181.818181818182,5,2,7,60,0,0
202,-181.818181818182,5,2,77,60,0,0
840,319.148936170213,5,2,7,60,1,0
840,-142.857142857143,5,2,7,60,0,0
859,-142.857142857143,5,2,77,60,0,0
1159,-142.857142857143,5,2,77,60,0,0
1638,319.148936170213,4,2,7,60,1,0
1638,-142.857142857143,4,2,7,60,0,0
1797,-142.857142857143,4,2,77,60,0,0
2755,319.148936170213,4,2,7,60,1,0
2755,-142.857142857143,4,2,7,60,0,0
2774,-142.857142857143,4,2,77,60,0,0
3074,-142.857142857143,4,2,77,60,0,0
3393,-142.857142857143,4,2,77,60,0,0
3872,319.148936170213,5,2,7,60,1,0
3872,-181.818181818182,5,2,7,60,0,0
3891,-181.818181818182,5,2,77,60,0,0
4669,319.148936170213,5,2,7,60,1,0
4669,-142.857142857143,5,2,7,60,0,0
4688,-142.857142857143,5,2,77,60,0,0
5467,319.148936170213,4,2,7,60,1,0
5467,-142.857142857143,4,2,7,60,0,0
5626,-142.857142857143,4,2,77,60,0,0
6584,319.148936170213,5,2,77,90,1,0
7062,-100,5,2,77,90,0,0
8021,319.148936170213,5,2,77,80,1,0
8021,-117.647058823529,5,2,77,80,0,0
8818,319.148936170213,5,2,77,80,1,0
8818,-117.647058823529,5,2,77,80,0,0
9616,319.148936170213,4,2,77,80,1,0
9616,-117.647058823529,4,2,77,80,0,0
10733,319.148936170213,4,2,77,80,1,0
10733,-117.647058823529,4,2,77,80,0,0
11850,319.148936170213,5,2,77,80,1,0
11850,-117.647058823529,5,2,77,80,0,0
12647,319.148936170213,5,2,77,80,1,0
12647,-117.647058823529,5,2,77,80,0,0
13445,319.148936170213,4,2,77,80,1,0
13445,-117.647058823529,4,2,77,80,0,0
14562,319.148936170213,4,2,77,80,1,0
14562,-100,4,2,77,80,0,0
15519,-100,4,2,77,80,0,0
15838,-200,4,2,77,80,0,0
15858,-200,4,2,77,60,0,0
18072,-200,4,2,77,70,0,0
18092,-200,4,2,77,60,0,0
18391,-200,4,2,77,70,0,0
18411,-200,4,2,77,60,0,0
19030,-200,4,2,77,70,0,0
19050,-200,4,2,77,60,0,0
20645,-200,4,2,77,80,0,0
21104,319.148936170213,4,2,77,80,1,0
21104,-117.647058823529,4,2,77,80,0,0
21123,-117.647058823529,4,2,77,70,0,0
26210,-117.647058823529,4,2,77,70,0,0
28763,-133.333333333333,4,2,77,80,0,0
29242,-117.647058823529,4,2,77,70,0,0
29721,-105.263157894737,4,2,77,70,0,0
30199,-142.857142857143,4,2,77,70,0,0
31316,-117.647058823529,4,2,77,80,0,0
41530,319.148936170213,3,2,77,80,1,0
41530,-117.647058823529,3,2,77,80,0,0
41549,-117.647058823529,3,2,77,80,0,0
45678,-117.647058823529,3,2,77,80,0,0
45998,-166.666666666667,3,2,77,80,0,0
46317,-144.927536231884,3,2,77,80,0,0
46636,-128.205128205128,3,2,77,80,0,0
46955,-112.359550561798,3,2,77,80,0,0
47274,-117.647058823529,3,2,77,80,0,0
47593,-111.111111111111,3,2,77,80,0,0
47753,-117.647058823529,3,2,77,80,0,0
47912,-142.857142857143,3,2,77,80,0,0
48072,-117.647058823529,3,2,77,80,0,0
48232,-117.647058823529,3,2,77,80,0,0
48710,-117.647058823529,3,2,77,80,0,0
49189,-117.647058823529,3,2,77,80,0,0
49668,-117.647058823529,3,2,77,80,0,0
50944,-117.647058823529,3,2,77,80,0,0
51104,-117.647058823529,3,2,77,80,0,0
51423,-166.666666666667,3,2,77,80,0,0
51742,-117.647058823529,3,2,77,80,0,0
52061,-100,3,2,77,80,0,0
52540,-117.647058823529,3,2,77,80,0,0
53498,-117.647058823529,3,2,77,80,0,0
54774,-117.647058823529,3,2,77,80,0,0
55253,-166.666666666667,3,2,77,80,0,0
55572,-117.647058823529,3,2,77,80,0,0
55891,-100,3,2,77,80,0,0
56210,-117.647058823529,3,2,77,80,0,0
56370,-117.647058823529,3,2,77,80,0,0
56849,319.148936170213,4,2,77,60,1,0
56849,-222.222222222222,4,2,77,60,0,0
58125,-111.111111111111,4,2,78,90,0,1
58205,-111.111111111111,4,2,77,90,0,1
59162,-111.111111111111,4,2,77,5,0,1
59242,-111.111111111111,4,2,77,90,0,1
66902,-111.111111111111,4,2,77,90,0,1
68019,-111.111111111111,4,2,77,90,0,0
68338,-111.111111111111,4,2,77,90,0,1
68418,-111.111111111111,4,2,77,90,0,1
69375,-111.111111111111,4,2,77,5,0,1
69455,-111.111111111111,4,2,77,90,0,1
71609,-111.111111111111,4,2,77,5,0,1
71689,-111.111111111111,4,2,77,90,0,1
71849,-111.111111111111,4,2,77,90,0,1
72168,-125,4,2,77,90,0,1
72487,-142.857142857143,4,2,77,90,0,1
73444,-117.647058823529,4,2,77,90,0,1
73923,-125,4,2,77,90,0,1
73943,-111.111111111111,4,2,78,70,0,1
75040,-111.111111111111,4,2,77,70,0,1
75200,-111.111111111111,4,2,78,90,0,1
75359,-117.647058823529,4,2,77,90,0,1
76955,-129.87012987013,4,2,77,90,0,1
77274,-142.857142857143,4,2,77,90,0,1
77593,-153.846153846154,4,2,77,90,0,1
77912,-117.647058823529,4,2,77,90,0,1
78231,-111.111111111111,4,2,77,90,0,0
78551,-111.111111111111,4,2,77,90,0,1
78870,-120.481927710843,4,2,77,90,0,1
79269,-120.481927710843,4,2,77,90,0,0
79349,-111.111111111111,4,2,77,90,0,1
79827,-120.481927710843,4,2,77,90,0,1
80067,-120.481927710843,4,2,77,90,0,0
80146,-111.111111111111,4,2,77,90,0,1
80466,-111.111111111111,4,2,77,90,0,1
81024,-111.111111111111,4,2,77,5,0,1
81104,-117.647058823529,4,2,77,90,0,1
81583,-111.111111111111,4,2,77,90,0,1
82061,-111.111111111111,4,2,77,90,0,1
82221,-105.263157894737,4,2,77,90,0,1
82540,-105.263157894737,4,2,77,90,0,1
86130,-111.111111111111,4,2,77,5,0,1
86210,-100,4,2,77,90,0,1
87806,-100,4,2,77,90,0,1
88763,-111.111111111111,4,2,77,90,0,0
88843,-111.111111111111,4,2,77,80,0,0
89561,319.148936170213,4,2,77,80,1,0
90039,-100,4,2,77,50,0,0
90359,319.148936170213,4,2,77,80,1,0
90359,-153.846153846154,4,2,77,80,0,0
91476,319.148936170213,4,2,77,80,1,0
92593,319.148936170213,4,2,77,80,1,0
92593,-117.647058823529,4,2,77,80,0,0
93391,319.148936170213,4,2,77,80,1,0
93391,-117.647058823529,4,2,77,80,0,0
94189,319.148936170213,4,2,77,80,1,0
94189,-117.647058823529,4,2,77,80,0,0
95306,319.148936170213,5,2,77,80,1,0
95306,-100,5,2,77,80,0,0
96742,319.148936170213,4,2,77,80,1,0
96742,-181.818181818182,4,2,77,80,0,0
96821,-181.818181818182,4,2,77,60,0,0
97540,319.148936170213,4,2,7,60,1,0
97540,-142.857142857143,4,2,7,60,0,0
97559,-142.857142857143,4,2,77,60,0,0
98338,319.148936170213,4,2,7,60,1,0
98338,-142.857142857143,4,2,7,60,0,0
98357,-142.857142857143,4,2,77,60,0,0
99455,319.148936170213,4,2,7,60,1,0
99455,-142.857142857143,4,2,7,60,0,0
99474,-142.857142857143,4,2,77,60,0,0
99774,-142.857142857143,4,2,77,60,0,0
100093,-142.857142857143,4,2,77,60,0,0
100572,319.148936170213,4,2,7,60,1,0
100572,-181.818181818182,4,2,7,60,0,0
100591,-181.818181818182,4,2,77,60,0,0
101370,319.148936170213,4,2,7,60,1,0
101370,-142.857142857143,4,2,7,60,0,0
101389,-142.857142857143,4,2,77,60,0,0
102168,319.148936170213,4,2,7,60,1,0
102168,-142.857142857143,4,2,7,60,0,0
102187,-142.857142857143,4,2,77,60,0,0
103285,319.148936170213,5,2,77,60,1,0
103285,-133.333333333333,5,2,77,60,0,0
103763,-133.333333333333,5,2,77,65,0,0
104242,-133.333333333333,5,2,77,70,0,0

[Colours]
Combo1 : 112,0,179
Combo2 : 17,254,176
Combo3 : 255,94,55
Combo4 : 173,255,95
Combo5 : 255,88,100
Combo6 : 223,254,255
Combo7 : 166,249,255
Combo8 : 206,126,254

[HitObjects]
62,53,43,70,0,L|70:12,1,38.5000011749268,0|0,0:2|0:0,0:0:0:0:
135,67,362,2,0,L|143:26,2,38.5000011749268,2|0|2,0:0|0:0|0:0,0:0:0:0:
115,176,840,6,0,P|152:150|202:156,1,97.9999970092774,0|2,0:0|0:0,0:0:0:0:
256,101,1318,1,0,0:0:0:0:
252,79,1478,1,2,0:0:0:0:
338,156,1638,102,0,L|354:256,1,97.9999970092774,0|2,0:0|0:0,0:0:0:0:
423,280,2116,1,0,0:0:0:0:
494,305,2276,2,0,B|509:297|509:287|509:287|509:297|524:305,2,48.9999985046387,0|2|2,0:0|0:0|0:0,0:0:0:0:
351,368,2755,6,0,L|407:359,1,48.9999985046387,0|0,0:0|0:0,0:0:0:0:
385,289,3074,2,0,L|336:296,1,48.9999985046387,2|0,0:0|0:0,0:0:0:0:
258,245,3393,101,2,0:0:0:0:
218,317,3552,1,2,0:0:0:0:
178,245,3712,1,0,0:0:0:0:
67,340,3872,6,0,L|113:334,1,38.5000011749268,0|0,0:0|0:0,0:0:0:0:
57,269,4191,2,0,L|103:263,2,38.5000011749268,2|0|2,0:0|0:0|0:0,0:0:0:0:
168,384,4669,102,0,P|202:356|252:364,1,97.9999970092774,0|2,0:0|0:0,0:0:0:0:
308,287,5147,1,0,0:0:0:0:
313,308,5307,1,2,0:0:0:0:
208,230,5466,6,0,B|193:166|193:166|197:182|210:192,1,97.9999970092774,0|2,0:0|0:0,0:0:0:0:
288,192,5945,1,0,0:0:0:0:
365,192,6105,2,0,P|381:208|395:190,2,48.9999985046387,0|2|2,0:0|0:0|0:0,0:0:0:0:
481,117,6584,5,6,1:2:0:0:
470,112,6664,1,0,1:2:0:0:
459,107,6744,1,0,1:2:0:0:
448,102,6824,1,0,1:2:0:0:
437,97,6903,1,0,1:2:0:0:
450,26,7062,6,0,L|467:165,1,140,6|0,1:2|1:2,0:0:0:0:
480,276,7541,1,6,1:2:0:0:
460,295,7621,1,0,1:2:0:0:
432,301,7701,1,8,0:0:0:0:
404,296,7780,1,0,1:2:0:0:
382,278,7860,1,0,1:2:0:0:
368,253,7940,1,0,1:2:0:0:
368,226,8021,102,0,B|348:233|348:247|348:247|348:233|328:226,1,59.5000011348725,4|0,1:2|1:2,0:0:0:0:
256,253,8340,1,10,0:0:0:0:
182,279,8499,2,0,B|164:272|164:258|164:258|164:272|146:278,1,59.5000011348725,0|2,0:0|0:0,0:0:0:0:
208,149,8818,6,0,B|156:136|156:136|149:125|149:125|96:111,1,119.000002269745,4|2,1:2|0:0,0:0:0:0:
37,69,9296,1,0,0:0:0:0:
85,11,9456,1,2,0:0:0:0:
209,113,9615,102,0,B|157:126|157:126|150:137|150:137|97:151,1,119.000002269745,4|2,1:2|0:0,0:0:0:0:
80,228,10094,1,0,0:0:0:0:
59,305,10254,2,0,P|30:315|2:305,2,59.5000011348725,8|2|2,0:0|0:0|0:0,0:0:0:0:
153,380,10733,6,0,B|171:374|171:359|171:359|171:374|188:380,1,59.5000011348725,4|8,1:2|0:0,0:0:0:0:
256,340,11052,1,2,0:0:0:0:
326,305,11211,1,0,0:0:0:0:
342,384,11371,101,2,1:2:0:0:
256,340,11530,1,10,0:0:0:0:
170,296,11690,1,8,0:0:0:0:
173,288,11770,1,8,0:0:0:0:
176,280,11850,6,0,B|186:267|201:267|201:267|186:267|176:253,1,59.5000011348725,4|0,1:2|1:2,0:0:0:0:
102,239,12169,1,10,0:0:0:0:
28,228,12328,2,0,B|18:215|3:215|3:215|18:215|28:201,1,59.5000011348725,0|2,0:0|0:0,0:0:0:0:
73,102,12647,102,0,B|97:102|97:102|137:102|125:120|164:120|164:120|189:120,1,119.000002269745,4|2,1:2|0:0,0:0:0:0:
245,53,13125,1,0,0:0:0:0:
183,11,13285,1,2,0:0:0:0:
73,121,13444,6,0,B|97:121|97:121|137:121|125:103|164:103|164:103|189:103,1,119.000002269745,4|2,1:2|0:0,0:0:0:0:
256,144,13923,1,0,0:0:0:0:
324,103,14083,2,0,B|337:77|337:77|323:51,2,59.5000011348725,8|2|2,0:0|0:0|1:2,0:0:0:0:
382,220,14562,102,0,P|426:272|495:269,1,140,14|0,0:0|1:2,0:0:0:0:
449,201,15040,2,0,P|437:268|378:301,1,140,14|8,0:0|0:0,0:0:0:0:
378,314,15439,1,8,0:0:0:0:
377,327,15519,1,2,1:2:0:0:
376,340,15599,1,0,1:2:0:0:
375,353,15679,1,0,1:2:0:0:
266,384,15838,86,0,L|257:314,1,70,6|2,1:2|0:0,0:0:0:0:
310,192,16636,6,0,L|315:230,1,35,2|2,0:0|0:0,0:0:0:0:
200,118,17115,102,0,B|193:74|193:74|189:69|189:69|195:68|195:68|191:63|191:63|185:21,1,105,2|2,0:0|0:0,0:0:0:0:
110,84,17913,1,2,0:0:0:0:
110,84,18072,1,2,1:2:0:0:
311,194,18391,6,0,L|382:185,1,70,2|2,1:2|0:0,0:0:0:0:
222,306,19030,102,0,L|256:303,2,35,2|2|2,1:2|0:0|0:0,0:0:0:0:
181,371,19508,2,0,P|150:356|111:362,1,70,2|2,0:0|0:0,0:0:0:0:
108,329,19987,1,2,0:0:0:0:
101,298,20147,1,2,0:0:0:0:
95,267,20306,1,2,0:0:0:0:
147,118,20625,5,10,0:0:0:0:
145,128,20705,1,8,0:0:0:0:
143,138,20785,1,0,1:2:0:0:
141,148,20864,1,0,1:2:0:0:
139,158,20944,1,0,1:2:0:0:
18,130,21104,6,0,B|115:119|115:119|140:150|187:145,1,178.500003404617,6|0,1:2|0:0,0:0:0:0:
277,74,21742,2,0,B|256:67|256:53|256:53|256:67|236:76,1,59.5000011348725,8|0,0:0|0:0,0:0:0:0:
325,144,22061,1,2,0:0:0:0:
337,143,22141,1,0,0:0:0:0:
349,142,22221,1,2,1:2:0:0:
463,75,22380,6,0,P|491:27|459:-21,2,119.000002269745,2|0|8,0:0|0:0|0:0,0:0:0:0:
391,54,23178,1,2,0:0:0:0:
318,74,23338,1,2,0:0:0:0:
294,145,23497,1,2,1:2:0:0:
390,202,23657,102,0,B|403:211|410:233|410:233|389:156,1,119.000002269745,2|2,0:0|1:2,0:0:0:0:
324,107,24135,2,0,P|265:115|223:75,1,119.000002269745,2|0,0:0|0:0,0:0:0:0:
256,5,24614,2,0,B|272:-3|272:-18|272:-18|272:-3|288:6,1,59.5000011348725,0|0,0:0|1:2,0:0:0:0:
147,192,25093,6,0,L|136:133,2,59.5000011348725,0|0|0,0:0|0:0|1:2,0:0:0:0:
129,320,25572,1,8,0:0:0:0:
93,249,25731,1,0,0:0:0:0:
217,229,25891,1,2,1:2:0:0:
209,323,26050,1,2,0:0:0:0:
207,314,26130,1,0,0:0:0:0:
205,305,26210,102,0,B|235:305|235:305|294:305|283:338|348:338|348:338|379:338,1,178.500003404617,6|0,1:2|0:0,0:0:0:0:
476,255,26848,2,0,B|452:271|452:271|420:263,1,59.5000011348725,8|0,0:0|0:0,0:0:0:0:
440,185,27167,1,2,0:0:0:0:
440,185,27327,1,2,1:2:0:0:
510,331,27486,6,0,P|461:297|403:300,1,119.000002269745,2|0,0:0|0:0,0:0:0:0:
337,225,27965,2,0,B|323:148|323:148|327:169|341:185,1,119.000002269745,2|2,1:2|1:2,0:0:0:0:
256,201,28444,1,2,0:0:0:0:
178,215,28604,1,0,0:0:0:0:
95,127,28763,101,2,1:2:0:0:
95,127,28923,2,0,P|103:103|94:79,1,52.5000020027161,2|2,0:0|0:0,0:0:0:0:
178,215,29242,5,2,1:2:0:0:
178,215,29401,2,0,P|169:188|179:156,1,59.5000011348725,10|10,0:0|0:0,0:0:0:0:
82,303,29721,101,2,0:0:0:0:
82,303,29880,2,0,P|92:273|80:239,1,66.4999982242585,10|10,0:0|0:0,0:0:0:0:
114,369,30199,6,0,P|73:345|23:351,2,97.9999970092774,0|0|0,1:2|1:2|1:2,0:0:0:0:
192,305,30997,1,10,0:0:0:0:
203,305,31077,1,0,1:2:0:0:
214,305,31157,1,2,1:2:0:0:
225,305,31236,1,0,1:2:0:0:
235,304,31316,102,0,B|249:285|247:267|247:267|256:346,1,119.000002269745,6|8,1:2|0:0,0:0:0:0:
394,192,31955,2,0,L|334:176,2,59.5000011348725,0|0|10,0:0|1:2|0:0,0:0:0:0:
384,113,32433,1,2,0:0:0:0:
463,234,32593,6,0,P|405:229|360:266,1,119.000002269745,2|8,0:0|0:0,0:0:0:0:
238,225,33072,2,0,B|256:216|256:204|256:204|256:216|275:225,1,59.5000011348725,0|0,0:0|0:0,0:0:0:0:
152,265,33391,2,0,L|94:253,2,59.5000011348725,2|10|2,1:2|0:0|0:0,0:0:0:0:
277,327,33869,102,0,P|302:279|273:224,1,119.000002269745,2|10,1:2|0:0,0:0:0:0:
238,156,34348,2,0,P|281:191|339:177,1,119.000002269745,2|2,0:0|1:2,0:0:0:0:
361,101,34827,1,10,0:0:0:0:
256,24,34986,6,0,B|244:9|248:-11|248:-11|230:75,1,119.000002269745,2|2,0:0|1:2,0:0:0:0:
155,110,35465,2,0,L|95:110,1,59.5000011348725,10|0,0:0|0:0,0:0:0:0:
214,183,35784,1,2,1:2:0:0:
214,183,35864,1,0,0:0:0:0:
214,183,35944,2,0,L|200:242,1,59.5000011348725,2|10,1:2|0:0,0:0:0:0:
118,324,36263,1,0,0:0:0:0:
118,317,36343,1,8,0:0:0:0:
118,310,36423,102,0,P|97:292|118:285,1,59.5000011348725,6|0,1:2|0:0,0:0:0:0:
73,384,36742,2,0,P|112:356|179:366,1,119.000002269745,8|2,0:0|1:2,0:0:0:0:
278,291,37221,1,2,1:2:0:0:
205,298,37380,1,10,0:0:0:0:
318,353,37540,6,0,B|375:347|375:347|396:368|432:363,1,119.000002269745,2|0,0:0|1:2,0:0:0:0:
478,297,38018,2,0,P|501:248|474:193,1,119.000002269745,8|2,0:0|0:0,0:0:0:0:
382,96,38497,1,2,1:2:0:0:
458,116,38657,1,10,0:0:0:0:
308,124,38816,102,0,B|299:105|301:86|301:86|287:166,1,119.000002269745,2|2,0:0|0:0,0:0:0:0:
208,198,39295,2,0,B|194:187|179:190|179:190|194:187|203:171,1,59.5000011348725,10|0,0:0|0:0,0:0:0:0:
320,259,39614,2,0,B|327:273|342:276|342:276|327:273|314:283,1,59.5000011348725,2|2,1:2|0:0,0:0:0:0:
233,278,39933,1,8,0:0:0:0:
157,306,40093,1,2,0:0:0:0:
128,384,40252,6,0,L|72:367,1,59.5000011348725,10|10,0:0|0:0,0:0:0:0:
69,357,40492,1,8,0:0:0:0:
67,347,40572,2,0,L|35:340,3,29.7500005674362,2|0|8|0,1:2|1:2|0:0|1:2,0:0:0:0:
120,275,40891,2,0,L|105:245,3,29.7500005674362,10|8|0|0,0:0|0:0|1:2|1:2,0:0:0:0:
211,276,41210,1,2,1:2:0:0:
213,269,41289,1,0,1:2:0:0:
216,262,41369,1,2,1:2:0:0:
219,255,41449,1,0,1:2:0:0:
221,248,41530,102,0,B|271:262|303:228|303:228|392:228,1,178.500003404617,6|2,1:2|1:2,0:0:0:0:
485,167,42168,1,2,0:0:0:0:
471,245,42327,1,0,1:2:0:0:
406,148,42487,6,0,P|388:124|387:91,1,59.5000011348725,14|0,0:0|0:0,0:0:0:0:
320,192,42806,2,0,L|258:192,1,59.5000011348725,2|0,0:0|0:0,0:0:0:0:
406,236,43125,2,0,P|388:260|387:293,1,59.5000011348725,2|2,0:0|0:0,0:0:0:0:
453,359,43444,101,2,1:2:0:0:
376,372,43604,1,10,0:0:0:0:
299,384,43764,2,0,P|259:342|201:342,1,119.000002269745,2|0,1:2|0:0,0:0:0:0:
47,192,44402,6,0,P|25:180|46:166,2,59.5000011348725,14|2|2,0:0|0:0|0:0,0:0:0:0:
121,176,44881,1,8,0:0:0:0:
193,200,45040,1,10,0:0:0:0:
222,270,45200,1,0,1:2:0:0:
328,233,45359,101,2,1:2:0:0:
330,226,45439,1,0,0:0:0:0:
332,219,45519,1,0,0:0:0:0:
334,212,45598,1,0,0:0:0:0:
336,205,45679,1,2,0:0:0:0:
338,198,45759,1,0,0:0:0:0:
340,191,45838,1,0,1:2:0:0:
342,184,45918,1,0,0:0:0:0:
344,177,45998,6,0,L|369:177,3,20.9999993591309,2|0|0|0,0:2|0:0|1:2|0:0,0:0:0:0:
302,109,46317,102,0,L|319:89,3,24.15000003685,14|0|0|0,0:0|0:0|0:0|0:0,0:0:0:0:
220,85,46636,6,0,L|223:57,3,27.3000009164429,10|0|8|0,0:0|0:0|0:0|0:0,0:0:0:0:
132,97,46955,102,0,L|119:62,3,31.1500000237656,10|0|8|0,0:0|0:0|0:0|0:0,0:0:0:0:
90,192,47274,5,2,1:2:0:0:
82,192,47354,1,0,0:0:0:0:
74,192,47434,1,2,1:2:0:0:
66,192,47514,1,0,0:0:0:0:
53,187,47593,102,0,L|65:216,3,31.4999990386963,2|0|2|0,0:0|0:0|1:2|0:0,0:0:0:0:
145,283,47912,6,0,L|135:256,3,24.4999992523194,2|0|2|0,0:0|0:0|1:2|0:0,0:0:0:0:
63,346,48232,101,14,0:0:0:0:
59,334,48311,5,8,0:0:0:0:
68,341,48391,101,8,0:0:0:0:
57,341,48471,5,0,1:2:0:0:
66,334,48551,101,0,1:2:0:0:
149,384,48710,6,0,P|198:352|256:360,1,119.000002269745,10|2,0:0|1:2,0:0:0:0:
339,270,49189,102,0,B|351:257|365:257|365:257|351:257|336:243,2,59.5000011348725,6|0|10,1:2|0:0|0:0,0:0:0:0:
417,313,49668,2,0,L|404:194,1,119.000002269745,2|0,1:2|1:2,0:0:0:0:
403,185,50067,1,0,1:2:0:0:
402,175,50147,6,0,L|395:113,2,59.5000011348725,10|0|10,0:2|1:2|0:0,0:0:0:0:
477,136,50625,1,2,1:2:0:0:
300,48,50944,1,0,1:2:0:0:
301,37,51024,1,0,1:2:0:0:
303,26,51104,101,10,0:2:0:0:
256,108,51264,5,8,0:0:0:0:
210,185,51423,102,0,B|210:183|210:183|212:184|212:184|213:183|213:183|214:185|214:185|216:185|216:185|215:186|215:186|217:187|217:187|216:188|216:188|217:190|217:190|215:190|215:190|214:193|214:193|212:192|212:192|211:193|211:193|210:191|210:191|209:192|209:192|209:189|209:189|207:189|207:189|208:187|208:187|207:185|207:185|209:185,1,41.9999987182618,10|2,0:0|1:2,0:0:0:0:
324,180,51742,6,0,B|324:179|324:179|325:182|325:182|328:183|328:183|326:185|326:185|328:188|328:188|325:190|325:190|325:192|325:192|322:192|322:192|320:194|320:194|319:192|319:192|316:193|316:193|316:191|316:191|313:190|313:190|314:187|314:187|312:185|312:185|315:184|315:184|313:181|313:181|317:181|317:181|319:178|319:178|322:179,1,59.5000011348725,0|2,1:2|1:2,0:0:0:0:
424,243,52061,102,0,B|423:246|423:246|424:249|424:249|421:249|421:249|422:253|422:253|418:252|418:252|416:255|416:255|414:252|414:252|410:254|410:254|410:249|410:249|407:249|407:249|409:246|409:246|407:244|407:244|410:242|410:242|410:239|410:239|413:240|413:240|414:237|414:237|417:239|417:239|420:238|420:238|423:241,1,70,8|2,0:0|1:2,0:0:0:0:
459,374,52381,5,0,1:2:0:0:
459,374,52540,2,0,P|412:341|350:349,1,119.000002269745,0|2,1:2|1:2,0:0:0:0:
256,271,53019,102,0,B|268:258|263:244|263:244|268:258|287:258,2,59.5000011348725,6|0|10,1:2|0:0|0:0,0:0:0:0:
210,190,53498,2,0,L|330:201,1,119.000002269745,2|0,1:2|1:2,0:0:0:0:
339,203,53897,1,0,1:2:0:0:
350,204,53976,6,0,L|409:210,2,59.5000011348725,10|0|10,0:0|0:0|0:0,0:0:0:0:
385,130,54455,1,2,1:2:0:0:
486,319,54774,1,0,1:2:0:0:
498,317,54854,1,0,1:2:0:0:
510,315,54934,101,10,0:0:0:0:
447,256,55093,5,8,0:0:0:0:
359,234,55253,102,0,B|360:234|360:234|361:236|361:236|363:236|363:236|361:238|361:238|363:239|363:239|361:240|361:240|361:242|361:242|359:242|359:242|358:244|358:244|357:243|357:243|355:243|355:243|355:242|355:242|353:241|353:241|353:239|353:239|352:238|352:238|354:237|354:237|353:235|353:235|355:235|355:235|356:233|356:233|358:233,1,41.9999987182618,10|2,0:0|0:0,0:0:0:0:
257,252,55572,6,0,B|258:250|258:250|261:251|261:251|263:249|263:249|264:252|264:252|267:252|267:252|266:255|266:255|269:256|269:256|267:258|267:258|268:261|268:261|265:261|265:261|264:264|264:264|262:263|262:263|260:265|260:265|258:262|258:262|256:263|256:263|256:260|256:260|253:259|253:259|255:257|255:257|254:254|254:254|256:252,1,59.5000011348725,0|2,1:2|1:2,0:0:0:0:
187,339,55891,102,0,B|185:341|185:341|187:344|187:344|186:347|186:347|189:347|189:347|190:350|190:350|193:349|193:349|196:351|196:351|197:348|197:348|201:349|201:349|200:346|200:346|203:344|203:344|201:342|201:342|203:339|203:339|200:337|200:337|199:334|199:334|196:335|196:335|194:332|194:332|192:335|192:335|189:334|189:334|187:338,1,70,8|2,0:0|1:2,0:0:0:0:
82,282,56210,5,2,1:2:0:0:
82,282,56370,2,0,P|52:237|79:183,1,119.000002269745,2|14,1:2|0:0,0:0:0:0:
22,93,56849,70,0,P|51:83|67:54,1,62.9999980773926,2|2,0:0|0:0,0:0:0:0:
97,73,57487,6,0,P|66:78|40:62,1,62.9999980773926,2|2,0:0|0:0,0:0:0:0:
256,192,58125,37,6,1:2:0:0:
259,201,58205,1,0,1:2:0:0:
263,210,58285,1,0,1:2:0:0:
266,220,58364,1,0,1:2:0:0:
270,230,58444,2,0,P|337:224|369:176,1,125.999996154785,8|0,0:0|0:0,0:0:0:0:
223,79,58923,2,0,L|284:98,1,62.9999980773926,0|0,1:2|0:0,0:0:0:0:
256,3,59242,1,8,0:0:0:0:
223,99,59402,6,0,L|284:80,1,62.9999980773926,2|0,0:2|1:2,0:0:0:0:
256,210,59721,2,0,P|203:175|143:177,1,125.999996154785,10|2,0:0|1:2,0:0:0:0:
139,167,60120,1,0,1:2:0:0:
136,157,60200,1,0,1:2:0:0:
133,147,60279,1,0,1:2:0:0:
130,137,60359,2,0,B|111:132|111:114|111:114|111:131|89:139,1,62.9999980773926,10|0,0:0|1:2,0:0:0:0:
209,35,60678,5,2,1:2:0:0:
263,106,60838,1,0,1:2:0:0:
263,106,60918,1,0,1:2:0:0:
263,106,60997,2,0,L|388:84,1,125.999996154785,8|0,0:0|0:0,0:0:0:0:
491,90,61476,2,0,P|514:77|490:67,1,62.9999980773926,0|0,1:2|0:0,0:0:0:0:
384,110,61795,6,0,B|351:118|325:95|325:95|300:71|267:80,1,125.999996154785,8|0,0:0|1:2,0:0:0:0:
203,28,62274,2,0,B|197:19|200:5|200:5|192:43,1,62.9999980773926,10|0,0:0|0:0,0:0:0:0:
125,137,62593,1,2,1:2:0:0:
127,130,62673,1,0,1:2:0:0:
129,123,62753,1,0,1:2:0:0:
131,116,62832,1,0,1:2:0:0:
133,109,62912,2,0,L|71:110,1,62.9999980773926,10|0,0:0|0:0,0:0:0:0:
229,186,63231,70,0,L|276:271,1,94.499997116089,2|0,1:2|1:2,0:0:0:0:
274,268,63551,1,8,0:0:0:0:
256,353,63710,2,0,P|288:305|352:299,1,125.999996154785,2|0,0:0|1:2,0:0:0:0:
420,223,64189,2,0,B|430:237|447:237|447:237|430:237|420:254,1,62.9999980773926,2|8,0:0|0:0,0:0:0:0:
335,143,64508,6,0,B|284:131|284:131|273:112|273:112|223:100,1,125.999996154785,2|8,0:0|0:2,0:0:0:0:
150,54,64987,2,0,B|75:72|75:72|102:66|123:77,1,125.999996154785,2|0,0:0|1:2,0:0:0:0:
217,1,65466,2,0,B|237:-5|239:-20|239:-20|237:-5|252:6,1,62.9999980773926,10|0,0:0|0:0,0:0:0:0:
300,118,65785,5,2,1:2:0:0:
302,110,65864,1,0,1:2:0:0:
304,102,65944,1,0,1:2:0:0:
306,94,66024,1,0,1:2:0:0:
309,86,66104,2,0,L|339:211,1,125.999996154785,8|0,0:0|0:0,0:0:0:0:
288,303,66583,1,0,1:2:0:0:
265,230,66742,2,0,L|235:238,2,31.4999990386963,0|0|8,1:2|1:2|0:0,0:0:0:0:
392,299,67061,6,0,P|438:299|478:331,1,94.499997116089,2|0,1:2|1:2,0:0:0:0:
475,327,67380,1,10,0:2:0:0:
512,243,67540,1,0,1:2:0:0:
512,243,67620,1,0,1:2:0:0:
512,243,67700,2,0,L|544:235,3,31.4999990386963,10|8|8|8,0:0|0:0|0:0|0:0,0:0:0:0:
461,174,68019,2,0,L|482:142,3,31.4999990386963,2|0|0|0,1:2|1:2|1:2|1:2,0:0:0:0:
371,147,68338,69,6,1:2:0:0:
372,137,68418,1,0,1:2:0:0:
373,127,68497,1,0,1:2:0:0:
374,117,68578,1,0,1:2:0:0:
375,107,68657,2,0,P|320:134|266:108,1,125.999996154785,8|0,0:0|0:0,0:0:0:0:
125,42,69136,2,0,L|199:51,1,62.9999980773926,0|0,1:2|0:0,0:0:0:0:
174,127,69455,1,8,0:0:0:0:
128,62,69614,6,0,L|183:31,1,62.9999980773926,2|0,0:0|1:2,0:0:0:0:
211,197,69934,2,0,P|162:157|103:162,1,125.999996154785,10|2,0:0|1:2,0:0:0:0:
92,162,70333,1,0,1:2:0:0:
82,162,70412,1,0,1:2:0:0:
72,162,70492,1,0,1:2:0:0:
62,162,70572,2,0,B|46:135|46:135|61:106,1,62.9999980773926,10|0,0:0|1:2,0:0:0:0:
126,14,70891,6,0,B|182:35|146:41|204:65,1,94.499997116089,2|0,1:2|1:2,0:0:0:0:
204,65,71210,1,8,0:0:0:0:
241,0,71370,2,0,L|258:124,1,125.999996154785,2|0,0:0|1:2,0:0:0:0:
318,193,71849,6,0,P|351:193|376:207,1,62.9999980773926,2|8,0:0|0:0,0:0:0:0:
220,240,72168,70,0,P|193:241|169:255,1,56,2|0,0:0|1:2,0:0:0:0:
290,355,72487,6,0,L|283:301,1,48.9999985046387,10|0,0:0|0:0,0:0:0:0:
363,333,72806,5,2,1:2:0:0:
345,331,72886,1,0,1:2:0:0:
327,329,72966,1,0,1:2:0:0:
309,327,73045,1,0,1:2:0:0:
291,325,73125,1,2,1:2:0:0:
273,323,73205,1,0,1:2:0:0:
255,321,73285,1,0,1:2:0:0:
237,319,73364,1,0,1:2:0:0:
219,317,73444,6,0,B|209:306|193:305|193:305|209:305|218:291,2,59.5000011348725,6|0|8,1:2|1:2|0:0,0:0:0:0:
162,384,73923,70,2,B|164:365|164:365|159:362|159:362|162:349|162:349|158:347|158:347|160:331|160:331|156:330|156:330|158:314|158:314|155:312|155:312|157:295|157:295|153:293|153:293|155:276|155:276|152:274|152:274|154:259|154:259|150:257|150:257|152:242|152:242|149:239|149:239|151:224|151:224|147:221|147:221|149:207|149:207|146:206|146:206|148:191|148:191|144:189|144:189|146:171|146:171|143:171|143:171|145:156|145:156|141:154|141:154|143:140|143:140|140:138|140:138|142:124|142:124|138:121|138:121|140:107|140:107|137:106|137:106|139:90|139:90|135:87|135:87|137:73|137:73|134:70|134:70|136:56|136:56|133:54|133:54|134:37|134:37|131:34|131:34,1,392,2|8,0:0|0:0,0:1:0:0:
182,97,75200,5,0,0:0:0:0:
104,149,75359,1,0,1:2:0:0:
89,127,75439,1,0,1:2:0:0:
65,116,75519,1,0,1:2:0:0:
39,118,75599,1,0,1:2:0:0:
16,128,75678,2,0,B|1:120|1:105|1:105|1:120|-16:128,1,59.5000011348725,8|0,0:0|1:2,0:0:0:0:
68,223,75997,6,0,P|110:190|172:194,1,119.000002269745,2|10,1:2|0:0,0:0:0:0:
174,186,76396,1,2,0:0:0:0:
177,178,76476,1,2,0:0:0:0:
179,170,76556,1,2,0:0:0:0:
181,162,76636,2,0,L|168:128,3,29.7500005674362,2|0|0|0,1:2|1:2|1:2|1:2,0:0:0:0:
260,159,76955,2,0,L|268:128,3,26.9499994654083,10|10|10|10,0:2|0:0|0:0|0:0,0:0:0:0:
349,175,77274,6,0,L|332:193,3,24.4999992523194,2|0|2|0,1:2|1:2|1:2|1:2,0:0:0:0:
395,256,77593,2,0,L|372:259,3,22.7499989585877,10|2|2|2,0:0|1:2|1:2|1:2,0:0:0:0:
390,344,77912,2,0,P|347:301|288:300,1,119.000002269745,10|0,0:0|1:2,0:0:0:0:
282,299,78311,1,0,1:2:0:0:
272,299,78391,1,0,1:2:0:0:
262,299,78471,1,0,1:2:0:0:
252,299,78551,6,0,B|247:269|247:269|250:272|250:272|247:269|247:269|244:243,1,62.9999980773926,6|0,1:2|0:0,0:0:0:0:
174,310,78870,2,0,L|165:250,2,58.1000008422089,2|2|8,1:2|1:2|0:0,0:0:0:0:
76,202,79349,6,0,B|80:172|80:172|78:175|78:175|80:172|80:172|84:146,1,62.9999980773926,6|0,1:2|0:0,0:0:0:0:
154,172,79668,1,2,1:2:0:0:
228,142,79827,2,0,L|236:85,1,58.1000008422089,2|0,0:0|1:2,0:0:0:0:
132,38,80146,102,0,B|127:8|127:8|130:11|130:11|127:8|127:8|123:-15,1,62.9999980773926,6|0,1:2|0:0,0:0:0:0:
143,115,80466,5,10,0:2:0:0:
87,179,80625,37,2,1:2:0:0:
0,192,80785,21,2,0:2:0:0:
150,297,81104,6,0,L|91:287,2,59.5000011348725,2|2|0,1:2|1:2|0:0,0:0:0:0:
258,243,81583,85,2,1:2:0:0:
205,349,81742,1,2,1:2:0:0:
185,231,81902,1,0,0:0:0:0:
277,319,82061,5,2,1:2:0:0:
277,319,82221,2,0,L|410:338,1,132.999996448517,2|2,0:0|1:2,0:0:0:0:
477,289,82700,2,0,P|501:279|476:265,1,66.4999982242585,2|0,0:0|1:2,0:0:0:0:
408,224,83019,1,10,0:0:0:0:
362,289,83178,2,0,P|347:344|273:354,1,132.999996448517,2|0,0:0|0:0,0:0:0:0:
162,311,83657,6,0,B|179:296|177:282|177:282|179:296|201:302,2,66.4999982242585,2|0|0,1:2|0:0|0:0,0:0:0:0:
131,384,84136,2,0,L|106:249,1,132.999996448517,2|2,1:2|1:2,0:0:0:0:
8,183,84614,1,2,0:0:0:0:
21,254,84774,1,2,0:2:0:0:
89,151,84934,70,0,P|99:122|87:89,1,66.4999982242585,2|2,1:2|0:0,0:0:0:0:
74,98,85173,1,2,0:0:0:0:
56,103,85253,1,2,1:2:0:0:
35,99,85333,1,0,0:0:0:0:
17,85,85412,1,2,0:0:0:0:
9,62,85492,1,2,0:0:0:0:
11,34,85572,2,0,B|42:19|42:19|72:4|75:22|106:7|106:7|136:-7,1,132.999996448517,10|0,0:0|0:0,0:0:0:0:
207,41,86051,1,2,1:2:0:0:
155,146,86210,6,0,P|167:136|155:125,3,35,2|0|10|0,0:0|0:0|0:0|0:0,0:0:0:0:
244,186,86529,6,0,P|238:200|224:192,3,35,2|0|2|0,1:2|0:0|1:2|0:0,0:0:0:0:
198,267,86849,6,0,P|195:283|210:283,3,35,10|0|2|0,0:0|0:0|1:2|0:0,0:0:0:0:
107,284,87168,70,0,P|103:268|119:266,3,35,2|0|2|0,0:0|0:0|1:2|0:0,0:0:0:0:
87,192,87487,5,10,0:0:0:0:
78,192,87567,1,2,0:0:0:0:
69,192,87646,1,2,0:0:0:0:
60,192,87727,1,2,0:0:0:0:
52,192,87806,2,0,L|17:192,3,35,10|0|2|2,0:0|0:0|0:0|0:0,0:0:0:0:
27,124,88125,5,10,0:0:0:0:
30,156,88205,1,10,0:0:0:0:
32,186,88285,1,10,0:0:0:0:
35,214,88364,1,8,0:0:0:0:
38,240,88444,1,2,1:2:0:0:
41,264,88524,1,0,1:2:0:0:
43,285,88604,1,2,1:2:0:0:
44,305,88684,1,0,1:2:0:0:
46,322,88764,21,6,1:2:0:0:
256,192,88843,12,0,90039,3:0:0:0:
256,284,90359,6,0,B|268:284|283:277|285:261|274:248|255:244|237:249|225:268|223:285|226:310|239:348|256:389|325:401|391:392|444:341|451:246|392:192,1,454.999979171754,6|8,1:2|0:0,0:0:0:0:
315,192,92114,101,2,0:0:0:0:
250,147,92273,5,2,0:0:0:0:
246,71,92433,101,0,1:2:0:0:
251,63,92513,1,0,1:2:0:0:
256,55,92593,22,0,B|221:60|199:38|199:38|141:38,1,119.000002269745,6|2,1:2|0:2,0:0:0:0:
74,108,93071,2,0,B|65:94|49:94|49:94|65:94|74:80,1,59.5000011348725,0|10,0:2|0:0,0:0:0:0:
144,192,93391,6,0,B|160:179|163:160|163:160|153:239,1,119.000002269745,4|2,1:2|0:0,0:0:0:0:
218,304,93869,1,0,0:0:0:0:
218,304,94029,1,2,0:0:0:0:
105,352,94189,102,0,P|43:343|1:381,1,119.000002269745,4|10,1:2|0:0,0:0:0:0:
30,305,94667,1,0,0:0:0:0:
120,277,94827,1,0,0:0:0:0:
218,297,94986,2,0,B|249:304|249:304|270:286,1,59.5000011348725,2|2,0:0|0:0,0:0:0:0:
264,383,95306,6,0,L|236:246,1,140,6|8,1:2|0:0,0:0:0:0:
147,142,95784,102,0,P|77:141|40:78,1,140,6|8,1:2|0:0,0:0:0:0:
112,73,96263,6,0,P|97:138|36:171,1,140,6|0,1:2|1:2,0:0:0:0:
132,301,96742,70,0,L|137:254,1,38.5000011749268,4|0,1:2|0:0,0:0:0:0:
59,294,97061,2,0,L|63:249,2,38.5000011749268,2|0|2,0:0|0:0|0:0,0:0:0:0:
126,378,97540,6,0,P|153:342|206:340,1,97.9999970092774,0|2,0:0|0:0,0:0:0:0:
256,279,98018,1,0,0:0:0:0:
256,260,98178,1,2,0:0:0:0:
309,338,98338,102,0,P|356:340|386:378,1,97.9999970092774,0|2,0:0|0:0,0:0:0:0:
448,336,98816,1,0,0:0:0:0:
509,292,98976,2,0,B|516:278|528:278|528:278|516:278|506:263,2,48.9999985046387,0|2|2,0:0|0:0|0:0,0:0:0:0:
442,191,99455,6,0,B|456:190|462:179|462:179|456:190|464:203,1,48.9999985046387,0|0,0:0|0:0,0:0:0:0:
346,194,99774,2,0,B|352:181|346:170|346:170|352:181|368:180,1,48.9999985046387,2|0,0:0|0:0,0:0:0:0:
277,227,100093,101,2,0:0:0:0:
203,213,100252,1,2,0:0:0:0:
179,142,100412,1,0,0:0:0:0:
192,37,100572,6,0,L|209:72,1,38.5000011749268
263,9,100891,2,0,L|277:44,2,38.5000011749268,2|0|2,0:0|0:0|0:0,0:0:0:0:
248,164,101370,102,0,P|204:181|157:162,1,97.9999970092774,0|2,0:0|0:0,0:0:0:0:
209,72,101848,1,0,0:0:0:0:
216,90,102008,1,2,0:0:0:0:
158,163,102168,6,0,L|192:264,1,97.9999970092774,0|2,0:0|0:0,0:0:0:0:
257,288,102646,1,0,0:0:0:0:
328,314,102806,2,0,B|343:308|343:296|343:296|343:308|357:313,2,48.9999985046387,0|2|2,0:0|0:0|0:0,0:0:0:0:
191,376,103285,102,0,B|174:362|174:362|170:361|170:361|173:358|173:358|169:358|169:358|151:343,1,52.5000020027161,2|0,0:3|0:0,0:0:0:0:
191,376,103604,1,2,0:0:0:0:
269,337,103763,22,0,B|265:316|265:316|262:312|262:312|266:312|266:312|264:309|264:309|260:286,1,52.5000020027161,8|0,0:3|0:0,0:0:0:0:
269,337,104082,1,2,0:0:0:0:
356,339,104242,6,0,B|366:320|366:320|366:316|366:316|370:318|370:318|370:314|370:314|381:294,1,52.5000020027161,4|0,0:3|0:0,0:0:0:0:
356,339,104561,1,2,0:0:0:0:
