osu file format v14

[General]
AudioFilename: audio.mp3
AudioLeadIn: 0
PreviewTime: 56769
Countdown: 0
SampleSet: Soft
StackLeniency: 0.4
Mode: 0
LetterboxInBreaks: 0
WidescreenStoryboard: 1

[Editor]
Bookmarks: 52540
DistanceSpacing: 0.4
BeatDivisor: 4
GridSize: 32
TimelineZoom: 1.6

[Metadata]
Title:Frostbite (Cut Ver.)
TitleUnicode:Frostbite (Cut Ver.)
Artist:Masahiro "Godspeed" Aoki
ArtistUnicode:征洋 “Godspeed” 青木
Creator:Niva
Version:Hard
Source:
Tags:osu! featured artist fa mappers' guild mpg monthly beatmapping contest mbc vivix veiled kuyusu rock metal instrumental
BeatmapID:3164881
BeatmapSetID:1501511

[Difficulty]
HPDrainRate:5
CircleSize:4
OverallDifficulty:6
ApproachRate:7.5
SliderMultiplier:1.4
SliderTickRate:1

[Events]
//Background and Video events
0,0,"bgDarkerPurple.jpg",0,0
//Break Periods
//Storyboard Layer 0 (Background)
Sprite,Background,Centre,"bgDarkerPurple.jpg",320,240 F,0,0,107070,1 S,0,0,107070,0.445
Sprite,Background,Centre,"bgDarkerPurpleDesaturated.jpg",320,240 F,0,0,6584,1 S,0,0,6903,0.445 F,0,6584,6903,1,0
Sprite,Background,Centre,"bgDarkerPurpleDesaturated.jpg",320,240 F,0,15838,16157,0,1 S,0,15838,21423,0.445 F,0,16157,21104,1 F,0,21104,21423,1,0
Sprite,Background,Centre,"bgDarkerPurpleDesaturated.jpg",320,240 F,0,56849,57168,0,1 S,0,56849,58125,0.445 F,0,57168,58125,1
Sprite,Background,Centre,"bgChorus.jpg",320,240 F,0,58125,58444,0,1 S,0,58125,89083,0.445 F,0,58444,88723,1 F,0,88723,89093,1,0
Sprite,Background,Centre,"bgDarkerPurpleDesaturated.jpg",320,240 F,0,96742,97061,0,1 S,0,96742,107070,0.445 F,0,97061,107070,1
Sprite,Background,Centre,"black.jpg",320,240 F,1,103285,103763,0,0.33 S,0,103285,107070,22.22 F,1,103763,104242,0.33,0.66 F,1,104242,104561,0.66,1 F,0,104561,107070,1
//Storyboard Layer 1 (Fail)
//Storyboard Layer 2 (Pass)
//Storyboard Layer 3 (Foreground)
Sprite,Foreground,Centre,"black.jpg",320,240 F,0,0,681,1,0 S,0,0,681,22.22
//Storyboard Layer 4 (Overlay)
//Storyboard Sound Samples

[TimingPoints]
43,319.148936170213,5,2,7,60,1,0
43,-166.666666666667,5,2,7,60,0,0
202,-166.666666666667,5,2,77,60,0,0
840,319.148936170213,5,2,7,60,1,0
840,-166.666666666667,5,2,7,60,0,0
859,-166.666666666667,5,2,77,60,0,0
1159,-166.666666666667,5,2,77,60,0,0
1638,319.148936170213,4,2,7,60,1,0
1638,-166.666666666667,4,2,7,60,0,0
1797,-166.666666666667,4,2,77,60,0,0
2755,319.148936170213,4,2,7,60,1,0
2755,-166.666666666667,4,2,7,60,0,0
2774,-166.666666666667,4,2,77,60,0,0
3074,-166.666666666667,4,2,77,60,0,0
3393,-166.666666666667,4,2,77,60,0,0
3872,319.148936170213,5,2,7,60,1,0
3872,-166.666666666667,5,2,7,60,0,0
3891,-166.666666666667,5,2,77,60,0,0
4669,319.148936170213,5,2,7,60,1,0
4669,-166.666666666667,5,2,7,60,0,0
4688,-166.666666666667,5,2,77,60,0,0
5467,319.148936170213,4,2,7,60,1,0
5467,-166.666666666667,4,2,7,60,0,0
5626,-166.666666666667,4,2,77,60,0,0
6584,319.148936170213,5,2,77,90,1,0
6584,-125,5,2,77,90,0,0
7062,-111.111111111111,5,2,77,90,0,0
8021,319.148936170213,5,2,77,80,1,0
8021,-125,5,2,77,80,0,0
8818,319.148936170213,5,2,77,80,1,0
8818,-125,5,2,77,80,0,0
9616,319.148936170213,4,2,77,80,1,0
9616,-125,4,2,77,80,0,0
10733,319.148936170213,4,2,77,80,1,0
10733,-125,4,2,77,80,0,0
11850,319.148936170213,5,2,77,80,1,0
11850,-125,5,2,77,80,0,0
12647,319.148936170213,5,2,77,80,1,0
12647,-125,5,2,77,80,0,0
13445,319.148936170213,4,2,77,80,1,0
13445,-125,4,2,77,80,0,0
14562,319.148936170213,4,2,77,80,1,0
14562,-111.111111111111,4,2,77,80,0,0
15519,-111.111111111111,4,2,77,80,0,0
15838,-166.666666666667,4,2,77,80,0,0
15858,-166.666666666667,4,2,77,60,0,0
18072,-166.666666666667,4,2,77,70,0,0
18092,-166.666666666667,4,2,77,60,0,0
18391,-166.666666666667,4,2,77,70,0,0
18411,-166.666666666667,4,2,77,60,0,0
19030,-166.666666666667,4,2,77,70,0,0
19050,-166.666666666667,4,2,77,60,0,0
20645,-166.666666666667,4,2,77,80,0,0
21104,319.148936170213,4,2,77,80,1,0
21104,-125,4,2,77,80,0,0
21123,-125,4,2,77,70,0,0
26210,-125,4,2,77,70,0,0
28763,-142.857142857143,4,2,77,80,0,0
29242,-117.647058823529,4,2,77,70,0,0
29721,-100,4,2,77,70,0,0
30199,-166.666666666667,4,2,77,70,0,0
31316,-125,4,2,77,80,0,0
35465,-117.647058823529,4,2,77,80,0,0
36423,-125,4,2,77,80,0,0
41530,319.148936170213,3,2,77,80,1,0
41530,-125,3,2,77,80,0,0
41549,-125,3,2,77,80,0,0
45678,-125,3,2,77,80,0,0
45998,-125,3,2,77,80,0,0
46317,-125,3,2,77,80,0,0
46636,-125,3,2,77,80,0,0
46955,-125,3,2,77,80,0,0
47274,-125,3,2,77,80,0,0
47593,-125,3,2,77,80,0,0
47753,-125,3,2,77,80,0,0
47912,-125,3,2,77,80,0,0
48072,-125,3,2,77,80,0,0
48232,-125,3,2,77,80,0,0
48710,-125,3,2,77,80,0,0
49189,-125,3,2,77,80,0,0
49668,-125,3,2,77,80,0,0
50944,-125,3,2,77,80,0,0
51104,-125,3,2,77,80,0,0
51423,-125,3,2,77,80,0,0
51742,-125,3,2,77,80,0,0
52061,-125,3,2,77,80,0,0
52540,-125,3,2,77,80,0,0
53498,-125,3,2,77,80,0,0
54774,-125,3,2,77,80,0,0
55253,-125,3,2,77,80,0,0
55572,-125,3,2,77,80,0,0
55891,-125,3,2,77,80,0,0
56210,-125,3,2,77,80,0,0
56370,-125,3,2,77,80,0,0
56849,319.148936170213,4,2,77,60,1,0
56849,-166.666666666667,4,2,77,60,0,0
58125,-111.111111111111,4,2,78,90,0,0
58205,-111.111111111111,4,2,77,90,0,1
59242,-111.111111111111,4,2,77,90,0,1
66902,-111.111111111111,4,2,77,90,0,1
68019,-111.111111111111,4,2,77,90,0,0
68338,-111.111111111111,4,2,77,90,0,1
68418,-111.111111111111,4,2,77,90,0,1
69455,-111.111111111111,4,2,77,90,0,1
71689,-111.111111111111,4,2,77,90,0,1
71849,-111.111111111111,4,2,77,90,0,1
72168,-111.111111111111,4,2,77,90,0,1
72487,-111.111111111111,4,2,77,90,0,1
73444,-111.111111111111,4,2,77,90,0,1
73763,-125,4,2,77,60,0,1
73923,-125,4,2,77,90,0,1
73943,-125,4,2,78,90,0,1
75040,-111.111111111111,4,2,77,90,0,1
75200,-111.111111111111,4,2,78,90,0,1
75359,-111.111111111111,4,2,77,90,0,1
76955,-111.111111111111,4,2,77,90,0,1
77274,-111.111111111111,4,2,77,90,0,1
77593,-111.111111111111,4,2,77,90,0,1
77912,-111.111111111111,4,2,77,90,0,1
78231,-111.111111111111,4,2,77,90,0,0
78551,-100,4,2,77,90,0,1
78870,-111.111111111111,4,2,77,90,0,1
79029,-117.647058823529,4,2,77,90,0,1
79269,-111.111111111111,4,2,77,90,0,0
79349,-100,4,2,77,90,0,1
79827,-111.111111111111,4,2,77,90,0,1
80067,-111.111111111111,4,2,77,90,0,0
80146,-100,4,2,77,90,0,1
80466,-111.111111111111,4,2,77,90,0,1
81104,-111.111111111111,4,2,77,90,0,1
81583,-111.111111111111,4,2,77,90,0,1
82061,-111.111111111111,4,2,77,90,0,1
82221,-111.111111111111,4,2,77,90,0,1
82540,-111.111111111111,4,2,77,90,0,1
86210,-111.111111111111,4,2,77,90,0,1
87806,-111.111111111111,4,2,77,90,0,1
88285,-111.111111111111,4,2,77,90,0,1
88444,-125,4,2,77,90,0,1
88604,-125,4,2,77,90,0,1
88763,-142.857142857143,4,2,77,90,0,0
88843,-142.857142857143,4,2,77,80,0,0
89561,319.148936170213,4,2,77,80,1,0
90039,-142.857142857143,4,2,77,50,0,0
90359,319.148936170213,4,2,77,80,1,0
90359,-166.666666666667,4,2,77,80,0,0
91476,319.148936170213,4,2,77,80,1,0
92114,-125,4,2,77,80,0,0
92593,319.148936170213,4,2,77,80,1,0
92593,-125,4,2,77,80,0,0
93391,319.148936170213,4,2,77,80,1,0
93391,-125,4,2,77,80,0,0
94189,319.148936170213,4,2,77,80,1,0
94189,-125,4,2,77,80,0,0
95306,319.148936170213,5,2,77,80,1,0
95306,-111.111111111111,5,2,77,80,0,0
96742,319.148936170213,4,2,77,80,1,0
96742,-166.666666666667,4,2,77,80,0,0
96821,-166.666666666667,4,2,77,60,0,0
97540,319.148936170213,4,2,7,60,1,0
97540,-166.666666666667,4,2,7,60,0,0
97559,-166.666666666667,4,2,77,60,0,0
98338,319.148936170213,4,2,7,60,1,0
98338,-166.666666666667,4,2,7,60,0,0
98357,-166.666666666667,4,2,77,60,0,0
99455,319.148936170213,4,2,7,60,1,0
99455,-166.666666666667,4,2,7,60,0,0
99474,-166.666666666667,4,2,77,60,0,0
99774,-166.666666666667,4,2,77,60,0,0
100093,-166.666666666667,4,2,77,60,0,0
100572,319.148936170213,4,2,7,60,1,0
100572,-166.666666666667,4,2,7,60,0,0
100591,-166.666666666667,4,2,77,60,0,0
101370,319.148936170213,4,2,7,60,1,0
101370,-166.666666666667,4,2,7,60,0,0
101389,-166.666666666667,4,2,77,60,0,0
102168,319.148936170213,4,2,7,60,1,0
102168,-166.666666666667,4,2,7,60,0,0
102187,-166.666666666667,4,2,77,60,0,0
103285,319.148936170213,5,2,77,60,1,0
103285,-133.333333333333,5,2,77,60,0,0
103763,-166.666666666667,5,2,77,65,0,0
104242,-200,5,2,77,70,0,0

[Colours]
Combo1 : 112,0,179
Combo2 : 17,254,176
Combo3 : 255,94,55
Combo4 : 173,255,95
Combo5 : 255,88,100
Combo6 : 223,254,255
Combo7 : 166,249,255
Combo8 : 206,126,254

[HitObjects]
79,86,43,70,0,L|104:44,1,41.9999987182618,0|0,0:2|0:0,0:0:0:0:
10,52,362,2,0,L|33:12,2,41.9999987182618,2|0|2,0:0|0:0|0:0,0:0:0:0:
52,156,840,6,0,P|86:137|129:144,1,83.9999974365235,0|2,0:0|0:0,0:0:0:0:
207,79,1318,2,0,B|192:75|192:66|192:66|192:75|178:79,1,41.9999987182618,0|2,0:0|0:0,0:0:0:0:
297,120,1638,102,0,L|288:30,2,83.9999974365235,0|2|0,0:0|0:0|0:0,0:0:0:0:
383,119,2435,1,2,0:0:0:0:
383,119,2595,1,2,0:0:0:0:
325,192,2755,6,0,P|287:173|241:180,1,83.9999974365235,0|2,0:0|0:0,0:0:0:0:
218,22,3393,2,0,L|208:63,1,41.9999987182618,2|2,0:0|0:0,0:0:0:0:
135,89,3712,1,0,0:0:0:0:
46,51,3872,102,0,L|3:50,1,41.9999987182618
46,125,4191,2,0,L|5:125,2,41.9999987182618,2|0|2,0:0|0:0|0:0,0:0:0:0:
135,89,4669,6,0,P|157:121|200:123,1,83.9999974365235,0|2,0:0|0:0,0:0:0:0:
270,188,5147,2,0,B|276:173|286:174|286:174|276:174|268:161,1,41.9999987182618,0|2,0:0|0:0,0:0:0:0:
361,252,5466,102,0,B|419:252|385:266|442:266,2,83.9999974365235,0|2|0,0:0|0:0|0:0,0:0:0:0:
286,216,6264,2,0,L|286:172,1,41.9999987182618,2|2,0:0|0:0,0:0:0:0:
256,311,6584,21,6,1:2:0:0:
243,311,6663,1,0,1:2:0:0:
230,311,6743,2,0,L|194:311,2,28,0|0|0,1:2|1:2|1:2,0:0:0:0:
145,216,7062,6,0,P|84:214|49:157,1,125.999996154785,6|0,1:2|1:2,0:0:0:0:
126,150,7541,2,0,P|112:209|57:241,1,125.999996154785,6|0,1:2|1:2,0:0:0:0:
138,341,8021,102,0,L|193:329,1,56,4|0,1:2|1:2,0:0:0:0:
256,379,8340,1,10,0:0:0:0:
319,329,8499,2,0,L|374:341,1,56,0|2,0:0|0:0,0:0:0:0:
256,256,8818,6,0,L|273:144,1,112,4|2,1:2|0:0,0:0:0:0:
346,87,9296,2,0,B|353:100|369:100|369:100|353:100|346:114,1,56,0|2,0:0|0:0,0:0:0:0:
223,32,9615,102,0,B|214:12|218:-9|218:-9|201:64,1,112,4|2,1:2|0:0,0:0:0:0:
123,79,10094,1,0,0:0:0:0:
44,99,10254,2,0,P|37:72|45:44,2,56,8|2|2,0:0|0:0|0:0,0:0:0:0:
0,192,10733,6,0,P|54:197|92:241,1,112,4|2,1:2|0:0,0:0:0:0:
173,227,11211,1,0,0:0:0:0:
256,218,11371,2,0,L|243:277,1,56,2|10,1:2|0:0,0:0:0:0:
220,124,11690,1,8,0:0:0:0:
220,124,11770,1,8,0:0:0:0:
220,124,11850,102,0,L|277:105,1,56,4|0,1:2|1:2,0:0:0:0:
341,146,12169,1,10,0:0:0:0:
377,77,12328,2,0,L|360:20,1,56,0|2,0:0|0:0,0:0:0:0:
440,197,12647,6,0,P|395:165|338:172,1,112,4|2,1:2|0:0,0:0:0:0:
234,106,13125,2,0,B|254:102|254:89|254:89|254:102|274:106,1,56,0|2,0:0|0:0,0:0:0:0:
157,192,13445,102,0,B|123:192|104:164|104:164|55:157,1,112,4|2,1:2|0:0,0:0:0:0:
40,80,13923,1,0,0:0:0:0:
28,2,14083,2,0,L|-33:-7,2,56,8|2|2,0:0|0:0|1:2,0:0:0:0:
152,36,14562,6,0,B|167:17|164:-8|164:-8|175:83,1,125.999996154785,14|0,0:0|1:2,0:0:0:0:
133,144,15040,2,0,P|179:108|243:115,1,125.999996154785,14|8,0:0|0:0,0:0:0:0:
311,70,15519,2,0,B|331:65|331:49|331:49|331:64|351:70,1,62.9999980773926,2|0,1:2|1:2,0:0:0:0:
385,192,15838,70,0,L|470:182,1,83.9999974365235,6|2,1:2|0:0,0:0:0:0:
335,311,16636,2,0,L|380:305,1,41.9999987182618,2|2,0:0|0:0,0:0:0:0:
242,229,17115,2,0,L|366:212,1,125.999996154785,2|2,0:0|0:0,0:0:0:0:
308,110,17913,1,2,0:0:0:0:
308,110,18072,1,2,1:2:0:0:
350,224,18391,6,0,L|259:213,1,83.9999974365235,2|2,1:2|0:0,0:0:0:0:
389,344,19030,2,0,L|260:327,1,125.999996154785,2|2,1:2|0:0,0:0:0:0:
148,262,19827,2,0,L|95:257,2,41.9999987182618,2|2|2,0:0|0:0|0:0,0:0:0:0:
165,338,20306,1,2,0:0:0:0:
256,241,20625,101,10,0:0:0:0:
254,228,20705,1,8,0:0:0:0:
252,215,20785,2,0,L|248:183,2,20.9999993591309,0|0|0,1:2|1:2|1:2,0:0:0:0:
344,212,21104,22,0,P|417:202|434:116,1,168,6|0,1:2|0:0,0:0:0:0:
380,58,21742,2,0,B|353:66|353:66|328:52,1,56,8|0,0:0|0:0,0:0:0:0:
256,0,22061,1,2,0:0:0:0:
256,8,22141,1,0,0:0:0:0:
256,16,22221,1,2,1:2:0:0:
187,104,22380,6,0,P|133:110|94:69,2,112,2|0|8,0:0|0:0|0:0,0:0:0:0:
256,147,23178,2,0,B|267:173|267:173|257:200,1,56,2|2,0:0|0:0,0:0:0:0:
187,240,23497,1,2,1:2:0:0:
256,316,23657,102,0,B|304:305|304:305|316:311|316:311|364:299,1,112,2|2,0:0|1:2,0:0:0:0:
429,253,24135,2,0,P|375:260|332:227,1,112,2|0,0:0|0:0,0:0:0:0:
397,146,24614,2,0,B|405:161|420:161|420:161|405:161|396:176,1,56,0|0,0:0|1:2,0:0:0:0:
256,55,25093,6,0,B|248:42|233:42|233:42|248:42|256:27,2,56,0|0|0,0:0|0:0|1:2,0:0:0:0:
214,125,25572,1,8,0:0:0:0:
297,161,25731,1,0,0:0:0:0:
205,215,25891,2,0,L|147:202,1,56,2|2,1:2|0:0,0:0:0:0:
144,194,26130,1,0,0:0:0:0:
138,185,26210,102,0,P|97:253|139:321,1,168,6|0,1:2|0:0,0:0:0:0:
219,349,26848,2,0,L|278:337,1,56,8|0,0:0|0:0,0:0:0:0:
338,286,27167,1,2,0:0:0:0:
379,356,27327,1,2,1:2:0:0:
273,337,27486,6,0,L|161:322,1,112,2|0,0:0|0:0,0:0:0:0:
96,273,27965,2,0,B|78:202|78:202|82:222|97:235,1,112,2|2,1:2|1:2,0:0:0:0:
168,174,28444,2,0,P|188:163|167:150,1,56,2|0,0:0|0:0,0:0:0:0:
51,85,28763,102,0,L|-1:75,2,48.9999985046387,2|2|2,1:2|0:0|0:0,0:0:0:0:
143,64,29242,6,0,L|84:52,2,59.5000011348725,2|10|10,1:2|0:0|0:0,0:0:0:0:
248,49,29721,102,0,L|180:35,2,70,2|10|10,0:0|0:0|0:0,0:0:0:0:
328,120,30199,6,0,P|367:110|385:74,2,83.9999974365235,0|0|0,1:2|1:2|1:2,0:0:0:0:
256,161,30997,1,10,0:0:0:0:
256,171,31077,1,0,1:2:0:0:
256,181,31157,1,2,1:2:0:0:
256,191,31236,1,0,1:2:0:0:
256,201,31316,102,0,B|221:207|201:179|201:179|150:169,2,112,6|8|0,1:2|0:0|0:0,0:0:0:0:
324,252,32114,2,0,B|346:235|346:235|377:240,1,56,0|10,1:2|0:0,0:0:0:0:
443,192,32433,1,2,0:0:0:0:
386,94,32593,6,0,L|395:-18,2,112,2|8|0,0:0|0:0|0:0,0:0:0:0:
319,142,33391,2,0,B|300:136|300:123|300:123|300:136|281:142,1,56,2|10,1:2|0:0,0:0:0:0:
215,94,33710,1,2,0:0:0:0:
118,142,33869,102,0,P|65:147|28:105,1,112,2|10,1:2|0:0,0:0:0:0:
69,32,34348,2,0,B|110:26|110:26|125:30|125:30|137:22|137:22|178:16,1,112,2|2,0:0|1:2,0:0:0:0:
256,41,34827,1,10,0:0:0:0:
231,151,34986,6,0,P|276:125|332:137,1,112,2|2,0:0|1:2,0:0:0:0:
421,113,35465,2,0,B|480:137,1,59.5000011348725,10|0,0:0|0:0,0:0:0:0:
449,34,35784,1,2,1:2:0:0:
476,113,35944,2,0,B|420:138,1,59.5000011348725,2|10,1:2|0:0,0:0:0:0:
423,247,36263,1,0,0:0:0:0:
423,259,36343,1,8,0:0:0:0:
423,271,36423,102,0,B|477:278|477:278|492:302|525:305,2,112,6|8|2,1:2|0:0|1:2,0:0:0:0:
364,332,37221,1,2,1:2:0:0:
364,332,37380,1,10,0:0:0:0:
280,253,37540,6,0,P|304:206|278:157,1,112,2|0,0:0|1:2,0:0:0:0:
221,98,38018,2,0,B|206:112|206:112|185:133|169:124|148:145|148:145|131:161,1,112,8|2,0:0|0:0,0:0:0:0:
61,122,38497,1,2,1:2:0:0:
61,122,38657,1,10,0:0:0:0:
149,55,38816,102,0,L|216:149,1,112,2|2,0:0|0:0,0:0:0:0:
298,178,39295,2,0,P|317:162|298:147,1,56,10|0,0:0|0:0,0:0:0:0:
215,239,39614,2,0,B|187:246|187:246|166:226,1,56,2|2,1:2|0:0,0:0:0:0:
283,304,39933,2,0,L|328:271,1,56,8|2,0:0|0:0,0:0:0:0:
167,384,40252,6,0,B|174:370|190:370|190:370|174:370|165:354,1,56,10|10,0:0|0:0,0:0:0:0:
167,347,40492,1,8,0:0:0:0:
167,337,40572,2,0,L|138:338,2,28,2|0|8,1:2|1:2|0:0,0:0:0:0:
209,264,40891,2,0,L|188:237,2,28,10|8|0,0:0|0:0|1:2,0:0:0:0:
292,253,41210,2,0,L|301:226,2,28,2|0|2,1:2|1:2|1:2,0:0:0:0:
383,181,41529,102,0,P|312:190|257:121,1,168,6|2,1:2|1:2,0:0:0:0:
318,64,42168,2,0,L|373:82,1,56,2|0,0:0|1:2,0:0:0:0:
207,33,42487,6,0,L|153:15,1,56,14|0,0:0|0:0,0:0:0:0:
90,64,42806,1,2,0:0:0:0:
162,110,42966,1,0,0:0:0:0:
82,162,43125,2,0,B|70:186|70:186|83:211,1,56,2|2,0:0|0:0,0:0:0:0:
183,267,43444,102,0,B|195:243|195:243|182:218,1,56,2|10,1:2|0:0,0:0:0:0:
118,315,43764,2,0,P|176:310|216:341,1,112,2|0,1:2|0:0,0:0:0:0:
373,289,44402,2,0,L|429:273,1,56,14|2,0:0|0:0,0:0:0:0:
369,209,44721,1,2,0:0:0:0:
369,209,44881,1,8,0:0:0:0:
293,239,45040,2,0,L|279:184,1,56,10|0,0:0|1:2,0:0:0:0:
256,357,45359,5,2,1:2:0:0:
246,357,45439,1,0,0:0:0:0:
236,357,45519,1,0,0:0:0:0:
226,357,45598,1,0,0:0:0:0:
216,357,45678,2,0,L|207:320,2,28,2|0|0,0:0|0:0|1:2,0:0:0:0:
142,377,45998,2,0,L|133:340,2,28,2|0|0,0:2|0:0|1:2,0:0:0:0:
61,250,46317,102,0,L|56:277,2,28,14|0|0,0:0|0:0|0:0,0:0:0:0:
139,234,46636,2,0,L|155:261,2,28,10|0|8,0:0|0:0|0:0,0:0:0:0:
193,173,46955,2,0,L|222:184,2,28,10|0|8,0:0|0:0|0:0,0:0:0:0:
77,106,47274,5,2,1:2:0:0:
80,95,47354,1,0,0:0:0:0:
83,84,47434,1,2,1:2:0:0:
86,73,47514,1,0,0:0:0:0:
91,61,47593,2,0,B|109:55|109:42|109:42|109:56|126:61,1,56,2|2,0:0|1:2,0:0:0:0:
204,46,47912,1,2,0:0:0:0:
221,122,48072,1,2,1:2:0:0:
145,231,48232,102,0,L|131:175,2,56,14|8|0,0:0|0:0|1:2,0:0:0:0:
83,286,48710,2,0,P|135:278|182:309,1,112,10|2,0:0|1:2,0:0:0:0:
292,251,49189,6,0,B|301:237|316:237|316:237|301:237|289:222,2,56,6|0|10,1:2|0:0|0:0,0:0:0:0:
228,171,49668,2,0,B|182:162|182:162|173:150|173:150|124:140,1,112,2|0,1:2|1:2,0:0:0:0:
121,129,50067,1,0,1:2:0:0:
118,118,50147,2,0,P|91:125|62:118,2,56,10|0|10,0:2|1:2|0:0,0:0:0:0:
169,53,50625,1,2,1:2:0:0:
234,192,50944,1,0,1:2:0:0:
234,192,51024,1,0,1:2:0:0:
234,192,51104,102,0,L|303:192,1,56,10|8,0:2|0:0,0:0:0:0:
370,166,51423,2,0,L|426:166,1,56,10|2,0:0|1:2,0:0:0:0:
276,97,51742,6,0,L|284:153,1,56,0|2,1:2|1:2,0:0:0:0:
373,203,52061,2,0,L|381:259,1,56,8|2,0:0|1:2,0:0:0:0:
303,337,52381,1,0,1:2:0:0:
303,337,52540,2,0,P|256:307|203:318,1,112,0|2,1:2|1:2,0:0:0:0:
176,222,53019,102,0,B|161:211|164:199|164:199|161:211|141:214,2,56,6|0|10,1:2|0:0|0:0,0:0:0:0:
101,275,53498,2,0,L|87:163,1,112,2|0,1:2|1:2,0:0:0:0:
94,155,53897,1,0,1:2:0:0:
101,146,53976,2,0,L|94:89,2,56,10|0|10,0:0|0:0|0:0,0:0:0:0:
14,128,54455,1,2,1:2:0:0:
183,229,54774,1,0,1:2:0:0:
183,229,54854,1,0,1:2:0:0:
183,229,54934,6,0,L|238:222,1,56,10|8,0:0|0:0,0:0:0:0:
318,239,55253,2,0,L|373:232,1,56,10|2,0:0|0:0,0:0:0:0:
226,308,55572,102,0,L|235:251,1,56,0|2,1:2|1:2,0:0:0:0:
322,209,55891,2,0,L|331:152,1,56,8|2,0:0|1:2,0:0:0:0:
255,91,56210,1,2,1:2:0:0:
255,91,56370,2,0,P|201:91|167:49,1,112,2|14,1:2|0:0,0:0:0:0:
59,24,56849,86,0,B|43:24|31:15|31:15|78:56,1,83.9999974365235,2|2,0:0|0:0,0:0:0:0:
181,119,57487,2,0,P|212:94|258:91,1,83.9999974365235,2|2,0:0|0:0,0:0:0:0:
60,213,58125,53,6,1:2:0:0:
60,223,58205,1,0,1:2:0:0:
60,233,58285,1,0,1:2:0:0:
60,243,58364,1,0,1:2:0:0:
60,253,58444,2,0,B|105:277|105:277|125:273|125:273|173:298,1,125.999996154785,8|0,0:0|0:0,0:0:0:0:
256,340,58923,2,0,P|192:340|146:379,1,125.999996154785,0|8,1:2|0:0,0:0:0:0:
298,250,59402,6,0,L|323:193,1,62.9999980773926,2|0,0:2|1:2,0:0:0:0:
403,223,59721,2,0,P|463:211|483:155,1,125.999996154785,10|2,0:0|1:2,0:0:0:0:
474,148,60120,1,0,1:2:0:0:
466,140,60200,1,0,1:2:0:0:
458,132,60279,1,0,1:2:0:0:
450,124,60359,2,0,B|429:117|429:103|429:103|429:117|408:123,1,62.9999980773926,10|0,0:0|1:2,0:0:0:0:
288,57,60678,6,0,B|309:64|309:78|309:78|309:64|330:58,1,62.9999980773926,2|0,1:2|1:2,0:0:0:0:
236,0,60997,2,0,L|250:137,1,125.999996154785,8|0,0:0|0:0,0:0:0:0:
189,192,61476,2,0,L|132:231,1,62.9999980773926,0|0,1:2|0:0,0:0:0:0:
307,256,61795,6,0,P|369:256|411:299,1,125.999996154785,8|0,0:0|1:2,0:0:0:0:
486,256,62274,2,0,B|497:240|513:240|513:240|497:240|484:227,1,62.9999980773926,10|0,0:0|0:0,0:0:0:0:
443,151,62593,1,2,1:2:0:0:
455,148,62673,1,0,1:2:0:0:
467,145,62753,1,0,1:2:0:0:
479,142,62832,1,0,1:2:0:0:
491,139,62912,2,0,L|498:71,1,62.9999980773926,10|0,0:0|0:0,0:0:0:0:
377,37,63231,70,0,B|362:27|357:10|357:10|372:70,1,94.499997116089,2|0,1:2|1:2,0:0:0:0:
372,70,63551,1,8,0:0:0:0:
409,151,63710,2,0,P|363:112|300:112,1,125.999996154785,2|0,0:0|1:2,0:0:0:0:
226,158,64189,2,0,B|204:164|204:179|204:179|204:164|183:157,1,62.9999980773926,2|8,0:0|0:0,0:0:0:0:
97,73,64508,6,0,B|144:61|144:61|159:64|159:64|170:54|170:54|216:41,1,125.999996154785,2|8,0:0|0:2,0:0:0:0:
291,0,64987,2,0,P|317:54|377:65,1,125.999996154785,2|0,0:0|1:2,0:0:0:0:
397,146,65466,2,0,L|464:131,1,62.9999980773926,10|0,0:0|0:0,0:0:0:0:
343,234,65785,5,2,1:2:0:0:
331,232,65864,1,0,1:2:0:0:
319,230,65944,1,0,1:2:0:0:
307,228,66024,1,0,1:2:0:0:
295,226,66104,2,0,P|268:282|299:335,1,125.999996154785,8|0,0:0|0:0,0:0:0:0:
395,366,66583,2,0,B|419:349|419:349|451:358,1,62.9999980773926,0|0,1:2|0:2,0:0:0:0:
411,295,66902,1,8,0:0:0:0:
296,333,67061,6,0,B|277:333|277:333|249:333|253:346|225:346|225:346|203:346,1,94.499997116089,2|0,1:2|1:2,0:0:0:0:
204,346,67380,1,10,0:2:0:0:
41,230,67700,1,10,0:0:0:0:
38,241,67779,1,8,0:0:0:0:
35,252,67859,1,8,0:0:0:0:
32,263,67939,1,8,0:0:0:0:
29,274,68019,2,0,L|66:274,2,31.4999990386963,2|0|0,1:2|1:2|1:2,0:0:0:0:
188,249,68338,70,0,B|171:235|176:221|176:221|171:235|152:239,1,62.9999980773926,6|0,1:2|1:2,0:0:0:0:
154,324,68657,2,0,P|194:286|263:292,1,125.999996154785,8|0,0:0|0:0,0:0:0:0:
323,229,69136,2,0,B|372:251|372:251|380:265|380:265|430:290,1,125.999996154785,0|8,1:2|0:0,0:0:0:0:
512,192,69614,6,0,P|487:203|479:175,1,62.9999980773926,2|0,0:0|1:2,0:0:0:0:
415,115,69934,2,0,B|378:120|355:97|355:97|294:96,1,125.999996154785,10|2,0:0|1:2,0:0:0:0:
290,86,70333,1,0,1:2:0:0:
286,76,70412,1,0,1:2:0:0:
282,66,70492,1,0,1:2:0:0:
278,56,70572,2,0,B|257:47|257:33|257:33|257:48|236:56,1,62.9999980773926,10|0,0:0|1:2,0:0:0:0:
132,20,70891,6,0,P|114:64|136:104,1,94.499997116089,2|0,1:2|1:2,0:0:0:0:
134,102,71210,1,8,0:0:0:0:
101,180,71370,2,0,P|144:143|208:152,1,125.999996154785,2|0,0:0|1:2,0:0:0:0:
256,80,71849,2,0,B|278:78|282:65|282:65|278:79|293:93,1,62.9999980773926,2|8,0:0|0:0,0:0:0:0:
385,170,72168,6,0,P|382:200|397:228,1,62.9999980773926,2|0,0:0|1:2,0:0:0:0:
466,155,72487,2,0,P|480:182|478:213,1,62.9999980773926,10|0,0:0|0:0,0:0:0:0:
292,92,72806,70,0,P|289:122|304:150,1,62.9999980773926,2|0,1:2|1:2,0:0:0:0:
373,77,73125,2,0,P|387:104|385:135,1,62.9999980773926,2|0,1:2|1:2,0:0:0:0:
196,129,73444,6,0,B|167:122|167:122|133:112|143:102|113:93|113:93|78:84,1,125.999996154785,6|8,1:2|0:0,0:0:0:0:
117,12,73923,6,2,B|125:30|125:30|123:37|123:37|131:54|131:54|129:61|129:61|137:78|137:78|135:85|135:85|143:103|143:103|141:110|141:110|150:130|150:130|148:138|148:138|157:157|157:157|154:164|154:164|163:183|163:183|161:189|161:189|170:209|170:209|167:216|167:216|176:236|176:236|174:244|174:244|184:265|184:265|181:272|181:272|191:293|191:293|188:299|188:299|198:321|198:321|196:329|196:329|205:348|205:348|202:356|202:356|211:374|211:374,1,392,2|8,0:0|0:0,0:1:0:0:
287,330,75200,1,0,0:0:0:0:
364,289,75359,1,0,1:2:0:0:
368,301,75439,1,0,1:2:0:0:
372,313,75519,1,0,1:2:0:0:
376,325,75598,1,0,1:2:0:0:
380,337,75678,2,0,P|408:346|439:337,1,62.9999980773926,8|0,0:0|1:2,0:0:0:0:
287,330,75997,6,0,B|266:343|266:343|194:321|194:321|171:333,1,125.999996154785,2|10,1:2|0:0,0:0:0:0:
95,282,76476,1,2,0:0:0:0:
95,282,76556,1,2,0:0:0:0:
95,282,76636,2,0,L|62:282,2,31.4999990386963,2|0|0,1:2|1:2|1:2,0:0:0:0:
58,200,76955,2,0,L|100:199,2,31.4999990386963,10|10|10,0:2|0:0|0:0,0:0:0:0:
180,135,77274,70,0,L|175:104,2,31.4999990386963,2|0|2,1:2|1:2|1:2,0:0:0:0:
255,190,77593,2,0,L|284:202,2,31.4999990386963,10|2|2,0:0|1:2|1:2,0:0:0:0:
166,239,77912,2,0,P|103:238|62:284,1,125.999996154785,10|0,0:0|1:2,0:0:0:0:
56,267,78311,1,0,1:2:0:0:
50,252,78391,1,0,1:2:0:0:
44,237,78471,1,0,1:2:0:0:
38,222,78551,54,0,B|4:222|4:222|9:220|9:220|4:222|4:222|-24:222,1,70,6|0,1:2|0:0,0:0:0:0:
54,140,78870,1,2,1:2:0:0:
54,140,79029,2,0,L|-5:140,1,59.5000011348725,2|8,1:2|0:0,0:0:0:0:
181,192,79349,6,0,B|147:192|147:192|152:190|152:190|147:192|147:192|119:192,1,70,6|0,1:2|0:0,0:0:0:0:
282,120,79668,1,2,1:2:0:0:
244,237,79827,1,2,0:0:0:0:
205,120,79987,1,0,1:2:0:0:
366,192,80146,102,0,B|332:192|332:192|337:190|337:190|332:192|332:192|304:192,1,70,6|0,1:2|0:0,0:0:0:0:
458,129,80466,2,0,B|439:123|439:107|439:107|439:123|419:129,1,62.9999980773926,10|2,0:2|1:2,0:0:0:0:
512,192,80785,1,2,0:2:0:0:
486,351,81104,102,0,L|539:385,2,62.9999980773926,2|2|0,1:2|1:2|0:0,0:0:0:0:
399,370,81583,2,0,L|346:336,2,62.9999980773926,2|2|0,1:2|1:2|0:0,0:0:0:0:
383,256,82061,1,2,1:2:0:0:
383,256,82221,86,0,P|336:294|275:286,1,125.999996154785,2|2,0:0|1:2,0:0:0:0:
204,210,82700,2,0,B|191:223|176:223|176:223|191:223|204:235,1,62.9999980773926,2|0,0:0|1:2,0:0:0:0:
272,157,83019,1,10,0:0:0:0:
204,101,83178,2,0,B|159:89|159:89|143:92|143:92|131:81|131:81|86:69,1,125.999996154785,2|0,0:0|0:0,0:0:0:0:
5,182,83657,102,0,P|-5:151|6:122,2,62.9999980773926,2|0|0,1:2|0:0|0:0,0:0:0:0:
0,270,84136,2,0,P|23:219|88:209,1,125.999996154785,2|2,1:2|1:2,0:0:0:0:
154,152,84614,2,0,B|186:158|186:158|211:141,1,62.9999980773926,2|2,0:0|0:2,0:0:0:0:
169,69,84934,6,0,L|193:203,1,125.999996154785,2|2,1:2|1:2,0:0:0:0:
159,280,85412,1,2,0:0:0:0:
159,280,85492,1,2,0:0:0:0:
159,280,85572,2,0,B|186:280|186:280|223:280|215:298|251:298|251:298|281:298,1,125.999996154785,10|0,0:0|0:0,0:0:0:0:
353,346,86051,1,2,1:2:0:0:
423,260,86210,6,0,L|456:260,2,31.4999990386963,2|0|10,0:0|0:0|0:0,0:0:0:0:
382,188,86529,2,0,L|399:160,2,31.4999990386963,2|0|2,1:2|0:0|1:2,0:0:0:0:
300,174,86849,2,0,L|295:137,2,31.4999990386963,10|0|2,0:0|0:0|1:2,0:0:0:0:
226,213,87168,2,0,L|197:188,2,31.4999990386963,2|0|2,0:0|0:0|1:2,0:0:0:0:
224,318,87487,5,10,0:0:0:0:
232,325,87567,1,2,0:0:0:0:
240,332,87646,1,2,0:0:0:0:
248,339,87727,1,2,0:0:0:0:
256,346,87806,2,0,P|234:364|199:364,1,62.9999980773926,10|2,0:0|0:0,0:0:0:0:
146,293,88125,70,0,P|159:281|165:263,2,31.4999990386963,10|10|10,0:0|0:0|0:0,0:0:0:0:
61,271,88444,6,0,P|66:253|59:236,2,28,2|0|2,1:2|1:2|1:2,0:0:0:0:
48,354,88763,38,0,B|15:62|15:62|20:108|61:146,1,391.99998803711,6|0,1:2|3:0,0:0:0:0:
152,199,90359,6,0,B|217:199|217:199|234:208|234:208|259:192|259:192|277:228|335:244|383:224|397:167,1,293.999991027832,6|4,1:2|1:2,0:0:0:0:
512,333,92114,2,0,L|529:275,2,56,2|2|0,0:0|0:0|1:2,0:0:0:0:
423,384,92593,6,0,B|389:383|372:357|372:357|320:346,1,112,6|2,1:2|0:2,0:0:0:0:
263,271,93071,2,0,B|277:263|275:249|275:249|277:262|296:266,1,56,0|10,0:2|0:0,0:0:0:0:
167,322,93391,6,0,B|157:308|159:288|159:288|148:369,1,112,4|2,1:2|0:0,0:0:0:0:
73,322,93869,2,0,L|14:321,1,56,0|2,0:0|0:0,0:0:0:0:
148,363,94189,102,0,P|190:335|248:347,1,112,4|10,1:2|0:0,0:0:0:0:
312,296,94667,1,0,0:0:0:0:
375,243,94827,2,0,L|331:209,2,56,0|2|2,0:0|0:0|0:0,0:0:0:0:
232,208,95306,6,0,B|230:217|223:221|216:219|214:211|215:202|215:202|244:106,1,125.999996154785,6|8,1:2|0:0,0:0:0:0:
296,57,95784,2,0,B|274:70|274:70|198:56|198:56|177:68,1,125.999996154785,6|8,1:2|0:0,0:0:0:0:
115,8,96263,2,0,P|54:34|3:10,1,125.999996154785,6|0,1:2|1:2,0:0:0:0:
18,131,96742,70,0,L|-35:122,1,41.9999987182618,4|0,1:2|0:0,0:0:0:0:
27,210,97061,2,0,L|-20:202,2,41.9999987182618,2|0|2,0:0|0:0|0:0,0:0:0:0:
108,265,97540,6,0,P|137:236|179:235,1,83.9999974365235,0|2,0:0|0:0,0:0:0:0:
237,166,98018,2,0,B|223:158|225:149|225:149|223:158|208:159,1,41.9999987182618,0|2,0:0|0:0,0:0:0:0:
301,252,98338,102,0,B|363:252|321:237|383:237,2,83.9999974365235,0|2|0,0:0|0:0|0:0,0:0:0:0:
260,322,99135,1,2,0:0:0:0:
260,322,99295,1,2,0:0:0:0:
180,264,99455,6,0,P|138:262|109:233,1,83.9999974365235,0|2,0:0|0:0,0:0:0:0:
97,120,100093,2,0,L|58:139,1,41.9999987182618,2|2,0:0|0:0,0:0:0:0:
148,60,100412,1,0,0:0:0:0:
195,147,100572,102,0,L|242:168,1,41.9999987182618
246,87,100891,2,0,L|293:108,2,41.9999987182618,2|0|2,0:0|0:0|0:0,0:0:0:0:
234,205,101370,6,0,P|270:186|313:193,1,83.9999974365235,0|2,0:0|0:0,0:0:0:0:
381,146,101848,2,0,B|387:131|397:132|397:132|387:132|379:119,1,41.9999987182618,0|2,0:0|0:0,0:0:0:0:
340,26,102168,102,0,L|425:-1,2,83.9999974365235,0|2|0,0:0|0:0|0:0,0:0:0:0:
260,0,102965,1,2,0:0:0:0:
260,0,103125,1,2,0:0:0:0:
184,107,103285,6,0,P|175:81|186:55,2,52.5000020027161,2|0|2,0:3|0:0|0:0,0:0:0:0:
197,182,103763,6,0,P|177:174|167:154,2,41.9999987182618,8|0|2,0:3|0:0|0:0,0:0:0:0:
256,228,104242,6,0,P|240:233|224:226,2,35,4|0|2,0:3|0:0|0:0,0:0:0:0:
